osu file format v14

[General]
AudioFilename: audio.mp3
AudioLeadIn: 0
PreviewTime: 148732
Countdown: 0
SampleSet: Normal
StackLeniency: 1
Mode: 0
LetterboxInBreaks: 1
WidescreenStoryboard: 1

[Editor]
Bookmarks: 13521,67605,81126,94647,121690,135211,148732,175774
DistanceSpacing: 0.7
BeatDivisor: 4
GridSize: 8
TimelineZoom: 2

[Metadata]
Title:worldenddominator
TitleUnicode:worldenddominator
Artist:zts
ArtistUnicode:zts
Creator:deetz
Version:Last Stand
Source:うみねこのなく頃に
Tags:07th Expansion ryukishi07 umineko no naku koro ni pandahero icekalt dada okoratu nemis okorin world end dominator video game instrumental
BeatmapID:1875707
BeatmapSetID:897884

[Difficulty]
HPDrainRate:5
CircleSize:4
OverallDifficulty:8
ApproachRate:8.7
SliderMultiplier:2
SliderTickRate:1

[Events]
//Background and Video events
0,0,"UshiromiyaRosa.jpg",0,0
//Break Periods
2,121900,134552
//Storyboard Layer 0 (Background)
//Storyboard Layer 1 (Fail)
//Storyboard Layer 2 (Pass)
//Storyboard Layer 3 (Foreground)
//Storyboard Layer 4 (Overlay)
//Storyboard Sound Samples

[TimingPoints]
10,422.535211267606,4,1,0,50,1,0
11,-133.333333333333,4,1,0,65,0,0
13531,-142.857142857143,4,1,0,40,0,0
40573,-117.647058823529,4,1,0,50,0,0
67615,-142.857142857143,4,3,0,55,0,0
81136,-117.647058823529,4,1,0,50,0,0
94657,-100,4,1,0,65,0,0
135221,-142.857142857143,4,1,0,35,0,0
141981,-117.647058823529,4,1,0,40,0,0
143671,-100,4,1,0,45,0,0
145362,-86.9565217391304,4,1,0,50,0,0
147052,-76.9230769230769,4,1,0,50,0,0
148742,-68.9655172413793,4,1,0,70,0,1
176628,422.535211267606,4,1,0,65,1,0
176628,-83.3333333333333,4,1,0,65,0,0
177473,-133.333333333333,4,2,0,35,0,0
203670,-100,4,1,0,70,0,1
236628,425.531914893617,4,1,0,70,1,1
237479,422.535211267606,4,1,0,70,1,1
238957,-71.4285714285714,4,1,0,70,0,0

[Colours]
Combo1 : 17,254,176
Combo2 : 173,255,95
Combo3 : 255,88,100
Combo4 : 255,94,55

[HitObjects]
21,296,13531,6,0,P|85:281|154:287,1,104.999996795654,4|0,0:1|0:2,0:2:0:0:
175,334,13953,1,0,0:2:0:0:
121,200,14164,1,2,0:2:0:0:
121,200,14376,2,0,P|155:176|187:163,2,69.9999978637696,2|0|0,0:2|0:2|0:2,0:2:0:0:
259,255,15010,2,2,P|310:265|397:313,1,139.999995727539,2|2,0:2|0:2,0:2:0:0:
387,305,15538,1,0,0:2:0:0:
387,305,15643,2,0,P|395:266|404:226,1,69.9999978637696,2|2,0:2|0:2,0:2:0:0:
356,96,16066,2,0,P|348:130|341:164,1,69.9999978637696,2|2,0:2|0:2,0:2:0:0:
464,188,16488,5,0,0:2:0:0:
464,188,16594,1,0,0:2:0:0:
464,188,16700,1,0,0:2:0:0:
321,235,16911,2,0,P|285:230|245:220,1,69.9999978637696,2|0,0:2|0:2,0:2:0:0:
83,252,17333,2,0,P|117:260|151:264,1,69.9999978637696,2|2,0:2|0:2,0:2:0:0:
20,193,17756,1,0,0:2:0:0:
20,193,17967,2,0,P|10:136|24:46,1,139.999995727539,2|0,0:2|0:2,0:2:0:0:
153,22,18601,2,0,P|159:79|155:103,1,69.9999978637696,2|2,0:2|0:2,0:2:0:0:
157,91,18918,1,0,0:2:0:0:
157,91,19024,2,0,L|234:105,1,69.9999978637696,2|2,0:2|0:2,0:2:0:0:
458,41,19446,6,2,P|405:46|343:57,1,104.999996795654,2|0,0:2|0:2,0:2:0:0:
300,106,19869,1,0,0:2:0:0:
422,189,20080,1,2,0:2:0:0:
422,189,20186,1,0,0:2:0:0:
422,189,20291,2,0,P|429:234|431:273,2,69.9999978637696,2|0|0,0:2|0:2|0:2,0:2:0:0:
288,189,20925,2,2,P|296:249|304:347,1,139.999995727539,2|2,0:2|0:2,0:2:0:0:
302,328,21453,1,0,0:2:0:0:
302,327,21559,2,0,P|267:329|232:335,1,69.9999978637696,2|2,0:2|0:2,0:2:0:0:
82,287,21981,2,0,P|116:289|151:295,1,69.9999978637696,2|2,0:2|0:2,0:2:0:0:
153,273,22298,1,0,0:2:0:0:
153,250,22404,6,0,P|158:215|161:180,1,69.9999978637696,2|0,0:2|0:2,0:2:0:0:
111,124,22826,1,0,0:2:0:0:
83,2,23038,1,2,0:2:0:0:
162,53,23249,1,2,0:2:0:0:
162,53,23355,1,0,0:2:0:0:
162,53,23460,2,0,P|214:42|248:34,1,69.9999978637696,0|0,0:2|0:2,0:2:0:0:
362,17,23883,1,2,0:2:0:0:
362,17,23988,1,0,0:2:0:0:
362,17,24094,2,0,P|414:28|448:36,1,69.9999978637696,0|0,0:2|0:2,0:2:0:0:
449,188,24517,1,2,0:2:0:0:
433,42,24728,1,2,0:2:0:0:
451,206,24939,2,0,L|460:295,1,69.9999978637696,2|2,0:2|0:2,0:2:0:0:
305,376,25362,6,0,P|297:321|296:245,1,104.999996795654,0|0,0:2|0:2,0:2:0:0:
335,210,25784,1,0,0:2:0:0:
144,278,25995,1,2,0:2:0:0:
283,147,26207,2,0,P|331:132|368:128,1,69.9999978637696,2|0,0:2|0:2,0:2:0:0:
350,129,26524,1,0,0:2:0:0:
350,129,26629,1,0,0:2:0:0:
488,264,26840,1,2,0:2:0:0:
483,288,26946,1,0,0:2:0:0:
476,311,27052,6,0,P|400:303|347:292,1,104.999996795654,4|0,0:2|0:2,0:2:0:0:
312,253,27474,1,0,0:2:0:0:
140,348,27686,1,2,0:2:0:0:
284,269,27897,2,0,L|288:185,1,69.9999978637696,2|0,0:2|0:2,0:2:0:0:
293,122,28319,1,0,0:2:0:0:
164,333,28531,2,2,P|161:275|148:179,1,139.999995727539,2|2,0:2|0:2,0:2:0:0:
129,181,29059,1,0,0:2:0:0:
107,168,29164,2,0,P|93:109|86:79,1,69.9999978637696,2|2,0:2|0:2,0:2:0:0:
179,30,29587,1,2,0:2:0:0:
276,84,29798,1,2,0:2:0:0:
254,194,30010,6,0,P|249:258|221:352,1,139.999995727539,0|0,0:2|0:2,0:2:0:0:
418,296,30643,1,2,0:2:0:0:
418,296,30855,2,0,P|364:298|336:305,1,69.9999978637696,2|0,0:2|0:2,0:2:0:0:
496,313,31277,1,0,0:2:0:0:
398,207,31488,1,2,0:2:0:0:
398,207,31594,1,0,0:2:0:0:
398,207,31700,2,0,P|452:205|480:198,1,69.9999978637696,0|2,0:2|0:2,0:2:0:0:
252,58,32122,2,0,P|254:112|261:140,1,69.9999978637696,2|2,0:2|0:2,0:2:0:0:
281,121,32439,1,0,0:2:0:0:
303,110,32545,2,0,P|357:108|385:101,1,69.9999978637696,2|2,0:2|0:2,0:2:0:0:
192,222,32967,6,0,P|153:183|86:153,1,104.999996795654,2|0,0:2|0:2,0:2:0:0:
37,180,33390,1,0,0:2:0:0:
253,280,33601,1,2,0:2:0:0:
253,280,33707,1,0,0:2:0:0:
253,280,33812,2,0,P|305:278|337:264,1,69.9999978637696,2|0,0:2|0:2,0:2:0:0:
374,210,34235,1,0,0:2:0:0:
175,303,34446,6,0,P|146:340|41:365,1,139.999995727539,2|0,0:2|0:2,0:2:0:0:
67,330,34974,1,0,0:2:0:0:
54,293,35080,2,0,P|60:250|62:199,1,69.9999978637696,2|2,0:2|0:2,0:2:0:0:
28,37,35502,2,0,P|25:71|19:106,1,69.9999978637696,2|2,0:2|0:2,0:2:0:0:
137,252,35925,5,0,0:2:0:0:
307,136,36136,1,2,0:2:0:0:
137,252,36348,2,0,P|196:264|235:273,1,69.9999978637696,2|0,0:2|0:2,0:2:0:0:
354,65,36770,1,2,0:2:0:0:
354,65,36876,1,0,0:2:0:0:
354,65,36981,1,0,0:2:0:0:
313,288,37193,6,0,P|306:322|298:356,1,69.9999978637696
380,226,37615,6,0,P|386:191|394:157,1,69.9999978637696
402,305,38038,6,0,P|395:339|387:373,1,69.9999978637696
469,243,38460,6,0,P|475:208|483:174,1,69.9999978637696
278,15,38883,5,0,0:0:0:0:
282,18,39833,1,0,0:0:0:0:
282,18,39939,1,8,0:0:0:0:
62,21,40150,1,0,0:0:0:0:
62,21,40256,1,8,0:0:0:0:
366,18,40467,1,0,0:0:0:0:
366,18,40573,6,0,P|366:78|362:152,1,127.50000243187,4|0,0:0|0:0,0:0:0:0:
290,171,40995,1,8,0:0:0:0:
137,156,41207,1,0,0:0:0:0:
290,171,41418,2,0,P|287:213|286:255,1,85.0000016212464,0|0,0:0|0:0,0:0:0:0:
273,91,41840,1,8,0:0:0:0:
429,339,42052,2,2,P|335:334|241:331,1,170.000003242493
39,360,42686,6,0,P|92:351|147:344,1,85.0000016212464,10|0,0:0|0:0,0:0:0:0:
147,365,43002,1,10,0:0:0:0:
213,189,43214,1,10,0:0:0:0:
213,189,43319,1,0,0:0:0:0:
38,244,43531,5,10,0:0:0:0:
38,244,43636,1,0,0:0:0:0:
38,244,43742,1,0,0:0:0:0:
10,54,43953,2,0,P|11:97|16:146,1,85.0000016212464,0|0,0:0|0:0,0:0:0:0:
213,189,44376,2,0,L|309:200,1,85.0000016212464,8|0,0:0|0:0,0:0:0:0:
307,114,44798,1,0,0:0:0:0:
114,122,45010,2,2,P|104:176|180:260,1,170.000003242493
422,311,45643,2,0,P|382:300|318:289,1,85.0000016212464,2|0,0:0|0:0,0:0:0:0:
310,299,45960,1,0,0:0:0:0:
280,294,46066,5,10,0:0:0:0:
508,331,46277,1,0,0:0:0:0:
508,331,46383,1,10,0:0:0:0:
390,167,46594,1,10,0:0:0:0:
390,167,46700,1,0,0:0:0:0:
508,331,46911,2,0,P|511:270|512:235,1,85.0000016212464,10|0,0:0|0:0,0:0:0:0:
496,220,47228,1,0,0:0:0:0:
496,190,47333,6,0,P|494:125|497:45,1,127.50000243187
435,14,47756,1,8,0:0:0:0:
311,98,47967,1,0,0:0:0:0:
435,14,48179,2,0,P|381:9|335:7,1,85.0000016212464
277,178,48601,1,8,0:0:0:0:
44,93,48812,2,2,P|107:94|219:109,1,170.000003242493
206,136,49340,1,0,0:0:0:0:
201,165,49446,1,10,0:0:0:0:
44,232,49657,5,0,0:0:0:0:
44,232,49763,2,0,P|31:286|24:333,1,85.0000016212464,10|8,0:0|0:0,0:0:0:0:
41,341,50080,1,2,0:0:0:0:
254,240,50291,1,10,0:0:0:0:
254,240,50397,1,0,0:0:0:0:
254,240,50502,1,0,0:0:0:0:
110,288,50714,6,0,P|164:296|199:302,1,85.0000016212464
335,369,51136,2,0,P|281:361|246:355,1,85.0000016212464,8|0,0:0|0:0,0:0:0:0:
384,308,51559,2,0,P|438:300|473:294,1,85.0000016212464
488,317,51876,1,0,0:0:0:0:
509,338,51981,1,8,0:0:0:0:
512,182,52193,1,0,0:0:0:0:
367,235,52404,6,0,P|359:181|353:146,1,85.0000016212464
499,99,52826,1,8,0:0:0:0:
332,58,53038,5,10,0:0:0:0:
332,58,53143,1,0,0:0:0:0:
386,333,53355,1,10,0:0:0:0:
386,333,53460,1,0,0:0:0:0:
499,99,53671,5,10,0:0:0:0:
256,192,53883,1,10,0:0:0:0:
13,285,54094,2,0,P|10:215|13:125,1,127.50000243187,4|0,0:0|0:0,0:0:0:0:
56,95,54517,2,0,P|57:34|56:2,1,85.0000016212464,8|0,0:0|0:0,0:0:0:0:
109,158,54939,2,0,L|151:167,3,42.5000008106232
109,158,55362,2,0,P|167:155|231:147,1,85.0000016212464,8|0,0:0|0:0,0:0:0:0:
185,27,55784,6,0,P|252:38|287:111,1,127.50000243187
280,170,56207,1,8,0:0:0:0:
484,186,56418,1,0,0:0:0:0:
484,186,56524,1,8,0:0:0:0:
280,170,56735,1,8,0:0:0:0:
280,170,56841,1,0,0:0:0:0:
484,186,57051,1,8,0:0:0:0:
484,186,57157,1,0,0:0:0:0:
484,186,57263,1,0,0:0:0:0:
267,248,57474,6,0,P|332:255|420:259,1,127.50000243187
408,336,57897,2,0,P|355:333|318:330,1,85.0000016212464,8|0,0:0|0:0,0:0:0:0:
186,267,58319,2,0,L|129:278,3,42.5000008106232
186,267,58742,2,0,P|189:214|192:177,1,85.0000016212464,8|0,0:0|0:0,0:0:0:0:
71,14,59164,6,0,P|40:61|45:140,1,127.50000243187
85,193,59587,1,8,0:0:0:0:
201,79,59798,1,0,0:0:0:0:
201,79,59904,1,8,0:0:0:0:
201,302,60115,1,8,0:0:0:0:
201,302,60221,1,0,0:0:0:0:
327,201,60432,1,8,0:0:0:0:
327,201,60537,1,4,0:3:0:0:
327,201,60643,1,4,0:3:0:0:
327,201,60748,1,4,0:3:0:0:
327,201,60855,6,0,P|383:172|469:187,1,127.50000243187,4|0,0:2|0:0,0:0:0:0:
467,249,61277,2,0,P|460:292|453:344,1,85.0000016212464,8|0,0:0|0:0,0:0:0:0:
247,225,61700,2,0,L|196:198,3,42.5000008106232
247,225,62122,2,0,P|204:216|152:211,1,85.0000016212464,8|0,0:0|0:0,0:0:0:0:
12,346,62545,6,0,P|62:354|138:358,1,127.50000243187,4|0,0:2|0:0,0:0:0:0:
211,334,62967,1,8,0:0:0:0:
109,98,63179,1,0,0:0:0:0:
109,98,63284,1,8,0:0:0:0:
88,280,63495,1,8,0:0:0:0:
88,280,63600,1,0,0:0:0:0:
109,98,63812,1,8,0:0:0:0:
109,98,63917,1,0,0:0:0:0:
109,98,64024,1,0,0:0:0:0:
7,274,64235,6,0,P|72:250|155:237,1,127.50000243187,4|0,0:2|0:0,0:0:0:0:
197,283,64657,2,0,P|239:302|281:319,1,85.0000016212464,8|0,0:0|0:0,0:0:0:0:
438,220,65080,2,0,L|495:191,3,42.5000008106232
438,220,65502,2,0,P|395:200|354:184,1,85.0000016212464,8|0,0:0|0:0,0:0:0:0:
359,143,65819,1,8,0:0:0:0:
360,100,65925,2,0,P|317:80|276:64,1,85.0000016212464,8|0,0:0|0:0,0:0:0:0:
228,0,66242,1,8,0:0:0:0:
228,0,66348,2,0,P|208:42|192:84,1,85.0000016212464,8|0,0:0|0:0,0:0:0:0:
216,150,66664,1,8,0:0:0:0:
286,180,66770,1,8,0:0:0:0:
123,4,66981,6,2,P|103:46|87:88,1,85.0000016212464,2|4,0:0|0:3,0:0:0:0:
75,108,67298,1,4,0:3:0:0:
224,228,67510,1,4,0:3:0:0:
213,250,67615,6,0,P|193:292|155:384,1,139.999995727539,4|0,0:1|0:0,0:0:0:0:
89,289,68249,1,0,0:0:0:0:
89,289,68460,2,0,P|115:224|144:160,1,139.999995727539
16,34,69094,5,0,0:0:0:0:
16,34,69200,1,0,0:0:0:0:
16,34,69305,2,0,P|52:59|123:91,1,104.999996795654
190,90,69728,2,0,L|261:67,1,69.9999978637696
437,31,70150,2,0,P|419:105|406:155,1,104.999996795654
491,133,70573,2,0,P|475:191|463:227,1,69.9999978637696
501,334,70995,6,0,P|436:322|366:313,1,104.999996795654
254,370,71418,2,0,P|288:362|322:357,1,69.9999978637696
384,240,71840,6,0,P|339:202|281:194,1,104.999996795654
241,244,72263,1,0,0:0:0:0:
160,177,72474,1,0,0:0:0:0:
206,82,72686,5,0,0:0:0:0:
501,206,73002,1,0,0:0:0:0:
501,206,73108,1,0,0:0:0:0:
481,308,73319,1,0,0:0:0:0:
390,362,73531,2,0,P|313:369|262:371,1,104.999996795654
238,313,73953,2,0,P|188:318|160:324,1,69.9999978637696,8|0,0:2|0:0,0:0:0:0:
98,345,74270,1,8,0:2:0:0:
44,294,74376,6,0,P|28:236|19:169,1,104.999996795654
38,120,74798,1,0,0:0:0:0:
38,120,75010,1,0,0:0:0:0:
213,234,75221,6,0,P|197:176|188:109,1,104.999996795654
224,66,75643,2,0,L|302:46,1,69.9999978637696
446,131,76066,6,0,P|462:189|471:256,1,104.999996795654
396,278,76488,2,0,P|404:323|410:364,1,69.9999978637696
231,277,76911,6,0,P|178:250|122:240,1,104.999996795654
81,292,77333,1,8,0:2:0:0:
81,292,77439,1,4,0:3:0:0:
81,292,77545,1,4,0:3:0:0:
298,232,77756,6,0,P|344:207|405:182,1,104.999996795654
464,207,78179,1,0,0:0:0:0:
464,207,78390,1,0,0:0:0:0:
327,90,78601,5,0,0:0:0:0:
443,278,78812,1,8,0:2:0:0:
487,132,79024,2,0,P|447:120|412:113,1,69.9999978637696,8|0,0:2|0:0,0:0:0:0:
287,243,79446,6,0,P|234:254|162:264,1,104.999996795654
110,197,79869,2,0,P|163:186|235:176,1,104.999996795654,8|8,0:2|0:2,0:0:0:0:
258,119,80291,2,0,L|267:66,2,34.9999989318848,0|8|0,0:0|0:2|0:0,0:0:0:0:
114,14,80714,2,0,P|68:27|33:58,1,69.9999978637696,8|0,0:2|0:0,0:0:0:0:
26,109,81031,1,8,0:2:0:0:
29,185,81136,6,0,P|29:232|28:298,1,85.0000016212464,6|0,0:0|0:0,0:0:0:0:
56,279,81453,1,0,0:0:0:0:
84,288,81559,1,8,0:0:0:0:
215,159,81770,1,0,0:0:0:0:
141,337,81981,2,0,P|174:323|224:310,1,85.0000016212464,2|0,0:0|0:0,0:0:0:0:
373,122,82404,2,0,P|331:132|292:148,1,85.0000016212464,8|0,0:0|0:0,0:0:0:0:
317,165,82721,1,0,0:0:0:0:
338,185,82826,6,2,P|342:244|339:317,1,127.50000243187,2|0,0:0|0:0,0:0:0:0:
415,315,83249,1,10,0:0:0:0:
493,128,83460,1,0,0:0:0:0:
493,128,83566,1,0,0:0:0:0:
493,128,83671,1,2,0:0:0:0:
415,315,83883,2,0,P|417:253|414:209,1,85.0000016212464,0|10,0:0|0:0,0:0:0:0:
427,202,84200,1,0,0:0:0:0:
423,172,84305,1,0,0:0:0:0:
322,1,84517,6,2,P|389:41|439:104,1,127.50000243187,2|0,0:0|0:0,0:0:0:0:
356,123,84939,1,10,0:0:0:0:
220,161,85150,2,0,P|178:169|123:187,1,85.0000016212464,0|2,0:0|0:0,0:0:0:0:
121,157,85467,1,4,0:3:0:0:
121,127,85573,1,4,0:3:0:0:
130,98,85679,1,4,0:3:0:0:
125,68,85784,2,0,P|83:76|28:94,1,85.0000016212464,10|0,0:0|0:0,0:0:0:0:
70,331,86207,6,2,P|148:312|224:278,1,127.50000243187,2|0,0:0|0:0,0:0:0:0:
366,356,86629,2,2,P|301:359|218:372,1,127.50000243187,10|8,0:0|0:0,0:0:0:0:
264,252,87052,2,0,L|256:176,2,42.5000008106232,2|8|0,0:0|0:0|0:0,0:0:0:0:
459,364,87474,1,10,0:0:0:0:
459,364,87580,1,4,0:3:0:0:
459,364,87686,1,4,0:3:0:0:
459,364,87791,1,4,0:3:0:0:
459,364,87897,6,2,P|449:281|442:221,1,127.50000243187,2|0,0:0|0:0,0:0:0:0:
354,261,88319,2,0,P|346:200|344:171,1,85.0000016212464,8|0,0:0|0:0,0:0:0:0:
500,165,88742,1,2,0:0:0:0:
336,50,88953,1,0,0:0:0:0:
336,50,89059,1,0,0:0:0:0:
336,50,89164,1,10,0:0:0:0:
500,165,89376,1,0,0:0:0:0:
336,50,89587,6,2,P|281:54|197:66,1,127.50000243187,2|0,0:0|0:0,0:0:0:0:
208,143,90010,1,10,0:0:0:0:
49,34,90221,1,0,0:0:0:0:
49,34,90326,1,0,0:0:0:0:
49,34,90432,1,2,0:0:0:0:
208,143,90643,2,0,P|211:192|211:233,1,85.0000016212464,0|10,0:0|0:0,0:0:0:0:
188,247,90960,1,0,0:0:0:0:
159,254,91066,1,0,0:0:0:0:
0,384,91277,6,2,P|29:342|124:328,1,127.50000243187,2|0,0:0|0:0,0:0:0:0:
167,359,91700,1,10,0:0:0:0:
0,175,91911,2,0,P|14:239|38:258,1,85.0000016212464,0|2,0:0|0:0,0:0:0:0:
55,246,92228,1,8,0:0:0:0:
84,241,92333,1,0,0:0:0:0:
221,285,92545,1,10,0:0:0:0:
360,246,92756,1,0,0:0:0:0:
498,287,92967,6,2,P|506:219|507:148,1,127.50000243187,2|0,0:0|0:0,0:0:0:0:
452,111,93390,5,8,0:0:0:0:
278,41,93601,1,0,0:0:0:0:
452,111,93812,2,2,P|388:109|325:101,1,127.50000243187,2|0,0:0|0:0,0:0:0:0:
266,153,94235,5,8,0:0:0:0:
242,182,94340,1,4,0:3:0:0:
229,218,94446,1,4,0:3:0:0:
225,256,94552,1,4,0:3:0:0:
231,290,94657,5,6,0:0:0:0:
404,362,94869,1,0,0:0:0:0:
376,188,95080,1,8,0:0:0:0:
291,380,95291,5,0,0:0:0:0:
317,284,95502,2,0,P|301:218|294:178,1,100
338,10,95925,2,2,P|408:29|442:112,1,150,10|0,0:0|0:0,0:0:0:0:
473,166,96348,2,2,P|423:175|375:187,1,100,2|0,0:0|0:0,0:0:0:0:
194,18,96770,6,2,P|230:24|269:30,2,66.6666666666667,10|0|0,0:0|0:0|0:0,0:0:0:0:
352,100,97193,2,2,P|278:114|204:125,1,150,2|0,0:0|0:0,0:0:0:0:
136,159,97615,2,2,P|119:224|109:259,1,100,10|0,0:0|0:0,0:0:0:0:
75,259,97932,1,0,0:0:0:0:
40,262,98038,5,2,0:0:0:0:
16,138,98249,1,0,0:0:0:0:
180,1,98460,5,8,0:0:0:0:
204,125,98671,1,0,0:0:0:0:
0,56,98883,2,2,P|72:56|123:67,1,100,2|0,0:0|0:0,0:0:0:0:
217,206,99305,2,2,P|158:228|81:293,1,150,10|0,0:0|0:0,0:0:0:0:
100,357,99728,2,2,P|149:363|199:361,1,100,2|0,0:0|0:0,0:0:0:0:
449,363,100150,6,2,P|431:308|417:283,2,66.6666666666667,10|0|0,0:0|0:0|0:0,0:0:0:0:
361,251,100573,5,2,0:0:0:0:
402,182,100714,1,0,0:0:0:0:
475,149,100855,1,0,0:0:0:0:
361,251,100995,6,2,P|277:222|234:217,1,100,10|0,0:0|0:0,0:0:0:0:
234,234,101312,1,0,0:0:0:0:
201,246,101418,5,2,0:0:0:0:
122,93,101629,1,0,0:0:0:0:
308,119,101840,1,8,0:0:0:0:
190,165,102052,1,0,0:0:0:0:
272,24,102263,2,2,P|353:31|381:36,1,100,2|0,0:0|0:0,0:0:0:0:
492,219,102686,2,2,P|491:286|481:369,1,150,10|0,0:0|0:0,0:0:0:0:
406,363,103108,6,2,P|325:356|297:351,1,100,2|0,0:0|0:0,0:0:0:0:
140,188,103531,2,2,P|189:195|239:198,1,100,10|0,0:0|0:0,0:0:0:0:
247,222,103848,1,0,0:0:0:0:
254,246,103953,1,2,0:0:0:0:
441,285,104164,1,0,0:0:0:0:
441,285,104270,1,0,0:0:0:0:
441,285,104376,2,0,P|426:231|416:199,2,50,10|0|0,0:0|0:0|0:0,0:0:0:0:
484,13,104798,6,2,P|464:101|441:165,1,150,2|0,0:0|0:0,0:0:0:0:
373,183,105221,2,0,L|258:170,1,100,8|0,0:0|0:0,0:0:0:0:
25,145,105643,1,0,0:0:0:0:
25,145,105749,1,8,0:0:0:0:
268,252,105960,1,0,0:0:0:0:
268,252,106066,2,2,P|320:258|354:261,2,66.6666666666667,10|0|0,0:0|0:0|0:0,0:0:0:0:
228,111,106488,6,2,P|180:156|134:263,1,150,2|0,0:0|0:0,0:0:0:0:
178,313,106911,2,2,P|104:304|37:292,1,100,10|0,0:0|0:0,0:0:0:0:
0,101,107333,1,2,0:0:0:0:
344,339,107650,1,0,0:0:0:0:
344,339,107756,1,10,0:0:0:0:
264,330,107967,5,8,0:0:0:0:
264,330,108073,1,0,0:0:0:0:
264,330,108179,2,2,P|267:258|260:110,1,200,6|8,0:0|0:0,0:0:0:0:
61,75,108812,1,0,0:0:0:0:
236,120,109024,1,0,0:0:0:0:
81,80,109235,1,0,0:0:0:0:
271,43,109446,6,2,P|337:29|389:23,1,100,10|0,0:0|0:0,0:0:0:0:
197,209,109869,2,2,P|246:201|341:178,1,133.333333333333,2|0,0:0|0:0,0:0:0:0:
301,327,110291,2,2,P|336:316|386:311,2,66.6666666666667,10|0|0,0:0|0:0|0:0,0:0:0:0:
394,233,110714,6,2,P|463:239|502:320,1,150,2|0,0:0|0:0,0:0:0:0:
436,343,111136,1,10,0:0:0:0:
512,169,111348,5,0,0:0:0:0:
512,169,111453,1,0,0:0:0:0:
512,169,111559,2,2,P|513:107|511:61,1,100,2|0,0:0|0:0,0:0:0:0:
318,281,111981,1,8,0:0:0:0:
318,281,112192,1,0,0:0:0:0:
61,133,112404,2,2,P|110:131|160:132,1,100,2|0,0:0|0:0,0:0:0:0:
292,357,112826,2,2,P|242:358|137:355,1,150,10|0,0:0|0:0,0:0:0:0:
86,275,113249,2,0,P|135:273|185:274,1,100,2|0,0:0|0:0,0:0:0:0:
399,196,113671,6,2,P|381:141|367:116,2,66.6666666666667,10|0|0,0:0|0:0|0:0,0:0:0:0:
314,84,114094,5,2,0:0:0:0:
364,21,114235,1,0,0:0:0:0:
443,11,114376,1,0,0:0:0:0:
314,84,114516,5,10,0:0:0:0:
281,70,114621,1,4,0:3:0:0:
248,59,114727,1,4,0:3:0:0:
214,51,114832,1,4,0:3:0:0:
179,46,114938,5,6,0:0:0:0:
162,150,115150,1,0,0:0:0:0:
162,150,115256,1,0,0:0:0:0:
162,150,115362,1,8,0:0:0:0:
3,56,115573,1,0,0:0:0:0:
11,240,115784,1,2,0:0:0:0:
5,78,115995,5,0,0:0:0:0:
11,217,116207,2,0,P|58:214|128:217,1,100,10|0,0:0|0:0,0:0:0:0:
322,273,116629,2,2,P|250:270|163:273,1,150,2|0,0:0|0:0,0:0:0:0:
113,329,117052,2,2,P|80:338|35:347,2,66.6666666666667,10|0|0,0:0|0:0|0:0,0:0:0:0:
255,347,117474,6,2,P|319:371|359:389,1,100,2|0,0:0|0:0,0:0:0:0:
439,145,117897,1,10,0:0:0:0:
439,145,118002,1,0,0:0:0:0:
439,145,118108,1,0,0:0:0:0:
473,363,118319,6,2,P|419:329|332:287,1,150,2|0,0:0|0:0,0:0:0:0:
320,217,118742,2,0,L|296:110,1,100,8|0,0:0|0:0,0:0:0:0:
35,260,119164,6,0,P|89:226|176:184,1,150
188,114,119587,1,8,0:0:0:0:
188,114,119693,2,0,L|212:7,1,100,4|4,0:3|0:3,0:0:0:0:
186,8,120010,5,4,0:2:0:0:
65,92,120221,1,4,0:3:0:0:
240,204,120432,1,4,0:3:0:0:
119,288,120643,1,4,0:3:0:0:
156,149,120855,6,0,L|151:105,4,25,8|0|0|0|0,0:0|0:0|0:0|0:0|0:0,0:0:0:0:
315,72,121277,5,0,0:3:0:0:
315,72,121383,1,8,0:0:0:0:
346,367,121594,1,0,0:3:0:0:
346,367,121700,1,4,0:2:0:0:
87,329,135221,6,0,P|128:322|242:317,2,139.999995727539,2|2|2,0:2|0:2|0:2,0:0:0:0:
30,121,136488,2,0,P|87:118|126:116,1,69.9999978637696,2|2,0:2|0:2,0:0:0:0:
156,54,136911,5,2,0:2:0:0:
156,54,137333,1,2,0:2:0:0:
156,54,137756,1,2,0:2:0:0:
269,257,138179,2,0,P|303:255|338:253,1,69.9999978637696,2|2,0:2|0:2,0:0:0:0:
415,312,138601,6,2,P|412:242|407:170,1,139.999995727539,2|2,0:2|0:2,0:2:0:0:
487,198,139235,2,0,P|485:163|483:128,1,69.9999978637696,2|2,0:2|0:2,0:0:0:0:
408,69,139657,2,0,L|447:75,3,23.3333326212565,2|0|0|0,0:2|0:0|0:0|0:0,0:0:0:0:
269,24,140080,2,0,P|303:22|338:20,1,69.9999978637696,2|2,0:2|0:2,0:0:0:0:
265,275,140714,2,0,P|230:276|195:278,1,69.9999978637696,2|2,0:2|0:2,0:0:0:0:
152,206,141136,2,2,P|98:218|65:302,1,139.999995727539,2|2,0:2|0:2,0:2:0:0:
258,364,141770,5,0,0:0:0:0:
258,364,141876,1,0,0:0:0:0:
258,364,141981,2,0,P|292:362|347:362,1,85.0000016212464,8|0,0:0|0:0,0:0:0:0:
478,299,142404,2,0,P|435:299|393:301,1,85.0000016212464,4|0,0:3|0:0,0:0:0:0:
213,196,142826,2,0,P|266:213|389:223,1,170.000003242493,8|4,0:0|0:3,0:0:0:0:
445,169,143460,1,4,0:3:0:0:
445,169,143671,6,0,P|447:101|444:61,1,100,8|0,0:0|0:0,0:0:0:0:
279,17,144094,2,0,P|277:85|280:125,1,100,4|0,0:3|0:0,0:0:0:0:
130,244,144517,2,0,P|131:176|120:31,1,200,8|4,0:0|0:3,0:0:0:0:
23,35,145150,1,4,0:3:0:0:
30,282,145362,6,0,P|91:315|249:372,1,230.000004386902,8|4,0:0|0:3,0:0:0:0:
444,304,145995,1,4,0:3:0:0:
444,304,146207,2,0,P|368:333|316:360,1,115.000002193451,8|4,0:0|0:3,0:0:0:0:
308,332,146488,2,0,L|309:275,2,38.3333340644837,4|4|4,0:3|0:3|0:3,0:0:0:0:
480,116,146840,2,0,P|478:186|476:245,1,115.000002193451,4|4,0:3|0:2,0:0:0:0:
333,74,147263,1,4,0:3:0:0:
186,215,147474,5,4,0:3:0:0:
186,260,147579,1,4,0:3:0:0:
167,302,147686,2,4,L|166:359,2,43.3333313496908,4|4|4,0:3|0:3|0:3,0:3:0:0:
246,322,147897,6,8,L|245:362,4,32.4999985122681,8|8|8|8|4,0:3|0:3|0:3|0:3|0:3,0:3:0:0:
12,338,148319,5,4,0:3:0:0:
12,338,148425,1,4,0:3:0:0:
16,87,148636,1,4,0:3:0:0:
16,87,148742,6,0,P|103:85|180:182,1,217.500006637574,2|0,0:0|0:0,0:0:0:0:
246,355,149164,2,0,P|336:336|375:287,1,145.000004425049,2|0,0:0|0:0,0:0:0:0:
415,64,149587,2,0,P|340:18|225:64,1,217.500006637574,2|0,0:0|0:0,0:0:0:0:
210,134,150010,1,2,0:0:0:0:
9,16,150221,1,2,0:0:0:0:
210,134,150432,6,0,P|186:244|169:360,1,217.500006637573,2|0,0:0|0:0,0:0:0:0:
69,228,150855,2,0,P|85:120|108:14,1,217.500006637573,2|0,0:0|0:0,0:0:0:0:
286,94,151277,2,0,L|436:121,1,145.000004425049,2|0,0:0|0:0,0:0:0:0:
487,163,151594,1,0,0:0:0:0:
486,235,151700,1,2,0:0:0:0:
372,383,151911,1,2,0:0:0:0:
205,299,152122,6,0,P|102:269|-11:308,1,217.500006637573,2|0,0:0|0:0,0:0:0:0:
60,134,152545,2,0,P|138:187|218:186,1,145.000004425049,2|2,0:0|0:0,0:0:0:0:
481,169,152967,2,0,L|319:211,1,145.000004425049,2|2,0:0|0:0,0:0:0:0:
317,225,153249,2,0,L|291:152,2,48.3333348083497,0|0|2,0:0|0:0|0:0,0:0:0:0:
161,82,153601,1,2,0:0:0:0:
408,120,153812,6,0,P|430:197|352:308,1,217.500006637573,2|0,0:0|0:0,0:0:0:0:
291,333,154235,1,2,0:0:0:0:
38,231,154446,1,2,0:0:0:0:
291,333,154657,6,0,P|209:265|105:283,1,217.500006637573,2|0,0:0|0:0,0:0:0:0:
80,352,155080,1,2,0:0:0:0:
321,224,155291,5,2,0:0:0:0:
321,224,155397,1,0,0:0:0:0:
321,224,155502,2,0,P|327:138|330:-7,1,217.500006637573,2|0,0:0|0:0,0:0:0:0:
75,143,155925,2,0,L|218:171,1,145.000004425049,2|0,0:0|0:0,0:0:0:0:
425,277,156348,2,0,P|353:337|212:315,1,217.500006637573,2|0,0:0|0:0,0:0:0:0:
189,272,156770,1,2,0:0:0:0:
1,364,156981,1,2,0:0:0:0:
189,272,157193,6,0,P|221:184|244:41,1,217.500006637573,2|0,0:0|0:0,0:0:0:0:
55,183,157615,2,0,P|95:288|155:418,1,217.500006637573,2|0,0:0|0:0,0:0:0:0:
301,201,158038,2,0,P|385:209|458:222,1,145.000004425049,2|0,0:0|0:0,0:0:0:0:
482,281,158355,1,0,0:0:0:0:
476,352,158460,1,2,0:0:0:0:
240,293,158671,1,2,0:0:0:0:
469,151,158883,6,0,P|419:75|278:36,1,217.500006637573,2|0,0:0|0:0,0:0:0:0:
223,201,159305,2,0,P|135:258|66:247,1,145.000004425049,2|2,0:0|0:0,0:0:0:0:
0,25,159728,1,2,0:0:0:0:
201,75,159939,2,0,L|218:154,3,48.3333348083497,2|0|0|2,0:0|0:0|0:0|0:0,0:0:0:0:
19,243,160362,1,2,0:0:0:0:
92,8,160573,6,0,P|116:89|139:230,1,217.500006637573,2|0,0:0|0:0,0:0:0:0:
167,289,160995,1,2,0:0:0:0:
437,345,161207,1,2,0:0:0:0:
493,75,161418,1,2,0:0:0:0:
223,19,161629,1,4,0:3:0:0:
335,197,161840,1,4,0:3:0:0:
335,197,161946,1,4,0:3:0:0:
335,197,162052,1,4,0:3:0:0:
335,197,162157,1,4,0:3:0:0:
335,197,162263,6,0,P|219:198|86:216,1,217.500006637573,6|0,0:0|0:0,0:0:0:0:
311,297,162686,2,0,P|416:327|486:329,1,145.000004425049,10|0,0:0|0:0,0:0:0:0:
251,54,163108,2,0,P|228:154|205:329,1,217.500006637573,2|0,0:0|0:0,0:0:0:0:
146,337,163531,1,10,0:0:0:0:
28,79,163742,1,2,0:0:0:0:
21,229,163953,6,0,P|112:187|235:166,1,217.500006637573,2|0,0:0|0:0,0:0:0:0:
336,332,164376,2,0,P|400:365|470:384,1,145.000004425049,10|0,0:0|0:0,0:0:0:0:
324,27,164798,2,0,P|351:128|341:251,1,217.500006637573,2|0,0:0|0:0,0:0:0:0:
257,287,165221,2,0,P|220:288|168:308,2,72.5000022125245,10|0|2,0:0|0:0|0:0,0:0:0:0:
472,87,165643,6,0,P|379:67|224:73,1,217.500006637573,2|0,0:0|0:0,0:0:0:0:
186,132,166066,1,10,0:0:0:0:
231,372,166277,1,2,0:0:0:0:
190,152,166488,1,2,0:0:0:0:
227,352,166700,2,0,L|286:336,3,48.3333348083497,2|0|0|8,0:0|0:0|0:0|0:0,0:0:0:0:
56,384,167122,1,2,0:0:0:0:
413,296,167333,6,0,P|322:260|199:275,1,217.500006637573,2|0,0:0|0:0,0:0:0:0:
141,343,167756,1,10,0:0:0:0:
309,221,167967,1,2,0:0:0:0:
29,13,168179,2,0,P|66:136|57:247,1,217.500006637573,2|0,0:0|0:0,0:0:0:0:
140,280,168601,1,2,0:1:0:0:
140,280,168707,1,4,0:3:0:0:
140,280,168812,1,4,0:3:0:0:
140,280,168918,1,4,0:3:0:0:
140,280,169024,6,0,P|236:307|302:320,1,145.000004425049,2|0,0:0|0:0,0:0:0:0:
347,290,169340,1,2,0:3:0:0:
401,242,169446,1,10,0:0:0:0:
159,177,169657,1,0,0:0:0:0:
391,359,169869,6,0,P|364:263|350:136,1,217.500006637573,2|0,0:0|0:0,0:0:0:0:
402,83,170291,1,10,0:0:0:0:
498,300,170502,1,2,0:0:0:0:
491,35,170714,6,0,P|412:6|333:2,1,145.000004425049,2|0,0:0|0:0,0:0:0:0:
301,53,171031,1,0,0:0:0:0:
285,123,171136,1,10,0:0:0:0:
0,0,171348,1,0,0:0:0:0:
149,142,171559,6,0,P|130:232|123:365,1,217.500006637573,2|0,0:0|0:0,0:0:0:0:
37,361,171981,1,10,0:0:0:0:
37,361,172087,1,4,0:3:0:0:
37,361,172193,1,4,0:3:0:0:
37,361,172298,1,4,0:3:0:0:
37,361,172404,6,0,P|42:252|63:145,1,217.500006637573,2|0,0:0|0:0,0:0:0:0:
243,280,172826,2,0,L|406:303,1,145.000004425049,10|2,0:0|0:0,0:0:0:0:
409,231,173143,1,0,0:0:0:0:
431,161,173249,1,2,0:0:0:0:
170,330,173460,2,0,P|146:325|114:320,3,48.3333348083497,2|0|0|10,0:0|0:0|0:0|0:0,0:0:0:0:
40,72,173883,5,2,0:1:0:0:
40,72,173988,1,4,0:3:0:0:
40,72,174094,1,4,0:3:0:0:
290,119,174305,1,4,0:3:0:0:
288,367,174517,1,4,0:3:0:0:
38,320,174728,1,4,0:3:0:0:
165,219,174939,5,4,0:3:0:0:
172,220,175044,1,4,0:3:0:0:
179,221,175150,1,4,0:3:0:0:
186,222,175255,1,4,0:3:0:0:
193,224,175361,1,4,0:3:0:0:
200,225,175467,1,4,0:3:0:0:
207,226,175572,1,4,0:3:0:0:
214,227,175678,1,4,0:3:0:0:
222,229,175784,1,4,0:3:0:0:
0,291,175995,5,8,0:0:0:0:
0,291,176101,1,0,0:0:0:0:
370,176,176312,1,8,0:0:0:0:
370,176,176418,1,0,0:0:0:0:
0,291,176628,5,4,0:2:0:0:
494,325,177050,2,2,P|406:319|239:315,1,239.999992675781,6|0,0:0|0:0,0:0:0:0:
213,251,177685,5,0,0:0:0:0:
148,289,177896,1,0,0:0:0:0:
187,352,178107,2,0,P|173:258|151:176,1,150.000005722046,2|0,0:0|0:0,0:0:0:0:
107,150,178741,2,0,P|45:141|18:137,1,75.0000028610231,2|0,0:0|0:0,0:0:0:0:
185,130,179163,2,0,P|214:106|243:83,1,75.0000028610231,2|2,0:0|0:0,0:0:0:0:
21,214,179586,1,0,0:0:0:0:
21,214,179797,1,0,0:0:0:0:
183,13,180009,5,4,0:0:0:0:
251,43,180220,1,0,0:0:0:0:
292,105,180431,1,0,0:0:0:0:
283,179,180642,1,0,0:0:0:0:
357,165,180854,1,0,0:0:0:0:
359,239,181064,2,0,P|404:276|493:321,1,150.000005722046,2|0,0:0|0:0,0:0:0:0:
335,321,181698,2,0,P|383:353|408:368,1,75.0000028610231,2|0,0:0|0:0,0:0:0:0:
185,300,182121,2,0,P|237:293|274:287,1,75.0000028610231,2|2,0:0|0:0,0:0:0:0:
129,360,182544,1,0,0:0:0:0:
129,360,182754,1,0,0:0:0:0:
89,295,182966,1,0,0:0:0:0:
99,220,183177,1,0,0:0:0:0:
306,140,183388,5,4,0:0:0:0:
289,67,183600,1,0,0:0:0:0:
223,103,183811,1,0,0:0:0:0:
163,56,184023,2,0,P|111:49|-5:41,1,150.000005722046,2|0,0:0|0:0,0:0:0:0:
67,120,184656,2,0,P|120:131|149:140,1,75.0000028610231,2|0,0:0|0:0,0:0:0:0:
51,194,185079,2,0,L|34:287,1,75.0000028610231,2|2,0:0|0:0,0:0:0:0:
72,342,185501,1,0,0:0:0:0:
72,342,185713,1,0,0:0:0:0:
146,352,185924,1,0,0:0:0:0:
219,337,186135,1,0,0:0:0:0:
204,264,186346,1,0,0:0:0:0:
131,279,186557,1,0,0:0:0:0:
288,374,186768,5,4,0:0:0:0:
339,318,186980,2,0,P|341:256|329:162,1,150.000005722046,2|0,0:0|0:0,0:0:0:0:
425,264,187613,2,0,P|419:212|416:184,1,75.0000028610231,2|0,0:0|0:0,0:0:0:0:
416,189,188036,1,0,0:0:0:0:
512,129,188247,2,0,P|452:111|358:98,1,150.000005722046,2|0,0:0|0:0,0:0:0:0:
344,26,188881,1,2,0:0:0:0:
281,67,189092,1,0,0:0:0:0:
259,139,189304,1,0,0:0:0:0:
190,108,189515,1,0,0:0:0:0:
130,153,189726,1,0,0:0:0:0:
59,128,189937,1,0,0:0:0:0:
74,269,190149,5,4,0:0:0:0:
74,269,190571,2,0,P|113:277|164:289,1,75.0000028610231
212,322,190994,1,0,0:0:0:0:
274,280,191205,1,0,0:0:0:0:
334,324,191416,1,0,0:0:0:0:
271,365,191628,2,0,P|259:298|233:190,1,150.000005722046,2|0,0:0|0:0,0:0:0:0:
404,227,192261,2,0,P|362:225|316:220,1,75.0000028610231,2|0,0:0|0:0,0:0:0:0:
494,307,192684,2,0,P|456:303|419:301,1,75.0000028610231,2|2,0:0|0:0,0:0:0:0:
315,151,193106,1,0,0:0:0:0:
315,151,193318,1,0,0:0:0:0:
501,226,193529,5,4,0:0:0:0:
497,151,193740,1,0,0:0:0:0:
424,131,193951,1,0,0:0:0:0:
381,193,194162,1,0,0:0:0:0:
314,228,194374,1,0,0:0:0:0:
239,219,194585,2,0,P|155:216|74:222,1,150.000005722046,2|0,0:0|0:0,0:0:0:0:
254,298,195219,1,2,0:0:0:0:
254,298,195430,2,0,P|262:351|263:385,1,75.0000028610231,2|0,0:0|0:0,0:0:0:0:
13,257,195853,2,0,P|10:219|4:182,1,75.0000028610231,2|0,0:0|0:0,0:0:0:0:
118,369,196275,1,2,0:0:0:0:
144,298,196487,1,2,0:0:0:0:
167,226,196698,2,0,P|164:188|158:151,1,75.0000028610231,2|4,0:0|0:0,0:0:0:0:
256,192,197015,12,0,201980,0:0:0:0:
256,192,202085,12,0,203247,0:0:0:0:
59,304,203670,6,0,P|145:293|240:292,1,150,4|0,0:0|0:0,0:0:0:0:
288,331,204092,1,0,0:0:0:0:
86,209,204303,2,0,P|159:208|194:203,1,100,2|2,0:0|0:0,0:0:0:0:
33,129,204726,1,2,0:0:0:0:
33,129,204831,1,0,0:0:0:0:
33,129,204937,1,0,0:0:0:0:
33,129,205148,6,2,P|108:113|238:107,1,200
250,123,205677,1,0,0:0:0:0:
258,146,205782,1,2,0:0:0:0:
440,197,205993,1,0,0:0:0:0:
312,60,206205,2,0,P|327:104|348:180,1,100,2|0,0:0|0:0,0:0:0:0:
347,179,206522,1,0,0:0:0:0:
342,203,206627,1,2,0:0:0:0:
325,222,206733,1,0,0:0:0:0:
301,231,206839,1,0,0:0:0:0:
122,189,207050,6,2,P|77:174|2:153,1,100,2|0,0:0|0:0,0:0:0:0:
26,159,207367,1,0,0:0:0:0:
26,159,207472,1,0,0:0:0:0:
165,384,207684,1,2,0:0:0:0:
206,212,207895,1,2,0:0:0:0:
101,277,208106,1,0,0:0:0:0:
101,277,208212,1,0,0:0:0:0:
101,277,208317,1,0,0:0:0:0:
273,325,208529,6,2,P|346:327|486:344,1,200
480,317,209057,1,0,0:0:0:0:
488,296,209162,1,2,0:0:0:0:
385,111,209374,5,0,0:0:0:0:
488,296,209585,1,2,0:0:0:0:
509,207,209796,1,0,0:0:0:0:
346,286,210008,1,2,0:0:0:0:
425,231,210219,5,0,0:0:0:0:
425,231,210324,1,0,0:0:0:0:
425,231,210430,1,2,0:0:0:0:
399,363,210641,1,2,0:0:0:0:
267,337,210853,1,2,0:0:0:0:
293,205,211064,1,0,0:0:0:0:
158,254,211275,5,2,0:0:0:0:
132,122,211486,1,2,0:0:0:0:
0,148,211698,1,2,0:0:0:0:
26,280,211909,2,2,P|92:254|240:218,1,200
239,231,212437,1,0,0:0:0:0:
259,244,212543,1,2,0:0:0:0:
395,245,212754,1,0,0:0:0:0:
246,137,212965,6,2,P|292:172|340:201,1,100,2|0,0:0|0:0,0:0:0:0:
348,180,213282,1,0,0:0:0:0:
369,166,213388,1,2,0:0:0:0:
390,154,213493,1,0,0:0:0:0:
412,142,213599,1,0,0:0:0:0:
459,0,213810,5,0,0:0:0:0:
323,49,214022,1,2,0:0:0:0:
494,91,214233,1,2,0:0:0:0:
344,230,214444,5,0,0:0:0:0:
407,69,214655,1,2,0:0:0:0:
344,230,214867,1,2,0:0:0:0:
344,230,214972,1,0,0:0:0:0:
344,230,215078,2,0,P|352:284|360:329,1,100
438,259,215500,5,2,0:0:0:0:
407,69,215712,1,0,0:0:0:0:
407,69,215817,1,0,0:0:0:0:
407,69,215923,1,2,0:0:0:0:
225,203,216134,1,0,0:0:0:0:
194,13,216346,5,2,0:0:0:0:
73,29,216557,1,2,0:0:0:0:
91,149,216768,1,2,0:0:0:0:
217,131,216979,1,0,0:0:0:0:
217,131,217085,1,0,0:0:0:0:
217,131,217191,6,0,P|279:120|322:117,1,100,2|0,0:0|0:0,0:0:0:0:
142,316,217613,2,2,P|204:305|247:302,1,100
6,241,218036,2,0,P|68:230|111:227,1,100,2|0,0:0|0:0,0:0:0:0:
119,206,218353,1,0,0:0:0:0:
134,186,218458,1,0,0:0:0:0:
6,92,218670,1,0,0:0:0:0:
107,358,218881,6,2,P|147:297|209:235,1,150,2|0,0:0|0:0,0:0:0:0:
275,233,219303,2,0,P|328:236|384:245,1,100,2|0,0:0|0:0,0:0:0:0:
512,49,219726,6,2,P|472:110|410:172,1,150,2|0,0:0|0:0,0:0:0:0:
343,157,220148,1,2,0:0:0:0:
343,157,220254,1,0,0:0:0:0:
343,157,220360,1,0,0:0:0:0:
485,336,220571,6,2,P|416:322|326:316,1,150,2|0,0:0|0:0,0:0:0:0:
309,245,220993,1,0,0:0:0:0:
126,286,221205,1,0,0:0:0:0:
27,48,221416,6,2,P|96:62|186:68,1,150,2|0,0:0|0:0,0:0:0:0:
203,139,221838,1,0,0:0:0:0:
386,98,222050,1,0,0:0:0:0:
431,244,222261,6,2,P|365:237|311:239,1,100,2|0,0:0|0:0,0:0:0:0:
315,256,222578,1,0,0:0:0:0:
300,276,222684,1,0,0:0:0:0:
202,293,222895,1,0,0:0:0:0:
81,140,223106,5,2,0:0:0:0:
253,82,223317,1,0,0:0:0:0:
253,82,223423,1,0,0:0:0:0:
253,82,223529,1,2,0:0:0:0:
50,51,223740,1,0,0:0:0:0:
50,51,223846,1,0,0:0:0:0:
50,51,223951,6,0,P|39:112|36:229,1,150,2|0,0:0|0:0,0:0:0:0:
81,259,224374,1,2,0:0:0:0:
172,97,224585,2,0,P|170:146|162:196,1,100,2|0,0:0|0:0,0:0:0:0:
308,70,225008,1,2,0:0:0:0:
308,70,225113,1,0,0:0:0:0:
308,70,225219,1,0,0:0:0:0:
308,70,225430,1,2,0:0:0:0:
308,70,225641,6,0,P|300:119|297:169,1,100,2|0,0:0|0:0,0:0:0:0:
315,384,226064,2,0,P|323:335|326:285,1,100
439,53,226487,2,2,P|426:142|422:208,1,150,2|0,0:0|0:0,0:0:0:0:
498,264,226909,1,4,0:3:0:0:
498,264,227015,1,4,0:3:0:0:
498,264,227120,1,4,0:3:0:0:
498,264,227226,1,4,0:3:0:0:
498,264,227331,6,0,P|443:280|393:292,1,100,2|0,0:0|0:0,0:0:0:0:
377,283,227648,1,0,0:0:0:0:
353,275,227754,1,0,0:0:0:0:
216,358,227965,1,0,0:0:0:0:
338,358,228177,5,0,0:0:0:0:
211,277,228388,1,0,0:0:0:0:
211,277,228493,1,0,0:0:0:0:
211,277,228599,1,0,0:0:0:0:
79,365,228810,1,0,0:0:0:0:
197,196,229022,6,0,P|199:146|204:96,1,100,2|0,0:0|0:0,0:0:0:0:
217,74,229339,1,0,0:0:0:0:
235,57,229444,2,0,P|185:52|135:50,1,100
10,262,229867,2,2,P|69:268|162:270,1,150,2|0,0:0|0:0,0:0:0:0:
225,223,230289,2,0,P|274:223|324:221,1,100
392,253,230606,1,0,0:0:0:0:
459,220,230712,6,2,P|465:160|467:67,1,150,2|0,0:0|0:0,0:0:0:0:
399,1,231134,2,0,P|392:75|393:115,1,100,8|0,0:0|0:0,0:0:0:0:
171,117,231557,2,0,P|263:124|327:154,1,150
387,178,231979,2,0,L|425:275,1,100,8|0,0:0|0:0,0:0:0:0:
469,378,232402,5,0,0:0:0:0:
512,64,232719,1,0,0:0:0:0:
512,64,232824,2,0,L|415:102,1,100,8|0,0:0|0:0,0:0:0:0:
345,85,233141,1,8,0:0:0:0:
272,64,233247,2,0,P|199:56|171:55,1,100,2|0,0:0|0:0,0:0:0:0:
41,240,233670,1,8,0:0:0:0:
41,240,233775,1,0,0:0:0:0:
41,240,233881,1,0,0:0:0:0:
41,240,234092,6,2,P|117:249|197:250,1,150,2|0,0:0|0:0,0:0:0:0:
127,334,234515,2,0,P|176:334|226:338,1,100,8|0,0:0|0:0,0:0:0:0:
476,367,234937,5,0,0:0:0:0:
299,17,235254,1,0,0:0:0:0:
299,17,235360,1,8,0:0:0:0:
349,213,235571,1,0,0:0:0:0:
352,76,235782,6,2,L|522:62,1,150,10|0,0:0|0:0,0:0:0:0:
307,147,236205,2,0,L|162:157,1,100,10|0,0:0|0:0,0:0:0:0:
132,156,236522,1,0,0:0:0:0:
88,95,236628,2,0,L|85:52,4,25,8|0|0|0|4,0:0|0:0|0:0|0:0|0:3,0:0:0:0:
0,231,237053,5,4,0:3:0:0:
0,231,237159,2,0,P|4:306|12:348,1,100,4|4,0:3|0:3,0:0:0:0:
59,383,237479,5,4,0:3:0:0:
479,345,237690,5,8,0:0:0:0:
479,345,237796,1,0,0:0:0:0:
109,230,238007,1,8,0:0:0:0:
109,230,238113,1,0,0:0:0:0:
479,345,238323,1,8,0:0:0:0:
479,345,238429,1,0,0:0:0:0:
109,230,238640,1,8,0:0:0:0:
109,230,238746,1,0,0:0:0:0:
270,384,238957,6,2,B|297:371|326:365|326:365|372:387|443:346,1,139.999995727539,2|0,0:0|2:0,0:0:0:0:
