osu file format v14

[General]
AudioFilename: audio.mp3
AudioLeadIn: 0
PreviewTime: 95368
Countdown: 0
SampleSet: Soft
StackLeniency: 0.7
Mode: 2
LetterboxInBreaks: 0
WidescreenStoryboard: 1

[Editor]
Bookmarks: 217,13931,27645,41359,68788,95788,96217,123645,164788,178502,182359,192217,205931,219645,233359,243645,245359,247074
DistanceSpacing: 1
BeatDivisor: 4
GridSize: 32
TimelineZoom: 3.199999

[Metadata]
Title:resurrectedreplayer
TitleUnicode:resurrectedreplayer
Artist:zts
ArtistUnicode:zts
Creator:Kimitakari
Version:m0ru's rain
Source:うみねこのなく頃に散
Tags:nelly m0ru moru wenect unranked mapper unranked_mapper electronic instrumental video game vgm Umineko no Naku Koro ni Chiru musicbox Red bernkastel feet resurrected replayer when they cry wtc visual novel vn erika furudo 古戸 ヱリカ 07th expansion code label czl
BeatmapID:3990193
BeatmapSetID:1926369

[Difficulty]
HPDrainRate:5
CircleSize:4.2
OverallDifficulty:8
ApproachRate:8
SliderMultiplier:2.08
SliderTickRate:0.5

[Events]
//Background and Video events
0,0,"bgbackintown.jpg",0,0
//Break Periods
//Storyboard Layer 0 (Background)
//Storyboard Layer 1 (Fail)
//Storyboard Layer 2 (Pass)
//Storyboard Layer 3 (Foreground)
//Storyboard Layer 4 (Overlay)
//Storyboard Sound Samples

[TimingPoints]
226,428.571428571429,4,2,1,40,1,0
226,-80,4,2,1,40,0,0
3654,-100,4,2,1,40,0,0
7083,-66.6666666666667,4,2,1,40,0,0
10511,-100,4,2,1,40,0,0
13940,-100,4,3,1,50,0,0
27654,-100,4,3,1,55,0,0
39654,-100,4,3,1,65,0,0
40940,-100,4,3,1,60,0,0
41368,-100,4,3,1,55,0,0
51654,-66.6666666666667,4,3,1,55,0,0
52297,-100,4,3,1,55,0,0
55083,-80,4,3,1,60,0,0
55726,-100,4,3,1,60,0,0
58511,-66.6666666666667,4,3,1,60,0,0
59154,-100,4,3,1,60,0,0
61940,-80,4,3,1,60,0,0
62583,-100,4,3,1,60,0,0
65368,-80,4,3,1,60,0,0
67083,-100,4,3,1,60,0,0
67547,-66.6666666666667,4,3,1,60,0,0
68368,-66.6666666666667,4,3,3,65,0,0
68583,-100,4,3,3,65,0,0
68797,-100,4,3,3,70,0,0
95583,-100,4,3,1,73,0,0
95797,-35.7142857142857,4,3,1,75,0,0
96011,-100,4,3,1,78,0,0
96226,-100,4,3,2,80,0,1
96654,-100,4,3,1,80,0,1
109940,-100,4,3,2,80,0,1
110368,-100,4,3,1,80,0,1
121940,-100,4,3,2,80,0,1
122047,-100,4,3,1,80,0,1
123654,-100,4,3,2,70,0,0
124297,-100,4,2,1,50,0,0
134368,-133.333333333333,4,2,1,50,0,0
135868,-100,4,2,1,50,0,0
139083,-100,4,2,1,51,0,0
140797,-100,4,2,1,52,0,0
142511,-100,4,2,1,53,0,0
144226,-100,4,2,1,54,0,0
145940,-100,4,2,1,55,0,0
147654,-100,4,2,1,56,0,0
148083,-133.333333333333,4,2,1,56,0,0
150226,-100,4,2,1,56,0,0
150440,-100,4,2,1,57,0,0
150654,-100,4,2,1,58,0,0
150868,-100,4,2,1,59,0,0
151083,-100,4,2,1,60,0,0
156226,-100,4,2,1,50,0,0
157940,-100,4,2,1,40,0,0
159654,-100,4,2,1,30,0,0
161368,-100,4,2,1,20,0,0
163511,-66.6666666666667,4,2,1,40,0,0
163940,-66.6666666666667,4,2,1,50,0,0
164368,-100,4,2,1,30,0,0
164797,-100,4,3,2,30,0,0
170797,-100,4,3,2,31,0,0
171226,-100,4,3,2,32,0,0
171654,-100,4,3,2,33,0,0
172511,-100,4,3,2,34,0,0
172940,-100,4,3,2,35,0,0
173368,-100,4,3,2,36,0,0
174226,-100,4,3,2,37,0,0
174654,-100,4,3,2,38,0,0
175083,-100,4,3,2,39,0,0
175940,-100,4,3,2,40,0,0
176368,-100,4,3,2,41,0,0
176797,-100,4,3,2,42,0,0
177654,-100,4,3,2,43,0,0
178083,-37.037037037037,4,3,2,44,0,0
178297,-100,4,3,2,52,0,0
178511,-100,4,3,2,60,0,0
178940,-100,4,3,2,61,0,0
179368,-100,4,3,2,62,0,0
179797,-100,4,3,2,63,0,0
180226,-100,4,3,2,64,0,0
180654,-100,4,3,2,65,0,0
181083,-100,4,3,2,66,0,0
181511,-100,4,3,2,67,0,0
181940,-100,4,3,2,68,0,0
182368,-100,4,3,2,69,0,0
182797,-100,4,3,2,70,0,0
183226,-100,4,3,2,71,0,0
183654,-100,4,3,2,72,0,0
184083,-100,4,3,2,73,0,0
184511,-100,4,3,2,74,0,0
184940,-100,4,3,2,75,0,0
185368,-100,4,3,2,76,0,0
185797,-100,4,3,2,77,0,0
186226,-100,4,3,2,78,0,0
186654,-100,4,3,2,79,0,0
187083,-100,4,3,2,80,0,0
190940,-66.6666666666667,4,3,2,80,0,0
192011,-100,4,3,2,80,0,0
192226,-100,4,3,2,70,0,0
204226,-100,4,3,1,80,0,0
205511,-35.7142857142857,4,3,1,80,0,0
205726,-100,4,3,1,80,0,0
205940,-100,4,3,2,75,0,0
206154,-100,4,3,1,75,0,0
219654,-100,4,3,2,75,0,0
219868,-100,4,3,1,75,0,0
226511,-100,4,3,2,75,0,0
226726,-100,4,3,1,75,0,0
233368,-66.6666666666667,4,3,2,75,0,0
233583,-66.6666666666667,4,3,1,75,0,0
233797,-100,4,3,1,75,0,0
237226,-66.6666666666667,4,3,1,75,0,0
237654,-100,4,3,1,75,0,0
241297,-66.6666666666667,4,3,1,75,0,0
241726,-100,4,3,1,75,0,0
241940,-100,4,3,2,75,0,0
242154,-100,4,3,1,75,0,0
243654,-100,4,3,1,70,0,0
243868,-100,4,2,1,60,0,0
245368,-100,4,3,1,80,0,0
246654,-100,4,3,1,70,0,0
246976,-100,4,3,1,5,0,0
247083,-100,4,3,2,70,0,0
247511,-100,4,2,1,65,0,0
247940,-100,4,2,1,60,0,0
248368,-100,4,2,1,55,0,0
248797,-100,4,2,1,50,0,0
249226,-100,4,2,1,45,0,0
249654,-100,4,2,1,40,0,0
250083,-100,4,2,1,35,0,0
250511,-100,4,2,1,30,0,0
250940,-100,4,2,1,25,0,0
251368,-100,4,2,1,20,0,0
251797,-100,4,2,1,15,0,0
252226,-100,4,2,1,10,0,0
252654,-100,4,2,1,5,0,0

[Colours]
Combo1 : 158,83,215
Combo2 : 221,91,227

[HitObjects]
227,321,226,6,0,B|111:261|146:47|392:56|427:238|337:310|337:310|207:310|207:310|99:236|161:28|406:69|415:256|315:314|315:314|185:314|185:314|77:239|140:29|389:74|393:265|290:320|290:320|162:318|162:318|311:316,1,2080,0|2,0:0|0:3,0:0:0:0:
256,192,3868,12,0,6654,0:0:0:0:
352,288,7083,6,0,B|463:175|362:-47|111:1|70:188|157:284|157:284|312:284|312:284|423:170|320:-54|65:-2|28:190|120:284|120:284|272:280|272:280|116:280|116:280|267:280|267:280|116:280|116:280|38:254|11:158|63:85|137:69|192:96|192:96|351:95,1,2496.00009521485
256,192,12226,12,0,13726,0:0:0:0:
396,69,13940,6,0,L|450:193,2,104,4|0|0,1:0|0:0|0:0,0:0:0:0:
208,69,14583,2,0,L|263:66,1,52,0|8,0:0|0:0,0:0:0:0:
363,66,14904,2,0,L|417:63,1,52,8|0,0:0|1:0,0:0:0:0:
310,63,15226,1,0,0:0:0:0:
123,63,15440,5,0,0:0:0:0:
68,66,15547,2,0,L|69:227,1,156,8|0,0:0|0:0,0:0:0:0:
173,221,16083,1,0,1:0:0:0:
359,221,16297,2,0,L|283:222,1,52,0|8,0:0|0:0,0:0:0:0:
203,221,16618,2,0,L|274:221,1,52,8|0,0:0|1:0,0:0:0:0:
359,221,16940,1,0,0:0:0:0:
129,137,17368,6,0,L|98:246,2,104,2|0|0,0:0|0:0|0:0,0:0:0:0:
316,137,18011,2,0,L|316:194,1,52,0|8,0:0|0:0,0:0:0:0:
159,134,18333,2,0,L|108:132,1,52,8|0,0:0|1:0,0:0:0:0:
211,131,18655,1,0,0:0:0:0:
340,284,18868,5,0,0:0:0:0:
395,281,18975,2,0,L|395:113,1,156,8|0,0:0|0:0,0:0:0:0:
290,125,19511,1,0,1:0:0:0:
477,125,19726,2,0,L|426:124,1,52,0|8,0:0|0:0,0:0:0:0:
269,123,20154,2,0,L|385:123,1,104,0|0,1:0|0:0,0:0:0:0:
145,88,20797,6,0,L|91:212,2,104,0|0|0,1:0|0:0|0:0,0:0:0:0:
333,88,21440,2,0,L|278:85,1,52,0|8,0:0|0:0,0:0:0:0:
178,85,21761,2,0,L|124:82,1,52,8|0,0:0|1:0,0:0:0:0:
231,82,22083,1,0,0:0:0:0:
418,82,22297,5,0,0:0:0:0:
473,85,22404,2,0,L|472:246,1,156,8|0,0:0|0:0,0:0:0:0:
368,240,22940,1,0,0:0:0:0:
182,240,23154,2,0,L|258:241,1,52,0|8,0:0|0:0,0:0:0:0:
338,240,23475,2,0,L|267:240,1,52,0|0,0:0|1:0,0:0:0:0:
182,240,23797,1,0,0:0:0:0:
412,156,24225,6,0,L|443:265,2,104
225,156,24868,2,0,L|225:213,1,52,0|8,0:0|0:0,0:0:0:0:
382,153,25190,2,0,L|433:151,1,52,8|0,0:0|1:0,0:0:0:0:
330,150,25512,1,0,0:0:0:0:
201,303,25725,5,0,0:0:0:0:
146,300,25832,2,0,L|146:132,1,156,8|0,0:0|0:0,0:0:0:0:
251,144,26368,1,0,1:0:0:0:
64,144,26583,6,0,L|115:143,1,52,0|8,0:0|0:0,0:0:0:0:
271,142,27011,1,0,1:0:0:0:
112,271,27226,1,0,0:0:0:0:
83,251,27297,1,0,0:0:0:0:
70,211,27368,1,0,0:0:0:0:
83,178,27440,1,0,0:0:0:0:
117,149,27511,1,0,0:0:0:0:
364,300,27654,6,0,L|424:192,2,104,4|0|8,1:0|0:0|1:0,0:0:0:0:
176,300,28297,1,0,0:0:0:0:
144,254,28404,1,0,0:0:0:0:
181,218,28511,1,0,1:0:0:0:
233,222,28618,1,8,0:0:0:0:
181,218,28726,1,0,0:0:0:0:
77,213,28940,2,0,L|220:219,1,104,8|0,1:0|0:0,0:0:0:0:
367,217,29368,5,0,1:0:0:0:
419,217,29476,2,0,L|397:62,1,156,0|8,0:0|1:0,0:0:0:0:
210,62,30011,1,0,0:0:0:0:
225,111,30118,1,8,0:0:0:0:
259,149,30225,1,0,1:0:0:0:
306,171,30332,1,8,0:0:0:0:
358,172,30439,1,0,0:0:0:0:
149,292,30654,1,8,1:0:0:0:
149,292,31083,6,0,L|80:191,2,104,2|0|8,1:3|0:0|1:0,0:0:0:0:
337,292,31726,1,0,0:0:0:0:
369,246,31833,1,8,0:0:0:0:
332,210,31940,1,0,1:0:0:0:
280,214,32047,1,8,0:0:0:0:
332,210,32155,1,0,0:0:0:0:
436,205,32368,2,0,L|293:211,1,104,8|0,1:0|0:0,0:0:0:0:
146,209,32797,5,0,1:0:0:0:
94,209,32905,2,0,L|116:54,1,156,0|8,0:0|1:0,0:0:0:0:
303,54,33440,1,0,0:0:0:0:
288,103,33547,1,8,0:0:0:0:
254,141,33654,1,0,1:0:0:0:
207,163,33761,1,0,0:0:0:0:
155,164,33868,1,0,0:0:0:0:
363,164,34083,1,8,1:0:0:0:
363,164,34511,6,0,L|419:254,2,104,4|0|8,1:0|0:0|1:0,0:0:0:0:
175,164,35154,1,0,0:0:0:0:
143,199,35261,1,8,0:0:0:0:
175,233,35368,1,0,1:0:0:0:
232,235,35476,1,8,0:0:0:0:
175,233,35583,1,0,0:0:0:0:
71,233,35797,2,0,L|189:234,1,104,8|0,1:0|0:0,0:0:0:0:
366,209,36226,5,2,1:3:0:0:
418,209,36334,2,0,L|396:54,1,156,0|8,0:0|1:0,0:0:0:0:
209,54,36869,1,0,0:0:0:0:
224,103,36976,1,8,0:0:0:0:
258,141,37083,1,0,1:0:0:0:
305,163,37190,1,8,0:0:0:0:
357,164,37297,1,0,0:0:0:0:
149,164,37512,1,8,1:0:0:0:
149,164,37940,6,0,L|93:254,2,104,0|0|8,1:0|0:0|1:0,0:0:0:0:
337,164,38583,1,0,0:0:0:0:
369,199,38690,1,8,0:0:0:0:
337,233,38797,1,0,1:0:0:0:
280,235,38905,1,8,0:0:0:0:
337,233,39012,1,0,0:0:0:0:
441,233,39226,2,0,L|446:117,1,104,8|0,1:0|0:0,0:0:0:0:
169,213,39654,5,4,1:0:0:0:
117,213,39761,1,8,0:0:0:0:
117,145,39868,1,0,0:0:0:0:
169,145,39976,1,0,0:0:0:0:
336,215,40083,2,0,L|337:134,1,52,4|0,1:0|0:0,0:0:0:0:
149,163,40404,2,0,L|148:227,1,52,8|4,0:0|1:0,0:0:0:0:
336,215,40726,1,8,0:0:0:0:
148,214,40940,1,4,1:0:0:0:
132,217,41011,1,0,0:0:0:0:
148,214,41082,1,0,0:0:0:0:
132,217,41154,1,0,0:0:0:0:
148,214,41225,1,0,0:0:0:0:
367,279,41368,6,0,L|398:144,1,104,6|0,1:0|0:0,0:0:0:0:
254,177,41797,2,0,L|180:61,1,104,8|0,1:0|0:0,0:0:0:0:
146,89,42118,1,0,0:0:0:0:
266,89,42226,2,0,L|370:89,1,104,0|0,1:0|0:0,0:0:0:0:
183,89,42654,1,8,1:0:0:0:
131,89,42761,2,0,L|131:238,1,104
328,282,43083,6,0,L|376:190,2,104,0|0|8,1:0|0:0|1:0,0:0:0:0:
264,286,43618,1,0,0:0:0:0:
128,286,43833,1,0,0:0:0:0:
76,286,43940,2,0,L|211:286,1,104,0|0,1:0|0:0,0:0:0:0:
315,286,44368,1,8,1:0:0:0:
367,286,44476,2,0,L|366:135,1,104
141,283,44797,6,0,L|110:148,1,104,0|0,1:0|0:0,0:0:0:0:
254,181,45226,2,0,L|328:65,1,104,8|0,1:0|0:0,0:0:0:0:
362,93,45547,1,0,0:0:0:0:
242,93,45655,2,0,L|138:93,1,104,0|0,1:0|0:0,0:0:0:0:
325,93,46083,1,8,1:0:0:0:
377,93,46190,2,0,L|377:242,1,104
180,286,46512,6,0,L|132:194,2,104,0|0|8,1:0|0:0|1:0,0:0:0:0:
244,290,47047,1,0,0:0:0:0:
380,290,47262,1,0,0:0:0:0:
432,290,47369,2,0,L|297:290,1,104,0|0,1:0|0:0,0:0:0:0:
192,290,47797,1,8,1:0:0:0:
140,290,47904,2,0,L|139:147,1,104
332,300,48226,6,0,P|359:259|251:147,1,208,0|8,1:0|1:0,0:0:0:0:
228,143,48761,2,0,L|351:142,1,104
212,133,49083,2,0,L|108:133,1,104,0|0,1:0|0:0,0:0:0:0:
295,133,49511,1,8,1:0:0:0:
347,133,49618,2,0,L|403:261,1,104
150,326,49940,6,0,L|102:234,2,104,0|0|8,1:0|0:0|1:0,0:0:0:0:
214,330,50475,1,0,0:0:0:0:
350,330,50690,1,0,0:0:0:0:
402,330,50797,2,0,L|401:199,1,104,0|0,1:0|0:0,0:0:0:0:
266,226,51225,1,8,1:0:0:0:
214,226,51333,2,0,L|215:75,1,104
400,128,51654,6,0,P|378:293|345:124,1,468.000017852784,2|0,1:0|0:0,0:0:0:0:
377,130,52404,1,0,0:0:0:0:
267,130,52511,2,0,L|142:128,1,104,0|0,1:0|0:0,0:0:0:0:
298,128,52940,1,8,1:0:0:0:
365,128,53047,2,0,L|362:249,1,104
182,325,53368,6,0,L|134:233,2,104,0|0|8,1:0|0:0|1:0,0:0:0:0:
246,329,53903,1,0,0:0:0:0:
109,325,54118,1,0,0:0:0:0:
57,325,54225,2,0,L|182:326,1,104,0|0,1:0|0:0,0:0:0:0:
348,325,54654,2,0,P|382:270|333:183,1,156,8|0,1:0|0:0,0:0:0:0:
155,77,55083,6,0,P|110:257|223:225,1,390,0|0,1:0|0:0,0:0:0:0:
156,229,55833,1,0,0:0:0:0:
288,224,55940,2,0,L|415:223,1,104,0|0,1:0|0:0,0:0:0:0:
205,223,56368,2,0,L|144:116,1,104,8|0,1:0|0:0,0:0:0:0:
206,131,56690,1,0,0:0:0:0:
379,271,56797,6,0,L|422:174,2,104,0|0|8,1:0|0:0|1:0,0:0:0:0:
325,278,57333,1,0,0:0:0:0:
189,278,57547,1,0,0:0:0:0:
137,278,57654,2,0,L|138:140,1,104,0|0,1:0|0:0,0:0:0:0:
273,174,58083,2,0,L|397:174,1,104,8|0,1:0|0:0,0:0:0:0:
325,175,58404,1,0,0:0:0:0:
128,160,58511,6,0,P|150:325|183:156,1,468.000017852784,2|0,1:0|0:0,0:0:0:0:
147,162,59261,1,0,0:0:0:0:
266,162,59368,2,0,L|400:163,1,104,0|0,1:0|0:0,0:0:0:0:
182,162,59797,1,8,1:0:0:0:
130,162,59904,2,0,L|130:274,1,104
329,280,60226,6,0,L|366:178,2,104,0|0|8,1:0|0:0|1:0,0:0:0:0:
277,296,60761,1,0,0:0:0:0:
413,286,60976,1,0,0:0:0:0:
465,285,61083,2,0,L|331:287,1,104,0|0,1:0|0:0,0:0:0:0:
174,286,61511,2,0,P|132:219|176:157,1,156,8|0,1:0|0:0,0:0:0:0:
341,99,61940,6,0,P|386:279|273:247,1,390,0|0,1:0|0:0,0:0:0:0:
327,249,62690,1,0,0:0:0:0:
207,249,62797,2,0,L|80:248,1,104,0|0,1:0|0:0,0:0:0:0:
290,248,63225,2,0,L|351:141,1,104,8|0,1:0|0:0,0:0:0:0:
289,156,63547,1,0,0:0:0:0:
117,293,63654,6,0,L|74:196,2,104,0|0|8,1:0|0:0|1:0,0:0:0:0:
171,300,64190,1,0,0:0:0:0:
307,300,64404,1,0,0:0:0:0:
359,300,64511,2,0,L|358:162,1,104,0|0,1:0|0:0,0:0:0:0:
223,196,64940,2,0,L|99:196,1,104,8|0,1:0|0:0,0:0:0:0:
164,183,65261,1,0,0:0:0:0:
332,294,65368,6,0,B|432:205|353:9|128:52|103:221|188:295|188:295|312:289|312:289|182:289|182:289|311:289|311:289|161:288,1,1040,0|2,1:0|1:0,0:0:0:0:
193,333,67511,5,0,0:0:0:0:
166,333,67547,2,0,B|56:264|44:100|168:4|287:27|287:27|132:27,1,598.000022811891
117,27,68583,1,0,0:0:0:0:
152,27,68654,1,0,0:0:0:0:
354,220,68797,6,0,L|361:108,1,104,6|0,1:0|0:0,0:0:0:0:
160,128,69226,2,0,L|132:256,1,104,10|0,1:0|0:0,0:0:0:0:
189,229,69547,1,0,0:0:0:0:
379,269,69654,6,0,B|414:171|414:171|266:170,1,208,2|10,1:0|1:0,0:0:0:0:
266,168,70190,1,0,0:0:0:0:
310,170,70297,1,2,0:1:0:0:
266,168,70404,1,0,0:0:0:0:
97,290,70511,6,0,L|87:150,1,104,2|0,1:0|0:0,0:0:0:0:
277,186,70940,2,0,L|316:84,1,104,10|0,1:0|0:0,0:0:0:0:
262,88,71261,1,0,0:0:0:0:
84,92,71368,5,2,1:0:0:0:
188,92,71583,1,2,0:1:0:0:
204,120,71654,1,2,0:1:0:0:
184,146,71725,1,2,0:1:0:0:
139,146,71797,2,0,L|73:145,1,52,10|0,1:0|0:0,0:0:0:0:
139,146,72011,2,0,L|220:144,1,52,2|0,0:1|0:0,0:0:0:0:
362,258,72226,6,0,L|368:138,1,104,2|0,1:0|0:0,0:0:0:0:
232,154,72654,2,0,L|237:257,1,104,10|0,1:0|0:0,0:0:0:0:
101,257,73083,2,0,L|46:148,1,104,2|0,1:0|0:0,0:0:0:0:
106,164,73404,1,2,0:1:0:0:
225,164,73511,2,0,L|107:162,1,104,10|2,1:0|0:1,0:0:0:0:
404,277,73940,5,2,1:0:0:0:
300,277,74154,1,2,0:1:0:0:
264,277,74226,1,2,0:1:0:0:
264,242,74297,1,2,0:1:0:0:
298,242,74368,1,10,1:0:0:0:
402,242,74583,2,0,L|340:242,1,52
146,307,74797,6,0,L|134:174,1,104,2|0,1:0|0:0,0:0:0:0:
314,203,75226,2,0,P|346:176|361:92,1,104,10|2,1:0|0:1,0:0:0:0:
313,112,75547,1,0,0:0:0:0:
145,250,75654,5,6,1:0:0:0:
248,250,75868,2,0,L|336:247,1,52,0|2,0:0|0:1,0:0:0:0:
248,250,76083,1,10,1:0:0:0:
112,250,76297,1,0,0:0:0:0:
60,250,76404,1,0,0:0:0:0:
179,250,76511,2,0,L|306:249,1,104,2|0,1:0|0:0,0:0:0:0:
95,249,76940,1,10,1:0:0:0:
70,204,77047,1,0,0:0:0:0:
90,158,77154,1,2,0:1:0:0:
139,146,77261,1,0,0:0:0:0:
326,98,77368,6,0,P|364:175|305:220,1,156,2|0,1:0|0:0,0:0:0:0:
201,217,77797,2,0,L|142:113,1,104,10|2,1:0|0:1,0:0:0:0:
201,126,78118,1,0,0:0:0:0:
381,133,78225,5,2,1:0:0:0:
277,133,78440,1,2,0:1:0:0:
261,161,78511,1,2,0:1:0:0:
281,187,78582,1,2,0:1:0:0:
326,187,78654,2,0,L|392:186,1,52,10|0,1:0|0:0,0:0:0:0:
326,187,78868,2,0,L|245:185,1,52,2|0,0:1|0:0,0:0:0:0:
103,299,79083,6,0,L|97:179,1,104,2|0,1:0|0:0,0:0:0:0:
233,195,79511,2,0,L|240:303,1,104,10|0,1:0|0:0,0:0:0:0:
103,299,79940,2,0,L|48:190,1,104,2|0,1:0|0:0,0:0:0:0:
108,206,80261,1,0,0:0:0:0:
227,206,80368,2,0,L|165:201,1,52,10|0,1:0|0:0,0:0:0:0:
128,192,80583,2,0,L|163:146,1,52,2|0,0:1|0:0,0:0:0:0:
391,136,80797,5,2,1:0:0:0:
255,136,81011,1,0,0:0:0:0:
216,167,81118,1,0,0:0:0:0:
223,217,81225,1,10,1:0:0:0:
268,237,81332,1,0,0:0:0:0:
216,237,81440,2,0,L|305:237,1,52,2|0,0:1|0:0,0:0:0:0:
446,248,81654,5,2,1:0:0:0:
343,248,81868,2,0,L|281:248,1,34.6666666666667,2|2,0:1|0:1,0:0:0:0:
343,248,82011,1,2,0:1:0:0:
378,248,82083,1,10,1:0:0:0:
411,222,82190,1,0,0:0:0:0:
374,182,82297,1,2,0:1:0:0:
331,174,82404,1,0,0:0:0:0:
103,228,82511,6,0,L|96:116,1,104,6|0,1:0|0:0,0:0:0:0:
297,136,82940,2,0,L|325:264,1,104,10|0,1:0|0:0,0:0:0:0:
268,237,83261,1,0,0:0:0:0:
78,277,83368,6,0,B|43:179|43:179|191:178,1,208,2|10,1:0|1:0,0:0:0:0:
191,176,83904,1,0,0:0:0:0:
147,178,84011,1,2,0:1:0:0:
191,176,84118,1,0,0:0:0:0:
360,298,84225,6,0,L|370:158,1,104,2|0,1:0|0:0,0:0:0:0:
180,194,84654,2,0,L|141:92,1,104,10|0,1:0|0:0,0:0:0:0:
195,96,84975,1,0,0:0:0:0:
373,100,85082,5,2,1:0:0:0:
269,100,85297,1,2,0:1:0:0:
253,128,85368,1,2,0:1:0:0:
273,154,85439,1,2,0:1:0:0:
318,154,85511,2,0,L|384:153,1,52,10|0,1:0|0:0,0:0:0:0:
318,154,85725,2,0,L|237:152,1,52,2|0,0:1|0:0,0:0:0:0:
95,266,85940,6,0,L|89:146,1,104,2|0,1:0|0:0,0:0:0:0:
225,162,86368,2,0,L|220:265,1,104,10|0,1:0|0:0,0:0:0:0:
356,265,86797,2,0,L|411:156,1,104,2|0,1:0|0:0,0:0:0:0:
351,172,87118,1,0,0:0:0:0:
232,172,87225,2,0,L|350:170,1,104,10|2,1:0|0:1,0:0:0:0:
53,285,87654,5,2,1:0:0:0:
157,285,87868,1,2,0:1:0:0:
193,285,87940,1,2,0:1:0:0:
193,250,88011,1,2,0:1:0:0:
159,250,88082,1,10,1:0:0:0:
55,250,88297,2,0,L|117:250,1,52,2|0,0:1|0:0,0:0:0:0:
311,315,88511,6,0,L|323:182,1,104,2|2,1:0|0:1,0:0:0:0:
143,211,88940,2,0,L|79:99,1,104,10|2,1:0|0:1,0:0:0:0:
144,120,89261,1,0,0:0:0:0:
312,258,89368,5,6,1:0:0:0:
209,258,89582,2,0,L|121:255,1,52,0|2,0:0|0:1,0:0:0:0:
209,258,89797,1,10,1:0:0:0:
345,258,90011,1,0,0:0:0:0:
397,258,90118,1,0,0:0:0:0:
278,258,90225,2,0,L|151:257,1,104,2|0,1:0|0:0,0:0:0:0:
362,257,90654,1,10,1:0:0:0:
387,212,90761,1,0,0:0:0:0:
367,166,90868,1,2,0:1:0:0:
318,154,90975,1,0,0:0:0:0:
131,106,91082,6,0,P|93:183|152:228,1,156,2|0,1:0|0:0,0:0:0:0:
256,225,91511,2,0,L|315:121,1,104,10|0,1:0|0:0,0:0:0:0:
256,134,91832,1,2,0:1:0:0:
76,141,91939,5,2,1:0:0:0:
180,141,92154,1,2,0:1:0:0:
182,185,92261,1,0,0:0:0:0:
131,195,92368,2,0,L|65:194,1,52,10|0,1:0|0:0,0:0:0:0:
131,195,92582,2,0,L|212:193,1,52,2|0,0:1|0:0,0:0:0:0:
354,307,92797,6,0,L|360:187,1,104,2|0,1:0|0:0,0:0:0:0:
224,203,93225,2,0,L|217:311,1,104,10|0,1:0|0:0,0:0:0:0:
354,307,93654,2,0,L|409:198,1,104,2|0,1:0|0:0,0:0:0:0:
349,214,93975,1,0,0:0:0:0:
230,214,94082,2,0,L|292:209,1,52,10|0,1:0|0:0,0:0:0:0:
329,200,94297,2,0,L|294:154,1,52,2|0,0:1|0:0,0:0:0:0:
66,144,94511,5,2,1:0:0:0:
170,144,94725,1,2,0:1:0:0:
221,175,94797,1,0,0:0:0:0:
221,219,94868,1,0,0:0:0:0:
195,240,94939,1,10,1:0:0:0:
157,245,95046,1,0,0:0:0:0:
105,245,95154,2,0,L|194:245,1,52,2|0,0:1|0:0,0:0:0:0:
378,250,95368,6,0,L|461:172,1,104,0|2,1:0|0:1,0:0:0:0:
378,250,95797,2,0,L|24:250,1,291.199991113282,10|2,1:0|0:1,0:0:0:0:
367,290,96226,6,0,P|431:238|355:139,1,208,6|8,1:0|1:0,0:0:0:0:
245,142,96868,2,0,L|173:142,1,52
313,142,97083,2,0,L|454:141,1,104,2|0,1:0|0:0,0:0:0:0:
281,141,97511,2,0,L|409:139,1,104,8|0,1:0|0:0,0:0:0:0:
197,293,97940,6,0,P|170:263|274:161,1,208,2|8,1:0|1:0,0:0:0:0:
385,153,98583,2,0,L|300:152,1,52
213,152,98797,2,0,L|63:153,2,104,2|0|8,1:0|0:0|1:0,0:0:0:0:
348,152,99440,2,0,L|256:152,1,52
120,311,99654,6,0,P|70:222|146:132,1,208,2|8,1:0|1:0,0:0:0:0:
257,140,100297,2,0,L|342:141,1,52
189,140,100511,2,0,L|40:142,1,104,0|0,1:0|0:0,0:0:0:0:
220,141,100940,2,0,L|71:143,1,104,8|0,1:0|0:0,0:0:0:0:
302,142,101368,6,0,P|352:205|274:291,1,208,2|8,1:0|1:0,0:0:0:0:
146,290,102011,2,0,L|235:291,1,52
318,290,102226,2,0,L|319:165,1,104,10|0,1:0|0:0,0:0:0:0:
183,186,102654,2,0,L|64:192,1,104,8|0,1:0|0:0,0:0:0:0:
133,188,102976,1,0,0:0:0:0:
338,275,103083,6,0,P|377:202|300:103,1,208,6|8,1:0|1:0,0:0:0:0:
177,106,103726,2,0,L|96:109,1,52
244,107,103940,2,0,L|379:108,2,104,2|0|8,1:0|0:0|1:0,0:0:0:0:
379,107,104583,2,0,L|289:107,1,52
207,107,104797,6,0,P|166:208|244:234,1,208,2|8,1:0|1:0,0:0:0:0:
100,236,105440,2,0,L|164:237,1,52
334,234,105654,2,0,L|418:119,2,104,2|0|8,1:0|0:0|1:0,0:0:0:0:
469,234,106297,2,0,L|384:234,1,52
199,301,106511,6,0,P|133:262|181:119,1,208,2|8,1:0|1:0,0:0:0:0:
277,143,107154,2,0,L|349:142,1,52
277,143,107368,1,0,1:0:0:0:
141,143,107583,1,0,0:0:0:0:
276,143,107797,2,0,L|401:138,1,104,8|0,1:0|0:0,0:0:0:0:
327,138,108118,1,0,0:0:0:0:
206,138,108226,2,0,L|70:138,1,104,0|0,1:0|0:0,0:0:0:0:
288,138,108654,6,0,P|352:161|288:256,2,208,10|10|10,1:0|1:0|1:0,0:0:0:0:
412,138,109726,1,0,0:0:0:0:
123,144,109940,6,0,L|351:138,1,208,6|8,1:0|1:0,0:0:0:0:
195,138,110583,2,0,L|109:139,1,52
323,139,110797,6,0,P|373:203|287:278,1,208,2|8,1:0|1:0,0:0:0:0:
161,279,111440,2,0,L|161:215,1,52
280,227,111654,2,0,L|415:229,1,104,0|0,1:0|0:0,0:0:0:0:
92,130,112083,6,0,L|92:254,1,104,10|0,1:0|0:0,0:0:0:0:
227,122,112511,2,0,L|227:265,1,104,10|0,1:0|0:0,0:0:0:0:
91,226,112940,2,0,L|91:102,1,104,10|0,1:0|0:0,0:0:0:0:
374,311,113368,6,0,P|424:222|348:132,1,208,6|8,1:0|1:0,0:0:0:0:
237,140,114011,2,0,L|152:141,1,52
361,140,114225,2,0,L|510:142,1,104,2|0,1:0|0:0,0:0:0:0:
361,140,114654,2,0,L|510:142,1,104,10|0,1:0|0:0,0:0:0:0:
192,142,115082,6,0,P|142:205|220:291,1,208,0|8,1:0|1:0,0:0:0:0:
348,290,115725,2,0,L|259:291,1,52
176,290,115940,2,0,L|175:165,1,104,10|0,1:0|0:0,0:0:0:0:
311,186,116368,2,0,L|430:192,1,104,10|0,1:0|0:0,0:0:0:0:
361,188,116690,1,0,0:0:0:0:
156,275,116797,6,0,P|117:202|194:103,1,208,6|8,1:0|1:0,0:0:0:0:
317,106,117440,2,0,L|398:109,1,52
250,107,117654,2,0,L|115:108,2,104,2|0|8,1:0|0:0|1:0,0:0:0:0:
115,107,118297,2,0,L|205:107,1,52
363,102,118511,6,0,P|373:206|287:231,1,208,6|10,1:0|1:0,0:0:0:0:
184,156,119154,2,0,L|183:221,1,52
301,159,119368,2,0,L|157:158,1,104,10|0,1:0|0:0,0:0:0:0:
38,224,119797,2,0,L|160:224,1,104,10|0,1:0|0:0,0:0:0:0:
417,255,120226,6,0,L|297:256,1,104,6|0,1:0|0:0,0:0:0:0:
448,256,120654,2,0,L|318:237,1,104,10|0,1:0|0:0,0:0:0:0:
71,255,121083,2,0,L|212:255,1,104,10|0,1:0|0:0,0:0:0:0:
39,255,121511,2,0,L|170:255,1,104,10|0,1:0|0:0,0:0:0:0:
416,181,121940,5,6,1:0:0:0:
448,221,122047,1,8,0:0:0:0:
420,272,122154,1,0,0:0:0:0:
246,272,122261,1,0,0:0:0:0:
202,246,122368,1,6,0:1:0:0:
170,205,122475,1,0,0:0:0:0:
157,155,122582,1,0,1:0:0:0:
170,105,122689,1,8,0:0:0:0:
353,87,122797,5,6,1:0:0:0:
375,132,122904,1,0,0:0:0:0:
355,179,123011,1,8,0:0:0:0:
307,196,123118,1,0,0:0:0:0:
142,196,123226,1,6,1:0:0:0:
89,224,123333,1,8,0:0:0:0:
88,275,123440,1,0,0:0:0:0:
142,306,123547,1,8,0:0:0:0:
348,352,123654,6,0,P|281:141|179:116,2,312,4|2|2,1:0|0:0|0:0,0:0:0:0:
159,351,125368,2,0,P|123:314|371:145,1,520,2|2,0:0|0:0,0:0:0:0:
287,172,126654,1,2,0:0:0:0:
369,143,126868,1,2,0:0:0:0:
181,322,127083,6,0,P|248:111|350:86,2,312,2|2|2,0:0|0:0|0:0,0:0:0:0:
368,354,128797,2,0,P|462:255|224:214,1,520,2|2,0:0|0:0,0:0:0:0:
318,208,130083,1,2,0:0:0:0:
224,212,130297,1,2,0:0:0:0:
429,330,130511,6,0,P|406:200|228:147,2,312,2|2|2,0:0|0:0|0:0,0:0:0:0:
241,330,132226,2,0,P|185:268|429:98,1,494,2|0,0:0|0:0,0:0:0:0:
389,94,133297,1,2,0:0:0:0:
285,94,133511,1,2,0:0:0:0:
389,94,133726,1,2,0:0:0:0:
202,94,133940,6,0,L|74:92,1,104,2|2,0:0|0:0,0:0:0:0:
202,94,134368,2,0,B|283:87|346:162|331:250|271:295|211:296|211:296|145:294|145:294|323:294|323:294,1,546.000020828248,2|0,0:0|0:0,0:0:0:0:
353,296,136083,2,0,L|134:297,1,208,2|2,0:0|0:0,0:0:0:0:
353,296,136940,1,2,0:0:0:0:
164,352,137368,6,0,P|231:141|333:116,2,312,2|2|2,3:2|0:0|0:0,0:0:0:0:
352,352,139082,2,0,P|388:315|140:146,1,520,2|2,0:0|3:2,0:0:0:0:
225,172,140368,1,2,0:0:0:0:
143,143,140582,1,2,0:0:0:0:
331,322,140797,6,0,P|264:111|162:86,2,312,2|2|2,3:2|0:0|0:0,0:0:0:0:
144,354,142511,2,0,P|43:254|286:181,1,520,2|2,0:0|3:2,0:0:0:0:
188,174,143797,1,2,0:0:0:0:
283,174,144011,1,2,0:0:0:0:
83,330,144225,6,0,P|106:200|284:147,2,312,2|2|2,3:2|0:0|0:0,0:0:0:0:
271,330,145940,2,0,P|297:262|127:134,1,312,2|2,0:0|0:0,0:0:0:0:
140,129,147011,1,2,3:2:0:0:
244,129,147225,1,2,0:0:0:0:
140,129,147440,1,2,0:0:0:0:
327,93,147654,6,0,L|455:91,1,104,2|2,3:2|0:0,0:0:0:0:
290,100,148083,2,0,B|154:112|108:344|382:417|461:211|367:126|367:126|288:125|288:125|243:132|218:181|238:226|276:243|396:230,1,858.000032730104,2|2,0:0|3:2,0:0:0:0:
441,123,150654,2,0,L|316:121,1,104,2|2,0:0|0:0,0:0:0:0:
146,310,151083,6,0,P|116:236|247:69,2,312,2|2|2,3:2|0:0|0:0,0:0:0:0:
332,309,152797,2,0,P|328:224|120:138,1,312,2|2,0:0|0:0,0:0:0:0:
146,128,153868,1,2,3:2:0:0:
240,128,154083,1,2,0:0:0:0:
146,128,154297,1,2,0:0:0:0:
332,128,154511,5,2,3:2:0:0:
229,128,154725,1,2,0:0:0:0:
417,128,154940,1,2,0:0:0:0:
230,128,155154,5,0,0:0:0:0:
190,160,155261,1,0,0:0:0:0:
173,208,155368,1,0,3:0:0:0:
185,258,155475,1,8,0:3:0:0:
221,294,155582,1,0,0:0:0:0:
356,294,155797,2,0,L|350:174,1,104
283,190,156118,1,8,0:3:0:0:
162,190,156226,6,0,L|86:120,2,104,0|0|0,0:0|0:0|3:0,0:0:0:0:
333,194,156976,1,8,0:3:0:0:
384,194,157083,2,0,L|428:319,2,104,0|0|0,3:0|3:0|3:0,0:0:0:0:
196,194,157940,6,0,L|171:326,2,104,0|0|0,3:0|0:0|0:0,0:0:0:0:
331,194,158583,1,0,0:0:0:0:
296,155,158690,1,0,0:0:0:0:
254,125,158797,1,0,3:0:0:0:
206,104,158904,1,8,0:3:0:0:
155,93,159011,1,0,3:0:0:0:
290,93,159226,1,0,0:0:0:0:
416,96,159440,2,0,L|319:93,1,52,0|8,0:0|0:3,0:0:0:0:
256,96,159654,6,0,L|272:243,2,104,0|0|0,3:0|0:0|3:0,0:0:0:0:
120,96,160297,1,0,0:0:0:0:
166,96,160404,1,0,0:0:0:0:
212,97,160511,2,0,L|217:216,2,104
399,193,161368,6,0,L|399:309,2,104,0|0|0,3:0|0:0|0:0,0:0:0:0:
263,193,162011,1,0,0:0:0:0:
217,193,162118,1,0,0:0:0:0:
155,201,162226,2,0,L|160:320,2,104
290,201,162868,1,0,0:0:0:0:
329,169,162975,1,0,0:0:0:0:
340,119,163082,1,0,3:0:0:0:
315,74,163189,1,0,0:0:0:0:
267,57,163296,1,0,0:0:0:0:
138,313,163511,6,0,B|295:313|295:313|138:317|138:317|41:277|13:161|60:60|165:30,1,624.000023803712
156,60,164476,1,0,0:0:0:0:
104,60,164583,1,0,0:0:0:0:
378,321,164797,6,0,P|437:247|376:166,1,208,4|0,1:0|0:0,0:0:0:0:
274,166,165440,2,0,L|234:299,2,104
378,166,166083,2,0,L|422:288,2,104
190,166,166726,1,0,0:0:0:0:
190,166,167261,5,0,0:0:0:0:
136,166,167368,2,0,L|136:282,1,104
240,270,167797,2,0,L|241:157,1,104
136,166,168226,2,0,L|135:269,1,104
322,269,168654,1,0,0:0:0:0:
322,269,168976,5,0,0:0:0:0:
373,269,169083,2,0,L|373:116,1,104
269,165,169511,2,0,L|270:294,1,104
374,268,169940,2,0,L|374:140,1,104
187,164,170368,1,0,0:0:0:0:
190,166,170690,5,0,0:0:0:0:
122,166,170797,2,0,L|122:282,1,104,2|2,0:0|0:0,0:0:0:0:
257,270,171226,2,0,L|258:157,1,104,2|2,0:0|0:0,0:0:0:0:
122,166,171655,2,0,L|121:269,1,104,2|2,0:0|0:0,0:0:0:0:
307,269,172083,1,0,0:0:0:0:
307,269,172404,5,0,0:0:0:0:
374,269,172511,2,0,L|374:116,1,104,2|2,1:3|0:0,0:0:0:0:
238,165,172939,2,0,L|239:294,1,104,2|2,1:3|0:0,0:0:0:0:
374,269,173368,2,0,L|374:141,1,104,2|2,1:3|0:0,0:0:0:0:
187,165,173796,1,0,0:0:0:0:
187,165,174118,5,0,0:0:0:0:
109,165,174225,2,0,L|109:281,1,104,2|2,1:3|0:0,0:0:0:0:
265,269,174654,2,0,L|266:156,1,104,2|2,1:3|0:0,0:0:0:0:
109,165,175083,2,0,L|108:268,1,104,2|2,1:3|0:0,0:0:0:0:
295,267,175511,1,0,0:0:0:0:
295,267,175833,5,0,0:0:0:0:
372,267,175940,2,0,L|372:114,1,104,2|2,1:3|0:0,0:0:0:0:
216,163,176368,2,0,L|217:292,1,104,2|2,1:3|0:0,0:0:0:0:
372,267,176797,2,0,L|372:139,1,104,2|2,1:3|0:0,0:0:0:0:
184,167,177225,1,0,0:0:0:0:
184,167,177547,5,0,0:0:0:0:
116,167,177654,2,0,L|80:278,1,104,2|2,1:3|0:0,0:0:0:0:
116,167,178083,2,0,L|447:166,1,280.800001071167,2|2,1:3|0:0,0:0:0:0:
436,262,178511,2,0,L|396:166,1,104,4|4,1:2|0:2,0:0:0:0:
97,294,178940,6,0,P|88:214|193:167,2,208,8|4|4,1:0|1:2|1:2,0:0:0:0:
200,294,180011,1,4,0:2:0:0:
64,294,180226,2,0,L|192:292,1,104,4|4,1:2|0:2,0:0:0:0:
356,298,180654,6,0,P|365:218|260:171,2,208,8|4|4,1:0|1:2|1:2,0:0:0:0:
253,298,181725,1,4,0:2:0:0:
389,298,181940,2,0,L|261:296,1,104,4|4,1:2|0:2,0:0:0:0:
98,291,182368,6,0,P|96:217|205:157,2,208,8|4|4,1:0|1:2|1:2,0:0:0:0:
202,292,183440,1,4,0:2:0:0:
66,292,183654,2,0,L|206:291,1,104,4|4,1:2|0:2,0:0:0:0:
357,294,184083,6,0,P|376:216|267:162,2,208,8|4|4,1:0|1:2|1:2,0:0:0:0:
253,294,185155,1,4,0:2:0:0:
389,294,185369,2,0,L|249:293,1,104,4|4,1:2|0:2,0:0:0:0:
97,290,185797,6,0,B|77:172|77:172|65:159,1,104,8|8,1:0|0:0,0:0:0:0:
145,185,186118,1,0,0:0:0:0:
264,185,186225,2,0,L|286:313,1,104,4|0,1:2|0:0,0:0:0:0:
145,287,186654,2,0,L|276:286,1,104,4|4,1:2|0:2,0:0:0:0:
113,286,187083,2,0,L|254:289,1,104,4|4,1:2|0:2,0:0:0:0:
404,296,187511,6,0,B|424:178|424:178|436:165,1,104,8|8,1:0|0:0,0:0:0:0:
356,191,187832,1,0,0:0:0:0:
237,191,187939,2,0,L|215:319,1,104,4|0,1:2|0:0,0:0:0:0:
356,293,188368,2,0,L|225:292,1,104,4|4,1:2|0:2,0:0:0:0:
388,292,188797,2,0,L|247:295,1,104,4|4,1:2|0:2,0:0:0:0:
96,288,189226,6,0,B|76:170|76:170|64:157,1,104,8|8,1:0|0:0,0:0:0:0:
144,183,189547,1,0,0:0:0:0:
263,183,189654,2,0,L|285:311,1,104,4|0,1:2|0:0,0:0:0:0:
144,285,190083,2,0,L|275:284,1,104,4|4,1:2|0:2,0:0:0:0:
112,284,190512,2,0,L|253:287,1,104,4|4,1:2|0:2,0:0:0:0:
401,285,190940,6,0,B|460:215|439:105|345:59|277:80|277:80|123:80|123:80|277:80|277:80|112:80,1,780.00002975464,8|0,1:0|0:0,0:0:0:0:
396,275,192226,6,0,L|424:140,2,104,6|0|8,1:0|0:0|1:0,0:0:0:0:
344,276,192761,1,0,0:0:0:0:
208,276,192976,1,0,0:0:0:0:
156,276,193083,2,0,L|94:135,2,104,0|0|8,1:0|0:0|1:0,0:0:0:0:
291,276,193726,2,0,L|230:276,1,52
120,281,193940,6,0,L|92:146,2,104,0|0|8,1:0|0:0|1:0,0:0:0:0:
172,282,194475,1,0,0:0:0:0:
308,282,194690,1,0,0:0:0:0:
360,282,194797,2,0,L|422:141,2,104,0|0|8,1:0|0:0|1:0,0:0:0:0:
224,282,195440,2,0,L|285:279,1,52
395,279,195654,6,0,L|454:160,2,104,0|0|8,1:0|0:0|1:0,0:0:0:0:
342,279,196190,1,0,0:0:0:0:
155,285,196404,1,0,0:0:0:0:
101,284,196511,2,0,L|39:173,2,104,0|0|8,1:0|0:0|1:0,0:0:0:0:
290,285,197154,2,0,L|207:284,1,52
115,263,197368,6,0,L|58:158,2,104,0|0|8,1:0|0:0|1:0,0:0:0:0:
167,263,197904,1,0,0:0:0:0:
353,263,198118,1,0,0:0:0:0:
405,263,198226,2,0,L|437:146,1,104,0|0,1:0|0:0,0:0:0:0:
328,162,198654,2,0,L|456:162,1,104,8|0,1:0|0:0,0:0:0:0:
147,238,199083,6,0,L|90:133,2,104,4|0|8,1:0|1:0|1:0,0:0:0:0:
199,238,199619,1,0,0:0:0:0:
385,238,199833,1,0,0:0:0:0:
437,238,199941,2,0,L|288:238,1,104,0|0,1:0|1:0,0:0:0:0:
229,238,200369,2,0,L|101:238,1,104,8|0,1:0|1:0,0:0:0:0:
405,233,200797,6,0,L|462:128,2,104,0|0|8,1:0|1:0|1:0,0:0:0:0:
353,233,201333,1,0,0:0:0:0:
167,233,201547,1,0,0:0:0:0:
115,233,201655,2,0,L|264:233,1,104,0|0,1:0|1:0,0:0:0:0:
323,233,202083,2,0,L|451:233,1,104,8|0,1:0|1:0,0:0:0:0:
146,306,202511,5,4,1:0:0:0:
100,287,202618,1,0,0:0:0:0:
98,238,202725,1,0,1:0:0:0:
143,218,202832,1,0,0:0:0:0:
263,218,202940,1,8,1:0:0:0:
311,179,203047,1,0,1:0:0:0:
311,179,203154,1,0,1:0:0:0:
263,218,203261,1,0,1:0:0:0:
151,233,203368,1,0,1:0:0:0:
106,185,203475,1,0,1:0:0:0:
151,233,203582,1,0,1:0:0:0:
214,238,203689,1,0,1:0:0:0:
381,238,203797,5,0,0:0:0:0:
403,219,203868,1,0,0:0:0:0:
409,184,203940,1,0,0:0:0:0:
387,147,204011,1,0,0:0:0:0:
351,128,204082,1,0,0:0:0:0:
151,120,204226,6,0,L|115:230,1,104,4|0,1:0|0:0,0:0:0:0:
173,217,204547,1,0,0:0:0:0:
349,218,204654,2,0,L|396:119,1,104,4|0,1:0|0:0,0:0:0:0:
341,124,204976,1,8,0:0:0:0:
159,124,205083,2,0,L|74:198,1,104,4|8,1:0|0:0,0:0:0:0:
159,124,205511,2,0,L|478:124,1,291.199991113282,4|0,1:0|0:0,0:0:0:0:
146,129,205940,6,0,L|96:256,2,104,6|0|8,1:0|0:0|1:0,0:0:0:0:
333,129,206583,2,0,L|333:199,1,52
213,181,206797,2,0,L|73:178,1,104,0|0,1:0|0:0,0:0:0:0:
189,179,207226,2,0,L|85:179,1,104,8|0,1:0|0:0,0:0:0:0:
357,275,207654,6,0,L|392:171,1,104,0|0,1:0|0:0,0:0:0:0:
254,176,208083,1,8,1:0:0:0:
390,176,208297,2,0,L|298:174,1,52
218,174,208511,2,0,L|103:176,1,104
254,176,208940,2,0,L|106:173,1,104,8|0,1:0|0:0,0:0:0:0:
423,164,209368,6,0,L|473:291,2,104,0|0|8,1:0|0:0|1:0,0:0:0:0:
236,164,210011,2,0,L|236:234,1,52
355,216,210225,2,0,L|495:213,1,104,0|0,1:0|0:0,0:0:0:0:
355,216,210654,2,0,L|459:216,1,104,8|0,1:0|0:0,0:0:0:0:
182,313,211082,6,0,L|179:204,1,104,0|0,1:0|0:0,0:0:0:0:
315,211,211511,1,8,1:0:0:0:
179,211,211725,2,0,L|271:209,1,52
351,209,211939,2,0,L|466:211,1,104
315,211,212368,2,0,L|463:208,1,104,8|0,1:0|0:0,0:0:0:0:
134,233,212797,6,0,L|95:136,2,104,0|0|8,1:0|0:0|1:0,0:0:0:0:
321,233,213440,2,0,L|321:181,1,52
201,181,213654,2,0,L|97:183,1,104,0|0,1:0|0:0,0:0:0:0:
177,182,214083,2,0,L|73:182,1,104,8|0,1:0|0:0,0:0:0:0:
345,87,214511,6,0,L|378:185,1,104,0|0,1:0|0:0,0:0:0:0:
242,186,214940,1,8,1:0:0:0:
378,186,215154,2,0,L|326:187,1,52
206,188,215368,2,0,L|102:186,1,104,0|0,1:0|0:0,0:0:0:0:
242,186,215797,2,0,L|138:188,1,104,8|0,1:0|0:0,0:0:0:0:
411,198,216225,6,0,L|449:101,2,104,0|0|8,1:0|0:0|1:0,0:0:0:0:
224,198,216868,2,0,L|224:146,1,52
344,146,217082,2,0,L|447:148,1,104
356,145,217511,2,0,L|460:145,1,104,8|0,1:0|0:0,0:0:0:0:
188,51,217939,6,0,L|167:155,1,104,0|0,1:0|0:0,0:0:0:0:
303,151,218368,1,8,1:0:0:0:
167,151,218582,2,0,L|218:152,1,52
339,153,218796,2,0,L|442:151,1,104
149,150,219226,2,0,L|88:260,1,104,10|0,1:0|0:0,0:0:0:0:
148,251,219547,1,0,0:0:0:0:
358,285,219654,6,0,P|395:217|305:129,1,208,6|8,1:0|1:0,0:0:0:0:
182,129,220297,2,0,L|247:129,1,52,2|0,0:1|0:0,0:0:0:0:
353,129,220511,2,0,L|487:128,1,104,0|0,1:0|0:0,0:0:0:0:
164,128,220940,6,0,P|125:217|199:280,1,208,10|0,1:0|1:0,0:0:0:0:
334,279,221583,1,0,0:0:0:0:
198,279,221797,2,0,L|64:278,1,104,10|0,1:0|0:0,0:0:0:0:
370,281,222226,6,0,P|388:195|287:160,2,208,2|10|0,1:0|1:0|1:0,0:0:0:0:
234,281,223297,1,0,0:0:0:0:
370,281,223511,2,0,P|416:212|337:158,1,156,10|0,1:0|0:0,0:0:0:0:
160,288,223940,6,0,P|123:220|213:132,1,208,2|8,1:0|1:0,0:0:0:0:
335,132,224583,1,2,0:1:0:0:
199,132,224797,2,0,L|65:131,1,104,0|0,1:0|0:0,0:0:0:0:
368,131,225226,6,0,P|400:222|312:278,1,208,10|0,1:0|1:0,0:0:0:0:
185,278,225868,1,2,0:1:0:0:
320,278,226083,2,0,L|454:277,1,104,8|0,1:0|0:0,0:0:0:0:
148,288,226512,6,0,P|155:217|271:162,2,208,2|10|0,1:0|1:0|1:0,0:0:0:0:
283,288,227583,1,2,0:1:0:0:
148,288,227797,2,0,P|115:220|181:158,1,156,8|0,1:0|0:0,0:0:0:0:
368,95,228226,6,0,P|405:163|315:251,1,208,2|8,1:0|1:0,0:0:0:0:
192,251,228869,2,0,L|257:251,1,52,2|0,0:1|0:0,0:0:0:0:
363,251,229083,2,0,L|497:252,1,104,0|0,1:0|0:0,0:0:0:0:
174,252,229512,6,0,P|135:163|209:100,1,208,10|0,1:0|1:0,0:0:0:0:
344,100,230154,1,0,0:0:0:0:
208,100,230369,2,0,L|74:101,1,104,10|0,1:0|0:0,0:0:0:0:
375,98,230798,6,0,P|360:171|233:158,2,208,2|10|0,1:0|1:0|1:0,0:0:0:0:
240,98,231868,1,0,0:0:0:0:
347,127,232083,2,0,P|393:196|314:250,1,156,10|0,1:0|0:0,0:0:0:0:
155,290,232511,6,0,P|161:244|266:192,1,156,2|0,1:0|0:0,0:0:0:0:
352,192,232940,1,10,1:0:0:0:
377,147,233047,1,0,0:0:0:0:
371,96,233154,1,0,0:0:0:0:
346,61,233208,1,0,0:0:0:0:
301,57,233261,1,0,0:0:0:0:
119,301,233368,6,0,P|60:227|186:79,1,312.000011901856,6|8,1:0|1:0,0:0:0:0:
360,78,234011,2,0,L|445:146,2,104,2|0|0,0:1|1:0|0:0,0:0:0:0:
82,289,234654,6,0,P|96:192|172:163,1,156,10|0,1:0|0:0,0:0:0:0:
192,165,235083,2,0,L|61:162,2,104,0|2|8,1:0|0:1|1:0,0:0:0:0:
296,165,235726,2,0,L|383:161,1,52
159,160,235940,6,0,P|86:194|101:329,2,208,2|10|0,1:0|1:0|1:0,0:0:0:0:
55,160,237011,1,0,0:0:0:0:
381,302,237226,6,0,P|440:228|314:80,1,312.000011901856,10|2,1:0|1:0,0:0:0:0:
140,79,237869,2,0,L|55:147,2,104,0|8|2,0:0|1:0|0:1,0:0:0:0:
418,290,238511,6,0,P|404:193|328:164,1,156,0|0,1:0|0:0,0:0:0:0:
308,166,238941,2,0,L|439:163,2,104,10|0|0,1:0|0:0|1:0,0:0:0:0:
204,166,239583,6,0,L|91:165,1,104,2|8,0:1|1:0,0:0:0:0:
286,165,240011,1,0,0:0:0:0:
289,207,240065,1,0,0:0:0:0:
286,165,240118,1,0,0:0:0:0:
86,331,240226,2,0,P|63:238|149:179,2,208,6|10|0,1:0|1:0|1:0,0:0:0:0:
381,302,241297,6,0,P|448:232|314:80,1,312.000011901856,2|0,0:1|0:0,0:0:0:0:
59,104,241940,2,0,L|177:160,2,104,2|0|8,1:0|0:0|1:0,0:0:0:0:
418,290,242583,6,0,P|404:193|371:180,1,104,2|0,0:1|0:0,0:0:0:0:
360,166,242904,1,0,0:0:0:0:
308,166,243011,2,0,L|439:163,2,104,0|14|0,0:0|1:0|0:0,0:0:0:0:
278,167,243493,1,0,0:0:0:0:
315,166,243547,1,0,0:0:0:0:
367,166,243655,1,4,1:0:0:0:
78,139,243868,6,0,P|60:217|153:288,1,208,2|0,0:1|0:0,0:0:0:0:
343,293,244511,2,0,P|362:267|375:194,1,104,2|0,0:1|3:0,0:0:0:0:
340,193,244797,1,0,0:0:0:0:
305,188,244868,1,0,0:0:0:0:
132,271,244940,6,0,P|116:219|153:159,1,104,2|0,3:1|3:0,0:0:0:0:
321,290,245368,5,6,1:0:0:0:
353,250,245475,1,8,0:0:0:0:
343,201,245582,1,0,0:0:0:0:
299,176,245689,1,0,0:0:0:0:
121,176,245797,1,6,1:0:0:0:
104,128,245904,1,0,0:0:0:0:
128,83,246011,1,0,0:0:0:0:
177,71,246118,1,8,0:0:0:0:
356,71,246226,1,6,1:0:0:0:
362,122,246333,1,0,0:0:0:0:
352,173,246440,1,8,0:0:0:0:
325,217,246547,1,0,0:0:0:0:
102,227,246654,1,6,1:0:0:0:
360,220,247083,5,6,1:0:0:0:
256,192,247618,12,0,248047,0:0:0:0:
256,192,248476,12,0,248904,0:0:0:0:
256,192,249333,12,0,249761,0:0:0:0:
256,192,250190,12,0,250618,0:0:0:0:
256,192,251047,12,0,251476,0:0:0:0:
256,192,251904,12,0,252333,0:0:0:0:
256,192,252761,12,0,253190,0:0:0:0:
256,192,253618,12,0,253940,0:0:0:0:
256,192,254476,12,0,254797,0:0:0:0:
256,192,255333,12,0,255547,0:0:0:0:
256,192,256190,12,0,256404,0:0:0:0:
