osu file format v14

[General]
AudioFilename: audio.mp3
AudioLeadIn: 0
PreviewTime: 95368
Countdown: 0
SampleSet: Soft
StackLeniency: 0.7
Mode: 2
LetterboxInBreaks: 0
WidescreenStoryboard: 0

[Editor]
Bookmarks: 217,13931,27645,41359,68788,96217,123645,164788,178502,192217,205931,219645,233359,243645,245359,247074
DistanceSpacing: 1
BeatDivisor: 4
GridSize: 32
TimelineZoom: 2.899999

[Metadata]
Title:resurrectedreplayer
TitleUnicode:resurrectedreplayer
Artist:zts
ArtistUnicode:zts
Creator:Kimitakari
Version:bernkastelfeet
Source:うみねこのなく頃に散
Tags:nelly m0ru moru wenect unranked mapper unranked_mapper electronic instrumental video game vgm Umineko no Naku Koro ni Chiru musicbox Red bernkastel feet resurrected replayer when they cry wtc visual novel vn erika furudo 古戸 ヱリカ 07th expansion code label czl
BeatmapID:3977764
BeatmapSetID:1926369

[Difficulty]
HPDrainRate:6
CircleSize:4.4
OverallDifficulty:8.4
ApproachRate:8.4
SliderMultiplier:2.2
SliderTickRate:1

[Events]
//Background and Video events
0,0,"bgbackintown.jpg",0,0
//Break Periods
//Storyboard Layer 0 (Background)
//Storyboard Layer 1 (Fail)
//Storyboard Layer 2 (Pass)
//Storyboard Layer 3 (Foreground)
//Storyboard Layer 4 (Overlay)
//Storyboard Sound Samples

[TimingPoints]
226,428.571428571429,4,2,1,40,1,0
13940,-100,4,3,1,50,0,0
27654,-100,4,3,1,55,0,0
39654,-100,4,3,1,65,0,0
40940,-100,4,3,1,60,0,0
41368,-100,4,3,1,55,0,0
55083,-100,4,3,1,60,0,0
68368,-100,4,3,3,65,0,0
68797,-100,4,3,3,70,0,0
95583,-100,4,3,1,73,0,0
95797,-40,4,3,1,75,0,0
96011,-40,4,3,1,78,0,0
96226,-100,4,3,2,80,0,1
96654,-100,4,3,1,80,0,1
109083,-55.5555555555556,4,3,1,80,0,1
109511,-100,4,3,1,80,0,1
109940,-100,4,3,2,80,0,1
110368,-100,4,3,1,80,0,1
121940,-100,4,3,2,80,0,1
122047,-100,4,3,1,80,0,1
123654,-111.111111111111,4,3,2,70,0,0
124297,-111.111111111111,4,2,1,50,0,0
139083,-111.111111111111,4,2,1,51,0,0
140797,-111.111111111111,4,2,1,52,0,0
142511,-111.111111111111,4,2,1,53,0,0
144226,-111.111111111111,4,2,1,54,0,0
145940,-111.111111111111,4,2,1,55,0,0
147654,-111.111111111111,4,2,1,56,0,0
150440,-111.111111111111,4,2,1,57,0,0
150654,-111.111111111111,4,2,1,58,0,0
150868,-111.111111111111,4,2,1,59,0,0
151083,-111.111111111111,4,2,1,60,0,0
156226,-111.111111111111,4,2,1,50,0,0
157940,-111.111111111111,4,2,1,40,0,0
159654,-111.111111111111,4,2,1,30,0,0
161368,-111.111111111111,4,2,1,20,0,0
163083,-66.6666666666667,4,2,1,20,0,0
163511,-66.6666666666667,4,2,1,40,0,0
163940,-66.6666666666667,4,2,1,50,0,0
164368,-66.6666666666667,4,2,1,30,0,0
164797,-100,4,3,2,30,0,0
170797,-100,4,3,2,31,0,0
171226,-100,4,3,2,32,0,0
171654,-100,4,3,2,33,0,0
172511,-100,4,3,2,34,0,0
172940,-100,4,3,2,35,0,0
173368,-100,4,3,2,36,0,0
174226,-100,4,3,2,37,0,0
174654,-100,4,3,2,38,0,0
175083,-100,4,3,2,39,0,0
175940,-100,4,3,2,40,0,0
176368,-100,4,3,2,41,0,0
176797,-100,4,3,2,42,0,0
177654,-100,4,3,2,43,0,0
178083,-40,4,3,2,44,0,0
178297,-40,4,3,2,52,0,0
178511,-100,4,3,2,60,0,0
178940,-100,4,3,2,61,0,0
179368,-100,4,3,2,62,0,0
179797,-100,4,3,2,63,0,0
180226,-100,4,3,2,64,0,0
180654,-100,4,3,2,65,0,0
181083,-100,4,3,2,66,0,0
181511,-100,4,3,2,67,0,0
181940,-100,4,3,2,68,0,0
182368,-100,4,3,2,69,0,0
182797,-100,4,3,2,70,0,0
183226,-100,4,3,2,71,0,0
183654,-100,4,3,2,72,0,0
184083,-100,4,3,2,73,0,0
184511,-100,4,3,2,74,0,0
184940,-100,4,3,2,75,0,0
185368,-100,4,3,2,76,0,0
185797,-100,4,3,2,77,0,0
186226,-100,4,3,2,78,0,0
186654,-100,4,3,2,79,0,0
187083,-100,4,3,2,80,0,0
192226,-100,4,3,2,70,0,0
204226,-100,4,3,1,80,0,0
205940,-100,4,3,2,75,0,0
206154,-100,4,3,1,75,0,0
219654,-100,4,3,2,75,0,0
219868,-100,4,3,1,75,0,0
226511,-100,4,3,2,75,0,0
226726,-100,4,3,1,75,0,0
233368,-100,4,3,2,75,0,0
233583,-100,4,3,1,75,0,0
241940,-100,4,3,2,75,0,0
242154,-100,4,3,1,75,0,0
243654,-100,4,3,1,70,0,0
243868,-100,4,2,1,60,0,0
245368,-100,4,3,1,80,0,0
246654,-100,4,3,1,70,0,0
246976,-100,4,3,1,5,0,0
247083,-100,4,3,2,70,0,0
247511,-100,4,2,1,65,0,0
247940,-100,4,2,1,60,0,0
248368,-100,4,2,1,55,0,0
248797,-100,4,2,1,50,0,0
249226,-100,4,2,1,45,0,0
249654,-100,4,2,1,40,0,0
250083,-100,4,2,1,35,0,0
250511,-100,4,2,1,30,0,0
250940,-100,4,2,1,25,0,0
251368,-100,4,2,1,20,0,0
251797,-100,4,2,1,15,0,0
252226,-100,4,2,1,10,0,0
252654,-100,4,2,1,5,0,0

[Colours]
Combo1 : 158,83,215
Combo2 : 221,91,227

[HitObjects]
256,192,226,12,2,3654,0:3:0:0:
256,192,7083,12,0,8797,0:0:0:0:
256,192,8851,12,0,10511,0:0:0:0:
256,192,12226,12,0,13726,0:0:0:0:
360,64,13940,5,4,1:0:0:0:
250,88,14154,2,0,L|245:198,1,110
444,276,14583,2,0,L|389:273,1,55,0|8,0:0|0:0,0:0:0:0:
279,192,14904,2,0,L|333:189,1,55,8|0,0:0|1:0,0:0:0:0:
444,181,15226,1,0,0:0:0:0:
246,146,15440,5,0,0:0:0:0:
191,149,15547,2,0,L|183:319,1,165,8|0,0:0|0:0,0:0:0:0:
294,338,16083,1,0,1:0:0:0:
96,353,16297,2,0,L|93:298,1,55,0|8,0:0|0:0,0:0:0:0:
203,220,16618,2,0,L|149:217,1,55,8|0,0:0|1:0,0:0:0:0:
38,209,16940,1,0,0:0:0:0:
258,83,17368,6,0,L|291:194,2,110,2|0|0,0:0|0:0|0:0,0:0:0:0:
59,60,18011,2,0,L|114:57,1,55,0|8,0:0|0:0,0:0:0:0:
224,160,18333,2,0,L|170:157,1,55,8|0,0:0|1:0,0:0:0:0:
59,149,18655,1,0,0:0:0:0:
256,255,18868,5,0,0:0:0:0:
311,252,18975,2,0,L|319:81,1,165,8|0,0:0|0:0,0:0:0:0:
429,70,19511,1,0,1:0:0:0:
230,55,19726,2,0,L|176:52,1,55,0|8,0:0|0:0,0:0:0:0:
340,143,20154,2,0,L|345:252,1,110,0|0,1:0|0:0,0:0:0:0:
125,344,20797,5,0,1:0:0:0:
234,320,21011,2,0,L|239:210,1,110
40,113,21440,2,0,L|95:110,1,55,0|8,0:0|0:0,0:0:0:0:
205,213,21762,2,0,L|151:210,1,55,8|0,0:0|1:0,0:0:0:0:
40,202,22084,1,0,0:0:0:0:
237,338,22297,5,0,0:0:0:0:
292,335,22404,2,0,L|300:164,1,165,8|0,0:0|0:0,0:0:0:0:
189,143,22940,1,0,0:0:0:0:
387,102,23154,2,0,L|334:99,1,55,0|8,0:0|0:0,0:0:0:0:
167,90,23583,2,0,L|161:200,1,110,0|0,1:0|0:0,0:0:0:0:
382,306,24226,6,0,L|413:200,2,110
184,316,24868,2,0,L|181:261,1,55,0|8,0:0|0:0,0:0:0:0:
291,183,25189,2,0,L|237:180,1,55,8|0,0:0|1:0,0:0:0:0:
126,172,25511,1,0,0:0:0:0:
325,95,25726,5,0,0:0:0:0:
381,98,25833,2,0,L|389:268,1,165,8|0,0:0|0:0,0:0:0:0:
191,337,26368,2,0,L|301:332,1,110,0|0,1:0|0:0,0:0:0:0:
323,287,26690,1,8,0:0:0:0:
301,247,26797,2,0,L|191:242,1,110,0|0,0:0|1:0,0:0:0:0:
390,172,27226,6,0,L|401:136,5,36.6666666666667
196,67,27654,6,0,L|86:62,1,110,4|0,1:0|0:0,0:0:0:0:
285,138,28083,2,0,L|290:248,1,110,8|0,1:0|0:0,0:0:0:0:
235,267,28404,1,0,0:0:0:0:
290,290,28511,2,0,L|345:287,2,55,0|8|0,1:0|0:0|0:0,0:0:0:0:
91,298,28940,2,0,L|86:188,1,110,8|0,1:0|0:0,0:0:0:0:
141,168,29261,1,8,0:0:0:0:
196,147,29368,6,0,L|201:257,1,110,0|0,1:0|0:0,0:0:0:0:
400,294,29797,1,8,1:0:0:0:
290,284,30011,2,0,L|287:229,1,55,0|8,0:0|0:0,0:0:0:0:
354,181,30226,2,0,L|299:178,1,55,0|8,1:0|0:0,0:0:0:0:
233,174,30440,1,0,0:0:0:0:
431,103,30654,1,8,1:0:0:0:
431,103,31083,6,0,L|436:213,1,110,2|0,1:3|0:0,0:0:0:0:
238,287,31511,2,0,L|348:282,1,110,8|0,1:0|0:0,0:0:0:0:
345,227,31833,1,8,0:0:0:0:
318,180,31940,1,0,1:0:0:0:
272,150,32047,1,8,0:0:0:0:
218,145,32154,1,0,0:0:0:0:
416,108,32368,2,0,L|420:217,1,110,8|0,1:0|0:0,0:0:0:0:
365,238,32689,1,8,0:0:0:0:
310,258,32796,6,0,L|304:148,1,110,0|0,1:0|0:0,0:0:0:0:
105,116,33226,1,8,1:0:0:0:
215,133,33440,2,0,L|230:186,2,55,0|8|0,0:0|0:0|1:0,0:0:0:0:
105,116,33868,1,0,0:0:0:0:
304,101,34083,1,8,1:0:0:0:
304,101,34511,6,0,L|310:211,1,110,4|0,1:0|0:0,0:0:0:0:
111,281,34940,2,0,L|221:275,1,110,8|0,1:0|0:0,0:0:0:0:
166,233,35261,1,8,0:0:0:0:
111,231,35368,1,0,1:0:0:0:
166,233,35476,1,8,0:0:0:0:
111,231,35583,1,0,0:0:0:0:
309,187,35797,2,0,L|314:77,1,110,8|0,1:0|0:0,0:0:0:0:
259,57,36118,1,8,0:0:0:0:
204,36,36226,6,0,L|314:31,1,110,2|0,1:3|0:0,0:0:0:0:
116,105,36654,1,8,1:0:0:0:
226,133,36868,2,0,L|223:188,1,55,0|8,0:0|0:0,0:0:0:0:
156,169,37083,2,0,L|159:224,1,55,0|8,1:0|0:0,0:0:0:0:
225,247,37297,1,0,0:0:0:0:
27,273,37511,1,8,1:0:0:0:
27,273,37940,6,0,L|22:163,1,110,0|0,1:0|0:0,0:0:0:0:
220,217,38368,6,0,L|225:107,1,110,8|0,1:0|0:0,0:0:0:0:
281,91,38690,1,8,0:0:0:0:
225,87,38797,1,0,1:0:0:0:
225,47,38904,1,0,0:0:0:0:
280,44,39011,1,8,0:0:0:0:
475,192,39226,2,0,L|480:302,1,110,8|0,1:0|0:0,0:0:0:0:
204,340,39654,5,4,1:0:0:0:
259,333,39761,1,8,0:0:0:0:
274,280,39868,1,0,0:0:0:0:
259,333,39976,1,0,0:0:0:0:
83,343,40083,2,0,L|138:340,1,55,4|0,1:0|0:0,0:0:0:0:
248,333,40404,1,8,0:0:0:0:
72,317,40511,2,0,L|67:207,1,110,4|8,1:0|0:0,0:0:0:0:
177,165,40940,6,0,L|188:129,5,36.6666666666667,4|0|0|0|0|0,1:0|0:0|0:0|0:0|0:0|0:0,0:0:0:0:
392,75,41368,6,0,L|502:70,1,110,6|0,1:0|0:0,0:0:0:0:
303,165,41797,2,0,L|298:275,1,110,8|0,1:0|0:0,0:0:0:0:
243,285,42118,1,0,0:0:0:0:
132,298,42226,2,0,L|127:188,1,110,0|0,1:0|0:0,0:0:0:0:
326,142,42654,1,8,1:0:0:0:
381,137,42761,2,0,L|386:27,1,110
275,8,43083,6,0,L|165:3,1,110,0|0,1:0|0:0,0:0:0:0:
363,95,43511,1,8,1:0:0:0:
418,135,43618,2,0,L|308:130,1,110
197,216,43940,2,0,L|307:211,1,110,0|0,1:0|0:0,0:0:0:0:
109,302,44368,1,8,1:0:0:0:
54,297,44475,2,0,L|49:187,1,110
160,211,44797,6,0,L|165:101,1,110,0|0,1:0|0:0,0:0:0:0:
364,52,45226,2,0,L|419:49,1,55,8|0,1:0|0:0,0:0:0:0:
309,134,45547,1,0,0:0:0:0:
199,147,45654,2,0,L|194:257,1,110,0|0,1:0|0:0,0:0:0:0:
393,319,46083,2,0,L|283:314,1,110,8|0,1:0|0:0,0:0:0:0:
280,263,46404,1,0,0:0:0:0:
390,227,46511,6,0,L|500:222,1,110,0|0,1:0|0:0,0:0:0:0:
301,163,46940,1,8,1:0:0:0:
246,158,47047,2,0,L|241:48,1,110
351,19,47368,2,0,L|461:14,1,110,0|0,1:0|0:0,0:0:0:0:
262,107,47797,1,8,1:0:0:0:
316,104,47904,1,0,0:0:0:0:
371,102,48011,1,0,0:0:0:0:
95,188,48226,6,0,L|90:298,1,110,0|0,1:0|0:0,0:0:0:0:
288,333,48654,1,8,1:0:0:0:
343,297,48761,2,0,L|233:292,1,110
122,218,49083,2,0,L|232:213,1,110,0|0,1:0|0:0,0:0:0:0:
430,131,49511,2,0,L|375:128,1,55,8|0,1:0|0:0,0:0:0:0:
265,121,49833,1,0,0:0:0:0:
155,120,49940,6,0,L|150:230,1,110,0|0,1:0|0:0,0:0:0:0:
348,191,50368,2,0,L|353:301,1,110,8|0,1:0|0:0,0:0:0:0:
297,317,50690,1,0,0:0:0:0:
187,325,50797,2,0,L|77:320,1,110,0|0,1:0|0:0,0:0:0:0:
276,241,51226,2,0,L|331:238,1,55,8|0,1:0|0:0,0:0:0:0:
221,152,51547,1,0,0:0:0:0:
397,174,51654,6,0,L|402:284,1,110,2|0,1:0|0:0,0:0:0:0:
203,343,52083,1,8,1:0:0:0:
148,338,52190,2,0,L|143:228,1,110
253,261,52511,2,0,L|258:151,1,110,0|0,1:0|0:0,0:0:0:0:
457,79,52940,2,0,L|402:76,1,55,8|0,1:0|0:0,0:0:0:0:
292,69,53262,1,0,0:0:0:0:
183,81,53368,6,0,L|178:191,1,110,0|0,1:0|0:0,0:0:0:0:
234,205,53690,1,0,0:0:0:0:
344,277,53797,2,0,L|289:280,1,55,8|0,1:0|0:0,0:0:0:0:
179,287,54119,1,0,0:0:0:0:
69,209,54226,2,0,L|179:204,1,110,0|0,1:0|0:0,0:0:0:0:
377,194,54654,2,0,P|427:137|376:81,1,165,8|0,1:0|0:0,0:0:0:0:
199,60,55083,6,0,L|309:55,1,110,0|0,1:0|0:0,0:0:0:0:
111,134,55511,2,0,L|106:244,1,110,8|0,1:0|0:0,0:0:0:0:
162,257,55833,1,0,0:0:0:0:
272,201,55940,2,0,L|277:311,1,110,0|0,1:0|0:0,0:0:0:0:
79,345,56368,2,0,L|189:340,1,110,8|0,1:0|0:0,0:0:0:0:
299,247,56797,6,0,L|189:242,1,110,0|0,1:0|0:0,0:0:0:0:
388,230,57226,2,0,L|393:120,1,110,8|0,1:0|0:0,0:0:0:0:
337,106,57548,1,0,0:0:0:0:
227,162,57654,2,0,L|222:52,1,110,0|0,1:0|0:0,0:0:0:0:
278,38,57976,1,0,0:0:0:0:
223,33,58083,2,0,L|166:30,1,55,8|0,1:0|0:0,0:0:0:0:
223,33,58297,2,0,L|280:30,1,55
69,91,58511,6,0,L|64:201,1,110,2|0,1:0|0:0,0:0:0:0:
263,250,58940,1,8,1:0:0:0:
318,210,59047,2,0,L|208:205,1,110
98,135,59368,2,0,L|208:130,1,110,0|0,1:0|0:0,0:0:0:0:
262,70,59690,2,0,L|208:68,1,55,0|8,0:0|1:0,0:0:0:0:
10,58,60011,1,0,0:0:0:0:
286,22,60226,6,0,L|291:131,1,110,0|0,1:0|0:0,0:0:0:0:
235,145,60548,1,0,0:0:0:0:
126,223,60654,2,0,L|180:221,1,55,8|0,1:0|0:0,0:0:0:0:
291,215,60976,1,0,0:0:0:0:
401,217,61083,2,0,L|406:107,1,110,0|0,1:0|0:0,0:0:0:0:
207,77,61511,2,0,P|156:133|206:189,1,165,8|0,1:0|0:0,0:0:0:0:
384,195,61940,6,0,L|493:190,1,110,0|0,1:0|0:0,0:0:0:0:
296,347,62368,2,0,L|291:237,1,110,8|0,1:0|0:0,0:0:0:0:
347,225,62690,1,0,0:0:0:0:
457,260,62797,2,0,L|462:150,1,110,0|0,1:0|0:0,0:0:0:0:
352,78,63226,1,8,1:0:0:0:
406,75,63333,1,0,0:0:0:0:
461,73,63440,1,0,0:0:0:0:
263,139,63654,6,0,L|258:248,1,110,0|0,1:0|0:0,0:0:0:0:
59,330,64083,2,0,L|169:325,1,110,8|0,1:0|0:0,0:0:0:0:
191,280,64405,1,0,0:0:0:0:
169,240,64512,2,0,L|59:235,1,110,0|0,1:0|0:0,0:0:0:0:
257,82,64940,1,8,1:0:0:0:
202,88,65047,1,0,0:0:0:0:
202,144,65154,1,0,0:0:0:0:
257,150,65261,1,0,0:0:0:0:
433,164,65368,6,0,L|438:273,1,110,0|0,1:0|0:0,0:0:0:0:
239,321,65797,2,0,L|348:316,1,110,8|0,1:0|0:0,0:0:0:0:
294,271,66118,1,0,0:0:0:0:
183,204,66226,2,0,L|292:199,1,110,0|0,1:0|0:0,0:0:0:0:
491,113,66654,2,0,L|382:108,1,110,8|0,1:0|0:0,0:0:0:0:
105,93,67083,5,2,1:0:0:0:
99,202,67297,1,0,0:0:0:0:
297,351,67511,2,0,L|312:21,1,330
422,15,68368,1,0,0:0:0:0:
415,69,68475,1,0,0:0:0:0:
381,111,68582,1,0,0:0:0:0:
348,127,68653,1,0,0:0:0:0:
312,129,68725,1,0,0:0:0:0:
132,104,68797,6,0,L|23:109,1,110,6|0,1:0|0:0,0:0:0:0:
221,184,69226,2,0,L|330:189,1,110,10|0,1:0|0:0,0:0:0:0:
133,329,69654,2,0,L|128:220,1,110,2|0,1:0|0:0,0:0:0:0:
327,165,70083,1,10,1:0:0:0:
217,157,70297,2,0,L|215:103,1,55,2|0,0:1|0:0,0:0:0:0:
391,53,70511,6,0,L|500:48,1,110,2|0,1:0|0:0,0:0:0:0:
302,139,70940,2,0,L|193:134,1,110,10|0,1:0|0:0,0:0:0:0:
390,232,71368,1,2,1:0:0:0:
281,245,71583,6,0,L|270:280,2,36.6666666666667,2|2|2,0:1|0:1|0:1,0:0:0:0:
326,177,71797,2,0,L|272:175,1,55,10|0,1:0|0:0,0:0:0:0:
337,134,72011,2,0,L|391:132,1,55,2|0,0:1|0:0,0:0:0:0:
181,82,72226,6,0,L|176:191,1,110,2|0,1:0|0:0,0:0:0:0:
374,285,72654,2,0,L|265:280,1,110,10|0,1:0|0:0,0:0:0:0:
66,196,73083,2,0,L|175:191,1,110,2|0,1:0|0:0,0:0:0:0:
231,189,73404,1,2,0:1:0:0:
121,111,73511,2,0,L|12:106,1,110,10|2,1:0|0:1,0:0:0:0:
287,32,73940,5,2,1:0:0:0:
177,117,74154,2,0,L|151:142,2,36.6666666666667,2|2|2,0:1|0:1|0:1,0:0:0:0:
226,106,74368,2,0,L|335:101,1,110,10|0,1:0|0:0,0:0:0:0:
280,149,74690,1,0,0:0:0:0:
456,175,74797,6,0,L|461:284,1,110,2|0,1:0|0:0,0:0:0:0:
262,347,75226,2,0,L|267:238,1,110,10|2,1:0|0:1,0:0:0:0:
322,228,75547,1,0,0:0:0:0:
113,199,75654,5,6,1:0:0:0:
223,146,75868,2,0,L|277:148,2,55,0|2|10,0:0|0:1|1:0,0:0:0:0:
113,75,76297,2,0,L|59:77,2,55,0|0|2,0:0|0:0|1:0,0:0:0:0:
223,72,76726,2,0,L|277:70,1,55,0|2,0:0|0:1,0:0:0:0:
212,120,76940,2,0,L|158:118,1,55,10|0,1:0|0:0,0:0:0:0:
223,156,77154,2,0,L|169:154,1,55,2|0,0:1|0:0,0:0:0:0:
377,212,77368,5,2,1:0:0:0:
267,288,77583,2,0,L|269:234,1,55
379,194,77797,2,0,L|488:189,1,110,10|2,1:0|0:1,0:0:0:0:
434,150,78118,1,0,0:0:0:0:
223,140,78226,1,2,1:0:0:0:
333,124,78440,6,0,L|344:88,2,36.6666666666667,2|2|2,0:1|0:1|0:1,0:0:0:0:
288,142,78654,2,0,L|233:139,1,55,10|0,1:0|0:0,0:0:0:0:
299,178,78868,2,0,L|245:175,1,55,2|0,0:1|0:0,0:0:0:0:
33,162,79083,5,2,1:0:0:0:
143,244,79297,1,0,0:0:0:0:
88,246,79404,1,2,0:1:0:0:
33,249,79511,1,10,1:0:0:0:
143,323,79726,2,0,L|197:325,2,55,0|0|2,0:0|0:0|1:0,0:0:0:0:
253,251,80154,2,0,L|307:253,1,55
242,203,80368,2,0,L|187:205,1,55,10|0,1:0|0:0,0:0:0:0:
253,167,80582,2,0,L|199:169,1,55,2|0,0:1|0:0,0:0:0:0:
409,89,80797,5,2,1:0:0:0:
299,168,81011,2,0,L|353:166,1,55
287,202,81226,2,0,L|233:200,1,55,10|0,1:0|0:0,0:0:0:0:
299,234,81440,2,0,L|353:232,1,55,2|0,0:1|0:0,0:0:0:0:
145,294,81654,1,2,1:0:0:0:
256,263,81868,6,0,L|267:227,2,36.6666666666667,2|2|2,0:1|0:1|0:1,0:0:0:0:
211,294,82083,2,0,L|265:292,1,55,10|0,1:0|0:0,0:0:0:0:
319,330,82297,2,0,L|265:328,1,55,2|0,0:1|0:0,0:0:0:0:
473,267,82511,6,0,L|478:158,1,110,6|0,1:0|0:0,0:0:0:0:
422,143,82833,1,2,0:1:0:0:
312,68,82940,2,0,L|421:63,1,110,10|0,1:0|0:0,0:0:0:0:
224,139,83368,2,0,L|115:134,1,110,2|0,1:0|0:0,0:0:0:0:
170,183,83690,1,2,0:1:0:0:
280,202,83797,2,0,L|282:256,1,55,10|0,1:0|0:0,0:0:0:0:
216,231,84011,2,0,L|214:285,1,55,2|0,0:1|0:0,0:0:0:0:
392,321,84226,6,0,L|501:316,1,110,2|0,1:0|0:0,0:0:0:0:
304,254,84654,2,0,L|299:145,1,110,10|0,1:0|0:0,0:0:0:0:
100,85,85083,1,2,1:0:0:0:
209,98,85298,6,0,L|220:133,2,36.6666666666667,2|2|2,0:1|0:1|0:1,0:0:0:0:
165,74,85511,2,0,L|219:72,1,55,10|0,1:0|0:0,0:0:0:0:
153,52,85726,2,0,L|207:50,1,55,2|0,0:1|0:0,0:0:0:0:
32,115,85940,6,0,L|27:224,1,110,2|0,1:0|0:0,0:0:0:0:
83,239,86262,1,0,0:0:0:0:
192,185,86368,2,0,L|197:294,1,110,10|0,1:0|0:0,0:0:0:0:
141,309,86690,1,0,0:0:0:0:
251,337,86797,2,0,L|255:228,1,110,2|0,1:0|0:0,0:0:0:0:
199,213,87119,1,0,0:0:0:0:
375,180,87226,2,0,L|483:175,1,110,10|2,1:0|0:1,0:0:0:0:
210,107,87654,5,2,1:0:0:0:
320,192,87868,1,2,0:1:0:0:
283,190,87939,1,2,0:1:0:0:
246,188,88010,1,2,0:1:0:0:
210,186,88082,1,10,1:0:0:0:
409,266,88297,2,0,L|411:320,1,55,2|0,0:1|0:0,0:0:0:0:
235,348,88511,2,0,L|127:343,1,110,2|2,1:0|0:1,0:0:0:0:
324,268,88940,1,10,1:0:0:0:
214,262,89154,2,0,L|212:208,1,55,2|0,0:1|0:0,0:0:0:0:
421,162,89368,5,6,1:0:0:0:
312,78,89583,1,0,0:0:0:0:
366,75,89690,1,2,0:1:0:0:
421,72,89797,1,10,1:0:0:0:
312,155,90011,2,0,L|258:153,2,55,0|0|2,0:0|0:0|1:0,0:0:0:0:
422,244,90440,2,0,L|368:242,1,55
301,285,90654,2,0,L|355:283,1,55,10|0,1:0|0:0,0:0:0:0:
290,324,90868,2,0,L|344:322,1,55,2|0,0:1|0:0,0:0:0:0:
134,332,91083,5,2,1:0:0:0:
244,248,91297,2,0,L|190:246,2,55,0|0|10,0:0|0:0|1:0,0:0:0:0:
354,182,91726,2,0,L|408:180,2,55,0|2|2,0:0|0:1|1:0,0:0:0:0:
244,115,92154,2,0,L|298:113,1,55,2|0,0:1|0:0,0:0:0:0:
365,81,92368,2,0,L|311:79,1,55,10|0,1:0|0:0,0:0:0:0:
244,45,92583,2,0,L|298:43,1,55,2|0,0:1|0:0,0:0:0:0:
89,30,92797,5,2,1:0:0:0:
198,102,93011,1,0,0:0:0:0:
143,105,93118,1,2,0:1:0:0:
89,108,93225,1,10,1:0:0:0:
198,184,93440,2,0,L|252:186,2,55,0|0|2,0:0|0:0|1:0,0:0:0:0:
89,265,93868,2,0,L|143:263,1,55
210,306,94082,2,0,L|156:304,1,55,10|0,1:0|0:0,0:0:0:0:
221,345,94296,2,0,L|167:343,1,55,2|0,0:1|0:0,0:0:0:0:
377,363,94511,5,2,1:0:0:0:
267,340,94726,2,0,L|256:304,2,36.6666666666667,2|0|0,0:1|0:1|0:1,0:0:0:0:
311,351,94940,2,0,L|365:349,1,55,10|0,1:0|0:0,0:0:0:0:
300,326,95154,2,0,L|246:324,1,55,2|0,0:1|0:0,0:0:0:0:
454,258,95368,1,0,1:0:0:0:
344,241,95583,2,0,L|342:187,1,55,2|0,0:1|0:0,0:0:0:0:
133,115,95797,2,0,L|406:104,1,275,10|2,1:0|0:1,0:0:0:0:
99,272,96226,6,0,P|33:196|100:122,1,220,6|8,1:0|1:0,0:0:0:0:
211,51,96868,2,0,L|157:49,1,55
45,45,97083,2,0,L|41:154,1,110,2|0,1:0|0:0,0:0:0:0:
239,149,97511,2,0,L|243:258,1,110,8|0,1:0|0:0,0:0:0:0:
442,336,97940,6,0,L|223:327,1,220,2|8,1:0|1:0,0:0:0:0:
332,253,98583,2,0,L|334:199,1,55
224,153,98797,2,0,L|115:157,2,110,2|0|8,1:0|0:0|1:0,0:0:0:0:
423,78,99440,2,0,L|369:76,1,55
192,70,99654,6,0,P|124:144|190:220,1,220,2|8,1:0|1:0,0:0:0:0:
300,219,100297,2,0,L|302:273,1,55
192,307,100511,2,0,L|188:198,1,110,0|0,1:0|0:0,0:0:0:0:
387,232,100940,2,0,L|391:123,1,110,8|0,1:0|0:0,0:0:0:0:
193,53,101368,6,0,L|412:44,1,220,2|8,1:0|1:0,0:0:0:0:
302,128,102011,2,0,L|300:182,1,55
189,214,102226,2,0,L|79:210,1,110,10|0,1:0|0:0,0:0:0:0:
277,330,102654,2,0,L|168:326,1,110,8|0,1:0|0:0,0:0:0:0:
223,293,102976,1,0,0:0:0:0:
399,264,103083,6,0,P|464:188|396:114,1,220,6|8,1:0|1:0,0:0:0:0:
285,45,103726,2,0,L|339:43,1,55
451,120,103941,2,0,L|342:116,2,110,2|0|8,1:0|0:0|1:0,0:0:0:0:
253,194,104583,2,0,L|251:248,1,55
361,321,104797,6,0,L|142:312,1,220,2|8,1:0|1:0,0:0:0:0:
252,214,105440,2,0,L|198:216,1,55
21,131,105654,2,0,L|130:135,2,110,2|0|8,1:0|0:0|1:0,0:0:0:0:
220,29,106297,2,0,L|222:83,1,55
398,267,106511,6,0,P|463:190|395:117,1,220,2|8,1:0|1:0,0:0:0:0:
285,46,107154,1,0,0:0:0:0:
339,43,107261,1,0,0:0:0:0:
394,41,107368,1,0,1:0:0:0:
195,117,107583,1,0,0:0:0:0:
305,137,107797,2,0,L|309:246,1,110,8|0,1:0|0:0,0:0:0:0:
254,258,108118,1,0,0:0:0:0:
143,265,108226,6,0,L|34:261,1,110,0|0,1:0|0:0,0:0:0:0:
308,348,108654,2,0,L|312:239,1,110,10|0,1:0|0:0,0:0:0:0:
113,153,109083,2,0,L|312:145,1,197.99999395752,10|0,1:0|0:0,0:0:0:0:
25,291,109511,2,0,L|21:182,1,110,10|0,1:0|0:0,0:0:0:0:
297,112,109940,6,0,P|364:186|298:262,1,220,6|8,1:0|1:0,0:0:0:0:
187,333,110583,2,0,L|241:331,1,55
418,257,110797,2,0,L|309:253,2,110,2|0|8,1:0|0:0|1:0,0:0:0:0:
308,178,111440,2,0,L|310:124,1,55
420,80,111654,6,0,L|311:76,1,110,0|0,1:0|0:0,0:0:0:0:
34,295,112083,2,0,L|30:186,1,110,10|0,1:0|0:0,0:0:0:0:
225,252,112511,2,0,L|229:143,1,110,10|0,1:0|0:0,0:0:0:0:
428,79,112940,2,0,L|432:188,1,110,10|0,1:0|0:0,0:0:0:0:
157,330,113368,6,0,L|153:221,1,110,6|0,1:0|0:0,0:0:0:0:
352,263,113797,2,0,L|356:154,1,110,8|0,1:0|0:0,0:0:0:0:
301,135,114118,1,0,0:0:0:0:
123,127,114226,2,0,L|14:123,1,110,2|0,1:0|0:0,0:0:0:0:
305,24,114654,6,0,P|372:98|306:174,1,220,10|0,1:0|1:0,0:0:0:0:
194,174,115297,2,0,L|192:228,1,55
368,276,115511,2,0,L|477:272,1,110,8|0,1:0|0:0,0:0:0:0:
279,197,115940,2,0,L|275:88,1,110,10|0,1:0|0:0,0:0:0:0:
473,50,116368,2,0,L|477:159,1,110,10|0,1:0|0:0,0:0:0:0:
421,178,116690,1,0,0:0:0:0:
245,272,116797,6,0,L|464:263,1,220,6|8,1:0|1:0,0:0:0:0:
354,187,117440,2,0,L|352:133,1,55
242,80,117654,2,0,L|133:76,2,110,2|0|8,1:0|0:0|1:0,0:0:0:0:
352,162,118297,2,0,L|298:164,1,55
121,169,118511,6,0,L|12:165,1,110,6|0,1:0|0:0,0:0:0:0:
121,355,118940,2,0,L|125:246,1,110,10|0,1:0|0:0,0:0:0:0:
180,236,119261,1,0,0:0:0:0:
290,220,119368,2,0,L|294:111,1,110,10|0,1:0|0:0,0:0:0:0:
95,159,119797,2,0,L|91:50,1,110,10|0,1:0|0:0,0:0:0:0:
367,20,120226,6,0,L|476:16,1,110,6|0,1:0|0:0,0:0:0:0:
279,107,120654,2,0,L|170:103,1,110,10|0,1:0|0:0,0:0:0:0:
164,155,120976,1,0,0:0:0:0:
335,241,121083,2,0,L|226:237,1,110,10|0,1:0|0:0,0:0:0:0:
500,354,121511,2,0,L|504:245,1,110,10|0,1:0|0:0,0:0:0:0:
228,138,121940,5,6,1:0:0:0:
283,144,122047,1,8,0:0:0:0:
283,200,122154,1,0,0:0:0:0:
107,216,122261,1,0,0:0:0:0:
52,222,122368,1,6,0:1:0:0:
52,278,122475,1,0,0:0:0:0:
107,284,122583,1,0,1:0:0:0:
52,278,122690,1,8,0:0:0:0:
250,341,122797,5,6,1:0:0:0:
305,335,122904,1,0,0:0:0:0:
250,341,123011,1,8,0:0:0:0:
195,335,123118,1,0,0:0:0:0:
406,282,123226,1,6,1:0:0:0:
461,276,123333,1,8,0:0:0:0:
461,220,123440,1,0,0:0:0:0:
406,214,123547,1,8,0:0:0:0:
129,214,123654,6,0,P|69:145|129:78,1,197.99999395752,4|0,1:0|2:0,0:0:0:0:
328,262,124297,2,0,L|334:62,1,197.99999395752,2|0,0:0|0:0,0:0:0:0:
235,205,124940,2,0,L|232:104,1,98.9999969787599,2|0,0:0|0:0,0:0:0:0:
430,63,125368,1,2,0:0:0:0:
64,84,126440,6,0,L|16:170,2,98.9999969787599,2|2|2,0:0|0:0|0:0,0:0:0:0:
263,70,127083,2,0,L|268:267,1,197.99999395752,2|0,0:0|0:0,0:0:0:0:
170,264,127726,1,2,0:0:0:0:
269,268,127940,1,0,0:0:0:0:
72,342,128368,1,2,0:0:0:0:
460,342,128797,1,2,0:0:0:0:
52,84,129868,6,0,L|4:170,2,98.9999969787599,2|2|2,0:0|0:0|0:0,0:0:0:0:
241,69,130511,6,0,P|301:137|241:204,1,197.99999395752,2|0,0:0|0:0,0:0:0:0:
142,204,131154,1,2,0:0:0:0:
340,353,131368,2,0,L|345:156,1,197.99999395752,0|2,0:0|0:0,0:0:0:0:
44,69,132226,6,0,L|241:64,2,197.99999395752,2|0|0,0:0|0:0|0:0,0:0:0:0:
207,183,133243,1,0,0:0:0:0:
232,181,133297,1,2,0:0:0:0:
331,260,133511,2,0,L|233:257,1,98.9999969787599,2|2,0:0|0:0,0:0:0:0:
431,343,133940,6,0,L|434:244,1,98.9999969787599,2|2,0:0|0:0,0:0:0:0:
236,166,134368,2,0,L|138:169,2,98.9999969787599,2|0|0,0:0|0:0|0:0,0:0:0:0:
285,97,134904,2,0,L|236:95,1,49.4999984893799,8|0,0:3|0:0,0:0:0:0:
136,123,135226,2,0,L|133:222,1,98.9999969787599
232,244,135654,1,0,0:0:0:0:
430,322,136083,6,0,L|233:327,2,197.99999395752,2|2|2,0:0|0:0|0:0,0:0:0:0:
94,64,137368,6,0,P|34:132|94:199,1,197.99999395752,2|0,3:2|0:0,0:0:0:0:
293,122,138011,2,0,L|299:319,1,197.99999395752,2|0,0:0|3:0,0:0:0:0:
200,274,138654,2,0,L|197:173,1,98.9999969787599,2|0,0:0|0:0,0:0:0:0:
247,159,138976,1,8,0:3:0:0:
356,146,139083,6,0,L|454:149,2,98.9999969787599,2|0|0,0:0|0:0|3:0,0:0:0:0:
257,148,139726,2,0,L|243:195,2,49.4999984893799,0|0|0,0:0|0:0|3:0,0:0:0:0:
455,61,140154,2,0,L|357:64,2,98.9999969787599,2|2|2,3:2|0:0|0:0,0:0:0:0:
256,146,140797,5,2,3:2:0:0:
355,170,141011,2,0,L|358:268,1,98.9999969787599
159,307,141440,2,0,P|114:256|159:205,1,148.49999546814,2|8,0:0|0:3,0:0:0:0:
229,204,141868,1,0,3:0:0:0:
31,134,142083,2,0,L|29:232,1,98.9999969787599,2|0,0:0|0:0,0:0:0:0:
227,311,142511,6,0,L|325:308,2,98.9999969787599,2|0|0,0:0|0:0|3:0,0:0:0:0:
28,317,143154,1,0,0:0:0:0:
77,315,143261,1,0,0:0:0:0:
126,313,143368,1,0,0:0:0:0:
22,100,143583,1,2,0:0:0:0:
121,87,143797,1,2,0:0:0:0:
22,83,144011,1,2,0:0:0:0:
221,160,144226,5,2,3:2:0:0:
122,184,144440,2,0,L|119:282,1,98.9999969787599
317,322,144868,2,0,L|315:273,1,49.4999984893799,2|0,0:0|0:0,0:0:0:0:
245,235,145083,2,0,L|196:237,2,49.4999984893799,0|8|0,3:0|0:3|3:0,0:0:0:0:
443,222,145511,1,2,0:0:0:0:
344,139,145726,1,0,0:0:0:0:
394,137,145833,1,0,0:0:0:0:
443,135,145940,6,0,L|345:132,2,98.9999969787599,2|0|0,0:0|0:0|3:0,0:0:0:0:
244,205,146583,1,2,0:0:0:0:
194,215,146690,2,0,L|191:313,1,98.9999969787599
300,341,147011,2,0,L|202:344,2,98.9999969787599,2|2|2,3:2|0:0|0:0,0:0:0:0:
101,288,147654,6,0,L|98:190,1,98.9999969787599,2|2,3:2|0:0,0:0:0:0:
297,142,148083,1,2,0:0:0:0:
198,170,148297,2,0,L|196:219,1,49.4999984893799
265,213,148511,2,0,L|267:262,1,49.4999984893799,0|8,3:0|0:3,0:0:0:0:
197,294,148726,1,0,3:0:0:0:
395,304,148940,2,0,L|398:203,1,98.9999969787599
348,189,149262,1,8,0:3:0:0:
240,176,149368,6,0,L|237:75,1,98.9999969787599,0|0,3:0|0:0,0:0:0:0:
336,54,149797,1,0,3:0:0:0:
237,24,150011,1,0,0:0:0:0:
287,22,150118,1,8,0:3:0:0:
237,24,150225,1,0,3:0:0:0:
38,97,150440,2,0,L|136:100,2,98.9999969787599,2|2|2,3:2|0:0|0:0,0:0:0:0:
237,180,151083,6,0,L|335:177,2,98.9999969787599,2|0|0,3:2|0:0|0:0,0:0:0:0:
139,187,151726,1,2,0:0:0:0:
238,266,151940,1,0,3:0:0:0:
189,264,152047,1,0,0:0:0:0:
140,262,152154,1,0,0:0:0:0:
339,339,152368,1,2,0:0:0:0:
240,257,152583,2,0,L|289:255,1,49.4999984893799
398,244,152797,6,0,L|401:143,1,98.9999969787599,2|0,0:0|0:0,0:0:0:0:
302,122,153226,1,0,3:0:0:0:
104,113,153440,1,2,0:0:0:0:
159,113,153547,2,0,L|164:262,1,148.49999546814,0|2,0:0|3:2,0:0:0:0:
65,297,154083,1,2,0:0:0:0:
164,293,154297,1,2,0:0:0:0:
362,355,154511,6,0,L|365:256,1,98.9999969787599,2|2,3:2|0:0,0:0:0:0:
166,223,154940,1,2,0:0:0:0:
265,213,155154,1,0,0:0:0:0:
267,163,155261,1,0,0:0:0:0:
207,146,155368,1,0,3:0:0:0:
205,96,155475,1,8,0:3:0:0:
270,74,155582,1,0,0:0:0:0:
370,12,155797,2,0,L|373:112,1,98.9999969787599
323,126,156119,1,8,0:3:0:0:
214,146,156226,6,0,L|116:143,2,98.9999969787599,0|0|0,0:0|0:0|3:0,0:0:0:0:
363,299,156976,1,8,0:3:0:0:
308,299,157083,2,0,L|305:199,1,98.9999969787599,0|0,3:0|3:0,0:0:0:0:
206,173,157511,1,0,3:0:0:0:
405,137,157940,6,0,L|434:232,2,98.9999969787599,0|0|0,3:0|0:0|0:0,0:0:0:0:
306,129,158583,2,0,L|304:178,1,49.4999984893799
373,187,158797,2,0,L|388:234,2,49.4999984893799,0|8|0,3:0|0:3|3:0,0:0:0:0:
274,182,159226,1,0,0:0:0:0:
176,263,159440,1,0,0:0:0:0:
226,261,159547,1,8,0:3:0:0:
276,259,159654,6,0,L|374:262,2,98.9999969787599,0|0|0,3:0|0:0|3:0,0:0:0:0:
78,325,160511,2,0,L|72:127,1,197.99999395752
253,301,161368,2,0,L|260:103,1,197.99999395752,0|0,3:0|0:0,0:0:0:0:
434,325,162226,2,0,L|428:127,1,197.99999395752
257,346,163083,6,0,B|257:15|257:15|422:15|422:15|91:14|91:14|257:15|257:15|90:14,1,1155.00004405976,0|0,3:0|0:0,0:0:0:0:
451,303,164797,5,4,1:0:0:0:
455,193,165011,1,0,0:0:0:0:
262,106,165547,2,0,L|317:103,1,55
207,38,165868,1,0,0:0:0:0:
97,32,166083,1,0,0:0:0:0:
207,38,166297,1,0,0:0:0:0:
97,32,166511,1,0,0:0:0:0:
93,142,166725,1,0,0:0:0:0:
285,247,167261,6,0,L|230:244,1,55
340,324,167583,1,0,0:0:0:0:
450,318,167798,1,0,0:0:0:0:
340,324,168011,1,0,0:0:0:0:
230,318,168226,1,0,0:0:0:0:
340,324,168440,1,0,0:0:0:0:
147,236,168976,6,0,L|202:233,1,55
92,276,169298,1,0,0:0:0:0:
88,166,169512,1,0,0:0:0:0:
198,243,169726,1,0,0:0:0:0:
202,133,169940,1,0,0:0:0:0:
92,116,170154,1,0,0:0:0:0:
284,67,170690,6,0,L|229:64,1,55,0|2,0:0|0:0,0:0:0:0:
339,129,171011,1,2,0:0:0:0:
343,239,171225,1,2,0:0:0:0:
233,243,171440,1,2,0:0:0:0:
343,239,171654,1,2,0:0:0:0:
453,235,171868,1,2,0:0:0:0:
261,327,172404,6,0,L|316:330,1,55,0|2,0:0|1:3,0:0:0:0:
206,255,172726,1,2,0:0:0:0:
96,239,172940,1,2,1:3:0:0:
92,129,173154,1,2,0:0:0:0:
202,112,173368,1,2,1:3:0:0:
92,129,173582,1,2,0:0:0:0:
285,194,174118,6,0,L|230:191,1,55,0|2,0:0|1:3,0:0:0:0:
338,288,174440,1,2,0:0:0:0:
228,272,174654,1,2,1:3:0:0:
338,288,174868,1,2,0:0:0:0:
448,272,175082,1,2,1:3:0:0:
452,162,175297,1,2,0:0:0:0:
259,108,175833,6,0,L|314:105,1,55,0|2,0:0|1:3,0:0:0:0:
204,174,176154,1,2,0:0:0:0:
200,284,176368,1,2,1:3:0:0:
310,208,176583,1,2,0:0:0:0:
314,318,176797,1,2,1:3:0:0:
424,322,177011,1,2,0:0:0:0:
171,345,177547,6,0,L|226:342,1,55,0|2,0:0|1:3,0:0:0:0:
116,279,177868,1,2,0:0:0:0:
390,240,178083,2,0,L|116:252,1,275,2|2,1:3|0:0,0:0:0:0:
313,156,178511,6,0,L|315:102,1,55,4|0,1:2|0:0,0:0:0:0:
248,133,178726,2,0,L|246:79,1,55,4|0,0:2|0:0,0:0:0:0:
422,68,178940,2,0,L|427:178,1,110,8|8,1:0|0:0,0:0:0:0:
371,191,179262,1,0,0:0:0:0:
262,277,179368,2,0,L|371:272,1,110,4|0,1:2|0:0,0:0:0:0:
173,196,179797,1,4,1:2:0:0:
283,180,180011,2,0,L|285:126,1,55,4|0,0:2|0:0,0:0:0:0:
107,76,180226,5,4,1:2:0:0:
52,82,180333,1,0,0:0:0:0:
52,138,180440,1,4,0:2:0:0:
107,144,180547,1,0,0:0:0:0:
283,144,180654,2,0,L|392:139,1,110,8|8,1:0|0:0,0:0:0:0:
337,187,180976,1,0,0:0:0:0:
227,243,181083,2,0,L|118:238,1,110,4|0,1:2|0:0,0:0:0:0:
315,345,181511,2,0,L|317:291,1,55,4|0,1:2|0:0,0:0:0:0:
250,322,181726,2,0,L|248:268,1,55,4|0,0:2|0:0,0:0:0:0:
424,222,181940,5,4,1:2:0:0:
479,216,182047,1,0,0:0:0:0:
479,160,182154,1,4,0:2:0:0:
424,154,182261,1,0,0:0:0:0:
248,78,182368,2,0,L|357:73,1,110,8|8,1:0|0:0,0:0:0:0:
302,120,182690,1,0,0:0:0:0:
192,185,182797,2,0,L|302:190,1,110,4|0,1:2|0:0,0:0:0:0:
103,273,183226,1,4,1:2:0:0:
213,262,183440,2,0,L|215:208,1,55,4|0,0:2|0:0,0:0:0:0:
391,220,183654,6,0,L|393:166,1,55,4|0,1:2|0:0,0:0:0:0:
327,190,183868,2,0,L|325:136,1,55,4|0,0:2|0:0,0:0:0:0:
147,103,184083,2,0,L|37:98,1,110,8|8,1:0|0:0,0:0:0:0:
92,153,184404,1,0,0:0:0:0:
202,217,184511,2,0,L|92:222,1,110,4|0,1:2|0:0,0:0:0:0:
291,316,184940,2,0,L|345:314,1,55,4|0,1:2|0:0,0:0:0:0:
291,293,185154,2,0,L|237:291,1,55,4|0,0:2|0:0,0:0:0:0:
412,240,185368,5,4,1:2:0:0:
467,234,185475,1,0,0:0:0:0:
467,178,185582,1,4,0:2:0:0:
412,172,185689,1,0,0:0:0:0:
235,169,185797,1,8,1:0:0:0:
345,88,186011,2,0,L|291:86,1,55,8|0,0:0|0:0,0:0:0:0:
179,83,186226,2,0,L|174:193,1,110,4|0,1:2|0:0,0:0:0:0:
372,282,186654,1,4,1:2:0:0:
262,271,186868,2,0,L|260:217,1,55,4|0,0:2|0:0,0:0:0:0:
84,229,187082,6,0,L|82:175,1,55,4|0,1:2|0:0,0:0:0:0:
148,199,187296,2,0,L|150:145,1,55,4|0,0:2|0:0,0:0:0:0:
328,102,187511,2,0,L|333:212,1,110,8|8,1:0|0:0,0:0:0:0:
277,225,187833,1,0,0:0:0:0:
167,237,187940,2,0,L|57:232,1,110,4|0,1:2|0:0,0:0:0:0:
255,337,188368,2,0,L|309:335,1,55,4|0,1:2|0:0,0:0:0:0:
255,314,188582,2,0,L|201:312,1,55,4|0,0:2|0:0,0:0:0:0:
378,251,188797,6,0,L|380:197,1,55,4|0,1:2|0:0,0:0:0:0:
314,221,189011,2,0,L|312:167,1,55,4|0,0:2|0:0,0:0:0:0:
134,131,189226,1,8,1:0:0:0:
244,145,189440,2,0,L|246:199,1,55,8|0,0:0|0:0,0:0:0:0:
356,238,189654,2,0,L|466:233,1,110,4|0,1:2|0:0,0:0:0:0:
267,322,190083,1,4,1:2:0:0:
377,255,190297,2,0,L|323:253,1,55,4|0,0:2|0:0,0:0:0:0:
146,188,190511,6,0,L|200:186,1,55,4|0,1:2|0:0,0:0:0:0:
254,151,190726,2,0,L|200:149,1,55,4|0,0:2|0:0,0:0:0:0:
23,141,190940,1,8,1:0:0:0:
133,161,191154,2,0,L|135:215,1,55,8|0,0:0|0:0,0:0:0:0:
311,297,191368,2,0,L|201:292,1,110,4|0,1:2|0:0,0:0:0:0:
477,253,191797,2,0,L|482:143,1,110,8|0,1:0|0:0,0:0:0:0:
445,138,192083,1,0,0:0:0:0:
409,135,192154,1,0,0:0:0:0:
237,122,192226,6,0,L|127:117,1,110,6|0,1:0|0:0,0:0:0:0:
325,192,192654,1,8,1:0:0:0:
270,198,192761,1,0,0:0:0:0:
270,254,192868,1,0,0:0:0:0:
325,260,192975,1,0,0:0:0:0:
147,322,193083,2,0,L|37:317,1,110,0|0,1:0|0:0,0:0:0:0:
235,237,193511,1,8,1:0:0:0:
125,156,193726,2,0,L|179:154,1,55
356,78,193940,6,0,L|246:73,1,110,0|0,1:0|0:0,0:0:0:0:
444,157,194368,1,8,1:0:0:0:
499,163,194475,1,0,0:0:0:0:
499,219,194582,1,0,0:0:0:0:
444,225,194689,1,0,0:0:0:0:
267,225,194797,2,0,L|157:220,1,110,0|0,1:0|0:0,0:0:0:0:
356,343,195226,2,0,L|358:289,1,55,8|0,1:0|0:0,0:0:0:0:
292,313,195440,2,0,L|290:259,1,55
125,175,195654,6,0,L|235:170,1,110,0|0,1:0|0:0,0:0:0:0:
36,32,196083,1,8,1:0:0:0:
91,38,196190,1,0,0:0:0:0:
91,94,196297,1,0,0:0:0:0:
36,100,196404,1,0,0:0:0:0:
212,160,196511,2,0,L|322:155,1,110,0|0,1:0|0:0,0:0:0:0:
123,237,196940,1,8,1:0:0:0:
233,258,197154,2,0,L|235:312,1,55
410,345,197368,6,0,L|300:340,1,110,0|0,1:0|0:0,0:0:0:0:
499,272,197797,1,8,1:0:0:0:
444,266,197904,1,0,0:0:0:0:
444,210,198011,1,0,0:0:0:0:
499,204,198118,1,0,0:0:0:0:
266,149,198226,1,0,1:0:0:0:
376,163,198440,6,0,L|391:210,2,36.6666666666667
201,139,198654,2,0,L|147:137,1,55,8|0,1:0|0:0,0:0:0:0:
322,90,198868,2,0,L|376:88,1,55
201,49,199083,6,0,L|91:44,1,110,4|0,1:0|1:0,0:0:0:0:
289,206,199511,1,8,1:0:0:0:
234,200,199618,1,0,0:0:0:0:
234,144,199725,1,0,1:0:0:0:
289,138,199832,1,0,0:0:0:0:
111,101,199940,2,0,L|106:211,1,110,0|0,1:0|1:0,0:0:0:0:
304,288,200368,1,8,1:0:0:0:
194,209,200583,2,0,L|248:207,1,55,0|0,1:0|0:0,0:0:0:0:
425,121,200797,6,0,L|315:116,1,110,0|0,1:0|1:0,0:0:0:0:
117,121,201226,1,8,1:0:0:0:
172,127,201333,1,0,0:0:0:0:
172,183,201440,1,0,1:0:0:0:
117,189,201547,1,0,0:0:0:0:
293,250,201654,2,0,L|403:245,1,110,0|0,1:0|1:0,0:0:0:0:
204,341,202083,2,0,L|202:287,1,55,8|0,1:0|0:0,0:0:0:0:
268,311,202297,2,0,L|270:257,1,55,0|0,1:0|0:0,0:0:0:0:
94,215,202511,5,4,1:0:0:0:
39,209,202618,1,0,0:0:0:0:
37,153,202725,1,0,1:0:0:0:
35,97,202832,1,0,0:0:0:0:
146,134,202940,1,8,1:0:0:0:
91,128,203047,1,0,1:0:0:0:
91,72,203154,1,0,1:0:0:0:
146,66,203261,1,0,1:0:0:0:
325,64,203368,2,0,L|379:62,1,55,0|0,1:0|1:0,0:0:0:0:
204,113,203583,2,0,L|150:111,1,55,0|0,1:0|1:0,0:0:0:0:
379,132,203797,5,0,0:0:0:0:
420,147,203868,1,0,0:0:0:0:
444,183,203940,1,0,0:0:0:0:
444,228,204011,1,0,0:0:0:0:
420,264,204082,1,0,0:0:0:0:
379,280,204154,1,0,0:0:0:0:
204,280,204226,5,4,1:0:0:0:
149,277,204333,2,0,L|147:223,1,55,8|0,0:0|0:0,0:0:0:0:
323,204,204547,1,0,0:0:0:0:
268,201,204654,2,0,L|263:91,1,110,4|0,1:0|0:0,0:0:0:0:
319,70,204976,1,8,0:0:0:0:
143,35,205083,2,0,L|197:33,1,55,4|0,1:0|0:0,0:0:0:0:
374,118,205297,2,0,L|320:116,1,55,8|0,0:0|0:0,0:0:0:0:
89,104,205511,2,0,P|39:161|89:217,1,165,4|0,1:0|0:0,0:0:0:0:
374,217,205940,6,0,L|484:212,1,110,6|0,1:0|0:0,0:0:0:0:
286,358,206368,2,0,L|281:249,1,110,8|0,1:0|0:0,0:0:0:0:
337,234,206690,1,0,0:0:0:0:
447,267,206797,2,0,L|452:158,1,110,0|0,1:0|0:0,0:0:0:0:
253,84,207226,2,0,L|362:79,1,110,8|0,1:0|0:0,0:0:0:0:
88,28,207654,6,0,L|83:137,1,110,0|0,1:0|0:0,0:0:0:0:
282,220,208083,1,8,1:0:0:0:
172,287,208297,2,0,L|226:289,1,55
337,289,208511,2,0,L|342:180,1,110
143,118,208940,2,0,L|35:113,1,110,8|0,1:0|0:0,0:0:0:0:
308,321,209368,6,0,L|199:316,1,110,0|0,1:0|0:0,0:0:0:0:
397,237,209797,1,8,1:0:0:0:
287,215,210011,2,0,L|289:161,1,55
400,114,210226,2,0,L|405:223,1,110,0|0,1:0|0:0,0:0:0:0:
207,173,210654,2,0,L|202:282,1,110,8|0,1:0|0:0,0:0:0:0:
478,335,211083,6,0,L|483:226,1,110,0|0,1:0|0:0,0:0:0:0:
285,170,211511,1,8,1:0:0:0:
395,91,211726,2,0,L|341:89,1,55
230,83,211940,2,0,L|121:88,1,110
318,178,212368,2,0,L|323:287,1,110,8|0,1:0|0:0,0:0:0:0:
47,335,212797,6,0,L|156:330,1,110,0|0,1:0|0:0,0:0:0:0:
356,246,213226,2,0,L|247:241,1,110,8|0,1:0|0:0,0:0:0:0:
301,193,213547,1,0,0:0:0:0:
411,121,213654,2,0,L|302:116,1,110,0|0,1:0|0:0,0:0:0:0:
102,30,214083,2,0,L|211:25,1,110,8|0,1:0|0:0,0:0:0:0:
486,77,214511,6,0,L|491:186,1,110,0|0,1:0|0:0,0:0:0:0:
292,250,214940,1,8,1:0:0:0:
402,230,215154,2,0,L|404:176,1,55
294,137,215368,2,0,L|185:132,2,110,0|0|8,1:0|0:0|1:0,0:0:0:0:
493,154,216011,1,0,0:0:0:0:
217,235,216226,6,0,L|326:230,1,110,0|0,1:0|0:0,0:0:0:0:
129,318,216654,1,8,1:0:0:0:
239,302,216868,2,0,L|241:248,1,55
130,235,217083,2,0,L|125:126,1,110
322,215,217511,2,0,L|327:106,1,110,8|0,1:0|0:0,0:0:0:0:
51,151,217940,6,0,L|46:42,1,110,0|0,1:0|0:0,0:0:0:0:
244,20,218368,1,8,1:0:0:0:
134,74,218583,2,0,L|136:128,1,55
246,207,218797,2,0,L|137:202,1,110
335,288,219226,1,10,1:0:0:0:
225,258,219440,2,0,L|217:229,2,27.5
401,289,219654,5,6,1:0:0:0:
291,271,219868,2,0,L|286:162,1,110,0|8,0:0|1:0,0:0:0:0:
87,119,220297,2,0,L|141:117,1,55,2|0,0:1|0:0,0:0:0:0:
251,119,220511,2,0,L|256:228,1,110,0|0,1:0|0:0,0:0:0:0:
57,205,220940,2,0,L|52:314,1,110,10|0,1:0|0:0,0:0:0:0:
327,355,221368,6,0,L|218:350,1,110,0|0,1:0|0:0,0:0:0:0:
416,265,221797,1,10,1:0:0:0:
306,252,222011,2,0,L|304:198,1,55
415,125,222226,2,0,L|306:120,1,110,2|0,1:0|0:0,0:0:0:0:
107,41,222654,2,0,L|216:36,1,110,10|0,1:0|0:0,0:0:0:0:
493,88,223083,6,0,L|498:197,1,110,0|0,1:0|0:0,0:0:0:0:
300,230,223511,1,10,1:0:0:0:
410,308,223726,2,0,L|356:306,1,55
245,300,223940,2,0,L|136:305,2,110,2|0|8,1:0|0:0|1:0,0:0:0:0:
444,289,224583,1,2,0:1:0:0:
169,239,224797,6,0,L|164:130,1,110,0|0,1:0|0:0,0:0:0:0:
363,97,225226,1,10,1:0:0:0:
253,126,225440,2,0,L|251:179,1,55
141,212,225654,2,0,L|32:217,1,110,0|2,1:0|0:1,0:0:0:0:
230,321,226083,2,0,L|121:316,1,110,8|0,1:0|0:0,0:0:0:0:
395,356,226511,6,0,L|400:247,1,110,2|0,1:0|0:0,0:0:0:0:
201,302,226940,2,0,L|196:193,1,110,10|0,1:0|0:0,0:0:0:0:
251,177,227261,1,0,0:0:0:0:
361,101,227368,2,0,L|252:96,1,110,0|2,1:0|0:1,0:0:0:0:
362,180,227797,2,0,L|367:289,1,110,8|0,1:0|0:0,0:0:0:0:
91,340,228226,6,0,L|200:335,2,110,2|0|8,1:0|0:0|1:0,0:0:0:0:
289,272,228868,2,0,L|287:217,1,55,2|0,0:1|0:0,0:0:0:0:
176,233,229083,2,0,L|171:124,1,110,0|0,1:0|0:0,0:0:0:0:
369,203,229511,2,0,L|374:94,1,110,10|0,1:0|0:0,0:0:0:0:
98,29,229940,6,0,L|207:24,1,110,0|0,1:0|0:0,0:0:0:0:
406,38,230368,1,10,1:0:0:0:
296,95,230583,2,0,L|294:150,1,55
404,148,230797,2,0,L|409:257,1,110,2|0,1:0|0:0,0:0:0:0:
210,309,231226,2,0,L|205:200,1,110,10|0,1:0|0:0,0:0:0:0:
480,129,231654,6,0,L|371:124,2,110,0|0|10,1:0|0:0|1:0,0:0:0:0:
281,212,232297,2,0,L|279:267,1,55
389,315,232511,2,0,L|395:206,1,110,2|0,1:0|0:0,0:0:0:0:
195,148,232940,1,10,1:0:0:0:
305,118,233154,2,0,L|312:92,2,27.5
129,161,233368,5,6,1:0:0:0:
239,179,233583,2,0,L|245:287,1,110,0|8,0:0|1:0,0:0:0:0:
442,335,234011,2,0,L|440:280,1,55,2|0,0:1|0:0,0:0:0:0:
329,240,234226,2,0,L|221:234,1,110,0|0,1:0|0:0,0:0:0:0:
417,193,234654,2,0,L|423:84,1,110,10|0,1:0|0:0,0:0:0:0:
146,27,235083,6,0,L|255:21,2,110,0|2|8,1:0|0:1|1:0,0:0:0:0:
345,204,235726,2,0,L|347:149,1,55
237,115,235940,2,0,L|232:223,1,110,2|0,1:0|0:0,0:0:0:0:
430,176,236368,2,0,L|436:284,1,110,10|0,1:0|0:0,0:0:0:0:
159,339,236797,6,0,L|154:230,1,110,0|0,1:0|0:0,0:0:0:0:
353,202,237226,1,10,1:0:0:0:
243,194,237440,2,0,L|241:139,1,55
131,62,237654,2,0,L|240:56,2,110,2|0|8,1:0|0:0|1:0,0:0:0:0:
330,150,238297,1,2,0:1:0:0:
56,249,238511,6,0,L|165:244,1,110,0|0,1:0|0:0,0:0:0:0:
364,336,238940,2,0,L|255:331,1,110,10|0,1:0|0:0,0:0:0:0:
309,287,239261,1,0,0:0:0:0:
419,220,239368,2,0,L|310:215,1,110,0|2,1:0|0:1,0:0:0:0:
111,206,239797,2,0,L|106:96,1,110,8|0,1:0|0:0,0:0:0:0:
134,91,240065,1,0,0:0:0:0:
162,88,240118,1,0,0:0:0:0:
335,80,240226,6,0,L|444:85,1,110,6|0,1:0|0:0,0:0:0:0:
247,144,240654,2,0,L|240:308,1,165,10|0,1:0|0:0,0:0:0:0:
417,347,241083,2,0,L|308:342,1,110,0|2,1:0|0:1,0:0:0:0:
505,277,241511,2,0,L|510:168,1,110,8|0,1:0|0:0,0:0:0:0:
233,98,241940,5,2,1:0:0:0:
343,125,242154,2,0,L|348:234,1,110,0|8,0:0|1:0,0:0:0:0:
149,290,242583,2,0,L|147:235,1,55,2|0,0:1|0:0,0:0:0:0:
257,168,242797,2,0,L|148:163,1,110
346,192,243226,2,0,L|351:82,1,110,14|0,1:0|0:0,0:0:0:0:
323,77,243493,1,0,0:0:0:0:
295,74,243547,1,0,0:0:0:0:
125,70,243654,6,0,L|16:74,2,110,4|2|0,1:0|0:1|0:0,0:0:0:0:
290,272,244404,1,0,0:0:0:0:
235,265,244511,2,0,L|230:155,1,110,2|0,0:1|3:0,0:0:0:0:
267,152,244797,1,0,3:0:0:0:
303,149,244868,1,0,3:0:0:0:
458,209,244940,2,0,L|463:99,1,110,2|0,3:1|3:0,0:0:0:0:
264,62,245368,5,6,1:0:0:0:
320,68,245475,1,8,0:0:0:0:
320,124,245582,1,0,0:0:0:0:
264,131,245690,1,0,0:0:0:0:
87,145,245797,1,6,1:0:0:0:
32,147,245904,1,0,0:0:0:0:
32,204,246011,1,8,0:0:0:0:
87,210,246118,1,0,0:0:0:0:
265,208,246226,2,0,L|319:206,1,55,6|0,1:0|0:0,0:0:0:0:
142,291,246441,2,0,L|88:289,1,55,8|0,0:0|0:0,0:0:0:0:
320,328,246654,6,0,P|370:272|319:216,1,165,6|0,1:0|0:0,0:0:0:0:
30,216,247083,5,6,1:0:0:0:
256,192,247511,12,0,256404,0:0:0:0:
