osu file format v14

[General]
AudioFilename: audio.mp3
AudioLeadIn: 0
PreviewTime: 226209
Countdown: 0
SampleSet: Soft
StackLeniency: 0.7
Mode: 0
LetterboxInBreaks: 0
WidescreenStoryboard: 0

[Editor]
Bookmarks: 29009,54609,80209,93009,105809,121809,147409,173409,199009,211809,239009,264609,290209,303009,315809,331809
DistanceSpacing: 1
BeatDivisor: 4
GridSize: 4
TimelineZoom: 1.3

[Metadata]
Title:miragecoordinator
TitleUnicode:miragecoordinator
Artist:zts
ArtistUnicode:zts
Creator:Mirash
Version:Insane
Source:うみねこのなく頃に
Tags:jounzan evilelvis v2 code zts label musicbox red czl umineko no naku koro ni marathon visual novel vn 07th expansion
BeatmapID:1383875
BeatmapSetID:652668

[Difficulty]
HPDrainRate:7
CircleSize:4
OverallDifficulty:8
ApproachRate:8
SliderMultiplier:1.6
SliderTickRate:1

[Events]
//Background and Video events
0,0,"bg.jpg",0,0
//Break Periods
//Storyboard Layer 0 (Background)
//Storyboard Layer 1 (Fail)
//Storyboard Layer 2 (Pass)
//Storyboard Layer 3 (Foreground)
//Storyboard Sound Samples

[TimingPoints]
3409,400,4,2,1,70,1,0
27409,-50,4,2,1,70,0,0
29009,-100,4,2,1,70,0,0
40609,-71.4285714285714,4,2,1,70,0,0
41009,-55.5555555555556,4,2,1,70,0,0
41409,-62.5,4,2,1,70,0,0
41809,-100,4,2,1,70,0,0
48609,-100,4,2,1,50,0,0
48809,-100,4,2,1,60,0,0
49209,-100,4,2,1,40,0,0
49609,-100,4,2,1,50,0,0
50209,-100,4,2,1,40,0,0
50409,-100,4,2,1,50,0,0
51009,-100,4,2,1,30,0,0
51409,-100,4,2,1,60,0,0
51809,-100,4,2,1,40,0,0
51909,-100,4,2,1,60,0,0
52209,-100,4,2,1,40,0,0
52309,-100,4,2,1,60,0,0
52609,-100,4,2,1,40,0,0
52709,-100,4,2,1,60,0,0
53009,-100,4,2,1,40,0,0
53109,-100,4,2,1,60,0,0
53409,-100,4,2,1,40,0,0
53509,-100,4,2,1,60,0,0
53809,-50,4,2,1,100,0,0
54109,-50,4,2,1,60,0,0
54209,-200,4,2,1,100,0,0
54509,-200,4,2,1,60,0,0
54609,-100,4,2,1,70,0,0
80209,-666.666666666667,4,2,1,50,0,0
93009,-166.666666666667,4,2,1,50,0,0
105809,-100,4,2,1,70,0,0
112209,-76.9230769230769,4,2,1,70,0,0
118609,-1000,4,2,1,60,0,0
121009,-100,4,2,1,100,0,0
121809,-100,4,2,1,70,0,0
150209,-66.6666666666667,4,2,1,70,0,0
150609,-100,4,2,1,70,0,0
158209,-83.3333333333333,4,2,1,70,0,0
158609,-66.6666666666667,4,2,1,70,0,0
159809,-100,4,2,1,70,0,0
162609,-83.3333333333333,4,2,1,70,0,0
163009,-66.6666666666667,4,2,1,70,0,0
163409,-100,4,2,1,70,0,0
166609,-83.3333333333333,4,2,1,70,0,0
173409,400,4,2,1,70,1,0
174609,-200,4,2,1,50,0,0
199009,-200,4,2,1,70,0,0
208609,-83.3333333333333,4,2,1,70,0,0
211809,-333.333333333333,4,2,1,70,0,0
212409,-66.6666666666667,4,2,1,70,0,0
213009,-50,4,2,1,70,0,0
213409,-100,4,2,1,70,0,0
225009,-100,4,2,1,50,0,0
225809,-100,4,2,1,70,0,0
237409,-50,4,2,1,70,0,0
239009,-100,4,2,1,70,0,0
250609,-71.4285714285714,4,2,1,70,0,0
251009,-55.5555555555556,4,2,1,70,0,0
251409,-62.5,4,2,1,70,0,0
251809,-100,4,2,1,70,0,0
258609,-100,4,2,1,50,0,0
258809,-100,4,2,1,60,0,0
259409,-100,4,2,1,40,0,0
259809,-100,4,2,1,50,0,0
260209,-100,4,2,1,40,0,0
260609,-100,4,2,1,50,0,0
260809,-100,4,2,1,30,0,0
261409,-100,4,2,1,60,0,0
261809,-100,4,2,1,40,0,0
261909,-100,4,2,1,60,0,0
262209,-100,4,2,1,40,0,0
262309,-100,4,2,1,60,0,0
262609,-100,4,2,1,40,0,0
262709,-100,4,2,1,60,0,0
263009,-100,4,2,1,40,0,0
263109,-100,4,2,1,60,0,0
263409,-100,4,2,1,40,0,0
263509,-100,4,2,1,60,0,0
263809,-50,4,2,1,100,0,0
264109,-50,4,2,1,60,0,0
264209,-200,4,2,1,100,0,0
264509,-200,4,2,1,60,0,0
264609,-100,4,2,1,70,0,0
290209,-1000,4,2,1,50,0,0
293409,-666.666666666667,4,2,1,50,0,0
303009,-166.666666666667,4,2,1,50,0,0
315809,-100,4,2,1,70,0,0
322209,-76.9230769230769,4,2,1,70,0,0
327809,-76.9230769230769,4,2,1,60,0,0
328209,-76.9230769230769,4,2,1,80,0,0
328609,-1000,4,2,1,60,0,0
331009,-100,4,2,1,100,0,0

[Colours]
Combo1 : 208,108,74
Combo2 : 94,70,185
Combo3 : 60,96,164
Combo4 : 179,57,118

[HitObjects]
448,227,3409,6,0,P|350:237|287:245,1,160,4|0,1:0|0:0,0:0:0:0:
235,310,4009,1,0,0:0:0:0:
235,310,4209,2,0,P|185:313|145:308,1,80,2|0,0:0|0:0,0:0:0:0:
205,156,4609,2,0,P|248:156|301:161,1,80,0|0,0:0|0:0,0:0:0:0:
127,74,5009,5,2,0:0:0:0:
116,151,5209,1,0,0:0:0:0:
39,140,5409,1,0,0:0:0:0:
50,63,5609,1,0,0:0:0:0:
85,242,5809,5,2,0:0:0:0:
4,233,6009,1,0,0:0:0:0:
21,312,6209,5,0,0:0:0:0:
33,327,6309,1,0,0:0:0:0:
45,342,6409,1,0,0:0:0:0:
57,358,6509,1,0,1:0:0:0:
68,374,6609,1,2,0:0:0:0:
138,346,6809,1,2,0:0:0:0:
209,349,7009,1,2,0:0:0:0:
278,367,7209,1,2,0:0:0:0:
350,367,7409,2,0,B|377:311|355:259|385:192,1,160,0|2,0:0|0:0,0:0:0:0:
377,210,8009,1,2,0:0:0:0:
377,210,8109,1,0,1:0:0:0:
377,210,8209,1,0,0:0:0:0:
302,232,8409,5,2,0:0:0:0:
302,232,8609,1,2,0:0:0:0:
478,210,8809,1,2,0:0:0:0:
386,133,9009,2,0,P|327:145|294:146,1,80,2|2,0:0|0:0,0:0:0:0:
196,141,9409,2,0,P|133:130|104:117,1,80,2|2,0:0|0:0,0:0:0:0:
212,216,9809,5,2,0:0:0:0:
255,95,10009,1,0,0:0:0:0:
291,215,10209,1,0,0:0:0:0:
307,146,10409,1,0,0:0:0:0:
196,141,10609,5,2,0:0:0:0:
255,95,10809,1,0,0:0:0:0:
307,146,11009,1,0,0:0:0:0:
291,215,11209,1,0,0:0:0:0:
212,216,11409,5,2,0:0:0:0:
141,246,11609,1,0,0:0:0:0:
142,322,11809,1,0,0:0:0:0:
212,341,12009,1,0,0:0:0:0:
258,283,12209,5,2,0:0:0:0:
281,283,12309,1,0,1:0:0:0:
303,292,12409,1,0,0:0:0:0:
326,291,12509,1,0,0:0:0:0:
349,297,12609,1,0,0:0:0:0:
373,297,12709,1,0,1:0:0:0:
395,306,12809,1,0,0:0:0:0:
418,304,12909,1,0,1:0:0:0:
458,277,13009,5,4,0:0:0:0:
480,199,13209,1,0,0:0:0:0:
391,138,13409,1,0,1:0:0:0:
395,217,13609,1,0,0:0:0:0:
475,117,13809,1,2,0:0:0:0:
470,41,14009,1,2,0:0:0:0:
281,29,14209,5,2,0:0:0:0:
255,98,14409,1,0,0:0:0:0:
234,173,14609,2,0,P|223:237|217:325,2,120,2|2|2,0:0|0:0|0:0,0:0:0:0:
145,242,15409,6,0,P|84:268|57:272,2,53.3333333333333,0|0|0,1:0|1:0|1:0,0:0:0:0:
180,169,15809,6,0,P|212:169|239:174,2,53.3333333333333,0|0|0,1:0|0:0|1:0,0:0:0:0:
268,160,16209,5,4,1:0:0:0:
341,202,16409,1,0,1:0:0:0:
417,156,16609,1,0,1:0:0:0:
417,156,16809,1,0,0:0:0:0:
259,246,17009,5,0,0:0:0:0:
186,288,17209,1,0,1:0:0:0:
110,242,17409,1,0,1:0:0:0:
110,242,17609,1,0,0:0:0:0:
356,247,17809,5,0,1:0:0:0:
421,296,18009,1,0,0:0:0:0:
416,319,18109,1,0,1:0:0:0:
411,342,18209,1,0,0:0:0:0:
284,331,18409,5,0,1:0:0:0:
207,353,18609,1,2,0:0:0:0:
214,269,18809,1,0,1:0:0:0:
219,246,18909,1,2,0:0:0:0:
224,223,19009,1,0,1:0:0:0:
321,219,19209,1,0,1:0:0:0:
417,214,19409,6,0,P|423:155|438:117,1,80,0|0,1:0|0:0,0:0:0:0:
316,137,19809,2,0,P|316:97|307:53,1,80,0|0,1:0|0:0,0:0:0:0:
92,243,20209,2,0,P|86:184|71:146,1,80,2|0,0:0|1:0,0:0:0:0:
193,166,20609,2,0,P|193:126|202:82,1,80,0|0,1:0|0:0,0:0:0:0:
201,274,21009,5,0,1:0:0:0:
318,272,21209,1,0,0:0:0:0:
215,348,21409,1,0,0:0:0:0:
306,350,21609,1,0,1:0:0:0:
193,269,21809,5,0,0:0:0:0:
325,267,22009,1,0,0:0:0:0:
209,352,22209,1,0,1:0:0:0:
311,354,22409,1,0,0:0:0:0:
258,224,22609,5,0,1:0:0:0:
290,159,22809,1,0,0:0:0:0:
356,131,23009,1,0,1:0:0:0:
425,148,23209,1,0,0:0:0:0:
214,163,23409,5,0,0:0:0:0:
182,98,23609,1,0,1:0:0:0:
116,70,23809,1,0,1:0:0:0:
47,87,24009,1,0,0:0:0:0:
288,57,24209,5,0,1:2:0:0:
353,28,24409,1,2,0:0:0:0:
388,32,24509,1,2,0:0:0:0:
420,46,24609,1,0,1:2:0:0:
456,108,24809,1,2,0:0:0:0:
426,173,25009,1,8,0:0:0:0:
417,207,25109,1,0,1:0:0:0:
423,242,25209,1,2,0:0:0:0:
436,275,25309,1,4,0:0:0:0:
462,299,25409,1,0,1:0:0:0:
469,370,25609,1,0,1:0:0:0:
257,334,25809,5,4,1:0:0:0:
292,340,25909,1,8,0:0:0:0:
327,346,26009,1,2,0:0:0:0:
281,259,26209,1,0,1:0:0:0:
281,259,26409,1,2,0:0:0:0:
194,305,26609,1,0,0:0:0:0:
200,270,26709,1,0,1:0:0:0:
206,235,26809,1,2,0:0:0:0:
452,244,27009,5,4,1:2:0:0:
429,201,27109,1,8,0:0:0:0:
431,153,27209,1,2,0:0:0:0:
455,111,27309,1,8,0:0:0:0:
488,138,27409,6,0,P|398:127|325:121,1,160,4|2,1:0|1:0,0:1:0:0:
255,87,27709,1,2,1:0:0:0:
255,87,27809,2,0,P|299:52|327:45,1,80,8|8,1:0|0:0,0:1:0:0:
180,43,28009,2,0,L|14:59,2,160,8|2|4,1:0|1:0|1:2,0:0:0:0:
35,132,28609,2,0,P|23:223|62:293,1,160,2|2,0:0|0:0,0:0:0:0:
285,313,29009,6,0,L|374:306,1,80,4|0,1:0|0:0,0:0:0:0:
457,201,29409,2,0,L|321:210,1,120,0|0,1:0|1:0,0:0:0:0:
305,186,29809,2,0,P|293:131|303:79,1,80,0|0,1:0|1:0,0:0:0:0:
307,100,30109,1,0,0:0:0:0:
321,99,30209,1,0,1:0:0:0:
392,132,30409,1,0,0:0:0:0:
457,201,30609,6,0,P|445:255|447:305,1,80,0|0,1:0|0:0,0:0:0:0:
333,261,31009,2,0,P|341:309|337:346,1,80,0|0,1:0|0:0,0:0:0:0:
94,223,31409,2,0,P|106:277|104:327,1,80,0|2,1:0|0:0,0:0:0:0:
218,283,31809,2,0,P|210:331|214:368,1,80,0|2,1:0|0:0,0:0:0:0:
174,197,32209,6,0,L|314:202,1,120,0|0,1:0|0:0,0:0:0:0:
293,201,32609,2,0,L|301:111,1,80,0|0,1:0|0:0,0:0:0:0:
114,140,33009,1,0,1:0:0:0:
157,73,33209,1,0,1:0:0:0:
157,73,33309,1,0,0:0:0:0:
157,73,33409,2,0,L|252:73,1,80,0|0,1:0|0:0,0:0:0:0:
300,32,33809,5,0,1:0:0:0:
448,88,34009,1,0,0:0:0:0:
439,127,34109,1,0,0:0:0:0:
431,166,34209,1,0,1:0:0:0:
466,237,34409,1,0,1:0:0:0:
390,36,34609,5,0,1:0:0:0:
294,145,34809,1,2,0:0:0:0:
285,184,34909,1,0,1:0:0:0:
277,223,35009,1,0,0:0:0:0:
312,294,35209,1,2,1:2:0:0:
357,232,35409,5,0,1:2:0:0:
277,223,35609,1,2,0:0:0:0:
204,255,35809,1,0,1:0:0:0:
157,320,36009,1,0,0:0:0:0:
237,329,36209,5,0,1:2:0:0:
204,255,36409,1,0,1:0:0:0:
212,175,36609,1,0,1:0:0:0:
261,110,36809,1,0,0:0:0:0:
168,85,37009,5,0,1:2:0:0:
318,203,37209,1,0,0:0:0:0:
128,150,37409,1,0,1:0:0:0:
360,135,37609,1,0,0:0:0:0:
236,30,37809,5,0,1:0:0:0:
251,262,38009,1,2,0:0:0:0:
304,72,38209,1,0,1:0:0:0:
186,222,38409,1,2,0:2:0:0:
251,147,38609,5,0,1:0:0:0:
315,193,38809,1,0,0:0:0:0:
347,216,38909,1,0,1:0:0:0:
379,239,39009,1,0,0:0:0:0:
444,285,39209,1,0,1:0:0:0:
359,253,39409,5,0,1:0:0:0:
327,230,39509,1,0,1:0:0:0:
295,207,39609,1,0,0:0:0:0:
263,184,39709,1,0,1:0:0:0:
231,161,39809,1,0,0:0:0:0:
166,113,40009,1,0,1:0:0:0:
41,273,40209,6,0,L|135:274,1,80,4|2,0:0|1:0,0:0:0:0:
471,111,40609,2,0,L|359:109,1,111.999996582031,4|2,0:0|1:0,0:0:0:0:
29,287,41009,6,0,L|183:290,1,143.999995605469,2|0,1:0|0:0,0:1:0:0:
483,97,41409,2,0,L|346:94,1,128,4|2,1:2|1:0,0:0:0:0:
276,56,41809,6,0,P|264:111|286:189,1,120,4|0,1:0|0:0,0:0:0:0:
277,172,42209,2,0,L|367:172,1,80,2|0,1:2|0:0,0:0:0:0:
420,225,42609,1,2,1:2:0:0:
378,299,42809,1,0,0:0:0:0:
338,294,42909,1,0,1:0:0:0:
298,296,43009,1,2,1:2:0:0:
221,319,43209,1,2,1:2:0:0:
184,303,43309,1,0,1:0:0:0:
150,230,43509,1,0,1:0:0:0:
188,220,43609,1,2,1:2:0:0:
259,184,43809,6,0,P|259:134|243:82,1,80,4|2,1:2|1:2,0:0:0:0:
148,137,44209,2,0,P|148:87|164:35,1,80,4|2,1:2|1:2,0:0:0:0:
357,57,44609,2,0,P|365:97|364:137,1,80,0|0,1:0|0:0,0:0:0:0:
256,356,45009,5,4,1:0:0:0:
180,310,45209,1,2,1:2:0:0:
180,310,45309,1,0,0:0:0:0:
180,310,45409,1,2,1:2:0:0:
255,276,45609,1,0,0:0:0:0:
331,316,45809,1,2,1:2:0:0:
328,232,46009,1,0,0:0:0:0:
328,232,46109,1,0,1:0:0:0:
328,232,46209,1,2,1:2:0:0:
246,199,46409,1,0,1:0:0:0:
170,232,46609,5,0,0:0:0:0:
170,232,46709,1,0,1:0:0:0:
170,232,46809,1,0,1:0:0:0:
179,148,47009,1,0,1:0:0:0:
212,125,47109,1,0,1:0:0:0:
251,122,47209,1,0,0:0:0:0:
290,128,47309,1,0,1:0:0:0:
319,154,47409,1,0,1:2:0:0:
290,45,47609,1,0,0:0:0:0:
250,46,47709,1,0,1:0:0:0:
210,47,47809,1,0,1:2:0:0:
137,79,48009,1,0,0:0:0:0:
442,187,48209,6,0,P|385:165|270:174,1,160,4|2,1:0|1:2,0:0:0:0:
346,362,48809,1,0,0:0:0:0:
308,348,48909,1,0,1:0:0:0:
269,358,49009,1,4,1:0:0:0:
199,281,49209,1,2,1:2:0:0:
237,267,49309,1,0,1:0:0:0:
276,277,49409,1,2,1:2:0:0:
342,233,49609,5,0,0:0:0:0:
141,231,49809,1,4,1:0:0:0:
243,168,50009,1,2,1:2:0:0:
245,8,50209,1,2,1:2:0:0:
244,88,50409,1,4,1:2:0:0:
162,37,50609,6,0,L|159:132,1,80,4|2,1:0|1:2,0:0:0:0:
324,37,51009,2,0,L|328:134,1,80,4|0,1:2|1:0,0:0:0:0:
109,247,51409,5,4,1:0:0:0:
142,224,51509,1,0,0:0:0:0:
181,220,51609,1,2,1:2:0:0:
218,234,51709,1,0,0:0:0:0:
245,263,51809,1,6,1:2:0:0:
277,286,51909,1,0,0:0:0:0:
316,293,52009,1,0,1:0:0:0:
355,284,52109,1,0,0:0:0:0:
370,234,52209,5,4,1:0:0:0:
347,186,52309,1,0,0:0:0:0:
296,171,52409,1,2,1:2:0:0:
248,191,52509,1,0,0:0:0:0:
218,234,52609,1,6,1:2:0:0:
208,285,52709,1,0,0:0:0:0:
169,320,52809,1,0,1:0:0:0:
117,328,52909,1,0,0:0:0:0:
65,312,53009,5,0,1:2:0:0:
63,263,53109,1,0,0:0:0:0:
91,224,53209,1,2,1:2:0:0:
123,189,53309,1,0,0:0:0:0:
127,141,53409,1,6,1:2:0:0:
98,102,53509,1,8,1:2:0:0:
49,103,53609,1,0,1:0:0:0:
21,141,53709,1,8,0:0:0:0:
19,187,53809,6,2,B|107:191|107:191|124:236|124:236|234:239,1,240,4|0,1:0|0:0,0:1:0:0:
34,266,54209,6,0,L|30:325,1,60,2|0,1:0|0:0,0:1:0:0:
99,361,54609,5,4,1:0:0:0:
179,372,54809,1,0,0:0:0:0:
254,346,55009,1,8,1:2:0:0:
286,272,55209,1,0,2:0:0:0:
336,337,55409,2,0,L|432:331,1,80,0|0,1:0|0:0,0:0:0:0:
202,285,55809,2,0,L|106:279,1,80,0|0,1:0|2:0,0:0:0:0:
328,211,56209,5,2,1:2:0:0:
407,215,56409,1,2,2:0:0:0:
413,135,56609,1,8,1:2:0:0:
333,132,56809,1,2,0:0:0:0:
250,167,57009,5,0,1:0:0:0:
171,171,57209,1,0,1:0:0:0:
165,91,57409,1,2,1:2:0:0:
245,88,57609,1,2,1:2:0:0:
283,76,57709,1,8,0:0:0:0:
321,65,57809,2,0,L|414:68,1,80,2|0,1:2|0:0,0:0:0:0:
225,18,58209,6,0,L|132:21,1,80,8|0,1:2|0:0,0:0:0:0:
79,67,58609,1,0,1:0:0:0:
24,125,58809,1,0,0:0:0:0:
16,164,58909,1,4,0:0:0:0:
26,202,59009,1,0,1:0:0:0:
113,265,59209,1,0,0:0:0:0:
208,216,59409,2,0,P|271:208|386:256,2,160,2|8|2,1:0|1:2|1:0,0:0:0:0:
208,216,60409,5,2,1:0:0:0:
208,216,60509,1,2,0:0:0:0:
208,216,60609,1,2,1:0:0:0:
235,143,60809,1,2,1:2:0:0:
252,61,61009,2,0,L|352:75,1,80,0|0,1:0|0:0,0:0:0:0:
401,143,61409,2,0,L|376:264,1,120,8|8,1:2|0:0,0:0:0:0:
376,260,61809,2,0,L|280:260,1,80,0|0,1:0|0:0,0:0:0:0:
184,350,62209,2,0,L|280:349,1,80,0|0,1:0|0:0,0:0:0:0:
449,353,62609,5,0,1:0:0:0:
466,275,62809,1,2,0:0:0:0:
479,196,63009,1,8,1:2:0:0:
496,118,63209,1,0,0:0:0:0:
395,220,63409,5,0,1:0:0:0:
327,176,63609,1,2,0:0:0:0:
287,173,63709,1,0,0:0:0:0:
250,190,63809,1,2,1:2:0:0:
172,169,64009,1,2,1:2:0:0:
57,104,64209,6,0,L|149:92,1,80,0|0,1:0|1:0,0:0:0:0:
172,169,64609,2,0,L|133:253,1,80,8|0,1:2|0:0,0:0:0:0:
60,241,65009,2,0,L|8:163,1,80,2|2,1:2|0:0,0:0:0:0:
58,85,65409,6,0,L|150:85,1,80,0|2,1:0|1:2,0:0:0:0:
188,191,65809,2,0,L|138:269,1,80,2|0,1:0|0:0,0:1:0:0:
34,252,66209,2,0,L|-5:168,1,80,2|2,1:0|1:1,0:0:0:0:
89,318,66609,5,2,1:0:0:0:
156,368,66809,1,0,0:0:0:0:
169,368,66875,1,0,1:0:0:0:
182,369,66942,1,0,1:0:0:0:
195,369,67009,1,0,1:0:0:0:
275,332,67209,1,2,1:2:0:0:
369,380,67409,6,0,P|379:333|366:286,1,80,4|2,1:0|0:0,0:0:0:0:
341,277,67709,1,2,0:0:0:0:
313,247,67809,2,0,P|301:175|336:93,1,160,8|0,1:2|1:0,0:0:0:0:
382,160,68409,1,2,0:2:0:0:
240,105,68609,6,0,P|184:103|128:113,1,80,8|2,1:2|0:0,0:0:0:0:
99,212,69009,2,0,P|155:214|211:204,1,80,0|2,1:0|0:0,0:0:0:0:
33,93,69409,2,0,P|17:162|25:246,1,120,8|8,1:2|0:0,0:0:0:0:
19,212,69809,2,0,P|75:214|131:204,1,80,0|2,1:2|1:2,0:0:0:0:
185,135,70209,2,0,P|224:131|264:134,1,80,8|2,1:2|0:0,0:0:0:0:
469,164,70609,6,0,P|479:231|469:269,1,80,0|2,1:0|0:0,0:0:0:0:
349,256,71009,2,0,P|339:189|349:151,1,80,8|2,1:2|0:0,0:0:0:0:
419,296,71409,2,0,L|428:391,1,80,0|2,1:0|0:0,0:0:0:0:
400,123,71809,2,0,L|392:43,1,80,10|2,1:2|0:0,0:0:0:0:
276,283,72209,5,4,1:2:0:0:
276,283,72509,1,0,1:0:0:0:
276,283,72609,1,8,1:2:0:0:
183,255,72809,1,2,0:1:0:0:
88,269,73009,1,4,1:2:0:0:
88,269,73309,1,0,0:0:0:0:
88,269,73409,1,8,1:2:0:0:
107,191,73609,1,10,1:2:0:0:
127,113,73809,6,0,P|177:105|213:114,1,80,0|2,1:0|0:0,0:0:0:0:
237,134,74109,1,0,0:0:0:0:
268,158,74209,2,0,P|335:162|380:146,1,80,8|10,1:2|1:2,0:0:0:0:
416,225,74609,2,0,L|406:325,1,80,2|2,1:0|0:0,0:0:0:0:
323,342,75009,2,0,L|226:330,1,80,10|2,1:2|0:0,0:0:0:0:
429,148,75409,5,2,1:0:0:0:
412,69,75609,1,10,0:0:0:0:
412,69,75709,1,8,0:0:0:0:
412,69,75809,1,10,1:2:0:0:
332,81,76009,1,10,1:2:0:0:
346,159,76209,1,10,1:2:0:0:
463,227,76409,5,2,1:0:0:0:
463,227,76509,1,8,0:0:0:0:
463,227,76609,1,2,1:0:0:0:
370,253,76809,1,10,1:2:0:0:
279,286,77009,2,0,P|206:303|153:294,1,120,4|0,1:0|1:0,0:0:0:0:
162,296,77409,2,0,L|164:206,1,80,10|2,1:2|1:2,0:0:0:0:
360,110,77809,2,0,P|287:93|234:102,1,120,10|8,1:2|0:0,0:0:0:0:
243,99,78209,2,0,L|244:189,1,80,4|10,1:0|0:0,0:0:0:0:
45,158,78609,5,4,1:2:0:0:
62,149,78709,1,10,0:0:0:0:
69,130,78809,1,2,1:0:0:0:
58,112,78909,1,2,0:0:0:0:
15,123,79009,5,8,1:0:0:0:
8,166,79109,1,8,1:0:0:0:
18,208,79209,1,4,1:2:0:0:
40,245,79309,1,2,1:0:0:0:
72,215,79409,5,8,1:0:0:0:
79,172,79509,1,0,1:0:0:0:
69,130,79609,1,10,1:0:0:0:
47,93,79709,1,0,0:0:0:0:
6,119,79809,5,4,1:2:0:0:
1,162,79909,1,2,0:0:0:0:
9,204,80009,1,8,1:0:0:0:
31,241,80109,1,2,0:0:0:0:
78,219,80209,6,0,L|223:231,1,143.999995605469,4|2,1:0|0:0,0:0:0:0:
272,23,83409,2,0,P|254:90|264:167,1,143.999995605469,4|2,0:0|0:0,0:0:0:0:
440,330,86609,6,0,L|296:323,1,143.999995605469,4|2,1:0|0:0,0:0:0:0:
296,323,89809,2,0,L|307:176,1,143.999995605469,4|0,0:0|0:0,0:0:0:0:
306,179,93009,6,0,P|359:173|416:180,1,95.9999970703126,0|2,1:0|0:0,0:0:0:0:
278,249,93609,1,0,1:0:0:0:
207,217,93809,2,0,P|154:211|97:218,1,95.9999970703126,4|0,1:2|1:0,0:0:0:0:
232,140,94409,1,2,0:0:0:0:
186,81,94609,2,0,L|190:141,1,47.9999985351563,4|2,1:2|0:0,0:0:0:0:
383,71,95009,5,0,1:1:0:0:
378,146,95209,1,0,1:0:0:0:
369,221,95409,2,0,P|371:269|386:333,2,95.9999970703126,4|4|4,1:2|1:2|1:0,0:0:0:0:
369,221,96609,5,2,0:0:0:0:
298,236,96809,1,0,1:0:0:0:
238,277,97009,2,0,P|188:279|126:264,1,95.9999970703126,4|0,1:2|1:0,0:0:0:0:
115,197,97609,2,0,L|112:252,1,47.9999985351563,2|4,0:0|1:2,0:0:0:0:
21,287,98009,1,2,0:0:0:0:
31,215,98209,1,0,1:0:0:0:
106,109,98609,5,4,1:2:0:0:
212,184,99009,1,4,1:2:0:0:
137,290,99409,2,0,L|236:303,1,95.9999970703126,4|2,1:0|0:0,0:0:0:0:
427,337,100009,1,0,1:0:0:0:
402,260,100209,2,0,L|313:294,1,95.9999970703126,4|0,1:2|1:0,0:0:0:0:
261,235,100809,1,2,0:0:0:0:
266,163,101009,1,4,1:2:0:0:
270,91,101209,1,2,0:0:0:0:
276,19,101409,1,0,1:0:0:0:
419,27,101809,5,4,1:2:0:0:
408,170,102209,1,4,1:2:0:0:
398,313,102609,2,0,L|298:306,1,95.9999970703126,4|2,1:0|0:0,0:0:0:0:
136,347,103209,1,0,1:0:0:0:
221,356,103409,2,0,P|216:312|228:245,1,95.9999970703126,4|0,1:2|1:0,0:0:0:0:
295,215,104009,1,2,0:0:0:0:
118,182,104209,2,0,L|178:192,1,47.9999985351563,4|2,1:2|0:0,0:0:0:0:
240,145,104609,1,4,0:0:0:0:
256,192,104809,12,0,105609,0:0:0:0:
344,59,105809,5,6,1:0:0:0:
438,53,106009,1,0,1:0:0:0:
438,53,106109,1,0,1:0:0:0:
438,53,106209,1,0,1:0:0:0:
477,128,106409,1,0,0:0:0:0:
392,130,106609,2,0,L|386:225,1,80,6|4,1:0|0:0,0:0:0:0:
278,309,107009,2,0,L|280:229,1,80,0|0,1:0|1:0,0:0:0:0:
294,140,107409,5,6,1:0:0:0:
381,288,107609,1,0,1:0:0:0:
316,156,107809,1,0,1:0:0:0:
358,273,108009,1,0,1:0:0:0:
116,251,108209,6,2,P|177:244|237:244,1,120,4|0,1:0|0:0,0:1:0:0:
235,244,108609,2,2,L|244:334,1,80,4|2,1:0|1:0,0:1:0:0:
24,238,109009,2,0,P|18:155|46:78,1,160,6|0,1:0|1:0,0:0:0:0:
130,118,109609,1,0,0:0:0:0:
130,118,109709,1,0,1:0:0:0:
130,118,109809,1,6,1:0:0:0:
202,152,110009,1,4,0:0:0:0:
274,186,110209,1,0,1:0:0:0:
395,307,110409,5,0,1:0:0:0:
324,344,110609,2,0,P|319:301|326:266,1,80,6|0,1:0|1:0,0:0:0:0:
477,344,111009,2,0,P|482:301|475:266,1,80,0|0,1:0|1:0,0:0:0:0:
401,196,111409,1,6,1:0:0:0:
401,196,111509,1,0,0:0:0:0:
401,156,111609,1,0,1:0:0:0:
401,116,111709,1,0,0:0:0:0:
402,76,111809,1,6,1:0:0:0:
190,73,112009,5,0,0:0:0:0:
190,73,112109,1,2,0:0:0:0:
190,73,112209,2,0,P|250:82|326:205,1,207.999990478516,6|0,1:0|1:2,0:1:0:0:
187,162,112809,1,0,1:0:0:0:
225,340,113009,2,0,P|165:331|89:208,1,207.999990478516,6|0,1:0|1:0,0:1:0:0:
228,251,113609,1,0,1:0:0:0:
383,337,113809,6,0,P|410:283|382:193,1,155.999992858887,6|0,1:0|1:0,0:1:0:0:
384,195,114209,2,0,P|362:143|368:89,1,103.999995239258,0|0,1:0|1:0,0:0:0:0:
199,57,114609,6,2,P|139:74|45:58,1,155.999992858887,4|0,1:0|0:0,0:1:0:0:
0,162,115009,2,2,L|118:152,1,103.999995239258,4|2,1:0|1:0,0:1:0:0:
436,159,115409,5,6,1:0:0:0:
364,172,115609,1,0,1:0:0:0:
364,172,115709,1,0,0:0:0:0:
364,172,115809,1,0,1:0:0:0:
285,187,116009,1,0,1:0:0:0:
143,326,116209,5,6,1:0:0:0:
225,311,116409,1,2,1:0:0:0:
225,311,116509,1,0,0:0:0:0:
225,311,116609,1,0,1:0:0:0:
298,296,116809,1,0,1:0:0:0:
457,118,117009,5,6,1:0:0:0:
421,126,117109,1,0,1:0:0:0:
385,133,117209,1,0,1:0:0:0:
349,140,117309,1,0,1:0:0:0:
314,148,117409,1,0,1:0:0:0:
242,163,117609,1,0,1:0:0:0:
76,323,117809,6,2,L|190:331,1,103.999995239258,4|0,1:0|1:0,0:1:0:0:
452,70,118209,2,2,L|338:62,1,103.999995239258,6|4,1:0|1:2,0:1:0:0:
28,134,118609,6,0,L|21:226,1,92,0|0,0:0|0:0,0:0:0:0:
21,225,121009,6,0,L|221:233,1,200
450,231,121809,6,0,P|454:270|447:309,1,80,4|2,1:0|0:0,0:0:0:0:
447,308,122109,1,2,0:0:0:0:
447,308,122209,1,4,1:2:0:0:
332,313,122409,2,0,P|327:273|333:234,1,80,2|0,0:0|1:0,0:0:0:0:
389,97,122809,2,0,P|397:137|388:190,1,80,2|0,0:0|1:0,0:0:0:0:
477,143,123209,1,2,0:0:0:0:
291,122,123409,5,4,1:0:0:0:
229,171,123609,1,2,0:0:0:0:
229,171,123709,1,2,0:0:0:0:
229,171,123809,1,0,1:0:0:0:
214,90,124009,1,2,1:2:0:0:
28,261,124209,5,0,1:0:0:0:
119,202,124409,1,2,1:2:0:0:
119,202,124509,1,2,0:0:0:0:
119,202,124609,1,0,1:0:0:0:
134,308,124809,1,2,1:2:0:0:
195,360,125009,6,0,P|232:358|309:359,1,80,0|2,1:0|0:0,0:0:0:0:
385,304,125409,2,0,P|435:303|479:305,1,80,0|2,1:0|0:0,0:0:0:0:
295,267,125809,2,0,P|292:220|295:168,1,80,0|2,1:0|0:0,0:0:0:0:
293,187,126109,1,2,0:0:0:0:
293,187,126209,2,0,P|334:186|386:188,1,80,0|0,1:0|1:0,0:0:0:0:
444,231,126609,5,0,1:0:0:0:
311,346,126809,1,0,1:0:0:0:
311,346,126909,1,0,0:0:0:0:
311,346,127009,2,0,L|408:331,1,80,0|0,1:0|1:0,0:0:0:0:
228,315,127409,1,0,1:0:0:0:
165,352,127609,1,0,1:0:0:0:
165,352,127709,1,0,1:0:0:0:
165,352,127809,2,0,L|68:337,1,80,0|2,1:0|1:2,0:0:0:0:
28,147,128209,6,0,P|71:141|132:147,1,80,0|2,1:0|0:0,0:0:0:0:
208,143,128609,2,0,P|203:206|203:242,1,80,0|2,1:0|0:0,0:0:0:0:
148,56,129009,2,0,P|199:39|233:31,1,80,0|2,1:0|0:0,0:0:0:0:
224,32,129309,1,0,1:0:0:0:
224,32,129409,1,0,1:0:0:0:
310,47,129609,1,2,0:0:0:0:
471,178,129809,5,0,1:0:0:0:
308,135,130009,1,2,1:2:0:0:
308,135,130109,1,4,0:0:0:0:
301,220,130309,1,2,1:2:0:0:
301,220,130409,1,6,1:2:0:0:
52,253,130609,5,0,1:0:0:0:
215,210,130809,1,2,1:2:0:0:
215,210,130909,1,2,0:0:0:0:
222,295,131109,1,0,1:0:0:0:
222,295,131209,1,0,1:2:0:0:
310,308,131409,6,0,P|374:312|404:318,1,80,0|2,1:0|0:0,0:0:0:0:
389,314,131709,1,2,0:0:0:0:
389,314,131809,2,0,P|436:315|487:310,1,80,0|2,1:0|0:0,0:0:0:0:
424,184,132209,2,0,P|376:182|325:187,1,80,0|2,1:0|1:2,0:0:0:0:
220,215,132609,2,0,P|222:254|221:294,1,80,0|2,1:0|0:0,0:0:0:0:
74,119,133009,6,0,P|115:117|174:123,2,80,0|2|0,1:0|0:2|1:0,0:0:0:0:
16,172,133609,1,0,1:0:0:0:
199,51,133809,2,0,P|234:51|294:42,1,80,0|0,1:0|1:0,0:0:0:0:
328,147,134109,1,0,1:0:0:0:
328,147,134209,2,0,P|321:188|317:250,1,80,4|0,1:2|1:0,0:0:0:0:
232,309,134509,5,0,1:0:0:0:
232,309,134609,2,0,P|176:306|118:306,1,80,4|2,1:0|0:0,0:0:0:0:
297,360,135009,2,0,P|353:357|411:357,1,80,8|2,1:2|0:0,0:0:0:0:
105,250,135409,1,0,1:0:0:0:
83,181,135609,1,2,0:2:0:0:
89,109,135809,1,8,1:2:0:0:
135,54,136009,1,2,0:2:0:0:
192,223,136209,6,0,L|285:221,1,80,0|2,1:0|1:2,0:0:0:0:
271,221,136509,1,0,0:0:0:0:
271,221,136609,1,8,1:2:0:0:
361,248,136809,1,2,1:2:0:0:
502,98,137009,2,0,P|452:107|421:114,1,80,0|10,1:0|1:2,0:0:0:0:
423,113,137309,1,0,1:0:0:0:
423,113,137409,2,0,P|428:172|432:202,1,80,8|2,1:2|1:2,0:0:0:0:
335,87,137809,6,0,P|260:97|146:124,1,160,0|8,1:0|1:2,0:0:0:0:
26,141,138409,1,2,0:0:0:0:
108,148,138609,2,0,P|117:207|129:251,1,80,0|2,1:0|1:2,0:0:0:0:
121,226,138909,1,0,0:0:0:0:
121,226,139009,1,8,1:2:0:0:
191,284,139209,1,2,1:2:0:0:
341,217,139409,6,0,P|395:209|429:210,1,80,4|8,1:2|0:0,0:0:0:0:
496,302,139809,2,0,P|442:310|408:309,1,80,8|0,1:2|1:2,0:0:0:0:
270,291,140209,2,0,P|216:283|182:284,1,80,8|8,0:0|1:2,0:0:0:0:
86,366,140609,2,0,P|125:373|165:373,1,80,8|8,1:2|1:2,0:0:0:0:
264,212,141009,6,0,P|251:161|266:51,1,160,0|8,1:0|1:2,0:0:0:0:
349,193,141609,1,2,0:0:0:0:
414,272,141809,2,0,L|318:271,1,80,0|2,1:0|1:2,0:0:0:0:
432,192,142209,2,0,L|528:191,1,80,8|2,1:2|0:2,0:0:0:0:
188,152,142609,5,0,1:0:0:0:
125,210,142809,1,8,0:0:0:0:
125,210,142909,1,0,0:0:0:0:
125,210,143009,1,8,1:2:0:0:
111,129,143209,1,2,1:2:0:0:
148,309,143409,5,0,1:0:0:0:
226,240,143609,1,10,1:2:0:0:
226,240,143709,1,8,0:2:0:0:
226,240,143809,1,8,1:2:0:0:
254,343,144009,1,10,1:2:0:0:
326,267,144209,6,0,P|406:274|492:290,2,160,0|8|0,1:0|1:2|1:0,0:0:0:0:
326,267,145209,1,2,1:2:0:0:
326,267,145309,1,8,0:0:0:0:
326,267,145409,1,8,1:2:0:0:
382,177,145609,1,2,1:2:0:0:
268,152,145809,5,4,1:0:0:0:
219,263,146009,1,8,0:0:0:0:
219,263,146109,1,8,0:0:0:0:
219,263,146209,1,4,0:0:0:0:
108,214,146409,1,12,0:0:0:0:
157,103,146609,1,0,1:0:0:0:
268,152,146809,1,0,1:0:0:0:
268,152,146909,1,0,0:0:0:0:
268,152,147009,1,4,1:2:0:0:
58,313,147209,5,0,1:0:0:0:
58,313,147309,1,0,1:0:0:0:
58,313,147409,2,0,P|97:307|149:305,1,80,4|2,1:0|0:2,0:0:0:0:
272,308,147809,2,0,P|313:315|359:331,1,80,2|10,1:2|1:2,0:0:0:0:
195,236,148209,5,8,1:2:0:0:
126,195,148409,1,2,0:0:0:0:
172,132,148609,1,2,1:2:0:0:
239,172,148809,1,8,1:2:0:0:
45,203,149009,6,0,P|37:146|39:94,1,80,8|2,1:2|0:0,0:0:0:0:
36,123,149309,1,0,1:0:0:0:
36,123,149409,1,2,1:2:0:0:
98,58,149609,2,0,P|138:52|177:53,1,80,10|4,1:2|1:2,0:0:0:0:
242,94,150009,1,10,1:2:0:0:
447,196,150209,6,0,P|467:276|445:377,1,180.000006866455,4|0,1:0|0:0,0:0:0:0:
448,370,150609,6,0,L|343:368,1,80,8|2,1:2|0:0,0:0:0:0:
368,368,150909,1,0,1:0:0:0:
368,368,151009,1,2,1:2:0:0:
213,353,151209,1,8,1:2:0:0:
290,382,151409,2,0,P|300:317|281:212,1,160,8|2,1:2|1:2,0:0:0:0:
203,161,152009,5,8,1:2:0:0:
123,114,152209,2,0,P|117:158|126:241,1,120,8|2,1:2|1:2,0:0:0:0:
151,256,152609,1,4,1:2:0:0:
244,272,152809,1,8,1:2:0:0:
191,343,153009,1,4,1:2:0:0:
94,326,153209,1,8,1:2:0:0:
45,380,153409,1,8,1:2:0:0:
236,143,153809,6,0,P|305:138|344:142,1,80,4|2,1:0|0:0,0:0:0:0:
387,204,154209,2,0,P|392:273|388:312,1,80,2|8,1:2|1:2,0:0:0:0:
397,131,154609,2,0,P|406:89|433:13,1,120,8|2,1:2|1:2,0:0:0:0:
431,16,155009,2,0,L|507:38,1,80,2|8,1:2|1:2,0:0:0:0:
329,46,155409,6,0,L|246:52,1,80,8|2,1:2|0:0,0:0:0:0:
476,141,155809,2,0,L|471:229,1,80,4|8,1:2|1:2,0:0:0:0:
296,230,156209,1,4,1:2:0:0:
296,230,156509,1,2,0:0:0:0:
296,230,156609,1,8,1:2:0:0:
177,212,156809,5,4,1:2:0:0:
110,265,157009,2,0,P|109:316|114:362,1,80,4|2,1:0|0:0,0:0:0:0:
249,339,157409,2,0,P|250:288|245:242,1,80,2|8,1:2|1:2,0:0:0:0:
316,154,157809,2,0,P|347:178|381:199,1,80,8|2,1:2|0:0,0:0:0:0:
200,139,158209,6,0,L|27:141,1,143.999995605469,2|2,1:2|0:0,0:0:0:0:
29,173,158609,6,0,L|172:171,1,120.000004577637,4|4,1:0|0:0,0:0:0:0:
203,228,159009,1,4,1:0:0:0:
178,302,159209,1,8,1:2:0:0:
313,283,159409,1,4,1:0:0:0:
321,358,159609,1,0,1:0:0:0:
419,168,159809,5,4,1:2:0:0:
432,201,159909,1,0,1:0:0:0:
446,234,160009,1,8,1:2:0:0:
459,267,160109,1,0,1:0:0:0:
459,267,160209,2,0,L|440:379,1,80,4|2,1:2|0:0,0:0:0:0:
313,283,160609,2,0,L|326:204,1,80,10|0,1:2|1:0,0:0:0:0:
512,131,161009,2,0,B|472:125|472:125|408:135,1,80,4|2,1:2|0:0,0:0:0:0:
432,131,161309,1,0,0:0:0:0:
432,131,161409,1,10,1:2:0:0:
369,98,161609,1,2,1:2:0:0:
75,240,161809,5,4,1:2:0:0:
165,260,162009,1,10,1:2:0:0:
185,170,162209,1,8,1:2:0:0:
95,150,162409,1,2,1:2:0:0:
101,347,162609,6,0,P|165:351|256:330,1,143.999995605469,4|0,1:2|0:0,0:0:0:0:
295,348,163009,6,0,P|274:280|283:155,1,180.000006866455,4|0,1:0|0:0,0:1:0:0:
303,146,163409,6,0,P|354:147|405:154,1,80,4|2,1:0|1:2,0:1:0:0:
492,263,163809,2,0,P|441:262|390:255,1,80,10|0,1:2|1:0,0:0:0:0:
195,186,164209,5,4,1:2:0:0:
125,161,164409,1,2,0:0:0:0:
125,161,164509,1,0,0:0:0:0:
125,161,164609,1,10,1:2:0:0:
50,122,164809,1,2,1:2:0:0:
222,115,165009,5,4,1:2:0:0:
305,109,165209,1,2,0:0:0:0:
305,109,165309,1,2,0:0:0:0:
305,109,165409,1,10,1:2:0:0:
379,97,165609,1,2,1:2:0:0:
448,139,165809,2,0,P|449:178|446:218,1,80,12|2,1:2|1:2,0:0:0:0:
265,350,166209,5,4,1:2:0:0:
265,350,166309,2,0,P|201:353|167:348,1,80,0|0,1:0|1:2,0:1:0:0:
136,349,166609,2,0,P|136:282|148:228,1,95.9999970703126,6|10,1:2|1:2,0:1:0:0:
140,253,166909,1,0,0:0:0:0:
140,253,167009,1,8,1:2:0:0:
211,215,167209,1,10,1:2:0:0:
12,127,167409,2,0,P|113:141|212:135,1,191.999994140625,4|10,1:2|1:2,0:1:0:0:
42,215,168009,1,10,1:2:0:0:
317,100,168209,6,0,P|316:165|320:215,1,95.9999970703126,4|10,1:2|1:2,0:1:0:0:
317,195,168509,1,0,0:0:0:0:
317,195,168609,1,10,1:2:0:0:
459,190,168809,1,10,1:2:0:0:
454,90,169009,1,4,1:2:0:0:
317,100,169209,1,10,1:2:0:0:
322,200,169409,1,14,1:2:0:0:
76,338,169709,5,2,1:2:0:0:
76,338,169809,2,0,P|61:267|71:163,1,143.999995605469,4|0,1:2|1:0,0:0:0:0:
63,195,170209,2,0,L|193:205,1,95.9999970703126,8|8,1:2|1:2,0:0:0:0:
396,279,170609,2,0,P|304:272|196:279,1,191.999994140625,4|8,1:2|1:2,0:0:0:0:
374,194,171209,1,8,1:2:0:0:
111,62,171409,6,0,L|118:86,4,23.9999992675781,4|0|2|0|4,1:2|0:0|0:0|0:0|1:0,0:1:0:0:
401,62,171809,2,0,L|394:86,4,23.9999992675781,0|0|0|0|0,1:0|1:0|1:0|0:0|1:0,0:1:0:0:
254,182,172209,2,0,L|253:226,6,23.9999992675781,4|0|0|0|0|0|0,1:2|1:0|1:0|1:0|1:0|1:0|1:0,0:1:0:0:
248,132,172609,5,2,1:0:0:0:
264,84,172709,1,0,1:1:0:0:
252,36,172809,1,0,1:0:0:0:
252,36,173409,5,4,1:0:0:0:
252,36,174609,5,2,0:0:0:0:
320,80,175009,2,0,P|322:119|318:170,1,80,2|2,0:0|0:0,0:0:0:0:
259,219,175809,2,0,P|257:258|261:309,1,80,2|2,0:0|0:0,0:0:0:0:
324,363,176609,6,0,L|489:371,2,160,2|2|2,0:0|0:0|0:0,0:0:0:0:
324,363,179009,1,2,0:0:0:0:
244,368,179409,1,2,0:0:0:0:
164,373,179809,1,2,0:0:0:0:
188,21,181009,1,2,0:0:0:0:
268,16,181409,1,2,0:0:0:0:
348,11,181809,1,2,0:0:0:0:
417,51,182209,2,0,P|423:97|426:143,1,80,2|2,0:0|0:0,0:0:0:0:
367,185,183009,5,2,0:0:0:0:
367,185,183609,2,0,L|361:166,2,20,0|0|2,0:0|0:0|0:0,0:0:0:0:
367,185,185009,6,0,P|370:231|364:276,1,80,2|2,0:0|0:0,0:0:0:0:
147,256,185809,2,0,P|144:210|150:165,1,80,2|2,0:0|0:0,0:0:0:0:
147,176,187409,6,0,L|245:171,1,80,2|2,0:0|0:0,0:0:0:0:
294,214,188209,2,0,L|384:219,2,80,2|2|2,0:0|0:0|0:0,0:0:0:0:
228,252,189409,2,0,P|143:266|59:265,2,160,2|2|2,0:0|0:0|0:0,0:0:0:0:
487,140,191809,5,2,0:0:0:0:
348,122,192209,1,2,0:0:0:0:
209,104,192609,1,2,0:0:0:0:
209,104,193409,1,2,0:0:0:0:
276,112,195009,5,2,0:0:0:0:
348,122,195409,1,2,0:0:0:0:
419,131,195809,1,4,0:0:0:0:
256,192,196009,12,0,198809,0:0:0:0:
55,241,199009,5,4,1:0:0:0:
193,347,199309,1,2,0:0:0:0:
193,347,199409,1,2,0:0:0:0:
205,274,199609,1,0,0:0:0:0:
205,274,199709,1,2,0:0:0:0:
205,274,199809,1,0,1:0:0:0:
216,195,200009,1,2,0:0:0:0:
236,124,200209,1,0,1:0:0:0:
236,124,200309,1,0,1:0:0:0:
236,124,200409,1,0,1:0:0:0:
457,241,200609,5,2,0:0:0:0:
322,353,200809,1,2,0:0:0:0:
322,353,200909,1,0,1:0:0:0:
322,353,201009,1,2,0:0:0:0:
307,274,201209,1,0,1:0:0:0:
307,274,201309,1,2,0:0:0:0:
307,274,201409,1,0,1:0:0:0:
296,195,201609,1,2,0:0:0:0:
287,122,201809,1,2,0:0:0:0:
287,122,201909,1,0,1:0:0:0:
287,122,202009,1,2,0:0:0:0:
437,23,202209,5,4,1:0:0:0:
433,42,202309,1,2,0:0:0:0:
429,61,202409,1,0,0:0:0:0:
428,80,202509,1,2,0:0:0:0:
430,99,202609,1,4,1:0:0:0:
483,156,202809,1,2,0:0:0:0:
486,175,202909,1,2,0:0:0:0:
483,194,203009,1,0,1:0:0:0:
374,160,203209,1,2,0:0:0:0:
371,179,203309,1,0,1:0:0:0:
374,198,203409,1,0,1:0:0:0:
433,269,203609,1,2,0:0:0:0:
444,367,203809,1,0,1:0:0:0:
444,367,204109,5,0,1:0:0:0:
444,367,204209,1,2,0:0:0:0:
349,332,204409,1,0,1:0:0:0:
329,332,204509,1,2,0:0:0:0:
309,333,204609,1,4,0:0:0:0:
243,382,204809,1,0,1:0:0:0:
178,331,205009,1,0,1:0:0:0:
177,311,205109,1,0,1:0:0:0:
176,291,205209,1,0,1:0:0:0:
257,209,205409,5,4,1:0:0:0:
217,212,205509,1,0,1:0:0:0:
177,215,205609,1,2,0:0:0:0:
137,218,205709,1,0,1:0:0:0:
97,221,205809,1,2,0:0:0:0:
34,169,206009,1,0,1:0:0:0:
34,169,206109,1,2,0:0:0:0:
34,169,206209,1,0,1:0:0:0:
170,103,206509,5,0,1:0:0:0:
170,103,206609,1,0,1:0:0:0:
83,86,206809,1,0,1:0:0:0:
142,26,207009,1,2,0:0:0:0:
231,44,207209,1,2,0:0:0:0:
231,44,207309,1,2,0:0:0:0:
231,44,207409,1,0,1:0:0:0:
342,121,207609,5,0,1:0:0:0:
360,112,207709,1,0,1:0:0:0:
437,121,207909,1,2,0:0:0:0:
451,134,208009,1,0,1:0:0:0:
391,191,208209,5,0,1:0:0:0:
379,264,208409,1,2,0:0:0:0:
364,335,208609,2,0,L|204:343,1,143.999995605469,4|2,1:0|0:0,0:0:0:0:
147,260,209009,2,0,L|307:252,1,143.999995605469,4|2,1:0|0:0,0:0:0:0:
291,253,209409,1,0,1:0:0:0:
379,264,209609,1,0,1:0:0:0:
297,154,209809,1,2,0:0:0:0:
209,165,210009,1,0,1:0:0:0:
146,116,210209,1,0,1:0:0:0:
64,197,210409,5,0,1:0:0:0:
61,219,210509,1,0,1:0:0:0:
106,286,210709,1,0,1:0:0:0:
129,293,210809,1,0,1:0:0:0:
226,285,211009,1,4,0:0:0:0:
305,313,211209,1,2,0:0:0:0:
387,278,211409,1,2,0:0:0:0:
466,318,211609,1,2,0:0:0:0:
401,49,211809,6,0,L|326:52,1,71.9999978027344,4|8,1:0|1:0,0:0:0:0:
343,67,212509,5,4,1:2:0:0:
343,67,212609,2,0,L|360:209,1,120.000004577637,4|4,3:0|1:2,3:0:0:0:
357,186,212909,5,0,3:0:0:0:
357,186,213009,2,0,L|171:205,1,160,2|2,0:0|0:0,0:0:0:0:
112,176,213409,6,0,L|120:284,1,80,4|0,1:0|0:0,0:0:0:0:
183,309,213809,2,0,L|265:304,1,80,0|0,1:0|0:0,0:0:0:0:
337,273,214209,1,0,1:0:0:0:
414,291,214409,1,0,0:0:0:0:
492,273,214609,2,0,P|503:336|503:379,2,80,0|0|0,1:0|0:0|1:0,0:0:0:0:
433,218,215209,5,0,0:0:0:0:
407,142,215409,1,0,1:0:0:0:
427,64,215609,1,0,0:0:0:0:
349,84,215809,2,0,L|261:82,1,80,0|0,1:0|0:0,0:0:0:0:
195,48,216209,2,0,L|101:54,1,80,0|0,1:0|0:0,0:0:0:0:
54,303,216609,5,0,1:0:0:0:
108,244,216809,1,2,0:0:0:0:
167,298,217009,1,2,1:2:0:0:
113,357,217209,1,2,0:0:0:0:
268,244,217409,5,0,1:0:0:0:
190,220,217609,1,2,0:0:0:0:
167,298,217809,1,2,1:2:0:0:
244,320,218009,1,2,0:0:0:0:
326,145,218209,5,0,1:0:0:0:
247,165,218409,1,2,0:0:0:0:
268,244,218609,1,2,1:2:0:0:
345,222,218809,1,2,0:0:0:0:
194,106,219009,5,0,1:0:0:0:
247,165,219209,1,2,0:0:0:0:
187,218,219409,1,0,1:0:0:0:
134,159,219609,1,2,0:0:0:0:
398,69,219809,6,0,P|399:149|391:201,1,120,4|2,1:0|0:0,0:0:0:0:
381,204,220209,2,0,P|375:268|380:310,1,80,0|0,1:2|0:0,0:0:0:0:
429,342,220609,1,0,1:0:0:0:
353,368,220809,1,0,0:0:0:0:
281,332,221009,1,0,1:2:0:0:
265,333,221109,1,2,0:0:0:0:
249,334,221209,1,0,0:0:0:0:
233,336,221309,1,0,0:0:0:0:
217,338,221409,1,0,1:0:0:0:
139,328,221609,5,0,1:0:0:0:
124,335,221709,1,2,0:2:0:0:
46,335,221909,1,0,1:0:0:0:
31,328,222009,1,0,0:0:0:0:
70,255,222209,2,0,L|175:248,2,80,0|0|0,1:0|0:2|1:2,0:0:0:0:
22,194,222809,1,0,0:0:0:0:
259,109,223009,6,0,P|242:163|238:222,1,80,4|0,1:0|0:0,0:0:0:0:
357,258,223409,2,0,P|374:204|378:145,1,80,0|0,1:0|0:0,0:0:0:0:
365,103,223809,1,4,1:0:0:0:
261,260,224009,1,2,0:0:0:0:
334,79,224209,1,0,1:2:0:0:
287,280,224409,1,2,0:0:0:0:
393,343,224609,6,0,L|306:349,1,80,4|2,1:0|0:0,0:0:0:0:
245,373,225009,1,0,1:2:0:0:
245,373,225209,1,2,0:0:0:0:
165,370,225409,1,2,0:0:0:0:
165,370,225609,1,2,0:0:0:0:
38,295,225809,6,0,P|47:244|45:208,1,80,8|0,1:2|1:0,0:0:0:0:
24,181,226109,1,0,1:0:0:0:
7,144,226209,2,0,P|54:131|116:138,1,80,4|0,1:0|3:0,0:0:0:0:
197,193,226609,2,0,P|236:191|274:180,1,80,0|0,1:0|0:0,0:0:0:0:
348,110,227009,1,0,1:0:0:0:
475,310,227309,5,0,0:0:0:0:
475,310,227409,1,0,1:0:0:0:
384,348,227609,1,0,0:0:0:0:
320,269,227809,1,0,1:0:0:0:
414,226,228009,1,0,0:0:0:0:
414,226,228109,1,0,1:0:0:0:
414,226,228209,1,0,0:0:0:0:
437,154,228409,1,0,1:0:0:0:
463,81,228609,2,0,P|398:77|324:80,2,120,0|0|0,1:0|1:0|1:0,0:0:0:0:
269,28,229409,6,0,P|262:96|266:197,1,160,0|0,1:0|1:0,0:0:0:0:
209,238,230009,2,0,P|165:240|125:248,1,80,0|0,0:0|1:0,0:0:0:0:
68,198,230409,1,0,1:0:0:0:
68,198,230509,1,0,1:0:0:0:
68,198,230609,1,0,1:0:0:0:
92,126,230809,1,0,0:0:0:0:
48,348,231009,6,0,P|103:345|156:347,1,80,0|2,1:0|0:0,0:0:0:0:
279,342,231409,2,0,P|332:348|370:354,1,80,0|2,1:0|0:0,0:0:0:0:
122,271,231809,1,0,1:0:0:0:
290,268,232009,1,0,1:0:0:0:
191,295,232209,1,0,1:0:0:0:
218,272,232409,1,0,1:0:0:0:
188,196,232609,6,0,P|183:154|193:108,1,80,0|2,1:0|0:0,0:0:0:0:
203,108,232909,1,2,0:0:0:0:
222,105,233009,2,0,L|325:105,1,80,0|2,1:0|0:0,0:0:0:0:
373,159,233409,1,0,1:0:0:0:
373,159,233509,1,2,0:0:0:0:
373,159,233609,1,0,1:0:0:0:
453,162,233809,1,2,1:2:0:0:
493,231,234009,1,2,1:2:0:0:
458,303,234209,6,0,P|393:295|317:295,1,120,0|2,1:0|0:0,0:0:0:0:
322,306,234609,2,0,P|269:305|237:296,1,80,0|2,1:0|0:0,0:0:0:0:
130,190,235009,1,2,1:2:0:0:
134,268,235209,1,0,1:0:0:0:
154,273,235309,1,0,1:0:0:0:
211,214,235509,1,8,0:0:0:0:
231,209,235609,1,0,1:0:0:0:
250,204,235709,1,2,0:0:0:0:
269,199,235809,2,0,P|274:140|265:109,1,80,0|2,1:0|0:0,0:0:0:0:
213,40,236209,5,0,1:0:0:0:
250,26,236309,1,2,0:0:0:0:
289,26,236409,1,2,0:0:0:0:
327,36,236509,1,0,1:0:0:0:
377,24,236609,5,8,0:0:0:0:
362,73,236709,1,2,0:0:0:0:
361,124,236809,1,0,1:0:0:0:
365,175,236909,1,2,0:0:0:0:
396,205,237009,5,4,1:2:0:0:
372,241,237109,1,8,0:0:0:0:
361,283,237209,1,2,0:0:0:0:
361,326,237309,1,8,0:0:0:0:
328,355,237409,6,0,L|158:344,1,160,4|2,1:0|1:0,0:1:0:0:
76,348,237709,1,2,1:0:0:0:
76,348,237809,2,0,P|71:296|75:263,1,80,0|8,0:0|0:0,0:0:0:0:
146,233,238009,2,0,P|157:147|149:63,2,160,8|2|4,1:0|1:0|1:2,0:0:0:0:
245,101,238609,2,0,L|404:111,1,160,4|2,1:2|0:0,0:0:0:0:
478,245,239009,6,0,L|384:240,1,80,4|0,1:0|0:0,0:0:0:0:
224,328,239409,2,0,L|360:337,1,120,0|0,1:0|0:0,0:0:0:0:
361,345,239809,2,0,L|440:349,1,80,0|0,1:0|1:0,0:0:0:0:
272,228,240209,2,0,L|192:223,1,80,0|0,1:0|0:0,0:0:0:0:
140,159,240609,5,0,1:0:0:0:
48,253,240809,1,0,0:0:0:0:
66,124,241009,1,0,1:0:0:0:
125,280,241209,1,0,0:0:0:0:
150,152,241409,5,0,1:0:0:0:
47,268,241609,1,2,0:0:0:0:
56,126,241809,1,0,1:0:0:0:
133,294,242009,1,2,0:0:0:0:
208,319,242209,6,0,P|277:315|329:318,1,120,0|0,1:0|0:0,0:0:0:0:
344,328,242609,2,0,P|406:330|429:328,1,80,0|0,1:0|0:0,0:0:0:0:
477,275,243009,1,0,1:0:0:0:
382,166,243209,1,0,1:0:0:0:
378,205,243309,1,0,0:0:0:0:
375,244,243409,1,0,1:0:0:0:
471,182,243609,1,0,0:0:0:0:
441,103,243809,5,0,1:0:0:0:
352,39,244009,1,2,0:0:0:0:
338,75,244109,1,0,1:0:0:0:
325,113,244209,1,0,0:0:0:0:
249,151,244409,1,0,1:0:0:0:
176,107,244609,1,0,1:0:0:0:
136,111,244709,1,0,0:0:0:0:
96,115,244809,1,2,0:0:0:0:
26,204,245009,5,0,1:0:0:0:
65,209,245109,1,0,0:0:0:0:
104,214,245209,1,0,1:0:0:0:
143,219,245309,1,0,0:0:0:0:
182,224,245409,2,0,P|218:229|266:238,1,80,0|0,1:0|0:0,0:0:0:0:
302,384,245809,2,0,P|307:348|316:300,1,80,0|0,1:0|0:0,0:0:0:0:
462,264,246209,2,0,P|426:259|378:250,1,80,0|0,1:0|1:0,0:0:0:0:
342,104,246609,2,0,P|337:140|328:188,1,80,0|0,1:0|0:0,0:0:0:0:
238,308,247009,5,0,1:0:0:0:
388,327,247209,1,0,0:0:0:0:
406,180,247409,1,0,1:0:0:0:
256,162,247609,1,0,0:0:0:0:
298,291,247809,5,0,1:0:0:0:
369,266,248009,1,2,0:2:0:0:
345,196,248209,1,0,1:0:0:0:
274,221,248409,1,2,0:0:0:0:
455,306,248609,2,0,P|462:248|452:197,1,80,0|0,1:0|0:0,0:0:0:0:
446,210,248909,1,0,1:0:0:0:
437,191,249009,2,0,P|431:138|433:99,1,80,2|2,1:2|0:0,0:0:0:0:
374,55,249409,5,0,1:0:0:0:
294,65,249609,1,0,0:0:0:0:
214,75,249809,1,2,1:2:0:0:
134,85,250009,1,2,0:0:0:0:
78,300,250209,6,0,L|176:289,1,80,4|2,0:0|1:0,0:0:0:0:
134,85,250609,6,0,L|147:202,1,111.999996582031,4|2,0:0|1:0,0:0:0:0:
374,55,251009,6,0,L|228:71,1,143.999995605469,2|0,1:0|0:0,0:0:0:0:
399,282,251409,6,0,L|383:136,1,128,4|2,1:2|1:0,0:1:0:0:
219,244,251809,6,2,P|214:294|231:352,1,80,4|2,1:0|1:2,0:1:0:0:
228,340,252109,1,0,0:0:0:0:
240,355,252209,2,0,L|322:350,1,80,2|0,1:2|0:0,0:0:0:0:
303,266,252609,1,2,1:2:0:0:
113,319,252809,1,0,0:0:0:0:
89,245,253009,1,2,1:2:0:0:
279,192,253209,1,2,0:0:0:0:
212,148,253409,6,0,P|159:149|39:165,1,160,0|4,1:0|1:2,0:0:0:0:
152,62,254009,2,0,P|221:60|244:63,1,80,2|4,0:0|1:2,0:0:0:0:
88,244,254409,2,0,P|43:243|9:245,1,80,2|0,0:0|1:0,0:0:0:0:
175,246,254809,1,0,0:0:0:0:
416,253,255009,6,0,P|412:306|403:346,1,80,4|2,1:0|1:2,0:0:0:0:
406,332,255309,1,2,0:0:0:0:
406,332,255409,1,2,1:2:0:0:
322,217,255609,2,0,P|326:164|335:124,1,80,0|2,0:0|1:2,0:0:0:0:
405,68,256009,1,0,0:0:0:0:
410,87,256109,1,2,1:2:0:0:
457,153,256309,1,0,1:0:0:0:
449,170,256409,1,2,1:2:0:0:
314,274,256609,6,0,P|245:271|171:277,1,120,0|0,1:0|0:0,0:0:0:0:
194,274,257009,2,0,L|202:361,1,80,2|2,1:2|1:2,0:0:0:0:
86,251,257409,1,0,1:0:0:0:
92,211,257509,1,2,0:0:0:0:
98,171,257609,1,2,1:2:0:0:
174,195,257809,1,2,1:2:0:0:
404,174,258009,1,2,0:0:0:0:
474,211,258209,6,0,P|481:278|463:374,1,160,4|2,1:0|1:2,0:0:0:0:
391,348,258809,1,0,0:0:0:0:
389,218,259009,2,0,P|380:160|382:111,1,80,4|2,1:0|1:2,0:0:0:0:
393,124,259309,1,0,0:0:0:0:
410,114,259409,2,0,L|499:117,1,80,2|0,1:2|0:0,0:0:0:0:
354,32,259809,6,0,L|265:35,1,80,4|2,1:0|1:2,0:0:0:0:
225,98,260209,1,2,1:2:0:0:
185,97,260309,1,0,0:0:0:0:
145,96,260409,1,4,0:0:0:0:
86,144,260609,1,4,1:0:0:0:
178,223,260809,2,0,L|280:230,2,80,2|4|2,1:2|1:2|0:0,0:0:0:0:
393,131,261409,5,4,1:0:0:0:
425,154,261509,1,0,1:0:0:0:
425,193,261609,1,2,1:2:0:0:
397,222,261709,1,0,1:0:0:0:
357,215,261809,1,4,1:2:0:0:
330,184,261909,1,2,0:0:0:0:
317,145,262009,1,2,1:2:0:0:
293,112,262109,1,2,0:0:0:0:
253,78,262209,5,4,1:0:0:0:
218,116,262309,1,0,0:0:0:0:
168,131,262409,1,2,1:2:0:0:
117,118,262509,1,0,0:0:0:0:
71,93,262609,1,4,1:2:0:0:
22,111,262709,1,2,1:2:0:0:
9,161,262809,1,0,0:0:0:0:
31,207,262909,1,0,1:0:0:0:
76,220,263009,5,0,1:0:0:0:
123,214,263109,1,0,1:0:0:0:
167,233,263209,1,0,0:0:0:0:
187,277,263309,1,0,1:0:0:0:
224,307,263409,1,0,1:0:0:0:
271,316,263509,1,2,1:2:0:0:
318,312,263609,1,4,1:2:0:0:
353,281,263709,1,2,1:2:0:0:
342,234,263809,6,2,B|327:96|440:149|413:-11,1,240,4|0,1:0|0:0,0:1:0:0:
424,246,264209,6,0,B|430:276|430:276|427:305,1,60,6|0,1:0|0:0,0:1:0:0:
365,354,264609,6,0,P|323:353|277:355,1,80,4|0,1:0|0:0,0:0:0:0:
261,356,264909,1,0,0:0:0:0:
238,359,265009,2,0,P|196:360|150:358,1,80,8|0,1:2|0:0,0:0:0:0:
42,253,265409,1,0,1:0:0:0:
104,303,265609,1,0,0:0:0:0:
154,241,265809,1,0,1:0:0:0:
92,191,266009,1,0,0:0:0:0:
217,186,266209,6,0,P|254:183|310:187,1,80,2|2,1:2|1:2,0:0:0:0:
326,157,266509,1,0,0:0:0:0:
354,129,266609,2,0,P|316:116|276:109,1,80,8|0,1:2|0:0,0:0:0:0:
502,190,267009,2,0,P|464:202|424:209,1,80,0|0,1:0|1:0,0:0:0:0:
408,221,267309,1,0,0:0:0:0:
393,234,267409,2,0,P|406:297|416:358,1,120,2|2,1:2|0:0,0:0:0:0:
431,364,267809,5,0,1:0:0:0:
316,347,268009,1,0,0:0:0:0:
247,263,268209,5,8,1:2:0:0:
233,336,268409,1,0,0:0:0:0:
155,326,268609,5,0,1:0:0:0:
40,343,268809,1,0,0:0:0:0:
72,279,269009,6,0,P|78:229|70:154,1,120,0|2,1:0|0:0,0:0:0:0:
54,149,269409,2,0,P|81:110|122:91,1,80,2|0,1:0|0:0,0:0:0:0:
260,77,269809,2,0,P|299:86|349:126,1,80,8|2,1:2|0:1,0:0:0:0:
421,242,270209,2,0,P|412:294|388:326,1,80,2|2,1:2|1:0,0:0:0:0:
380,326,270509,1,0,0:0:0:0:
360,328,270609,1,2,1:0:0:0:
300,274,270809,1,2,1:2:0:0:
119,234,271009,5,0,1:0:0:0:
103,312,271209,1,0,0:0:0:0:
181,328,271409,1,8,1:2:0:0:
199,250,271609,1,0,0:0:0:0:
244,183,271809,5,0,1:0:0:0:
323,175,272009,1,0,0:0:0:0:
384,226,272209,1,0,1:0:0:0:
380,305,272409,1,0,0:0:0:0:
476,171,272609,5,2,1:2:0:0:
400,145,272809,1,0,1:0:0:0:
377,111,272909,1,0,0:0:0:0:
369,71,273009,1,10,1:2:0:0:
296,36,273209,1,2,0:0:0:0:
121,150,273409,5,0,1:0:0:0:
197,173,273609,1,0,1:0:0:0:
174,249,273809,1,2,1:2:0:0:
97,227,274009,1,2,1:2:0:0:
32,262,274209,6,0,P|31:306|35:356,1,80,0|2,1:0|0:0,0:0:0:0:
51,351,274509,1,0,0:0:0:0:
68,360,274609,2,0,P|132:356|163:356,1,80,8|0,1:2|0:0,0:0:0:0:
223,289,275009,2,0,P|274:296|305:299,1,80,0|0,1:0|0:0,0:0:0:0:
378,362,275409,2,0,P|427:357|458:349,1,80,0|0,1:0|0:0,0:0:0:0:
386,214,275809,5,2,1:0:0:0:
462,248,276009,1,0,0:0:0:0:
464,157,276209,1,8,1:2:0:0:
388,123,276409,1,2,0:1:0:0:
160,172,276609,5,2,1:0:0:0:
221,115,276809,1,0,0:0:0:0:
234,116,276875,1,0,1:0:0:0:
247,118,276942,1,0,0:0:0:0:
260,120,277009,1,2,1:0:0:0:
317,68,277209,1,2,1:2:0:0:
84,57,277409,6,0,P|75:129|85:195,1,120,4|2,1:0|0:0,0:0:0:0:
80,175,277809,2,0,L|162:171,1,80,8|2,1:2|0:0,0:0:0:0:
243,237,278209,2,0,L|322:240,1,80,0|2,1:0|0:0,0:0:0:0:
340,250,278509,1,2,0:0:0:0:
355,262,278609,2,0,P|356:307|351:341,1,80,8|0,1:2|0:0,0:0:0:0:
123,305,279009,6,0,L|39:310,1,80,2|2,1:2|1:2,0:0:0:0:
193,367,279409,2,0,L|272:362,1,80,8|0,1:2|0:0,0:0:0:0:
185,243,279809,1,0,1:2:0:0:
114,205,280009,1,0,1:0:0:0:
106,165,280109,1,8,0:0:0:0:
122,128,280209,1,10,1:2:0:0:
201,123,280409,1,2,1:2:0:0:
280,125,280609,6,0,L|271:250,1,120,0|0,1:0|0:0,0:0:0:0:
298,274,281009,2,0,L|382:262,1,80,8|2,1:2|0:0,0:0:0:0:
365,120,281409,2,0,L|429:183,1,80,0|2,1:2|0:0,0:0:0:0:
480,27,281809,2,0,L|502:121,1,80,8|2,1:2|0:0,0:0:0:0:
220,41,282209,5,2,1:2:0:0:
220,41,282509,1,0,0:0:0:0:
220,41,282609,1,10,1:2:0:0:
95,52,282809,1,2,1:2:0:0:
58,168,283009,1,0,1:0:0:0:
58,168,283309,1,0,0:0:0:0:
58,168,283409,1,8,1:2:0:0:
157,250,283609,1,10,1:2:0:0:
276,165,283809,6,0,P|336:162|391:167,1,80,2|2,1:0|0:0,0:0:0:0:
389,184,284109,1,0,1:0:0:0:
418,210,284209,2,0,P|421:270|416:325,1,80,8|2,1:2|1:0,0:0:0:0:
286,364,284609,5,4,1:2:0:0:
143,310,284809,1,2,0:1:0:0:
257,290,285009,1,8,1:2:0:0:
171,383,285209,1,12,1:2:0:0:
88,374,285409,6,0,P|73:332|70:283,1,80,2|2,1:0|1:0,0:0:0:0:
79,258,285709,1,0,1:0:0:0:
98,223,285809,2,0,P|113:181|116:132,1,80,12|0,1:2|0:0,0:0:0:0:
199,115,286209,5,2,1:0:0:0:
277,129,286409,1,0,1:0:0:0:
355,143,286609,1,2,1:0:0:0:
433,157,286809,1,2,1:0:0:0:
261,47,287009,5,4,1:0:0:0:
173,34,287209,1,8,1:2:0:0:
173,34,287309,1,8,0:0:0:0:
173,34,287409,1,12,1:2:0:0:
199,115,287609,1,12,0:0:0:0:
364,242,287809,5,4,1:0:0:0:
464,254,288009,1,8,1:2:0:0:
464,254,288109,1,8,0:0:0:0:
464,254,288209,1,4,1:2:0:0:
433,157,288409,1,0,1:0:0:0:
256,254,288609,5,4,1:2:0:0:
216,256,288709,1,10,0:0:0:0:
176,258,288809,1,2,1:0:0:0:
136,261,288909,1,2,0:0:0:0:
96,264,289009,1,8,1:0:0:0:
56,267,289109,1,0,1:0:0:0:
56,267,289209,2,0,L|51:211,1,40,8|4,1:0|1:2,0:0:0:0:
121,192,289409,2,0,L|118:145,1,40,8|10,1:0|1:0,0:0:0:0:
198,137,289609,2,0,L|195:97,1,40,4|0,1:2|0:0,0:0:0:0:
272,171,289809,5,4,1:2:0:0:
305,192,289909,1,0,1:0:0:0:
338,213,290009,1,4,1:2:0:0:
372,233,290109,1,2,0:0:0:0:
405,254,290209,6,0,L|397:350,1,96,4|2,1:0|0:0,0:0:0:0:
115,350,293409,2,0,L|101:206,1,143.999995605469,4|2,0:0|0:0,0:0:0:0:
334,44,296609,6,0,B|313:118|366:112|348:186,1,143.999995605469,4|2,1:0|0:0,0:0:0:0:
349,183,299809,2,0,P|264:186|205:181,1,143.999995605469,4|0,0:0|0:0,0:0:0:0:
205,181,303009,6,0,P|206:239|213:291,1,95.9999970703126,0|2,1:0|0:0,0:0:0:0:
280,318,303609,1,0,1:0:0:0:
134,306,303809,2,0,P|76:307|24:314,1,95.9999970703126,4|2,1:2|0:0,0:0:0:0:
4,380,304409,1,0,1:0:0:0:
72,224,304609,6,0,P|68:168|70:122,2,95.9999970703126,4|0|4,0:2|1:0|1:2,0:0:0:0:
72,224,305809,1,4,1:2:0:0:
235,99,306209,6,0,P|238:165|232:215,1,95.9999970703126,4|2,1:0|0:0,0:0:0:0:
160,216,306809,1,0,1:0:0:0:
281,258,307009,2,0,P|350:255|391:249,1,95.9999970703126,4|2,1:2|0:0,0:0:0:0:
401,183,307609,1,0,1:0:0:0:
472,179,307809,1,4,1:2:0:0:
470,204,308209,1,0,1:0:0:0:
455,315,308609,6,0,L|350:328,2,95.9999970703126,4|4|4,1:2|1:2|1:0,0:0:0:0:
455,315,309809,1,2,0:0:0:0:
442,244,310009,1,0,1:0:0:0:
429,173,310209,2,0,P|423:132|422:65,1,95.9999970703126,4|2,1:2|0:0,0:0:0:0:
506,102,310809,1,0,1:0:0:0:
346,128,311009,2,0,P|308:129|281:128,1,47.9999985351563,4|2,1:2|0:0,0:0:0:0:
246,182,311409,2,0,P|239:228|242:298,2,95.9999970703126,0|4|4,1:0|1:2|1:2,0:0:0:0:
295,39,312609,6,0,L|411:37,1,95.9999970703126,4|2,1:0|0:0,0:0:0:0:
454,71,313209,1,0,1:0:0:0:
227,87,313409,2,0,L|131:88,1,95.9999970703126,4|2,1:2|0:0,0:0:0:0:
64,117,314009,1,0,1:0:0:0:
6,160,314209,2,0,L|70:162,1,47.9999985351563,4|2,1:2|0:0,0:0:0:0:
108,223,314609,1,4,1:2:0:0:
256,192,314809,12,0,315609,0:0:0:0:
467,326,315809,5,6,1:0:0:0:
378,310,316009,1,0,1:0:0:0:
378,310,316109,1,0,0:0:0:0:
378,310,316209,1,0,1:0:0:0:
438,244,316409,1,0,1:0:0:0:
354,224,316609,2,0,P|293:223|251:225,1,80,6|4,1:0|0:2,0:0:0:0:
411,155,317009,2,0,P|472:154|514:156,1,80,0|0,1:0|1:0,0:0:0:0:
190,70,317409,6,0,P|185:134|193:233,1,160,6|0,1:0|1:0,0:0:0:0:
22,343,318009,1,0,1:0:0:0:
111,355,318209,2,0,P|107:299|98:262,1,80,4|2,1:2|1:0,0:1:0:0:
282,273,318609,2,0,P|286:217|295:180,1,80,4|2,1:2|1:0,0:0:0:0:
47,74,319009,5,6,1:0:0:0:
105,137,319209,1,0,1:0:0:0:
105,137,319309,1,0,0:0:0:0:
105,137,319409,1,0,1:0:0:0:
131,59,319609,1,0,1:0:0:0:
308,40,319809,6,0,P|287:89|281:165,1,120,6|0,1:0|0:0,0:0:0:0:
280,155,320209,2,0,P|325:166|364:182,1,80,0|0,1:0|1:0,0:2:0:0:
403,264,320609,2,0,P|378:319|365:360,1,80,6|0,1:0|1:0,0:0:0:0:
294,360,321009,1,0,1:0:0:0:
219,330,321209,1,0,1:0:0:0:
181,264,321409,1,2,1:0:0:0:
181,264,321509,1,0,1:0:0:0:
180,224,321609,1,0,1:0:0:0:
179,184,321709,1,0,1:0:0:0:
178,144,321809,1,2,1:0:0:0:
31,48,322009,5,0,0:0:0:0:
31,48,322109,1,2,0:0:0:0:
31,48,322209,2,0,L|39:213,1,155.999992858887,6|0,1:0|0:0,0:1:0:0:
56,222,322609,2,0,L|62:358,1,103.999995239258,0|0,1:0|1:0,0:0:0:0:
251,52,323009,6,0,L|244:192,1,103.999995239258,6|2,1:0|1:0,0:1:0:0:
230,176,323309,1,0,0:0:0:0:
212,195,323409,2,0,L|205:331,1,103.999995239258,0|0,1:0|1:0,0:1:0:0:
414,359,323809,5,6,1:0:0:0:
390,257,324009,1,2,1:0:0:0:
390,257,324109,1,0,0:0:0:0:
390,257,324209,1,0,1:0:0:0:
354,142,324409,1,0,1:0:0:0:
56,209,324609,6,2,B|41:284|41:284|81:371,1,155.999992858887,4|2,1:2|0:0,0:1:0:0:
235,340,325009,2,0,B|250:265|250:265|210:178,1,155.999992858887,2|2,1:0|0:1,0:1:0:0:
126,151,325409,6,0,P|106:96|107:40,1,103.999995239258,6|2,1:0|1:0,0:1:0:0:
127,37,325709,1,0,0:0:0:0:
150,25,325809,1,0,1:0:0:0:
224,52,326009,1,0,1:0:0:0:
481,195,326209,5,6,1:0:0:0:
411,215,326409,1,2,1:0:0:0:
375,224,326509,1,0,0:0:0:0:
339,233,326609,1,0,1:0:0:0:
268,251,326809,1,0,1:0:0:0:
57,355,327009,5,6,1:0:0:0:
93,357,327109,1,0,1:0:0:0:
129,360,327209,1,2,1:0:0:0:
165,363,327309,1,0,1:0:0:0:
201,366,327409,1,0,1:0:0:0:
273,372,327609,1,0,1:0:0:0:
386,154,327809,5,4,1:2:0:0:
371,120,327909,1,0,1:0:0:0:
356,86,328009,1,2,1:0:0:0:
124,186,328209,5,2,1:0:0:0:
109,219,328309,1,0,1:0:0:0:
94,252,328409,1,4,1:2:0:0:
401,355,328609,6,0,L|392:263,1,92,4|0,1:0|0:0,2:0:0:0:
392,263,331009,6,0,L|177:283,1,200,0|0,0:0|0:0,2:0:0:0:
