osu file format v14

[General]
AudioFilename: audio.mp3
AudioLeadIn: 0
PreviewTime: 147313
Countdown: 0
SampleSet: Soft
StackLeniency: 0.7
Mode: 2
LetterboxInBreaks: 0
WidescreenStoryboard: 1

[Editor]
Bookmarks: 3313,28913,54513,80113,92913,121713,147313,173313,198913
DistanceSpacing: 0.5
BeatDivisor: 4
GridSize: 16
TimelineZoom: 0.9999992

[Metadata]
Title:miragecoordinator
TitleUnicode:miragecoordinator
Artist:zts
ArtistUnicode:zts
Creator:Deif
Version:Memoirs
Source:うみねこのなく頃に
Tags:Mniam M0RU MORU CWC 2021 CWC2021 osu!catch World Cup Semifinals Semi-Finals Double Time DT2 07th Expansion Mirage Coordinator Umineko no Naku Koro ni When They Cry Lambdadelta ラムダデルタ ΛΔ Visual Novel Video Game Instrumental
BeatmapID:3007160
BeatmapSetID:1464008

[Difficulty]
HPDrainRate:6
CircleSize:4.4
OverallDifficulty:8.4
ApproachRate:8.4
SliderMultiplier:1.9
SliderTickRate:1

[Events]
//Background and Video events
0,0,"BG.jpg",0,0
//Break Periods
//Storyboard Layer 0 (Background)
//Storyboard Layer 1 (Fail)
//Storyboard Layer 2 (Pass)
//Storyboard Layer 3 (Foreground)
//Storyboard Layer 4 (Overlay)
//Storyboard Sound Samples
Sample,118509,0,"cackle.wav",75

[TimingPoints]
113,400,4,2,1,50,1,0
3713,-100,4,3,0,60,0,0
3813,-100,4,2,0,50,0,0
4513,-100,4,3,0,60,0,0
4613,-100,4,2,0,50,0,0
5313,-100,4,3,0,60,0,0
5413,-100,4,2,0,50,0,0
6113,-100,4,3,0,60,0,0
6213,-100,4,2,0,50,0,0
6913,-100,4,3,0,60,0,0
7013,-100,4,2,0,50,0,0
7713,-100,4,3,0,60,0,0
7813,-100,4,2,0,50,0,0
8513,-100,4,3,0,60,0,0
8613,-100,4,2,0,50,0,0
9313,-100,4,3,0,60,0,0
9413,-100,4,2,0,50,0,0
10113,-100,4,3,0,60,0,0
10213,-100,4,2,0,50,0,0
10913,-100,4,3,0,60,0,0
11013,-100,4,2,0,50,0,0
11713,-100,4,3,0,60,0,0
11813,-100,4,2,0,50,0,0
12513,-100,4,3,0,60,0,0
12613,-100,4,2,0,50,0,0
13313,-100,4,3,0,60,0,0
13413,-100,4,2,0,50,0,0
14113,-100,4,3,0,60,0,0
14213,-100,4,2,0,50,0,0
14913,-100,4,3,0,60,0,0
15013,-100,4,2,0,50,0,0
15446,-100,4,3,0,60,0,0
16113,-100,4,2,1,60,0,0
16513,-100,4,3,0,70,0,0
16613,-100,4,2,1,60,0,0
17313,-100,4,3,0,70,0,0
17413,-100,4,2,1,60,0,0
18113,-100,4,3,0,70,0,0
18213,-100,4,2,1,60,0,0
18913,-100,4,3,0,70,0,0
19013,-100,4,2,1,60,0,0
19313,-100,4,2,1,62,0,0
19713,-100,4,3,0,70,0,0
19813,-100,4,2,1,62,0,0
20513,-100,4,3,0,70,0,0
20613,-100,4,2,1,62,0,0
21313,-100,4,3,0,70,0,0
21413,-100,4,2,1,62,0,0
22113,-100,4,3,0,70,0,0
22213,-100,4,2,1,62,0,0
22513,-100,4,2,1,64,0,0
22913,-100,4,3,0,70,0,0
23013,-100,4,2,1,64,0,0
23713,-100,4,3,0,70,0,0
23813,-100,4,2,1,64,0,0
24513,-100,4,3,0,70,0,0
24613,-100,4,2,1,64,0,0
25313,-100,4,3,0,70,0,0
25413,-100,4,2,1,64,0,0
25713,-100,4,2,1,66,0,0
26113,-100,4,3,0,70,0,0
26213,-100,4,2,1,66,0,0
26913,-100,4,3,0,70,0,0
27013,-100,4,2,1,66,0,0
27313,-100,4,2,0,68,0,0
28713,-100,4,1,0,68,0,0
28813,-100,4,2,0,68,0,0
28913,-100,4,2,1,70,0,0
29313,-100,4,3,0,80,0,0
29413,-100,4,2,1,70,0,0
30113,-100,4,3,0,80,0,0
30213,-100,4,2,1,70,0,0
30913,-100,4,3,0,80,0,0
31013,-100,4,2,1,70,0,0
31713,-100,4,3,0,80,0,0
31813,-100,4,2,1,70,0,0
32513,-100,4,3,0,80,0,0
32613,-100,4,2,1,70,0,0
33313,-100,4,3,0,80,0,0
33413,-100,4,2,1,70,0,0
34113,-100,4,3,0,80,0,0
34213,-100,4,2,1,70,0,0
34913,-100,4,3,0,80,0,0
35013,-100,4,2,1,70,0,0
35713,-100,4,3,0,80,0,0
35813,-100,4,2,1,70,0,0
36513,-100,4,3,0,80,0,0
36613,-100,4,2,1,70,0,0
37313,-100,4,3,0,80,0,0
37413,-100,4,2,1,70,0,0
38113,-100,4,3,0,80,0,0
38213,-100,4,2,1,70,0,0
38513,-80,4,2,1,70,0,0
38913,-100,4,3,0,80,0,0
39013,-100,4,2,1,70,0,0
39313,-80,4,2,1,70,0,0
39713,-100,4,3,0,80,0,0
39813,-100,4,2,1,70,0,0
40113,-80,4,2,1,70,0,0
40513,-100,4,3,0,80,0,0
40613,-100,4,2,1,70,0,0
40913,-80,4,2,1,70,0,0
41313,-100,4,3,0,80,0,0
41413,-100,4,2,1,70,0,0
42113,-100,4,3,0,50,0,0
42213,-100,4,2,1,70,0,0
42913,-100,4,3,0,50,0,0
43013,-100,4,2,1,70,0,0
43713,-100,4,3,0,50,0,0
43813,-100,4,2,1,70,0,0
44513,-100,4,3,0,50,0,0
44613,-100,4,2,1,70,0,0
45313,-100,4,3,0,50,0,0
45413,-100,4,2,1,70,0,0
46113,-100,4,3,0,50,0,0
46213,-100,4,2,1,70,0,0
46913,-100,4,3,0,50,0,0
47013,-100,4,2,1,70,0,0
47713,-100,4,3,0,50,0,0
47813,-100,4,2,1,70,0,0
48513,-100,4,3,0,50,0,0
48613,-100,4,2,1,70,0,0
49313,-100,4,3,0,50,0,0
49413,-100,4,2,1,70,0,0
50113,-100,4,3,0,50,0,0
50213,-100,4,2,1,70,0,0
50913,-100,4,3,0,50,0,0
51013,-100,4,2,1,70,0,0
51713,-100,4,3,0,50,0,0
51813,-100,4,2,1,70,0,0
52513,-100,4,3,0,50,0,0
52613,-100,4,2,1,70,0,0
53313,-100,4,3,0,50,0,0
53413,-100,4,2,1,70,0,0
53913,-100,4,1,0,70,0,0
54013,-100,4,2,1,70,0,0
54113,-33.3333333333333,4,1,0,70,0,0
54213,-33.3333333333333,4,1,0,60,0,0
54313,-33.3333333333333,4,1,0,50,0,0
54413,-33.3333333333333,4,1,0,40,0,0
54513,-100,4,2,2,60,0,0
54913,-100,4,3,0,55,0,0
55313,-100,4,2,2,60,0,0
55713,-100,4,3,0,55,0,0
56113,-100,4,2,2,60,0,0
56513,-100,4,3,0,55,0,0
56913,-100,4,2,2,60,0,0
57313,-100,4,3,0,55,0,0
57713,-100,4,2,2,60,0,0
58113,-100,4,3,0,55,0,0
58513,-100,4,2,2,60,0,0
58913,-100,4,3,0,55,0,0
59313,-100,4,2,2,60,0,0
59713,-100,4,3,0,55,0,0
60113,-100,4,2,2,60,0,0
60513,-100,4,3,0,55,0,0
60913,-100,4,2,2,60,0,0
61313,-100,4,3,0,55,0,0
61713,-100,4,2,2,60,0,0
62113,-100,4,3,0,55,0,0
62513,-100,4,2,2,60,0,0
62913,-100,4,3,0,55,0,0
63313,-100,4,2,2,60,0,0
63713,-100,4,3,0,55,0,0
64113,-100,4,2,2,60,0,0
64513,-100,4,3,0,55,0,0
64913,-100,4,2,2,60,0,0
65313,-100,4,3,0,55,0,0
65713,-100,4,2,2,60,0,0
66113,-100,4,3,0,55,0,0
66513,-100,4,2,2,60,0,0
66913,-100,4,3,0,55,0,0
67313,-100,4,2,2,60,0,0
67713,-100,4,3,0,55,0,0
68113,-100,4,2,2,60,0,0
68513,-100,4,3,0,55,0,0
68913,-100,4,2,2,60,0,0
69313,-100,4,3,0,55,0,0
69713,-100,4,2,2,60,0,0
70113,-100,4,3,0,55,0,0
70513,-100,4,2,2,60,0,0
70913,-100,4,3,0,55,0,0
71313,-100,4,2,2,60,0,0
71713,-100,4,3,0,55,0,0
72113,-100,4,2,2,60,0,0
72513,-100,4,3,0,55,0,0
72913,-100,4,2,2,60,0,0
73313,-100,4,3,0,55,0,0
73713,-100,4,2,2,60,0,0
74113,-100,4,3,0,55,0,0
74513,-100,4,2,2,60,0,0
74913,-100,4,3,0,55,0,0
75313,-100,4,2,2,60,0,0
75713,-100,4,3,0,55,0,0
76113,-100,4,2,2,60,0,0
76513,-100,4,3,0,55,0,0
76913,-100,4,2,2,60,0,0
77313,-100,4,3,0,55,0,0
77713,-100,4,2,2,60,0,0
78113,-100,4,3,0,55,0,0
78513,-100,4,2,0,68,0,0
79913,-100,4,1,0,68,0,0
80013,-100,4,2,0,68,0,0
80113,-100,4,2,2,70,0,0
80513,-100,4,2,0,35,0,0
82513,-100,4,2,0,70,0,0
82913,-100,4,2,0,35,0,0
83313,-100,4,2,0,70,0,0
83713,-100,4,2,0,35,0,0
84113,-100,4,2,0,70,0,0
84513,-100,4,2,0,35,0,0
84913,-100,4,2,0,70,0,0
85313,-100,4,2,0,35,0,0
85713,-100,4,2,0,70,0,0
86113,-100,4,2,0,35,0,0
86513,-100,4,2,0,70,0,0
86913,-100,4,2,0,35,0,0
88913,-100,4,2,0,70,0,0
89313,-100,4,2,0,35,0,0
89713,-40,4,1,0,45,0,0
90913,-40,4,1,0,65,0,0
91313,-100,4,1,0,50,0,0
92913,-133.333333333333,4,2,1,50,0,0
105713,-100,4,2,1,60,0,0
106113,-100,4,3,0,70,0,0
106513,-100,4,2,1,60,0,0
106913,-100,4,3,0,70,0,0
107313,-100,4,2,1,60,0,0
107713,-100,4,3,0,70,0,0
108113,-100,4,2,1,60,0,0
108713,-100,4,3,0,60,0,0
108913,-100,4,2,1,60,0,0
109313,-100,4,3,0,70,0,0
109713,-100,4,2,1,60,0,0
110113,-100,4,3,0,70,0,0
110513,-100,4,2,1,60,0,0
110913,-100,4,3,0,70,0,0
111313,-100,4,2,1,60,0,0
111913,-100,4,2,0,70,0,0
112113,-100,4,2,1,60,0,0
112513,-100,4,3,0,70,0,0
112913,-100,4,2,1,60,0,0
113313,-100,4,3,0,70,0,0
113713,-100,4,2,1,60,0,0
114113,-100,4,3,0,70,0,0
114513,-100,4,2,1,60,0,0
115113,-100,4,2,0,70,0,0
115313,-100,4,2,1,60,0,0
115713,-100,4,3,0,70,0,0
115813,-100,4,2,1,60,0,0
115913,-100,4,3,0,70,0,0
116013,-100,4,2,1,60,0,0
116513,-100,4,3,0,70,0,0
116613,-100,4,2,1,60,0,0
116713,-100,4,3,0,70,0,0
116813,-100,4,2,1,60,0,0
117313,-100,4,3,0,70,0,0
117413,-100,4,2,1,60,0,0
117513,-100,4,3,0,70,0,0
117613,-100,4,2,1,60,0,0
118313,-100,4,3,0,70,0,0
118413,-100,4,2,1,60,0,0
121713,-100,4,2,2,50,0,0
122113,-100,4,2,1,50,0,0
122513,-100,4,2,2,50,0,0
122913,-100,4,2,1,50,0,0
123313,-100,4,2,2,50,0,0
123713,-100,4,2,1,50,0,0
124113,-100,4,2,2,50,0,0
124513,-100,4,2,1,50,0,0
124913,-100,4,2,2,50,0,0
125313,-100,4,2,1,50,0,0
125713,-100,4,2,2,50,0,0
126113,-100,4,2,1,50,0,0
126513,-100,4,2,2,50,0,0
126913,-100,4,2,1,50,0,0
127313,-100,4,2,2,50,0,0
127713,-100,4,2,1,50,0,0
128113,-100,4,2,2,50,0,0
128513,-100,4,2,1,50,0,0
128913,-100,4,2,2,50,0,0
129313,-100,4,2,1,50,0,0
129713,-100,4,2,2,50,0,0
130113,-100,4,2,1,50,0,0
130513,-100,4,2,2,50,0,0
130913,-100,4,2,1,50,0,0
131313,-100,4,2,2,50,0,0
131713,-100,4,2,1,50,0,0
132113,-100,4,2,2,50,0,0
132513,-100,4,2,1,50,0,0
132913,-100,4,2,2,50,0,0
133313,-100,4,2,1,50,0,0
133713,-100,4,2,2,50,0,0
133913,-100,4,3,0,40,0,0
134113,-100,4,2,1,50,0,0
134313,-100,4,3,0,40,0,0
134513,-100,4,2,2,50,0,0
134913,-100,4,2,1,50,0,0
135313,-100,4,2,2,50,0,0
135713,-100,4,2,1,50,0,0
136113,-100,4,2,2,50,0,0
136513,-100,4,2,1,50,0,0
136913,-100,4,2,2,50,0,0
137313,-100,4,2,1,50,0,0
137713,-100,4,2,2,50,0,0
138113,-100,4,2,1,50,0,0
138513,-100,4,2,2,50,0,0
138913,-100,4,2,1,50,0,0
139313,-100,4,2,2,50,0,0
139713,-100,4,2,1,50,0,0
140113,-100,4,2,2,50,0,0
140513,-100,4,2,1,50,0,0
140913,-100,4,2,2,50,0,0
141313,-100,4,2,1,50,0,0
141713,-100,4,2,2,50,0,0
142113,-100,4,2,1,50,0,0
142513,-100,4,2,2,50,0,0
142913,-100,4,2,1,50,0,0
143313,-100,4,2,2,50,0,0
143713,-100,4,2,1,50,0,0
144113,-100,4,2,2,50,0,0
144513,-100,4,2,1,50,0,0
144913,-100,4,2,2,50,0,0
145313,-100,4,2,1,50,0,0
145713,-100,4,2,2,50,0,0
146113,-100,4,2,1,50,0,0
146513,-100,4,2,2,50,0,0
146713,-100,4,3,0,40,0,0
146913,-26.3157894736844,4,1,0,50,0,0
147113,-26.3157894736844,4,3,0,40,0,0
147313,-84.7457627118644,4,2,1,70,0,1
147713,-84.7457627118644,4,2,2,70,0,1
150113,-84.7457627118644,4,2,1,70,0,1
150513,-84.7457627118644,4,2,2,70,0,1
153313,-84.7457627118644,4,2,1,70,0,1
153713,-84.7457627118644,4,2,2,70,0,1
156513,-84.7457627118644,4,2,1,70,0,1
156913,-84.7457627118644,4,2,2,70,0,1
159613,-84.7457627118644,4,3,0,50,0,1
159713,-84.7457627118644,4,2,1,70,0,1
159913,-84.7457627118644,4,3,0,50,0,1
160113,-74.0740740740741,4,2,2,75,0,1
162913,-74.0740740740741,4,2,1,75,0,1
163313,-74.0740740740741,4,2,2,75,0,1
166013,-74.0740740740741,4,3,0,50,0,1
166113,-74.0740740740741,4,2,1,75,0,1
166313,-74.0740740740741,4,3,0,50,0,1
166513,-65.7894736842105,4,2,2,80,0,1
169313,-65.7894736842105,4,2,1,80,0,1
169713,-65.7894736842105,4,2,2,80,0,1
171513,-65.7894736842105,4,3,0,50,0,1
171713,-65.7894736842105,4,2,2,80,0,1
171913,-65.7894736842105,4,3,0,50,0,1
172113,-65.7894736842105,4,2,2,80,0,1
172313,-65.7894736842105,4,3,0,50,0,1
172513,-65.7894736842105,4,2,1,80,0,1
172713,-65.7894736842105,4,3,0,50,0,1
173113,-25,4,2,1,70,0,1
173313,400,4,2,1,60,1,0
174113,-133.333333333333,4,2,0,50,0,0
190913,-100,4,2,0,50,0,0
191713,-133.333333333333,4,2,0,50,0,0
198913,-100,4,2,2,55,0,0
211713,-100,4,2,1,50,0,0
211913,-100,4,2,1,25,0,0
212113,-100,4,2,1,30,0,0
212313,-100,4,2,1,35,0,0
212513,-100,4,2,1,40,0,0
212713,-100,4,2,1,45,0,0
212913,-100,4,2,1,50,0,0
213113,-100,4,2,1,55,0,0
213313,-100,4,2,1,60,0,0

[Colours]
Combo1 : 95,95,95
Combo2 : 255,174,215
Combo3 : 128,128,255
Combo4 : 222,222,222

[HitObjects]
256,192,513,12,0,1663,0:0:0:0:
256,192,1713,12,0,2063,0:0:0:0:
256,192,2113,12,0,2463,0:0:0:0:
256,192,2513,12,0,2863,0:0:0:0:
256,192,3313,6,0,L|160:192,1,95,6|0,0:0|0:0,0:0:0:0:
288,192,3713,2,0,L|288:96,1,95,0|0,0:0|0:0,0:0:0:0:
96,96,4113,2,0,L|192:96,1,95,2|0,0:0|0:0,0:0:0:0:
64,192,4513,2,0,L|64:96,1,95,0|0,0:0|0:0,0:0:0:0:
256,192,4913,6,0,L|352:192,1,95,2|0,0:0|0:0,0:0:0:0:
224,192,5313,2,0,L|224:96,1,95,0|0,0:0|0:0,0:0:0:0:
416,96,5713,2,0,L|320:96,1,95,2|0,0:0|0:0,0:0:0:0:
448,192,6113,2,0,L|448:96,1,95,0|0,0:0|0:0,0:0:0:0:
192,96,6513,6,0,L|288:96,1,95,2|0,0:0|0:0,0:0:0:0:
160,192,6913,2,0,L|144:96,1,95,0|0,0:0|0:0,0:0:0:0:
336,288,7313,2,0,L|432:288,1,95,2|0,0:0|0:0,0:0:0:0:
304,192,7713,2,0,L|288:288,1,95,0|0,0:0|0:0,0:0:0:0:
480,192,8113,6,0,L|384:192,1,95,2|0,0:0|0:0,0:0:0:0:
256,192,8513,2,0,L|240:96,1,95,0|0,0:0|0:0,0:0:0:0:
432,192,8913,2,0,L|336:192,1,95,2|0,0:0|0:0,0:0:0:0:
208,192,9313,2,0,L|192:288,1,95,0|0,0:0|0:0,0:0:0:0:
448,192,9713,6,0,L|353:192,1,95,2|0,0:0|0:0,0:0:0:0:
480,192,10113,2,0,L|480:96,1,95,0|0,0:0|0:0,0:0:0:0:
288,80,10513,2,0,L|384:80,1,95,2|0,0:0|0:0,0:0:0:0:
256,192,10913,2,0,L|256:96,1,95,0|0,0:0|0:0,0:0:0:0:
64,192,11313,6,0,L|159:192,1,95,2|0,0:0|0:0,0:0:0:0:
32,192,11713,2,0,L|32:96,1,95,0|0,0:0|0:0,0:0:0:0:
224,80,12113,2,0,L|320:80,1,95,2|0,0:0|0:0,0:0:0:0:
192,192,12513,2,0,L|192:96,1,95,0|0,0:0|0:0,0:0:0:0:
448,48,12913,6,0,L|352:48,1,95,2|0,0:0|0:0,0:0:0:0:
480,80,13313,2,0,L|480:176,1,95,0|0,0:0|0:0,0:0:0:0:
288,48,13713,2,0,L|192:48,1,95,2|0,0:0|0:0,0:0:0:0:
320,80,14113,2,0,L|320:176,1,95,0|0,0:0|0:0,0:0:0:0:
128,48,14513,6,0,L|224:48,1,95,2|0,0:0|0:0,0:0:0:0:
96,80,14913,2,0,L|96:176,1,95,0|0,0:0|0:0,0:0:0:0:
288,48,15313,2,0,L|352:48,2,63.3333333333333,2|0|0,0:0|0:0|0:0,0:0:0:0:
160,192,15713,2,0,L|96:192,2,63.3333333333333,2|0|0,0:0|0:0|0:0,0:0:0:0:
224,192,16046,1,0,0:0:0:0:
352,192,16113,6,0,P|368:144|368:96,1,95,6|0,0:0|0:0,0:0:0:0:
320,64,16413,1,0,0:0:0:0:
224,64,16513,2,0,L|320:64,1,95,0|0,0:0|0:0,0:0:0:0:
128,192,16913,2,0,P|112:240|112:288,1,95,2|0,0:0|0:0,0:0:0:0:
160,320,17213,1,0,0:0:0:0:
256,320,17313,2,0,L|160:320,1,95,0|0,0:0|0:0,0:0:0:0:
416,192,17713,6,0,P|432:144|432:96,1,95,2|0,0:0|0:0,0:0:0:0:
384,64,18013,1,0,0:0:0:0:
288,64,18113,2,0,L|384:64,1,95,0|0,0:0|0:0,0:0:0:0:
320,64,18413,1,0,0:0:0:0:
224,192,18513,2,0,P|208:240|208:288,1,95,2|0,0:0|0:0,0:0:0:0:
256,320,18813,1,0,0:0:0:0:
352,320,18913,2,0,L|256:320,1,95,0|0,0:0|0:0,0:0:0:0:
320,320,19213,1,0,0:0:0:0:
480,192,19313,6,0,L|384:192,1,95,2|0,0:0|0:0,0:0:0:0:
320,96,19613,1,0,0:0:0:0:
416,96,19713,1,0,0:0:0:0:
480,96,19813,1,0,0:0:0:0:
480,160,19913,1,0,0:0:0:0:
416,160,20013,1,0,0:0:0:0:
320,192,20113,2,0,L|416:192,1,95,2|0,0:0|0:0,0:0:0:0:
480,288,20413,1,0,0:0:0:0:
384,288,20513,1,0,0:0:0:0:
320,288,20613,1,0,0:0:0:0:
320,224,20713,1,0,0:0:0:0:
384,224,20813,1,0,0:0:0:0:
224,192,20913,6,0,L|128:192,1,95,2|0,0:0|0:0,0:0:0:0:
192,192,21213,1,0,0:0:0:0:
288,192,21313,1,0,0:0:0:0:
352,192,21413,1,0,0:0:0:0:
288,128,21513,1,0,0:0:0:0:
224,128,21613,1,0,0:0:0:0:
320,192,21713,2,0,L|416:192,1,95,2|0,0:0|0:0,0:0:0:0:
352,192,22013,1,0,0:0:0:0:
256,192,22113,1,0,0:0:0:0:
192,192,22213,1,0,0:0:0:0:
256,128,22313,1,0,0:0:0:0:
320,128,22413,1,0,0:0:0:0:
160,64,22513,6,0,L|112:64,1,47.5,2|0,0:0|0:0,0:0:0:0:
176,64,22713,2,0,L|176:112,1,47.5,0|0,0:0|0:0,0:0:0:0:
80,192,22913,2,0,L|32:192,1,47.5,0|0,0:0|0:0,0:0:0:0:
32,192,23113,2,0,L|80:192,1,47.5,0|0,0:0|0:0,0:0:0:0:
176,192,23313,2,0,L|176:144,1,47.5,2|0,0:0|0:0,0:0:0:0:
112,192,23513,2,0,L|112:144,1,47.5,0|0,0:0|0:0,0:0:0:0:
208,192,23713,1,0,0:0:0:0:
144,192,23813,1,0,0:0:0:0:
80,192,23913,1,0,0:0:0:0:
144,192,24013,1,0,0:0:0:0:
304,64,24113,6,0,L|352:64,1,47.5,2|0,0:0|0:0,0:0:0:0:
288,64,24313,2,0,L|288:112,1,47.5,0|0,0:0|0:0,0:0:0:0:
384,192,24513,2,0,L|432:192,1,47.5,0|0,0:0|0:0,0:0:0:0:
432,192,24713,2,0,L|384:192,1,47.5,0|0,0:0|0:0,0:0:0:0:
288,192,24913,2,0,L|288:144,1,47.5,2|0,0:0|0:0,0:0:0:0:
352,192,25113,2,0,L|352:144,1,47.5,0|0,0:0|0:0,0:0:0:0:
256,192,25313,1,0,0:0:0:0:
320,192,25413,1,0,0:0:0:0:
384,192,25513,1,0,0:0:0:0:
320,192,25613,1,0,0:0:0:0:
160,64,25713,6,0,L|112:64,1,47.5,2|0,0:0|0:0,0:0:0:0:
112,64,25913,2,0,L|160:64,1,47.5,0|0,0:0|0:0,0:0:0:0:
320,64,26113,2,0,L|320:112,1,47.5,0|0,0:0|0:0,0:0:0:0:
256,64,26313,2,0,L|256:112,1,47.5,0|0,0:0|0:0,0:0:0:0:
416,64,26513,2,0,L|464:64,1,47.5,2|0,0:0|0:0,0:0:0:0:
496,96,26713,2,0,L|496:144,1,47.5
336,64,26913,1,0,0:0:0:0:
288,64,27013,1,0,0:0:0:0:
336,64,27113,1,0,0:0:0:0:
288,64,27213,1,0,0:0:0:0:
128,192,27313,5,8,0:0:0:0:
256,192,27513,1,0,0:0:0:0:
128,192,27713,1,2,0:0:0:0:
272,192,27913,1,8,0:0:0:0:
112,192,28013,1,2,0:0:0:0:
224,192,28213,1,2,0:0:0:0:
160,192,28313,1,8,0:0:0:0:
352,192,28513,1,2,0:0:0:0:
160,192,28713,1,8,0:0:0:0:
240,192,28813,1,0,0:0:0:0:
448,192,28913,6,0,L|352:192,1,95,6|0,0:0|0:0,0:0:0:0:
352,192,29213,1,0,0:0:0:0:
448,192,29313,2,0,L|464:96,1,95,0|0,0:0|0:0,0:0:0:0:
272,96,29713,2,0,L|368:96,1,95,2|0,0:0|0:0,0:0:0:0:
368,96,30013,1,0,0:0:0:0:
272,96,30113,2,0,L|256:192,1,95,0|0,0:0|0:0,0:0:0:0:
448,192,30513,6,0,P|480:160|496:112,1,95,2|0,0:0|0:0,0:0:0:0:
496,112,30813,1,0,0:0:0:0:
400,112,30913,2,0,L|496:112,1,95,0|0,0:0|0:0,0:0:0:0:
304,192,31313,2,0,P|288:144|288:96,1,95,2|0,0:0|0:0,0:0:0:0:
287,99,31613,1,0,0:0:0:0:
384,96,31713,2,0,L|288:96,1,95,0|0,0:0|0:0,0:0:0:0:
32,192,32113,6,0,L|128:192,1,95,2|0,0:0|0:0,0:0:0:0:
128,192,32413,1,0,0:0:0:0:
32,192,32513,2,0,L|128:192,1,95,0|0,0:0|0:0,0:0:0:0:
320,96,32913,2,0,L|224:96,1,95,2|0,0:0|0:0,0:0:0:0:
224,96,33213,1,0,0:0:0:0:
320,96,33313,2,0,L|224:96,1,95,0|0,0:0|0:0,0:0:0:0:
416,192,33713,6,0,L|320:192,1,95,2|0,0:0|0:0,0:0:0:0:
320,192,34013,1,0,0:0:0:0:
416,192,34113,2,0,L|320:192,1,95,0|0,0:0|0:0,0:0:0:0:
128,288,34513,2,0,L|224:288,1,95,2|0,0:0|0:0,0:0:0:0:
224,288,34813,1,0,0:0:0:0:
128,288,34913,2,0,L|224:288,1,95,0|0,0:0|0:0,0:0:0:0:
480,192,35313,6,0,L|384:192,1,95,2|0,0:0|0:0,0:0:0:0:
385,192,35613,1,0,0:0:0:0:
480,192,35713,2,0,L|496:96,1,95,0|0,0:0|0:0,0:0:0:0:
304,192,36113,2,0,L|208:192,1,95,2|0,0:0|0:0,0:0:0:0:
209,192,36413,1,0,0:0:0:0:
304,192,36513,2,0,L|320:96,1,95,0|0,0:0|0:0,0:0:0:0:
128,192,36913,6,0,L|224:192,1,95,2|0,0:0|0:0,0:0:0:0:
223,192,37213,1,0,0:0:0:0:
128,192,37313,2,0,P|96:224|80:272,1,95,0|0,0:0|0:0,0:0:0:0:
272,192,37713,2,0,L|368:192,1,95,2|0,0:0|0:0,0:0:0:0:
367,192,38013,1,0,0:0:0:0:
272,192,38113,2,0,P|240:224|224:272,1,95,0|0,0:0|0:0,0:0:0:0:
480,192,38513,6,0,L|352:192,1,118.75,2|0,0:0|0:0,0:0:0:0:
385,192,38813,1,0,0:0:0:0:
480,192,38913,2,0,L|384:192,1,95,0|0,0:0|0:0,0:0:0:0:
192,96,39313,2,0,L|320:96,1,118.75,2|0,0:0|0:0,0:0:0:0:
288,96,39613,1,0,0:0:0:0:
192,96,39713,2,0,L|288:96,1,95,0|0,0:0|0:0,0:0:0:0:
96,192,40113,6,0,L|224:192,1,118.75,2|0,0:0|0:0,0:0:0:0:
192,192,40413,1,0,0:0:0:0:
96,192,40513,2,0,L|192:192,1,95,0|0,0:0|0:0,0:0:0:0:
384,288,40913,2,0,L|256:288,1,118.75,2|0,0:0|0:0,0:0:0:0:
288,288,41213,1,0,0:0:0:0:
384,288,41313,2,0,L|288:288,1,95,0|0,0:0|0:0,0:0:0:0:
32,192,41713,6,0,L|32:96,1,95,2|0,0:0|0:0,0:0:0:0:
112,80,42013,1,0,0:0:0:0:
192,192,42113,2,0,L|96:192,1,95,8|0,0:0|0:0,0:0:0:0:
288,192,42513,2,0,L|288:96,1,95,2|0,0:0|0:0,0:0:0:0:
208,80,42813,1,0,0:0:0:0:
128,192,42913,2,0,L|224:192,1,95,8|0,0:0|0:0,0:0:0:0:
480,192,43313,6,0,L|480:96,1,95,2|0,0:0|0:0,0:0:0:0:
400,80,43613,1,0,0:0:0:0:
320,192,43713,2,0,L|416:192,1,95,8|0,0:0|0:0,0:0:0:0:
224,192,44113,2,0,L|224:96,1,95,2|0,0:0|0:0,0:0:0:0:
304,80,44413,1,0,0:0:0:0:
384,192,44513,2,0,L|288:192,1,95,8|0,0:0|0:0,0:0:0:0:
32,192,44913,6,0,L|128:192,1,95,2|0,0:0|0:0,0:0:0:0:
48,192,45213,1,0,0:0:0:0:
127,192,45313,2,0,L|32:192,1,95,8|0,0:0|0:0,0:0:0:0:
224,192,45713,2,0,L|128:192,1,95,2|0,0:0|0:0,0:0:0:0:
208,192,46013,1,0,0:0:0:0:
128,192,46113,2,0,L|224:192,1,95,8|0,0:0|0:0,0:0:0:0:
480,192,46513,6,0,L|384:192,1,95,2|0,0:0|0:0,0:0:0:0:
464,192,46813,1,0,0:0:0:0:
385,192,46913,2,0,L|480:192,1,95,8|0,0:0|0:0,0:0:0:0:
288,192,47313,2,0,L|384:192,1,95,2|0,0:0|0:0,0:0:0:0:
304,192,47613,1,0,0:0:0:0:
384,192,47713,2,0,L|288:192,1,95,8|0,0:0|0:0,0:0:0:0:
32,192,48113,6,0,L|48:96,1,95,2|0,0:0|0:0,0:0:0:0:
128,80,48413,1,0,0:0:0:0:
208,192,48513,2,0,L|224:96,1,95,8|0,0:0|0:0,0:0:0:0:
32,192,48913,2,0,L|48:288,1,95,2|0,0:0|0:0,0:0:0:0:
128,304,49213,1,0,0:0:0:0:
208,192,49313,2,0,L|224:288,1,95,8|0,0:0|0:0,0:0:0:0:
480,192,49713,6,0,L|464:96,1,95,2|0,0:0|0:0,0:0:0:0:
384,80,50013,1,0,0:0:0:0:
304,192,50113,2,0,L|288:96,1,95,8|0,0:0|0:0,0:0:0:0:
480,192,50513,2,0,L|464:288,1,95,2|0,0:0|0:0,0:0:0:0:
384,304,50813,1,0,0:0:0:0:
304,192,50913,2,0,L|288:288,1,95,8|0,0:0|0:0,0:0:0:0:
32,192,51313,6,0,L|16:144,1,47.5,2|0,0:0|0:0,0:0:0:0:
32,192,51513,2,0,L|80:192,1,47.5,0|0,0:0|0:0,0:0:0:0:
240,192,51713,2,0,L|144:192,1,95,8|0,0:0|0:0,0:0:0:0:
400,128,52113,2,0,L|448:128,1,47.5,2|0,0:0|0:0,0:0:0:0:
448,256,52313,2,0,L|400:256,1,47.5,0|0,0:0|0:0,0:0:0:0:
240,192,52513,2,0,L|240:144,1,47.5,8|0,0:0|0:0,0:0:0:0:
304,192,52713,2,0,L|304:144,1,47.5,0|0,0:0|0:0,0:0:0:0:
144,128,52913,6,0,L|96:128,1,47.5,2|0,0:0|0:0,0:0:0:0:
96,256,53113,2,0,L|144:256,1,47.5,0|0,0:0|0:0,0:0:0:0:
304,192,53313,2,0,L|304:144,1,47.5,8|0,0:0|0:0,0:0:0:0:
240,192,53513,2,0,L|240:144,1,47.5,0|0,0:0|0:0,0:0:0:0:
400,192,53713,2,0,P|432:160|400:144,1,95,2|8,0:0|0:0,0:0:0:0:
336,144,54013,1,0,0:0:0:0:
176,144,54113,2,0,L|432:272,1,285.000010871888,0|2,0:0|0:0,0:0:0:0:
144,240,54513,6,0,P|128:192|128:144,1,95,6|0,0:0|0:0,0:0:0:0:
192,96,54813,1,0,0:0:0:0:
288,80,54913,2,0,L|192:80,1,95,10|0,0:0|0:0,0:0:0:0:
384,240,55313,2,0,P|400:192|400:144,1,95,10|0,0:0|0:0,0:0:0:0:
336,96,55613,1,0,0:0:0:0:
240,80,55713,2,0,L|336:80,1,95,10|0,0:0|0:0,0:0:0:0:
80,192,56113,6,0,L|176:192,1,95,10|0,0:0|0:0,0:0:0:0:
175,192,56413,1,0,0:0:0:0:
16,80,56513,2,0,L|16:176,1,95,10|0,0:0|0:0,0:0:0:0:
80,192,56813,1,0,0:0:0:0:
176,192,56913,2,0,P|208:224|208:272,1,95,10|0,0:0|0:0,0:0:0:0:
144,304,57213,1,0,0:0:0:0:
48,304,57313,2,0,L|144:304,1,95,10|0,0:0|0:0,0:0:0:0:
400,192,57713,6,0,L|304:192,1,95,10|0,0:0|0:0,0:0:0:0:
368,192,58013,1,0,0:0:0:0:
464,128,58113,2,0,L|368:128,1,95,10|0,0:0|0:0,0:0:0:0:
112,192,58513,2,2,L|208:192,1,95,10|0,0:0|0:0,0:0:0:0:
144,192,58813,1,0,0:0:0:0:
48,128,58913,2,0,L|144:128,1,95,10|0,0:0|0:0,0:0:0:0:
400,192,59313,6,0,L|304:192,1,95,10|0,0:0|0:0,0:0:0:0:
368,192,59613,1,0,0:0:0:0:
208,96,59713,1,10,0:0:0:0:
352,96,59913,1,0,0:0:0:0:
96,192,60113,1,10,0:0:0:0:
224,192,60313,1,0,0:0:0:0:
160,192,60413,1,0,0:0:0:0:
256,96,60513,1,10,0:0:0:0:
112,96,60713,1,8,0:0:0:0:
368,240,60913,6,0,P|384:192|384:144,1,95,10|0,0:0|0:0,0:0:0:0:
320,96,61213,1,0,0:0:0:0:
224,80,61313,2,0,L|320:80,1,95,10|0,0:0|0:0,0:0:0:0:
128,240,61713,2,0,P|112:192|112:144,1,95,10|0,0:0|0:0,0:0:0:0:
176,96,62013,1,0,0:0:0:0:
272,80,62113,2,0,L|176:80,1,95,10|0,0:0|0:0,0:0:0:0:
432,192,62513,6,0,L|336:192,1,95,10|0,0:0|0:0,0:0:0:0:
337,192,62813,1,0,0:0:0:0:
496,80,62913,2,0,L|496:176,1,95,10|0,0:0|0:0,0:0:0:0:
432,192,63213,1,0,0:0:0:0:
336,192,63313,2,0,P|304:224|304:272,1,95,10|0,0:0|0:0,0:0:0:0:
368,304,63613,1,0,0:0:0:0:
464,304,63713,2,0,L|368:304,1,95,10|0,0:0|0:0,0:0:0:0:
112,192,64113,6,0,L|208:192,1,95,10|0,0:0|0:0,0:0:0:0:
144,192,64413,1,0,0:0:0:0:
48,128,64513,2,0,L|144:128,1,95,10|0,0:0|0:0,0:0:0:0:
400,192,64913,2,0,L|304:192,1,95,10|0,0:0|0:0,0:0:0:0:
368,192,65213,1,0,0:0:0:0:
464,128,65313,2,0,L|368:128,1,95,10|0,0:0|0:0,0:0:0:0:
112,192,65713,6,0,L|208:192,1,95,10|0,0:0|0:0,0:0:0:0:
144,192,66013,1,0,0:0:0:0:
304,96,66113,1,10,0:0:0:0:
160,96,66313,1,0,0:0:0:0:
416,192,66513,1,10,0:0:0:0:
288,192,66713,1,2,0:0:0:0:
240,192,66779,1,2,0:0:0:0:
240,96,66846,1,2,0:0:0:0:
288,96,66913,1,10,0:0:0:0:
480,96,67113,1,8,0:0:0:0:
192,96,67313,6,0,P|160:128|160:176,1,95,6|0,0:0|0:0,0:0:0:0:
224,224,67613,1,0,0:0:0:0:
320,224,67713,2,0,L|224:224,1,95,10|0,0:0|0:0,0:0:0:0:
32,224,68113,2,0,P|31:270|64:303,1,95,10|0,0:0|0:0,0:0:0:0:
128,304,68413,1,0,0:0:0:0:
224,304,68513,2,0,L|128:304,1,95,10|0,0:0|0:0,0:0:0:0:
384,96,68913,6,0,P|416:128|416:176,1,95,10|0,0:0|0:0,0:0:0:0:
352,224,69213,1,0,0:0:0:0:
192,224,69313,2,0,L|288:224,1,95,10|0,0:0|0:0,0:0:0:0:
480,224,69713,2,0,P|481:270|448:303,1,95,10|0,0:0|0:0,0:0:0:0:
384,304,70013,1,0,0:0:0:0:
288,304,70113,2,0,L|384:304,1,95,10|0,0:0|0:0,0:0:0:0:
128,192,70513,6,0,L|128:96,1,95,10|0,0:0|0:0,0:0:0:0:
192,64,70813,1,0,0:0:0:0:
96,64,70913,2,0,L|192:64,1,95,10|0,0:0|0:0,0:0:0:0:
384,192,71313,2,2,L|384:96,1,95,10|0,0:0|0:0,0:0:0:0:
320,64,71613,1,0,0:0:0:0:
416,64,71713,2,0,L|320:64,1,95,10|0,0:0|0:0,0:0:0:0:
64,192,72113,6,0,L|160:192,1,95,10|0,0:0|0:0,0:0:0:0:
96,192,72413,1,0,0:0:0:0:
256,192,72513,2,0,L|256:96,1,95,10|0,0:0|0:0,0:0:0:0:
64,96,72913,2,0,L|64:192,1,95,10|0,0:0|0:0,0:0:0:0:
128,192,73213,1,0,0:0:0:0:
224,192,73313,1,10,0:0:0:0:
64,192,73513,1,8,0:0:0:0:
352,192,73713,6,0,L|448:192,1,95,10|0,0:0|0:0,0:0:0:0:
447,192,74013,1,0,0:0:0:0:
288,96,74113,2,0,L|384:96,1,95,10|0,0:0|0:0,0:0:0:0:
128,192,74513,2,0,L|32:192,1,95,10|0,0:0|0:0,0:0:0:0:
96,192,74813,1,0,0:0:0:0:
255,288,74913,2,0,L|159:288,1,95,10|0,0:0|0:0,0:0:0:0:
416,192,75313,6,0,L|320:192,1,95,10|0,0:0|0:0,0:0:0:0:
321,192,75613,1,0,0:0:0:0:
480,80,75713,2,0,L|384:80,1,95,10|0,0:0|0:0,0:0:0:0:
128,80,76113,2,0,L|224:80,1,95,10|0,0:0|0:0,0:0:0:0:
160,80,76413,1,0,0:0:0:0:
320,192,76513,1,10,0:0:0:0:
160,192,76713,1,8,0:0:0:0:
416,64,76913,6,0,L|464:64,1,47.5,10|0,0:0|0:0,0:0:0:0:
464,64,77113,2,0,L|416:64,1,47.5,0|0,0:0|0:0,0:0:0:0:
256,64,77313,2,0,L|256:112,1,47.5,10|0,0:0|0:0,0:0:0:0:
320,64,77513,2,0,L|320:112,1,47.5,0|0,0:0|0:0,0:0:0:0:
160,64,77713,2,0,L|112:64,1,47.5,10|0,0:0|0:0,0:0:0:0:
80,96,77913,2,0,L|80:144,1,47.5
240,64,78113,1,10,0:0:0:0:
288,64,78213,1,0,0:0:0:0:
240,64,78313,1,0,0:0:0:0:
288,64,78413,1,0,0:0:0:0:
448,192,78513,5,8,0:0:0:0:
320,192,78713,1,0,0:0:0:0:
448,192,78913,1,2,0:0:0:0:
304,192,79113,1,8,0:0:0:0:
464,192,79213,1,2,0:0:0:0:
352,192,79413,1,2,0:0:0:0:
416,192,79513,5,8,0:0:0:0:
224,192,79713,1,2,0:0:0:0:
416,336,79913,1,8,0:0:0:0:
416,272,80013,1,0,0:0:0:0:
208,336,80113,6,0,B|-16:192|208:48|208:48|432:192|208:336|208:336|-16:192|208:48|208:48|16:48,1,1330,6|2,0:0|0:0,0:0:0:0:
256,48,83313,6,0,B|256:240|256:240|68:240|68:240|68:48|68:48|256:48|256:48|256:240|256:240|68:240|68:240|68:48,1,1330,2|2,0:0|0:0,0:0:0:0:
256,336,86446,1,0,0:0:0:0:
304,336,86513,6,0,B|528:192|304:48|304:48|80:192|304:336|304:336|528:192|304:48|304:48|496:48,1,1330,2|2,0:0|0:0,0:0:0:0:
256,16,89713,6,0,B|160:16|32:192|176:368|256:368|256:368|336:368|480:192|352:16|256:16|256:16|160:16|32:192|176:368|256:368|256:368|32:280,1,1662.5
256,192,91313,12,0,92713,0:0:0:0:
192,240,92913,6,0,L|176:96,1,142.500005435944,8|0,0:0|0:0,0:0:0:0:
288,80,93513,1,0,0:0:0:0:
112,240,93713,2,0,L|96:96,1,142.500005435944,8|0,0:0|0:0,0:0:0:0:
208,80,94313,1,0,0:0:0:0:
32,240,94513,1,8,0:0:0:0:
128,240,94713,1,0,0:0:0:0:
32,240,94913,1,0,0:0:0:0:
336,192,95313,1,8,0:0:0:0:
32,144,95713,1,8,0:0:0:0:
128,144,95913,1,0,0:0:0:0:
384,192,96113,6,0,P|432:240|384:272,1,142.500005435944,8|0,0:0|0:0,0:0:0:0:
288,272,96713,1,0,0:0:0:0:
112,192,96913,2,0,P|64:240|112:272,1,142.500005435944,8|0,0:0|0:0,0:0:0:0:
208,272,97513,1,0,0:0:0:0:
384,192,97713,1,8,0:0:0:0:
288,192,97913,1,0,0:0:0:0:
384,192,98113,1,0,0:0:0:0:
288,192,98313,1,0,0:0:0:0:
464,192,98513,1,8,0:0:0:0:
160,192,98913,1,8,0:0:0:0:
64,192,99113,1,0,0:0:0:0:
320,240,99313,6,0,L|336:96,1,142.500005435944,8|0,0:0|0:0,0:0:0:0:
224,80,99913,1,0,0:0:0:0:
400,240,100113,2,0,L|416:96,1,142.500005435944,8|0,0:0|0:0,0:0:0:0:
304,80,100713,1,0,0:0:0:0:
480,240,100913,1,8,0:0:0:0:
384,240,101113,1,0,0:0:0:0:
480,240,101313,1,0,0:0:0:0:
176,192,101713,1,8,0:0:0:0:
480,144,102113,1,8,0:0:0:0:
384,144,102313,1,0,0:0:0:0:
128,192,102513,6,0,P|80:240|128:272,1,142.500005435944,8|0,0:0|0:0,0:0:0:0:
224,272,103113,1,0,0:0:0:0:
400,192,103313,2,0,P|448:240|400:272,1,142.500005435944,8|0,0:0|0:0,0:0:0:0:
304,272,103913,1,0,0:0:0:0:
128,192,104113,1,8,0:0:0:0:
224,192,104313,1,0,0:0:0:0:
128,192,104513,1,0,0:0:0:0:
224,192,104713,1,0,0:0:0:0:
48,192,104913,1,8,0:0:0:0:
352,192,105313,1,8,0:0:0:0:
448,192,105513,1,0,0:0:0:0:
192,240,105713,6,0,P|128:208|112:144,1,142.5,8|0,0:0|0:0,0:0:0:0:
208,240,106113,2,0,L|112:240,1,95,0|0,0:0|0:0,0:0:0:0:
304,240,106513,2,0,L|304:144,1,95,8|0,0:0|0:0,0:0:0:0:
240,112,106813,1,0,0:0:0:0:
336,112,106913,2,0,L|240:112,1,95,0|0,0:0|0:0,0:0:0:0:
432,240,107313,6,0,P|464:208|464:160,1,95,8|0,0:0|0:0,0:0:0:0:
400,112,107613,1,0,0:0:0:0:
496,112,107713,2,0,L|400:112,1,95,0|0,0:0|0:0,0:0:0:0:
208,112,108113,2,0,L|112:112,1,95,8|0,0:0|0:0,0:0:0:0:
64,112,108413,1,0,0:0:0:0:
224,144,108513,1,8,0:0:0:0:
64,192,108713,1,0,0:0:0:0:
320,240,108913,6,0,P|384:208|400:144,1,142.5,8|0,0:0|0:0,0:0:0:0:
304,240,109313,2,0,L|400:240,1,95,0|0,0:0|0:0,0:0:0:0:
208,240,109713,2,0,L|208:144,1,95,8|0,0:0|0:0,0:0:0:0:
272,112,110013,1,0,0:0:0:0:
176,112,110113,2,0,L|272:112,1,95,0|0,0:0|0:0,0:0:0:0:
80,240,110513,6,0,P|48:208|48:160,1,95,8|0,0:0|0:0,0:0:0:0:
112,112,110813,1,0,0:0:0:0:
16,112,110913,2,0,L|112:112,1,95,0|0,0:0|0:0,0:0:0:0:
304,112,111313,2,0,L|400:112,1,95,8|0,0:0|0:0,0:0:0:0:
448,112,111613,1,0,0:0:0:0:
288,144,111713,1,8,0:0:0:0:
448,192,111913,1,0,0:0:0:0:
160,192,112113,6,0,P|112:240|160:272,1,142.5,10|0,0:0|0:0,0:0:0:0:
256,272,112513,2,0,L|160:272,1,95,0|0,0:0|0:0,0:0:0:0:
448,192,112913,2,0,L|352:192,1,95,10|0,0:0|0:0,0:0:0:0:
352,192,113213,1,0,0:0:0:0:
448,192,113313,2,0,L|352:192,1,95,0|0,0:0|0:0,0:0:0:0:
64,192,113713,6,0,L|160:192,1,95,10|0,0:0|0:0,0:0:0:0:
160,192,114013,1,0,0:0:0:0:
64,192,114113,2,0,L|160:192,1,95,0|0,0:0|0:0,0:0:0:0:
448,192,114513,2,0,P|496:240|448:272,1,142.5,10|0,0:0|0:0,0:0:0:0:
256,192,114913,1,10,0:0:0:0:
416,192,115113,1,0,0:0:0:0:
64,192,115313,6,0,L|48:144,1,47.5,10|0,0:0|0:0,0:0:0:0:
64,112,115513,2,0,L|112:112,1,47.5,0|0,0:0|0:0,0:0:0:0:
208,112,115713,2,0,L|256:112,1,47.5,0|0,0:0|0:0,0:0:0:0:
208,112,115913,2,0,L|256:112,1,47.5,0|0,0:0|0:0,0:0:0:0:
448,192,116113,2,0,L|464:144,1,47.5,10|0,0:0|0:0,0:0:0:0:
448,112,116313,2,0,L|400:112,1,47.5,0|0,0:0|0:0,0:0:0:0:
304,112,116513,2,0,L|256:112,1,47.5,0|0,0:0|0:0,0:0:0:0:
304,112,116713,2,0,L|256:112,1,47.5,0|0,0:0|0:0,0:0:0:0:
64,192,116913,6,0,L|16:192,1,47.5,10|0,0:0|0:0,0:0:0:0:
16,192,117113,2,0,L|64:192,1,47.5,0|0,0:0|0:0,0:0:0:0:
160,192,117313,2,0,L|160:144,1,47.5,0|0,0:0|0:0,0:0:0:0:
64,192,117513,2,0,L|64:144,1,47.5,0|0,0:0|0:0,0:0:0:0:
256,192,117713,2,0,L|304:192,1,47.5,10|0,0:0|0:0,0:0:0:0:
304,192,117913,2,0,L|256:192,1,47.5,0|0,0:0|0:0,0:0:0:0:
64,192,118113,2,0,L|64:144,1,47.5,10|0,0:0|0:0,0:0:0:0:
256,192,118313,2,0,L|256:144,1,47.5,0|0,0:0|0:0,0:0:0:0:
64,192,118513,5,14,0:0:0:0:
256,192,118713,12,0,121413,0:0:0:0:
96,192,121713,6,0,P|80:176|96:112,1,95,4|0,0:0|0:0,0:0:0:0:
160,112,122013,1,0,0:0:0:0:
64,112,122113,2,0,L|160:112,1,95,8|0,0:0|0:0,0:0:0:0:
352,112,122513,2,0,L|447:112,1,95,8|0,0:0|0:0,0:0:0:0:
351,112,122813,1,0,0:0:0:0:
415,112,122913,2,0,P|437:152|415:192,1,95,8|0,0:0|0:0,0:0:0:0:
224,192,123313,6,0,L|128:192,1,95,8|0,0:0|0:0,0:0:0:0:
208,192,123613,1,0,0:0:0:0:
129,192,123713,2,0,L|224:192,1,95,8|0,0:0|0:0,0:0:0:0:
416,192,124113,2,0,L|416:96,1,95,8|0,0:0|0:0,0:0:0:0:
336,112,124413,1,0,0:0:0:0:
416,192,124513,2,0,L|321:192,1,95,8|0,0:0|0:0,0:0:0:0:
128,192,124913,6,0,L|128:96,1,95,8|0,0:0|0:0,0:0:0:0:
192,80,125213,1,0,0:0:0:0:
288,80,125313,2,0,L|192:80,1,95,8|0,0:0|0:0,0:0:0:0:
384,192,125713,2,0,L|288:192,1,95,8|0,0:0|0:0,0:0:0:0:
384,192,126013,1,0,0:0:0:0:
448,192,126113,2,0,L|448:96,1,95,8|0,0:0|0:0,0:0:0:0:
256,192,126513,6,0,L|160:192,1,95,8|0,0:0|0:0,0:0:0:0:
240,192,126813,1,0,0:0:0:0:
160,192,126913,1,8,0:0:0:0:
352,192,127113,1,0,0:0:0:0:
160,192,127313,2,0,L|64:192,1,95,8|0,0:0|0:0,0:0:0:0:
144,192,127613,1,0,0:0:0:0:
65,192,127713,2,0,L|161:192,1,95,8|0,0:0|0:0,0:0:0:0:
416,192,128113,6,0,P|432:176|416:112,1,95,8|0,0:0|0:0,0:0:0:0:
352,112,128413,1,0,0:0:0:0:
448,112,128513,2,0,L|352:112,1,95,8|0,0:0|0:0,0:0:0:0:
160,112,128913,2,0,L|65:112,1,95,8|0,0:0|0:0,0:0:0:0:
161,112,129213,1,0,0:0:0:0:
97,112,129313,2,0,P|75:152|97:192,1,95,8|0,0:0|0:0,0:0:0:0:
288,192,129713,6,0,L|384:192,1,95,8|0,0:0|0:0,0:0:0:0:
304,192,130013,1,0,0:0:0:0:
383,192,130113,2,0,L|288:192,1,95,8|0,0:0|0:0,0:0:0:0:
96,192,130513,2,0,L|96:96,1,95,8|0,0:0|0:0,0:0:0:0:
176,112,130813,1,0,0:0:0:0:
96,192,130913,2,0,L|191:192,1,95,8|0,0:0|0:0,0:0:0:0:
384,192,131313,6,0,L|384:96,1,95,8|0,0:0|0:0,0:0:0:0:
320,80,131613,1,0,0:0:0:0:
224,80,131713,2,0,L|320:80,1,95,8|0,0:0|0:0,0:0:0:0:
128,192,132113,2,0,L|224:192,1,95,8|0,0:0|0:0,0:0:0:0:
128,192,132413,1,0,0:0:0:0:
64,192,132513,2,0,L|64:96,1,95,8|0,0:0|0:0,0:0:0:0:
256,192,132913,6,0,L|352:192,1,95,8|0,0:0|0:0,0:0:0:0:
272,192,133213,1,0,0:0:0:0:
352,192,133313,1,8,0:0:0:0:
160,192,133513,1,0,0:0:0:0:
353,192,133713,2,8,L|448:192,1,95,8|0,0:0|0:0,0:0:0:0:
288,192,134013,1,8,0:0:0:0:
448,192,134113,2,0,L|448:96,1,95,8|8,0:0|0:0,0:0:0:0:
256,96,134413,1,8,0:0:0:0:
64,192,134513,6,0,L|64:96,1,95,4|0,0:0|0:0,0:0:0:0:
128,96,134813,1,0,0:0:0:0:
32,96,134913,2,0,L|128:96,1,95,8|0,0:0|0:0,0:0:0:0:
320,96,135313,2,0,L|415:96,1,95,8|0,0:0|0:0,0:0:0:0:
319,96,135613,1,0,0:0:0:0:
383,97,135713,2,0,L|383:192,1,95,8|0,0:0|0:0,0:0:0:0:
128,192,136113,6,0,L|128:96,1,95,8|0,0:0|0:0,0:0:0:0:
224,64,136413,1,0,0:0:0:0:
384,64,136513,1,8,0:0:0:0:
224,192,136713,1,0,0:0:0:0:
480,192,136913,2,0,L|480:96,1,95,8|0,0:0|0:0,0:0:0:0:
384,64,137213,1,0,0:0:0:0:
224,64,137313,1,8,0:0:0:0:
384,192,137513,1,0,0:0:0:0:
128,192,137713,6,0,L|32:192,1,95,8|0,0:0|0:0,0:0:0:0:
96,192,138013,1,0,0:0:0:0:
192,192,138113,2,0,L|96:192,1,95,8|0,0:0|0:0,0:0:0:0:
288,192,138513,2,0,L|193:192,1,95,8|0,0:0|0:0,0:0:0:0:
289,192,138813,1,0,0:0:0:0:
352,192,138913,2,0,L|352:96,1,95,8|0,0:0|0:0,0:0:0:0:
96,96,139313,6,0,L|192:96,1,95,8|0,0:0|0:0,0:0:0:0:
112,96,139613,1,0,0:0:0:0:
191,96,139713,1,8,0:0:0:0:
448,192,139913,1,0,0:0:0:0:
191,288,140113,2,0,L|96:288,1,95,8|0,0:0|0:0,0:0:0:0:
176,288,140413,1,0,0:0:0:0:
96,288,140513,2,0,L|191:288,1,95,8|0,0:0|0:0,0:0:0:0:
448,192,140913,6,0,L|448:96,1,95,8|0,0:0|0:0,0:0:0:0:
384,96,141213,1,0,0:0:0:0:
480,96,141313,2,0,L|384:96,1,95,8|0,0:0|0:0,0:0:0:0:
192,96,141713,2,0,L|97:96,1,95,8|0,0:0|0:0,0:0:0:0:
193,96,142013,1,0,0:0:0:0:
129,97,142113,2,0,L|129:192,1,95,8|0,0:0|0:0,0:0:0:0:
384,192,142513,6,0,L|384:96,1,95,8|0,0:0|0:0,0:0:0:0:
288,64,142813,1,0,0:0:0:0:
128,64,142913,1,8,0:0:0:0:
288,192,143113,1,0,0:0:0:0:
32,192,143313,2,0,L|32:96,1,95,8|0,0:0|0:0,0:0:0:0:
128,64,143613,1,0,0:0:0:0:
288,64,143713,1,8,0:0:0:0:
128,192,143913,1,0,0:0:0:0:
384,192,144113,6,0,L|480:192,1,95,8|0,0:0|0:0,0:0:0:0:
416,192,144413,1,0,0:0:0:0:
320,192,144513,2,0,L|416:192,1,95,8|0,0:0|0:0,0:0:0:0:
224,192,144913,2,0,L|319:192,1,95,8|0,0:0|0:0,0:0:0:0:
223,192,145213,1,0,0:0:0:0:
160,192,145313,2,0,L|160:96,1,95,8|0,0:0|0:0,0:0:0:0:
416,96,145713,6,0,L|320:96,1,95,8|0,0:0|0:0,0:0:0:0:
400,96,146013,1,0,0:0:0:0:
321,96,146113,1,8,0:0:0:0:
64,192,146313,1,0,0:0:0:0:
321,288,146513,2,0,L|416:288,1,95,8|8,0:0|0:0,0:0:0:0:
256,288,146813,1,8,0:0:0:0:
96,240,146913,2,0,L|448:160,1,360.99999036026,2|8,0:0|0:0,0:0:0:0:
256,240,147213,1,8,0:0:0:0:
64,192,147313,6,0,P|48:144|48:80,1,112.099996065827,6|0,0:0|0:0,0:0:0:0:
112,80,147613,1,0,0:0:0:0:
272,80,147713,2,0,L|160:80,1,112.099996065827,2|0,0:0|0:0,0:0:0:0:
432,192,148113,2,0,P|448:144|448:80,1,112.099996065827,10|0,0:0|0:0,0:0:0:0:
384,80,148413,1,0,0:0:0:0:
224,80,148513,2,0,L|336:80,1,112.099996065827,2|0,0:0|0:0,0:0:0:0:
64,192,148913,6,0,L|176:192,1,112.099996065827,10|0,0:0|0:0,0:0:0:0:
176,192,149213,1,0,0:0:0:0:
16,96,149313,2,0,L|128:96,1,112.099996065827,2|0,0:0|0:0,0:0:0:0:
400,192,149713,2,0,P|400:144|384:80,1,112.099996065827,10|0,0:0|0:0,0:0:0:0:
320,80,150013,1,0,0:0:0:0:
160,80,150113,2,0,L|48:80,1,112.099996065827,10|0,0:0|0:0,0:0:0:0:
320,192,150513,6,0,P|352:160|320:112,1,112.099996065827,10|0,0:0|0:0,0:0:0:0:
256,112,150813,1,0,0:0:0:0:
416,192,150913,2,0,P|448:160|448:96,1,112.099996065827,2|0,0:0|0:0,0:0:0:0:
176,192,151313,2,0,P|144:160|176:112,1,112.099996065827,10|0,0:0|0:0,0:0:0:0:
240,112,151613,1,0,0:0:0:0:
80,192,151713,2,0,L|192:192,1,112.099996065827,2|0,0:0|0:0,0:0:0:0:
464,192,152113,6,0,L|352:192,1,112.099996065827,10|0,0:0|0:0,0:0:0:0:
288,192,152413,1,0,0:0:0:0:
448,112,152513,2,0,L|336:112,1,112.099996065827,2|0,0:0|0:0,0:0:0:0:
80,192,152913,2,0,L|192:192,1,112.099996065827,10|0,0:0|0:0,0:0:0:0:
192,192,153213,1,0,0:0:0:0:
32,96,153313,1,10,0:0:0:0:
176,96,153513,1,0,0:0:0:0:
448,192,153713,6,0,P|464:144|464:80,1,112.099996065827,10|0,0:0|0:0,0:0:0:0:
400,80,154013,1,0,0:0:0:0:
240,80,154113,2,0,L|352:80,1,112.099996065827,2|0,0:0|0:0,0:0:0:0:
80,192,154513,2,0,P|64:144|64:80,1,112.099996065827,10|0,0:0|0:0,0:0:0:0:
128,80,154813,1,0,0:0:0:0:
288,80,154913,2,0,L|176:80,1,112.099996065827,2|0,0:0|0:0,0:0:0:0:
448,192,155313,6,0,L|336:192,1,112.099996065827,10|0,0:0|0:0,0:0:0:0:
336,192,155613,1,0,0:0:0:0:
496,96,155713,2,0,L|384:96,1,112.099996065827,2|0,0:0|0:0,0:0:0:0:
112,192,156113,2,0,P|112:144|128:80,1,112.099996065827,10|0,0:0|0:0,0:0:0:0:
192,80,156413,1,0,0:0:0:0:
352,80,156513,2,0,L|464:80,1,112.099996065827,10|0,0:0|0:0,0:0:0:0:
192,192,156913,6,0,P|160:160|192:112,1,112.099996065827,10|0,0:0|0:0,0:0:0:0:
256,112,157213,1,0,0:0:0:0:
96,192,157313,2,0,P|64:160|64:96,1,112.099996065827,2|0,0:0|0:0,0:0:0:0:
336,192,157713,2,0,P|368:160|336:112,1,112.099996065827,10|0,0:0|0:0,0:0:0:0:
272,112,158013,1,0,0:0:0:0:
432,192,158113,2,0,L|320:192,1,112.099996065827,2|0,0:0|0:0,0:0:0:0:
48,192,158513,6,0,L|160:192,1,112.099996065827,10|0,0:0|0:0,0:0:0:0:
224,192,158813,1,0,0:0:0:0:
64,112,158913,2,0,L|176:112,1,112.099996065827,2|0,0:0|0:0,0:0:0:0:
432,192,159313,2,0,L|320:192,1,112.099996065827,10|0,0:0|0:0,0:0:0:0:
320,192,159613,1,8,0:0:0:0:
480,96,159713,1,10,0:0:0:0:
416,96,159813,1,0,0:0:0:0:
256,96,159913,1,8,0:0:0:0:
192,96,160013,1,8,0:0:0:0:
352,304,160113,6,0,P|368:240|320:208,1,128.250000489235,6|0,0:0|0:0,0:0:0:0:
256,208,160413,1,0,0:0:0:0:
64,208,160513,2,0,L|192:208,1,128.250000489235,2|0,0:0|0:0,0:0:0:0:
464,192,160913,2,0,P|480:128|432:96,1,128.250000489235,10|0,0:0|0:0,0:0:0:0:
368,96,161213,1,0,0:0:0:0:
176,96,161313,2,0,L|304:96,1,128.250000489235,2|0,0:0|0:0,0:0:0:0:
32,256,161713,6,0,P|16:208|16:128,1,128.250000489235,10|0,0:0|0:0,0:0:0:0:
80,96,162013,1,0,0:0:0:0:
272,96,162113,2,0,L|144:96,1,128.250000489235,2|0,0:0|0:0,0:0:0:0:
416,256,162513,2,0,P|464:224|496:160,1,128.250000489235,10|0,0:0|0:0,0:0:0:0:
432,128,162813,1,0,0:0:0:0:
256,128,162913,1,8,0:0:0:0:
432,128,163113,1,0,0:0:0:0:
160,304,163313,6,0,P|144:240|192:208,1,128.250000489235,10|0,0:0|0:0,0:0:0:0:
256,208,163613,1,0,0:0:0:0:
448,208,163713,2,0,L|320:208,1,128.250000489235,2|0,0:0|0:0,0:0:0:0:
48,192,164113,2,0,P|32:128|80:96,1,128.250000489235,10|0,0:0|0:0,0:0:0:0:
144,96,164413,1,0,0:0:0:0:
336,96,164513,2,0,L|208:96,1,128.250000489235,2|0,0:0|0:0,0:0:0:0:
480,256,164913,6,0,P|496:208|496:128,1,128.250000489235,10|0,0:0|0:0,0:0:0:0:
432,96,165213,1,0,0:0:0:0:
240,96,165313,2,0,L|368:96,1,128.250000489235,2|0,0:0|0:0,0:0:0:0:
96,256,165713,2,0,P|48:224|16:160,1,128.250000489235,10|0,0:0|0:0,0:0:0:0:
80,128,166013,1,8,0:0:0:0:
272,128,166113,1,8,0:0:0:0:
208,128,166213,1,0,0:0:0:0:
16,128,166313,1,8,0:0:0:0:
80,128,166413,1,8,0:0:0:0:
272,128,166513,6,0,L|128:128,1,144.399998237305,6|0,0:0|0:0,0:0:0:0:
192,128,166813,1,0,0:0:0:0:
400,192,166913,1,2,0:0:0:0:
464,192,167013,1,0,0:0:0:0:
464,256,167113,1,0,0:0:0:0:
400,256,167213,1,0,0:0:0:0:
192,128,167313,2,0,L|336:128,1,144.399998237305,10|0,0:0|0:0,0:0:0:0:
336,128,167613,1,0,0:0:0:0:
128,192,167713,1,2,0:0:0:0:
64,240,167813,1,0,0:0:0:0:
128,288,167913,1,0,0:0:0:0:
64,336,168013,1,0,0:0:0:0:
272,352,168113,6,0,L|416:352,1,144.399998237305,10|0,0:0|0:0,0:0:0:0:
352,352,168413,1,0,0:0:0:0:
144,192,168513,2,0,L|288:192,1,144.399998237305,2|0,0:0|0:0,0:0:0:0:
288,192,168813,1,0,0:0:0:0:
80,192,168913,1,10,0:0:0:0:
16,192,169013,1,0,0:0:0:0:
16,128,169113,1,0,0:0:0:0:
80,128,169213,1,0,0:0:0:0:
288,128,169313,1,10,0:0:0:0:
288,192,169413,1,0,0:0:0:0:
80,192,169513,1,0,0:0:0:0:
144,192,169613,1,0,0:0:0:0:
352,192,169713,5,6,0:0:0:0:
352,128,169813,1,0,0:0:0:0:
304,64,169913,1,0,0:0:0:0:
240,64,170013,1,0,0:0:0:0:
448,256,170113,1,2,0:0:0:0:
384,256,170213,1,0,0:0:0:0:
176,256,170313,1,0,0:0:0:0:
112,256,170413,1,0,0:0:0:0:
320,192,170513,1,10,0:0:0:0:
352,128,170613,1,0,0:0:0:0:
320,64,170713,1,0,0:0:0:0:
256,64,170813,1,0,0:0:0:0:
48,192,170913,1,10,0:0:0:0:
48,256,171013,1,0,0:0:0:0:
256,192,171113,1,8,0:0:0:0:
320,192,171213,1,0,0:0:0:0:
111,144,171313,5,10,0:0:0:0:
78,156,171363,1,0,0:0:0:0:
53,181,171413,1,0,0:0:0:0:
41,215,171463,1,0,0:0:0:0:
46,251,171513,1,8,0:0:0:0:
328,192,171713,1,10,0:0:0:0:
291,192,171763,1,0,0:0:0:0:
255,192,171813,1,0,0:0:0:0:
219,192,171863,1,0,0:0:0:0:
183,192,171913,1,8,0:0:0:0:
465,251,172113,1,10,0:0:0:0:
470,215,172163,1,0,0:0:0:0:
458,181,172213,1,0,0:0:0:0:
433,156,172263,1,0,0:0:0:0:
400,144,172313,1,8,0:0:0:0:
320,144,172413,1,8,0:0:0:0:
128,144,172513,5,8,0:0:0:0:
208,144,172613,1,0,0:0:0:0:
432,256,172713,1,8,0:0:0:0:
472,224,172813,1,8,0:0:0:0:
432,192,172913,1,8,0:0:0:0:
52,48,173113,2,0,B|432:48,1,380,8|6,0:0|0:0,0:0:0:0:
160,192,174513,6,0,L|304:192,2,142.500005435944,2|2|0,0:0|0:0|0:0,0:0:0:0:
384,192,175713,2,0,L|400:48,1,142.500005435944,2|0,0:0|0:0,0:0:0:0:
112,48,176513,5,2,0:0:0:0:
480,192,177313,1,2,0:0:0:0:
112,192,178113,1,2,0:0:0:0:
400,48,178913,2,0,L|256:48,1,142.500005435944,2|2,0:0|0:0,0:0:0:0:
480,48,179713,6,0,B|496:192|480:336|480:336|336:336,1,427.500016307831,2|2,0:0|0:0,0:0:0:0:
128,336,181313,2,0,L|112:192,1,142.500005435944,2|0,0:0|0:0,0:0:0:0:
320,192,182113,2,0,L|176:192,1,142.500005435944,2|2,0:0|0:0,0:0:0:0:
400,192,182913,5,2,0:0:0:0:
112,192,183513,1,2,0:0:0:0:
176,240,183613,1,2,0:0:0:0:
112,288,183713,2,0,P|32:160|112:80,1,285.000010871888,2|0,0:0|0:0,0:0:0:0:
326,192,184913,2,0,L|184:192,2,142.5,2|2|0,0:0|0:0|0:0,0:0:0:0:
112,320,186113,6,0,P|32:192|208:32,1,427.500016307831,2|0,0:0|0:0,0:0:0:0:
352,192,187713,1,2,0:0:0:0:
160,192,188113,1,0,0:0:0:0:
448,192,188513,1,2,0:0:0:0:
256,192,188913,1,2,0:0:0:0:
64,192,189313,6,0,L|352:192,1,285.000010871888,2|2,0:0|0:0,0:0:0:0:
16,96,190913,2,0,L|400:96,1,380,2|2,0:0|0:0,0:0:0:0:
128,192,192113,1,2,0:0:0:0:
416,192,192513,6,0,P|448:160|464:64,1,142.500005435944,2|0,0:0|0:0,0:0:0:0:
240,64,193313,2,0,B|160:64|120:160|160:256|240:256|240:256|240:256|240:256|320:256|360:160|320:64|240:64,1,570.000021743775,2|2,0:0|0:0,0:0:0:0:
16,64,195313,1,2,0:0:0:0:
496,64,195713,5,6,0:0:0:0:
256,192,195913,12,0,198713,0:0:0:0:
448,192,198913,6,0,P|464:112|432:64,1,142.5,6|0,0:0|0:0,0:0:0:0:
368,192,199313,2,0,P|352:112|384:64,1,142.5,0|0,0:0|0:0,0:0:0:0:
479,64,199713,2,0,L|384:64,1,95,8|0,0:0|0:0,0:0:0:0:
240,64,200113,2,0,L|240:160,1,95,0|0,0:0|0:0,0:0:0:0:
304,192,200413,1,0,0:0:0:0:
208,192,200513,6,0,L|208:96,1,95,8|0,0:0|0:0,0:0:0:0:
352,288,200913,2,0,L|256:288,1,95,0|0,0:0|0:0,0:0:0:0:
320,288,201213,1,0,0:0:0:0:
224,288,201313,2,0,L|319:288,1,95,8|0,0:0|0:0,0:0:0:0:
176,192,201713,2,0,L|272:192,1,95,0|0,0:0|0:0,0:0:0:0:
208,192,202013,1,0,0:0:0:0:
31,192,202113,6,0,L|31:96,1,95,10|0,0:0|0:0,0:0:0:0:
288,96,202513,2,0,L|336:96,1,47.5,2|0,0:0|0:0,0:0:0:0:
336,160,202713,2,0,L|288:160,1,47.5,0|0,0:0|0:0,0:0:0:0:
192,224,202913,2,0,L|288:224,1,95,8|0,0:0|0:0,0:0:0:0:
144,96,203313,2,0,L|96:96,1,47.5,0|0,0:0|0:0,0:0:0:0:
96,160,203513,2,0,L|144:160,1,47.5,0|0,0:0|0:0,0:0:0:0:
240,224,203713,6,0,L|144:224,1,95,8|0,0:0|0:0,0:0:0:0:
288,160,204113,2,0,L|288:112,1,47.5,0|0,0:0|0:0,0:0:0:0:
224,160,204313,2,0,L|224:112,1,47.5,0|0,0:0|0:0,0:0:0:0:
320,192,204513,1,8,0:0:0:0:
224,224,204713,2,0,L|224:272,1,47.5,0|0,0:0|0:0,0:0:0:0:
320,224,204913,2,0,L|368:224,1,47.5,0|0,0:0|0:0,0:0:0:0:
368,272,205113,2,0,L|320:272,1,47.5,0|0,0:0|0:0,0:0:0:0:
64,192,205313,6,0,P|32:160|32:112,1,95,10|0,0:0|0:0,0:0:0:0:
80,64,205613,1,0,0:0:0:0:
144,192,205713,2,0,P|160:112|128:64,1,142.5,0|0,0:0|0:0,0:0:0:0:
33,64,206113,2,0,L|128:64,1,95,8|0,0:0|0:0,0:0:0:0:
272,64,206513,2,0,L|272:160,1,95,0|0,0:0|0:0,0:0:0:0:
208,192,206813,1,0,0:0:0:0:
304,192,206913,6,0,L|304:96,1,95,8|0,0:0|0:0,0:0:0:0:
160,288,207313,2,0,L|256:288,1,95,0|0,0:0|0:0,0:0:0:0:
192,288,207613,1,0,0:0:0:0:
288,288,207713,2,0,L|193:288,1,95,8|0,0:0|0:0,0:0:0:0:
336,192,208113,2,0,L|336:144,1,47.5,0|0,0:0|0:0,0:0:0:0:
272,192,208313,2,0,L|272:144,1,47.5,0|0,0:0|0:0,0:0:0:0:
448,192,208513,6,0,L|448:96,1,95,10|0,0:0|0:0,0:0:0:0:
384,96,208813,1,0,0:0:0:0:
208,96,208913,2,0,L|160:96,1,47.5,2|0,0:0|0:0,0:0:0:0:
160,160,209113,2,0,L|208:160,1,47.5,0|0,0:0|0:0,0:0:0:0:
304,224,209313,2,0,L|304:272,1,47.5,8|0,0:0|0:0,0:0:0:0:
240,224,209513,2,0,L|240:272,1,47.5,0|0,0:0|0:0,0:0:0:0:
336,96,209713,2,0,L|384:96,1,47.5,0|0,0:0|0:0,0:0:0:0:
384,160,209913,2,0,L|336:160,1,47.5,0|0,0:0|0:0,0:0:0:0:
160,160,210113,6,0,L|160:112,1,47.5,8|0,0:0|0:0,0:0:0:0:
224,160,210313,2,0,L|224:112,1,47.5,0|0,0:0|0:0,0:0:0:0:
64,160,210513,1,0,0:0:0:0:
32,208,210613,1,0,0:0:0:0:
64,256,210713,1,0,0:0:0:0:
128,256,210813,1,0,0:0:0:0:
304,160,210913,2,0,L|304:112,1,47.5,8|0,0:0|0:0,0:0:0:0:
240,160,211113,2,0,L|240:112,1,47.5,0|0,0:0|0:0,0:0:0:0:
400,160,211313,1,0,0:0:0:0:
464,160,211413,1,0,0:0:0:0:
496,192,211513,1,0,0:0:0:0:
464,224,211613,1,0,0:0:0:0:
256,192,211713,5,10,0:0:0:0:
256,192,211913,12,6,213313,0:0:0:0:
