osu file format v14

[General]
AudioFilename: audio.mp3
AudioLeadIn: 0
PreviewTime: 158114
Countdown: 0
SampleSet: Soft
StackLeniency: 0.6
Mode: 0
LetterboxInBreaks: 0
WidescreenStoryboard: 1

[Editor]
Bookmarks: 7035,34661,62287,89913,117539,131352,158977,172790,186603,200416,214229
DistanceSpacing: 1.2
BeatDivisor: 2
GridSize: 4
TimelineZoom: 1.7

[Metadata]
Title:lastendconductor
TitleUnicode:lastendconductor
Artist:zts
ArtistUnicode:zts
Creator:Yohanes
Version:Ordinary
Source:うみねこのなく頃に散
Tags:visual novel 右代宮 縁寿 Ange Ushiromiya 07th Expansion ep8 Umineko no Naku Koro ni Chiru yaldo_27 Mirash PandaHero Collaboration Collab
BeatmapID:1461686
BeatmapSetID:685558

[Difficulty]
HPDrainRate:3
CircleSize:3.5
OverallDifficulty:4
ApproachRate:5
SliderMultiplier:1.3
SliderTickRate:1

[Events]
//Background and Video events
0,0,"BeGe.jpg",0,0
//Break Periods
2,117739,129288
//Storyboard Layer 0 (Background)
//Storyboard Layer 1 (Fail)
//Storyboard Layer 2 (Pass)
//Storyboard Layer 3 (Foreground)
//Storyboard Sound Samples

[TimingPoints]
129,431.654676258993,4,1,1,65,1,0
6387,-100,4,1,1,100,0,0
7035,-100,4,2,0,65,0,0
20848,-100,4,2,1,75,0,0
33582,-100,4,1,1,100,0,0
33798,-100,4,2,1,75,0,0
47395,-100,4,1,1,100,0,0
47611,-100,4,2,1,75,0,0
58834,-100,4,2,1,75,0,0
61855,-100,4,2,1,75,0,0
62287,-100,4,2,1,60,0,0
63798,-100,4,2,1,50,0,0
63905,-100,4,2,1,60,0,0
65956,-100,4,2,1,40,0,0
66064,-100,4,2,1,60,0,0
68546,-100,4,2,1,40,0,0
68654,-100,4,2,1,60,0,0
70704,-100,4,2,1,50,0,0
70812,-100,4,2,1,60,0,0
77611,-100,4,2,1,50,0,0
77718,-100,4,2,1,60,0,0
82790,-100,4,2,1,50,0,0
82898,-100,4,2,1,60,0,0
86028,-100,4,2,1,65,0,0
89913,-100,4,2,1,75,0,0
114085,-100,4,1,1,75,0,0
117539,-100,4,1,1,75,0,0
130488,-100,4,2,1,60,0,0
144733,-100,4,2,1,75,0,0
145164,-100,4,2,1,70,0,0
151963,-100,4,2,1,50,0,0
152071,-100,4,2,1,50,0,0
152718,-100,4,2,1,45,0,0
153798,-100,4,2,1,50,0,0
154013,-100,4,2,1,40,0,0
154229,-100,4,2,1,50,0,0
155956,-100,4,1,1,75,0,0
156172,-100,4,1,1,60,0,0
156387,-100,4,1,1,75,0,0
157359,-100,4,2,1,75,0,0
157467,-100,4,1,1,75,0,0
157575,-100,4,2,1,75,0,0
157682,-100,4,1,1,75,0,0
157790,-100,4,2,1,75,0,0
157898,-100,4,1,1,50,0,0
158114,-100,4,1,1,60,0,0
158330,-100,4,1,1,50,0,0
158546,-100,4,1,1,75,0,0
158762,-100,4,1,1,65,0,0
158977,-100,4,1,1,80,0,0
186172,-100,4,1,1,100,0,0
186603,-100,4,2,1,80,0,0
199769,-100,4,2,1,100,0,0
200200,-100,4,2,1,80,0,0
212503,-100,4,2,1,70,0,0
212718,-100,4,2,1,50,0,0
212934,-100,4,2,1,60,0,0
213150,-100,4,2,1,40,0,0
213366,-100,4,2,1,50,0,0
213798,-100,4,2,1,80,0,0
213905,-100,4,2,1,70,0,0
214121,-100,4,2,1,60,0,0

[Colours]
Combo1 : 255,94,55
Combo2 : 173,255,95
Combo3 : 17,254,176
Combo4 : 255,88,100

[HitObjects]
62,33,7035,6,0,P|50:77|40:190,1,130,0|0,1:0|1:0,0:0:0:0:
182,223,7898,2,0,P|214:215|260:211,2,65,2|0|8,0:0|1:0|0:2,0:0:0:0:
85,348,8762,1,0,1:0:0:0:
85,348,9193,1,0,1:0:0:0:
233,298,9625,2,0,P|269:312|297:329,1,65,2|8,0:0|0:0,0:0:0:0:
360,363,10057,1,0,1:0:0:0:
378,208,10488,6,0,P|306:196|252:169,1,130,4|2,0:0|0:0,0:0:0:0:
337,38,11352,2,0,P|369:31|413:33,1,65,0|0,0:0|1:0,0:0:0:0:
473,59,11783,1,0,1:0:0:0:
463,214,12215,2,0,P|390:201|316:206,1,130,4|0,0:0|1:0,0:0:0:0:
218,307,13078,1,0,1:0:0:0:
159,359,13294,2,0,P|124:350|58:355,1,65,4|0,1:1|1:0,0:0:0:0:
129,196,13941,6,0,P|127:134|114:45,2,130,4|0|8,0:0|1:0|0:0,0:0:0:0:
184,251,15021,2,0,P|224:248|250:250,1,65,2|4,0:0|1:2,0:0:0:0:
372,345,15668,2,0,P|374:283|387:194,1,130,0|0,1:0|1:0,0:0:0:0:
446,73,16531,2,0,P|411:83|381:94,1,65,0|8,1:0|0:0,0:0:0:0:
311,121,16963,1,4,0:0:0:0:
164,174,17395,6,0,P|148:102|144:45,1,130,0|0,1:0|1:0,0:0:0:0:
293,1,18258,2,0,P|333:10|372:21,1,65,0|0,1:0|1:0,0:0:0:0:
428,47,18690,1,4,1:2:0:0:
426,202,19121,1,0,1:0:0:0:
270,184,19553,2,0,L|123:164,1,130,0|0,1:0|1:0,0:0:0:0:
63,177,20200,1,2,0:0:0:0:
63,177,20416,2,0,P|75:241|78:309,1,130,0|4,1:0|1:0,0:0:0:0:
227,353,21280,5,8,0:0:0:0:
377,313,21711,2,0,P|409:319|457:330,2,65,0|2|8,1:0|0:2|0:0,0:0:0:0:
258,211,22575,2,0,P|265:147|307:74,1,130,0|8,1:0|0:0,0:0:0:0:
441,141,23438,2,0,P|453:180|459:222,1,65,0|2,1:0|0:0,0:0:0:0:
469,285,23870,1,0,1:0:0:0:
469,285,24301,5,4,1:2:0:0:
324,353,24733,2,0,P|320:284|300:222,1,130,8|0,0:0|1:0,0:0:0:0:
271,154,25380,2,0,P|229:156|194:154,1,65,0|8,1:0|0:0,0:0:0:0:
55,198,26028,6,0,P|70:266|66:348,2,130,4|4|8,0:2|0:2|0:0,0:0:0:0:
34,122,27107,1,8,0:0:0:0:
34,122,27323,1,4,1:0:0:0:
167,41,27754,5,4,1:0:0:0:
300,121,28186,2,0,P|266:177|251:258,1,130,8|8,0:0|0:3,0:0:0:0:
186,283,28834,2,0,P|167:254|146:227,2,65,4|8|8,0:3|0:0|0:0,0:0:0:0:
254,321,29481,2,0,P|325:329|408:362,1,130,4|4,0:3|0:0,0:0:0:0:
467,218,30344,2,0,L|415:148,1,65,0|8,1:0|0:0,0:0:0:0:
375,107,30776,1,8,0:0:0:0:
253,225,31208,6,0,P|248:291|250:388,1,130,4|8,1:0|0:0,0:0:0:0:
78,353,32071,2,0,L|75:268,2,65,0|0|8,1:0|1:0|0:0,0:0:0:0:
34,189,32934,5,4,1:0:0:0:
166,83,33366,1,8,0:0:0:0:
239,125,33582,2,0,L|324:128,2,65,0|0|8,2:0|2:0|0:0,0:0:0:0:
246,40,34229,2,0,L|333:40,1,65,0|2,1:0|0:0,0:0:0:0:
390,59,34661,6,0,P|406:122|409:216,1,130,4|8,1:0|0:0,0:0:0:0:
374,255,35308,2,0,P|322:273|299:277,1,65,2|0,0:0|1:0,0:0:0:0:
240,242,35740,2,0,P|198:247|149:264,1,65,2|8,0:0|0:0,0:0:0:0:
125,312,36172,1,4,1:2:0:0:
34,184,36603,6,0,P|26:220|22:267,2,65,2|8|2,0:0|0:0|0:0,0:0:0:0:
108,160,37251,2,0,P|138:152|175:137,1,65,2|2,1:2|0:0,0:0:0:0:
209,72,37682,1,8,0:0:0:0:
361,40,38114,5,4,1:0:0:0:
414,96,38330,2,0,P|415:131|408:179,1,65,2|8,0:0|0:0,0:0:0:0:
362,221,38762,2,0,P|353:280|354:307,1,65,2|0,0:0|1:0,0:0:0:0:
351,363,39193,1,4,0:0:0:0:
195,351,39625,1,2,0:0:0:0:
224,278,39841,6,0,P|224:226|225:187,1,65,4|2,1:2|0:0,0:0:0:0:
249,139,40272,2,0,P|210:138|180:140,1,65,8|4,0:0|1:2,0:0:0:0:
116,176,40704,1,4,1:0:0:0:
124,20,41136,2,0,P|167:16|206:16,1,65,10|2,0:0|0:0,0:0:0:0:
261,40,41567,6,0,P|328:37|416:43,1,130,4|2,1:0|1:2,0:0:0:0:
422,112,42215,2,0,P|467:108|492:107,2,65,2|8|2,0:0|0:0|0:0,0:0:0:0:
272,157,43078,6,0,P|272:222|282:313,1,130,4|2,1:2|0:0,0:0:0:0:
339,335,43726,2,0,P|381:328|423:326,1,65,8|2,0:0|0:0,0:0:0:0:
472,289,44157,2,0,P|461:243|453:198,1,65,0|2,1:0|0:0,0:0:0:0:
393,180,44589,1,8,0:0:0:0:
241,218,45021,6,0,P|205:220|154:215,1,65,4|2,1:0|0:0,0:0:0:0:
124,160,45452,2,0,P|87:158|44:159,2,65,8|2|0,0:0|0:0|1:0,0:0:0:0:
197,131,46100,1,4,0:0:0:0:
337,63,46531,1,2,0:0:0:0:
403,113,46747,6,0,P|402:164|405:206,1,65,4|2,1:0|0:0,0:0:0:0:
425,252,47179,1,8,0:0:0:0:
244,296,47826,1,2,1:2:0:0:
244,296,48042,2,0,P|190:303|156:310,1,65,0|2,1:0|0:3,0:0:0:0:
102,317,48474,6,0,P|106:253|110:165,1,130,4|10,1:0|0:0,0:0:0:0:
183,162,49121,2,0,P|188:203|196:234,2,65,2|0|2,0:0|1:0|0:0,0:0:0:0:
272,33,49985,6,0,P|277:85|268:176,1,130,4|2,1:2|0:0,0:0:0:0:
348,173,50632,2,0,P|411:177|437:176,1,65,8|2,0:0|0:0,0:0:0:0:
487,200,51064,2,0,P|485:245|486:281,1,65,0|2,1:0|0:0,0:0:0:0:
441,329,51495,1,8,0:0:0:0:
295,279,51927,6,0,P|299:241|300:180,2,65,4|2|8,1:0|0:0|0:0,0:0:0:0:
216,273,52575,2,0,P|177:270|142:253,1,65,2|0,0:0|1:0,0:0:0:0:
128,186,53006,1,4,0:0:0:0:
238,75,53438,1,2,0:0:0:0:
303,117,53654,2,0,P|301:177|301:250,1,130,0|8,1:0|0:0,0:0:0:0:
456,257,54517,2,0,P|458:196|456:116,1,130,2|8,1:2|0:0,0:0:0:0:
392,82,55164,1,4,1:2:0:0:
316,102,55380,6,0,P|269:100|160:89,1,130,4|8,1:0|0:0,0:0:0:0:
108,100,56028,2,0,P|77:129|47:146,2,65,2|0|2,0:0|1:0|0:0,0:0:0:0:
192,233,56891,2,0,P|145:271|70:260,1,130,4|2,1:2|0:0,0:0:0:0:
57,340,57539,2,0,P|81:359|127:369,1,65,8|0,0:0|0:0,0:0:0:0:
187,343,57970,2,0,P|270:341|325:325,1,130,4|8,1:2|0:0,0:0:0:0:
466,288,58834,6,0,P|458:226|465:129,1,130,4|2,1:0|0:3,0:0:0:0:
179,23,60129,2,2,P|172:75|170:118,1,65,2|0,0:0|0:0,0:0:0:0:
210,154,60560,1,0,1:0:0:0:
300,281,60992,6,0,P|259:278|216:280,2,65
377,297,61639,2,0,P|377:237|384:162,1,130,2|0,0:1|0:0,0:0:0:0:
381,88,62287,6,2,B|288:67|288:113|179:92,1,195,6|0,1:0|0:0,0:1:0:0:
111,76,63150,1,2,1:0:0:0:
94,231,63582,2,2,P|132:235|187:230,1,65,0|2,1:0|0:1,0:1:0:0:
219,185,64013,2,2,P|232:279|285:367,1,195,2|0,1:0|1:0,0:1:0:0:
360,359,64877,2,0,P|373:324|380:285,1,65,2|2,1:0|0:1,0:0:0:0:
367,219,65308,2,0,P|328:224|288:234,1,65,2|2,1:0|1:0,0:0:0:0:
229,257,65740,5,4,1:2:0:0:
96,339,66172,2,2,P|76:259|25:143,1,195,4|2,1:2|0:0,0:1:0:0:
25,77,67035,2,0,P|62:80|97:78,1,65,2|2,1:0|0:1,0:0:0:0:
159,43,67467,2,2,P|254:25|369:39,1,195,6|2,1:0|0:0,0:1:0:0:
429,60,68330,5,4,1:2:0:0:
429,60,68762,2,0,P|426:99|425:135,1,65,2|4,1:2|1:2,0:0:0:0:
486,173,69193,2,2,P|491:270|487:367,1,195,6|2,1:0|0:0,0:1:0:0:
408,370,70057,1,2,1:0:0:0:
408,370,70488,2,0,L|398:289,1,65,2|2,1:0|0:1,0:0:0:0:
330,269,70920,2,0,P|275:279|192:276,2,130,6|2|2,1:0|0:1|1:0,0:0:0:0:
290,117,72215,2,0,P|256:119|209:125,1,65,2|2,1:0|1:0,0:0:0:0:
147,111,72646,6,0,L|149:192,1,65,4|2,1:0|0:1,0:0:0:0:
81,216,73078,2,2,P|56:131|-12:24,1,195,2|0,1:0|0:0,0:1:0:0:
72,6,73941,2,0,P|110:11|157:12,1,65,2|2,1:0|0:1,0:0:0:0:
201,56,74373,2,0,P|269:61|344:56,2,130,2|2|2,1:0|0:0|1:0,0:0:0:0:
307,169,75668,2,0,P|346:168|383:162,1,65,2|2,1:0|1:0,0:0:0:0:
449,173,76100,6,2,B|479:264|418:268|456:370,1,195,6|0,1:0|0:0,0:1:0:0:
376,369,76963,2,2,P|341:365|291:364,1,65,0|0,1:0|0:0,0:1:0:0:
233,370,77395,2,2,P|234:337|231:286,1,65,0|2,1:0|0:1,0:1:0:0:
228,227,77826,2,2,P|164:221|95:109,1,195,2|0,1:0|0:0,0:1:0:0:
89,41,78690,2,0,P|121:40|153:38,1,65,2|0,1:0|1:0,0:0:0:0:
230,25,79121,2,0,P|229:66|229:103,1,65,2|2,1:0|1:0,0:0:0:0:
276,159,79553,5,4,1:0:0:0:
276,159,79985,2,2,L|505:136,1,195,2|2,1:0|0:1,0:1:0:0:
486,215,80848,2,0,L|478:296,1,65,0|2,1:0|0:1,0:0:0:0:
434,343,81280,2,2,P|352:311|240:299,1,195,6|2,1:0|1:0,0:1:0:0:
168,293,82143,2,0,P|167:331|164:388,2,65,2|0|4,1:0|0:0|1:2,0:0:0:0:
172,215,82790,1,2,0:1:0:0:
125,152,83006,6,2,P|78:191|-11:215,1,130,6|2,1:0|0:0,0:1:0:0:
44,59,83870,2,0,P|82:64|128:60,1,65,2|2,1:0|0:0,0:0:0:0:
185,47,84301,2,0,P|222:46|276:50,1,65,2|2,1:0|0:0,0:0:0:0:
323,73,84733,2,0,P|312:144|311:219,2,130,6|0|2,1:0|1:0|1:0,0:0:0:0:
457,152,86028,2,2,L|449:230,1,65,0|0,1:0|0:0,0:1:0:0:
436,293,86459,5,4,1:0:0:0:
287,340,86891,2,2,B|187:303|188:371|72:345,1,195,6|0,1:0|0:0,0:1:0:0:
40,295,87754,2,0,L|48:211,1,65,0|2,1:0|0:0,0:0:0:0:
98,171,88186,2,0,P|164:183|248:180,2,130,2|2|8,1:0|1:0|1:2,0:0:0:0:
211,63,89481,5,2,1:0:0:0:
211,63,89913,2,0,B|371:41|298:119|473:86,1,260,6|2,1:0|1:0,0:0:0:0:
452,243,91208,2,0,P|441:317|441:346,1,65,8|10,0:0|1:2,0:0:0:0:
382,357,91639,2,0,P|312:342|231:332,2,130,6|10|2,1:0|1:2|1:2,0:0:0:0:
289,231,92934,1,10,1:2:0:0:
143,288,93366,6,0,P|132:218|285:130,1,260,6|2,1:0|1:0,0:0:0:0:
427,120,94661,2,0,P|445:192|447:220,1,65,2|10,1:0|1:2,0:0:0:0:
385,234,95093,6,0,P|312:245|235:203,2,130,6|10|2,1:0|1:2|1:2,0:0:0:0:
448,279,96172,1,0,0:0:0:0:
419,351,96387,1,8,1:2:0:0:
247,334,96819,6,0,B|128:336|175:281|56:278,1,195,6|10,1:0|1:2,0:0:0:0:
16,217,97682,1,2,1:0:0:0:
94,81,98114,2,0,P|129:89|166:94,1,65,8|10,0:0|1:2,0:0:0:0:
210,35,98546,6,0,P|278:51|350:58,1,130,4|8,1:0|1:2,0:0:0:0:
486,11,99409,2,0,P|496:89|491:164,1,130,2|2,1:0|1:0,0:0:0:0:
376,242,100272,6,0,P|377:306|373:359,2,65,6|0|8,1:0|0:0|0:0,0:0:0:0:
297,243,100920,1,10,1:2:0:0:
218,242,101136,2,0,P|229:331|253:366,1,130,2|8,1:0|0:0,0:0:0:0:
94,371,101999,5,4,1:0:0:0:
48,221,102431,2,0,P|56:149|58:136,1,65,8|10,0:0|1:2,0:0:0:0:
129,134,102862,2,0,P|119:72|115:56,1,65,2|6,1:0|0:0,0:0:0:0:
177,18,103294,1,2,1:0:0:0:
309,100,103726,6,0,P|297:183|180:221,1,195,6|10,1:0|1:2,0:0:0:0:
148,282,104589,2,0,P|205:326|216:333,2,65,2|6|8,1:0|0:0|0:0,0:0:0:0:
72,261,105236,1,10,1:2:0:0:
81,183,105452,6,0,B|44:127|44:127|42:54,1,130,6|10,1:0|1:2,0:0:0:0:
191,17,106316,2,0,B|227:72|227:72|229:145,1,130,2|10,1:2|1:2,0:0:0:0:
239,291,107179,6,0,P|295:330|441:266,1,195,6|10,1:0|1:2,0:0:0:0:
475,258,108042,2,0,P|463:188|331:165,1,195,2|10,1:0|1:2,0:0:0:0:
309,214,108905,5,4,1:0:0:0:
157,249,109337,2,0,P|169:213|170:177,1,65,8|10,0:0|1:2,0:0:0:0:
130,119,109769,2,0,P|90:116|43:126,1,65,2|6,1:0|0:0,0:0:0:0:
13,177,110200,1,8,0:0:0:0:
101,311,110632,6,0,P|131:312|167:317,1,65,6|2,1:0|1:0,0:0:0:0:
243,306,111064,2,0,B|369:302|313:355|448:345,1,195,2|6,1:0|1:2,0:0:0:0:
496,304,111927,1,8,0:0:0:0:
480,148,112359,6,0,P|429:124|357:147,1,130,6|8,1:2|0:0,0:0:0:0:
289,113,113006,1,10,1:2:0:0:
289,113,113222,2,0,P|246:123|218:138,1,65,2|6,1:0|0:0,0:0:0:0:
241,209,113654,1,8,0:0:0:0:
87,171,114085,6,0,P|19:224|171:356,1,325,6|0,1:0|0:0,1:0:0:0:
195,324,115380,2,0,P|230:318|298:327,1,65,12|0,0:2|0:0,0:0:0:0:
256,192,115812,12,4,117539,0:0:0:0:
85,308,130488,6,0,P|125:304|186:307,1,65,0|0,1:0|0:0,0:0:0:0:
220,337,130920,2,0,P|251:328|281:316,1,65,2|0,0:0|1:0,0:0:0:0:
350,353,131352,6,0,P|358:231|383:139,1,195,4|0,0:0|0:0,0:0:0:0:
431,14,132431,1,2,0:0:0:0:
278,44,132862,1,0,1:0:0:0:
278,44,133078,2,0,P|277:113|271:178,1,130,0|0,0:0|1:0,0:0:0:0:
115,174,133941,2,0,P|107:143|98:84,2,65,2|2|0,0:0|0:0|1:0,0:0:0:0:
144,248,134589,5,2,0:0:0:0:
144,248,134805,2,0,P|251:257|353:277,1,195,0|0,1:0|0:0,0:0:0:0:
471,352,135884,1,2,0:0:0:0:
482,196,136316,1,0,1:0:0:0:
482,196,136531,2,0,P|476:157|467:114,1,65,2|0,0:0|1:0,0:0:0:0:
442,59,136963,1,2,0:0:0:0:
367,83,137179,2,0,B|265:53|257:122|148:92,1,195,2|0,0:0|1:0,0:0:0:0:
32,35,138258,6,0,P|42:130|51:267,1,195,0|0,1:0|0:0,0:0:0:0:
146,350,139337,1,4,0:3:0:0:
242,227,139769,1,2,0:0:0:0:
242,227,139985,2,0,P|248:152|263:67,2,130,0|0|2,1:0|1:0|0:0,0:0:0:0:
250,304,141064,1,0,1:0:0:0:
324,280,141280,2,0,L|336:184,1,65,2|0,0:0|1:0,0:0:0:0:
407,193,141711,6,0,P|434:262|477:321,1,130,0|0,1:0|1:0,0:0:0:0:
499,155,142575,2,0,L|489:74,1,65,2|0,0:0|1:0,0:0:0:0:
430,41,143006,1,0,1:0:0:0:
430,41,143222,2,0,L|210:71,1,195,0|2,1:0|0:3,0:0:0:0:
84,33,144301,2,0,P|103:113|103:189,1,130,4|4,0:3|0:3,0:0:0:0:
49,297,145164,5,0,0:0:0:0:
203,316,145596,2,0,L|455:325,1,195,2|2,0:3|0:0,0:0:0:0:
471,186,146675,2,0,L|462:278,1,65,4|4,0:3|0:3,0:0:0:0:
391,112,147323,6,0,L|139:121,1,195,2|4,0:3|0:3,0:0:0:0:
58,46,148402,2,0,L|67:138,1,65,0|4,0:0|0:3,0:0:0:0:
138,248,149049,6,0,P|222:217|341:214,2,195,2|4|4,0:3|0:3|0:3,0:0:0:0:
251,355,150776,2,0,B|459:356,2,195,2|8|0,0:3|0:3|1:0,0:0:0:0:
256,192,152287,12,0,155524,1:0:0:0:
306,160,157251,5,0,0:0:0:0:
306,160,158114,2,0,P|295:198|290:232,1,65,4|4,0:2|0:2,0:0:0:0:
356,266,158546,2,0,P|367:304|372:338,1,65,2|0,0:0|0:0,0:0:0:0:
297,355,158977,6,0,P|231:342|76:358,1,195,6|0,0:0|0:0,0:1:0:0:
37,308,159841,1,8,1:2:0:0:
76,158,160272,2,0,P|77:118|78:81,1,65,8|0,0:0|0:0,0:0:0:0:
144,52,160704,5,8,0:2:0:0:
269,144,161136,2,0,P|253:218|268:318,2,130,10|2|8,0:0|0:0|0:0,0:0:0:0:
409,211,162431,6,0,P|450:207|489:192,1,65,6|2,0:0|0:0,0:0:0:0:
464,122,162862,2,0,P|409:73|213:78,1,260,10|0,0:0|0:0,0:0:0:0:
158,205,164157,6,0,P|221:202|257:207,2,65,6|2|10,0:0|0:0|0:0,0:0:0:0:
80,218,164805,2,0,P|119:301|216:343,1,195,2|8,0:0|0:0,0:0:0:0:
362,313,165884,6,0,P|403:322|437:336,1,65,4|2,0:0|0:0,0:0:0:0:
462,259,166316,2,0,B|467:161|396:172|405:56,2,195,10|2|4,0:0|0:2|0:0,0:0:0:0:
322,328,168042,6,0,P|267:314|235:312,1,65,8|0,0:0|0:0,0:0:0:0:
220,244,168474,2,0,P|185:240|137:248,1,65,2|2,0:0|0:0,0:0:0:0:
109,306,168905,1,10,0:0:0:0:
7,187,169337,6,0,P|47:108|129:98,1,130,6|8,0:0|0:0,0:0:0:0:
229,144,170200,2,0,P|295:149|336:147,1,65,8|4,0:2|0:2,0:0:0:0:
360,108,170632,1,10,0:0:0:0:
360,108,170848,6,0,P|394:175|304:349,1,260,2|4,0:0|0:2,0:0:0:0:
253,354,171927,1,8,0:2:0:0:
122,269,172359,2,0,P|115:220|122:180,1,65,10|4,0:0|0:2,0:0:0:0:
131,128,172790,6,0,P|180:115|222:115,1,65,6|0,0:0|0:0,0:0:0:0:
272,108,173222,2,0,B|363:87|368:157|488:128,2,195,10|2|0,0:0|0:2|0:0,0:0:0:0:
303,261,174949,1,10,0:0:0:0:
303,261,175380,2,2,P|306:301|303:354,2,65,8|2|8,0:2|0:2|0:0,0:1:0:0:
250,202,176028,1,4,0:2:0:0:
172,190,176244,6,0,P|159:253|156:282,1,65,6|0,0:0|0:0,0:0:0:0:
87,286,176675,2,2,P|68:184|26:81,1,195,10|10,0:0|0:2,1:1:0:0:
183,44,177754,1,4,0:2:0:0:
228,107,177970,2,0,P|201:185|198:265,1,130,6|8,0:0|0:2,0:0:0:0:
215,307,178618,2,2,P|319:304|421:321,1,195,4|4,0:2|0:0,0:0:0:0:
457,256,179481,5,8,0:2:0:0:
457,256,179697,2,0,P|457:211|455:156,1,65,4|2,0:0|0:1,0:0:0:0:
437,114,180129,2,0,B|336:139|386:189|274:218,2,195,10|0|2,0:0|0:0|0:0,0:0:0:0:
299,39,181855,1,10,0:0:0:0:
152,93,182287,2,0,P|187:93|252:98,1,65,8|4,0:2|0:2,0:0:0:0:
269,152,182718,2,0,P|269:187|264:252,1,65,10|4,0:0|0:2,0:0:0:0:
205,264,183150,6,0,P|157:218|86:177,1,130,6|8,0:0|0:0,0:0:0:0:
4,305,184013,2,0,P|5:337|9:369,2,65,8|4|10,0:2|0:2|0:0,0:0:0:0:
74,270,184661,1,2,0:0:0:0:
151,276,184877,2,0,P|219:296|299:337,1,130,4|8,0:0|0:2,0:0:0:0:
386,214,185740,2,0,P|413:273|430:335,1,130,12|2,0:2|2:0,0:0:0:0:
487,190,186603,6,0,P|496:127|497:42,1,130,4|10,1:0|0:2,0:0:0:0:
432,16,187251,2,0,P|364:27|345:42,1,65,2|2,0:0|1:2,0:0:0:0:
323,87,187682,1,8,0:2:0:0:
172,47,188114,6,0,P|153:126|145:249,1,195,4|8,0:0|0:0,0:0:0:0:
186,305,188977,2,0,P|246:279|274:270,2,65,2|2|0,1:2|1:2|0:0,0:0:0:0:
143,371,189625,1,8,0:0:0:0:
37,254,190057,6,0,P|69:185|216:198,1,195,4|2,1:0|0:0,0:0:0:0:
248,202,190920,2,0,P|290:207|345:203,1,65,2|10,1:2|0:0,0:0:0:0:
383,173,191352,2,0,P|429:171|470:175,1,65,0|4,0:0|0:0,0:0:0:0:
502,228,191783,5,2,1:2:0:0:
403,349,192215,2,0,P|378:318|354:300,1,65,10|0,0:0|0:0,0:0:0:0:
280,305,192646,2,0,P|240:262|230:227,1,65,2|2,1:2|1:2,0:0:0:0:
259,181,193078,1,10,0:0:0:0:
153,65,193510,6,0,P|82:93|68:167,1,130,4|8,1:0|0:0,0:0:0:0:
59,217,194157,1,2,0:0:0:0:
187,306,194589,2,0,P|221:333|255:345,1,65,2|10,1:2|0:0,0:0:0:0:
318,330,195021,6,0,P|384:295|360:160,1,195,4|8,0:0|0:0,0:0:0:0:
315,152,195884,2,0,P|308:104|312:65,2,65,2|2|0,0:0|1:2|0:0,0:0:0:0:
315,230,196531,1,8,0:2:0:0:
177,156,196963,6,0,P|166:86|184:8,1,130,4|8,1:0|0:0,0:0:0:0:
253,14,197611,2,0,P|297:18|329:26,1,65,0|2,0:0|1:2,0:0:0:0:
395,29,198042,2,0,P|438:42|465:59,1,65,10|2,0:0|1:2,0:0:0:0:
309,111,198690,6,0,P|341:203|355:299,1,195,4|0,1:0|0:0,0:0:0:0:
304,358,199553,1,2,1:2:0:0:
304,358,199769,2,0,P|280:321|266:283,1,65,0|8,1:0|0:2,0:0:0:0:
195,165,200416,5,4,1:0:0:0:
195,165,200632,2,0,L|47:163,1,130,0|2,1:0|0:2,0:0:0:0:
141,27,201495,2,0,P|210:27|297:26,1,130,0|8,1:0|0:0,0:0:0:0:
348,47,202143,1,4,1:0:0:0:
348,47,202359,2,0,P|338:112|332:198,2,130,0|0|2,1:0|1:0|1:2,0:0:0:0:
425,40,203438,2,0,P|439:77|457:123,1,65,8|0,0:0|0:0,0:0:0:0:
472,180,203870,5,4,1:0:0:0:
472,180,204085,2,0,P|420:179|338:191,1,130,0|2,1:0|0:2,0:0:0:0:
344,346,204949,2,0,L|481:346,1,130,8|4,0:0|0:0,0:0:0:0:
476,267,205596,2,0,L|404:266,2,65,4|2|8,1:0|0:0|0:0,0:0:0:0:
476,110,206459,1,0,1:0:0:0:
476,110,206675,2,0,L|382:113,1,65,2|8,0:0|0:0,0:0:0:0:
259,72,207323,5,4,1:0:0:0:
259,72,207539,2,0,P|266:133|265:207,1,130,0|2,0:0|0:0,0:0:0:0:
111,225,208402,2,0,P|106:160|111:80,1,130,8|8,0:0|0:0,0:0:0:0:
41,55,209049,2,0,P|14:128|10:260,1,195,4|0,1:0|1:0,0:0:0:0:
37,321,209913,1,0,1:0:0:0:
37,321,210129,2,0,L|125:313,1,65,2|8,0:0|0:0,0:0:0:0:
255,344,210776,5,4,1:0:0:0:
255,344,210992,2,0,P|260:280|254:193,1,130,0|2,0:0|0:0,0:0:0:0:
385,125,211855,2,0,P|386:184|398:273,1,130,0|0,1:0|1:0,0:0:0:0:
373,329,212503,6,0,P|411:333|464:346,1,65,4|4,1:0|0:0,0:0:0:0:
499,297,212934,2,0,L|497:210,1,65,4|4,1:0|0:0,0:0:0:0:
451,168,213366,2,0,P|414:177|364:179,1,65,4|4,1:0|0:0,0:0:0:0:
309,187,213798,6,0,L|312:54,1,130,12|0,0:0|1:0,0:0:0:0:
