osu file format v14

[General]
AudioFilename: audio.mp3
AudioLeadIn: 0
PreviewTime: 158114
Countdown: 0
SampleSet: Soft
StackLeniency: 0.6
Mode: 0
LetterboxInBreaks: 0
WidescreenStoryboard: 1

[Editor]
Bookmarks: 7035,34661,62287,89913,117539,131352,158977,172790,186603,200416,214229
DistanceSpacing: 1
BeatDivisor: 2
GridSize: 4
TimelineZoom: 0.6999997

[Metadata]
Title:lastendconductor
TitleUnicode:lastendconductor
Artist:zts
ArtistUnicode:zts
Creator:Yohanes
Version:Basic
Source:うみねこのなく頃に散
Tags:visual novel 右代宮 縁寿 Ange Ushiromiya 07th Expansion ep8 Umineko no Naku Koro ni Chiru yaldo_27 Mirash PandaHero Collaboration Collab
BeatmapID:1634883
BeatmapSetID:685558

[Difficulty]
HPDrainRate:2
CircleSize:3
OverallDifficulty:2
ApproachRate:3
SliderMultiplier:1.1
SliderTickRate:1

[Events]
//Background and Video events
0,0,"BeGe.jpg",0,0
//Break Periods
2,117739,129912
2,145364,156674
//Storyboard Layer 0 (Background)
//Storyboard Layer 1 (Fail)
//Storyboard Layer 2 (Pass)
//Storyboard Layer 3 (Foreground)
//Storyboard Sound Samples

[TimingPoints]
129,431.654676258993,4,2,1,65,1,0
6387,-100,4,2,1,65,0,0
7035,-100,4,2,1,65,0,0
20848,-100,4,2,1,65,0,0
33582,-100,4,2,1,65,0,0
33798,-100,4,2,1,65,0,0
47395,-100,4,2,1,65,0,0
47611,-100,4,2,1,65,0,0
58834,-100,4,2,1,65,0,0
61855,-100,4,2,1,65,0,0
62287,-100,4,2,1,65,0,0
63798,-100,4,2,1,65,0,0
63905,-100,4,2,1,65,0,0
65956,-100,4,2,1,65,0,0
66064,-100,4,2,1,65,0,0
68546,-100,4,2,1,65,0,0
68654,-100,4,2,1,65,0,0
70704,-100,4,2,1,65,0,0
70812,-100,4,2,1,65,0,0
77611,-100,4,2,1,65,0,0
77718,-100,4,2,1,65,0,0
82790,-100,4,2,1,65,0,0
82898,-100,4,2,1,65,0,0
86028,-100,4,2,1,65,0,0
89913,-100,4,2,1,65,0,0
114085,-100,4,2,1,65,0,0
117539,-100,4,2,1,65,0,0
130488,-100,4,2,1,65,0,0
144733,-100,4,2,1,65,0,0
145164,-100,4,2,1,65,0,0
158977,-100,4,2,1,80,0,1
186172,-100,4,2,1,80,0,0
186603,-100,4,2,1,65,0,0
199769,-100,4,2,1,65,0,0
200200,-100,4,2,1,65,0,0
212503,-100,4,2,1,65,0,0
212718,-100,4,2,1,65,0,0
212934,-100,4,2,1,65,0,0
213150,-100,4,2,1,65,0,0
213366,-100,4,2,1,65,0,0
213798,-100,4,2,1,65,0,0
213905,-100,4,2,1,65,0,0
214121,-100,4,2,1,65,0,0

[Colours]
Combo1 : 255,94,55
Combo2 : 173,255,95
Combo3 : 17,254,176
Combo4 : 255,88,100

[HitObjects]
236,215,7035,6,0,L|256:339,2,110,6|8|0,0:0|0:0|0:0,0:0:0:0:
216,163,8114,2,0,P|212:127|216:99,1,55,8|8,0:0|0:0,0:0:0:0:
324,131,8762,2,0,L|448:115,1,110,2|8,0:0|0:0,0:0:0:0:
500,203,9625,1,0,0:0:0:0:
500,203,9841,2,0,L|492:267,1,55,8|8,0:0|0:0,0:0:0:0:
408,327,10488,6,0,P|344:311|276:315,2,110,2|8|0,0:0|0:0|0:0,0:0:0:0:
452,359,11567,1,8,0:0:0:0:
452,359,11783,1,10,0:0:0:0:
493,257,12215,1,2,0:0:0:0:
440,159,12646,1,8,0:0:0:0:
336,187,13078,2,0,P|288:187|268:179,1,55,0|8,0:0|0:0,0:0:0:0:
236,155,13510,2,0,L|260:287,1,110,12|2,0:0|0:0,0:0:0:0:
164,323,14373,6,0,L|140:191,1,110,8|0,0:0|0:0,0:0:0:0:
132,159,15021,2,0,P|96:143|68:143,1,55,8|10,0:0|0:0,0:0:0:0:
0,71,15668,1,2,0:0:0:0:
96,19,16100,1,8,0:0:0:0:
196,67,16531,2,0,L|252:59,2,55,0|8|10,0:0|0:0|0:0,0:0:0:0:
132,159,17395,5,2,0:0:0:0:
132,270,17827,1,10,0:0:0:0:
243,270,18259,1,0,0:0:0:0:
243,270,18474,2,0,L|243:211,1,55,8|10,0:0|0:0,0:0:0:0:
304,123,19121,2,0,L|424:151,2,110,2|8|0,0:0|0:0|0:0,0:0:0:0:
252,135,20200,1,8,0:0:0:0:
252,135,20416,2,0,P|240:75|196:27,1,110,12|4,0:0|0:0,0:0:0:0:
100,47,21280,5,8,0:0:0:0:
56,147,21711,1,0,0:0:0:0:
88,251,22143,1,8,0:0:0:0:
172,323,22575,2,0,L|300:315,1,110,2|8,0:0|0:0,0:0:0:0:
359,238,23438,2,0,L|487:230,1,110,0|8,0:0|0:0,0:0:0:0:
488,123,24301,6,0,P|456:131|416:127,1,55,2|0,0:0|0:0,0:0:0:0:
384,111,24733,2,0,P|332:99|260:107,2,110,8|0|8,0:0|0:0|0:0,0:0:0:0:
360,219,26028,2,0,L|380:343,1,110,0|8,0:0|0:0,0:0:0:0:
276,283,26891,2,0,P|249:274|222:275,1,55,0|4,0:0|0:0,0:0:0:0:
176,307,27323,2,0,P|164:259|120:207,1,110,10|0,0:0|0:0,0:0:0:0:
20,179,28186,5,8,0:0:0:0:
102,104,28618,1,0,0:0:0:0:
208,137,29049,1,8,0:0:0:0:
304,83,29481,2,0,P|271:45|204:26,2,110,2|8|0,0:0|0:0|0:0,0:0:0:0:
320,135,30560,2,0,L|332:195,1,55,8|8,0:0|0:0,0:0:0:0:
256,192,31208,12,2,32934,0:0:0:0:
268,195,33798,6,0,L|248:127,2,55,10|10|10,0:0|0:0|0:0,0:0:0:0:
300,299,34661,5,6,0:0:0:0:
196,267,35093,2,0,P|160:267|120:271,1,55,10|2,0:0|0:0,0:0:0:0:
92,295,35524,2,0,P|56:231|60:171,1,110,2|8,0:0|0:0,0:0:0:0:
72,143,36172,1,2,0:0:0:0:
152,67,36603,1,2,0:0:0:0:
152,67,36819,2,0,L|272:79,2,110,8|0|8,0:0|0:0|0:0,0:0:0:0:
192,171,38114,6,0,L|188:235,1,55,2|2,0:0|0:0,0:0:0:0:
160,275,38546,1,8,0:0:0:0:
160,275,38762,2,0,L|292:255,1,110,2|2,0:0|0:0,0:0:0:0:
360,195,39625,1,2,0:0:0:0:
360,195,39841,2,0,P|374:155|372:123,1,55,2|0,0:0|0:0,0:0:0:0:
352,95,40272,2,0,L|236:83,1,110,8|2,0:0|0:0,0:0:0:0:
152,19,41136,2,0,L|140:135,1,110,8|2,0:0|0:0,0:0:0:0:
76,219,41999,6,0,P|52:199|38:162,2,55,8|2|2,0:0|0:0|0:0,0:0:0:0:
128,243,42646,2,0,P|208:235|260:247,1,110,8|2,0:0|0:0,0:0:0:0:
336,295,43510,1,2,0:0:0:0:
336,295,43726,2,0,L|360:227,1,55,8|2,0:0|0:0,0:0:0:0:
376,191,44157,2,0,P|376:131|368:71,1,110,0|8,0:0|0:0,0:0:0:0:
264,51,45021,6,0,L|192:67,1,55,2|2,0:0|0:0,0:0:0:0:
160,83,45452,2,0,P|112:55|40:51,1,110,8|0,0:0|0:0,0:0:0:0:
8,75,46100,1,2,0:0:0:0:
28,183,46531,1,2,0:0:0:0:
28,183,46747,2,0,L|8:307,2,110,2|8|2,0:0|0:0|0:0,0:0:0:0:
120,243,48042,1,8,0:0:0:0:
216,295,48474,6,0,L|348:307,1,110,4|8,0:0|0:0,0:0:0:0:
380,292,49121,1,2,0:0:0:0:
380,292,49337,2,0,L|404:232,1,55,0|2,0:0|0:0,0:0:0:0:
444,139,49985,1,2,0:0:0:0:
348,83,50416,1,2,0:0:0:0:
348,83,50632,2,0,P|300:83|280:75,1,55,8|2,0:0|0:0,0:0:0:0:
252,43,51064,2,0,L|220:163,1,110,0|8,0:0|0:0,0:0:0:0:
140,219,51927,6,0,L|72:203,2,55,2|0|8,0:0|0:0|0:0,0:0:0:0:
192,231,52575,1,2,0:0:0:0:
164,335,53006,1,2,0:0:0:0:
272,307,53438,1,2,0:0:0:0:
272,307,53654,2,0,P|312:307|340:319,1,55,2|0,0:0|0:0,0:0:0:0:
372,339,54085,2,0,L|354:211,1,110,8|2,0:0|0:0,0:0:0:0:
408,135,54949,2,0,L|340:119,1,55,8|2,0:0|0:0,0:0:0:0:
300,111,55380,5,2,0:0:0:0:
200,151,55812,2,0,P|176:139|128:143,1,55,8|2,0:0|0:0,0:0:0:0:
96,159,56244,2,0,P|56:127|44:47,1,110,0|8,0:0|0:0,0:0:0:0:
64,23,56891,1,2,0:0:0:0:
168,55,57323,1,2,0:0:0:0:
168,55,57539,2,0,L|232:47,1,55,8|0,0:0|0:0,0:0:0:0:
268,19,57970,2,0,P|264:71|280:131,2,110,2|8|6,0:0|0:0|0:0,0:0:0:0:
372,55,59265,5,8,0:0:0:0:
380,220,59913,2,0,P|449:277|455:188,2,220,2|0|2,0:3|0:0|0:1,0:0:0:0:
401,168,61855,1,2,0:0:0:0:
300,215,62287,6,2,P|184:215|128:195,1,165,6|0,0:0|0:0,0:1:0:0:
96,163,63150,1,2,0:0:0:0:
20,243,63582,2,0,L|7:312,1,55,8|0,0:0|0:0,0:0:0:0:
0,351,64013,2,0,L|176:339,1,165,2|0,0:0|0:0,0:0:0:0:
220,339,64877,2,0,P|252:355|272:387,2,55,2|2|8,0:0|0:0|0:0,0:0:0:0:
172,239,65740,5,2,0:0:0:0:
256,167,66172,2,0,P|332:163|428:207,1,165,8|2,0:0|0:0,0:0:0:0:
452,235,67035,1,8,0:0:0:0:
382,323,67467,2,2,B|294:351|314:315|218:339,1,165,2|2,0:0|0:0,0:1:0:0:
164,351,68330,2,0,P|112:347|92:339,2,55,2|2|8,0:0|0:0|0:0,0:0:0:0:
200,247,69193,6,0,P|212:155|184:63,1,165,2|0,0:0|0:0,0:0:0:0:
172,35,70057,1,2,0:0:0:0:
280,51,70488,2,0,L|352:43,1,55,8|2,0:0|0:0,0:0:0:0:
384,19,70920,2,0,L|367:127,2,110,2|10|2,0:0|0:0|0:0,0:0:0:0:
464,91,72215,2,0,L|477:159,1,55,8|2,0:0|0:0,0:0:0:0:
484,199,72646,5,2,0:0:0:0:
460,307,73078,2,0,P|412:355|304:335,1,165,10|2,0:0|0:0,0:0:0:0:
284,308,73941,2,12,B|260:296|224:300,1,55,12|0,0:0|0:0,0:0:0:0:
176,316,74373,1,6,0:0:0:0:
80,371,74805,2,0,P|44:323|36:259,1,110,10|2,0:0|0:0,0:0:0:0:
64,167,75668,2,0,P|68:115|64:95,1,55,14|2,0:1|0:3,0:0:0:0:
52,60,76100,6,2,P|120:84|216:52,1,165,4|2,0:1|0:0,0:1:0:0:
240,15,76963,1,2,0:0:0:0:
312,99,77395,2,0,L|304:163,1,55,8|2,0:0|0:0,0:0:0:0:
288,207,77826,2,0,P|284:259|300:335,1,110,2|8,0:0|0:0,0:0:0:0:
336,351,78474,2,0,P|372:335|392:335,2,55,2|2|2,0:0|0:0|0:0,0:0:0:0:
284,375,79121,1,12,0:0:0:0:
180,339,79553,5,2,0:0:0:0:
104,263,79985,2,0,P|96:187|108:91,1,165,10|0,0:0|0:0,0:0:0:0:
140,59,80848,2,0,L|208:75,1,55,8|2,0:0|0:0,0:0:0:0:
232,110,81280,2,0,P|288:78|400:62,1,165,2|2,0:0|0:0,0:0:0:0:
439,72,82143,1,2,0:0:0:0:
468,179,82575,1,12,0:0:0:0:
408,271,83006,6,0,P|320:267|300:187,1,165,4|0,0:0|0:0,0:0:0:0:
316,151,83870,2,0,P|320:91|304:27,2,110,2|12|2,0:0|0:0|0:0,0:0:0:0:
236,227,85164,1,8,0:0:0:0:
131,197,85596,1,2,0:0:0:0:
211,121,86028,1,12,0:0:0:0:
236,227,86459,6,0,L|249:283,1,55,2|0,0:0|0:0,0:0:0:0:
268,332,86891,2,2,P|276:275|352:199,1,165,12|0,0:0|0:0,0:1:0:0:
400,187,87754,2,0,L|468:199,1,55,12|2,0:0|0:0,0:0:0:0:
508,211,88186,1,6,0:1:0:0:
484,319,88618,1,14,0:1:0:0:
384,275,89049,1,6,0:1:0:0:
360,383,89481,1,14,0:1:0:0:
260,339,89913,6,2,L|80:355,1,165,4|2,0:1|0:0,0:1:0:0:
40,363,90776,1,0,0:0:0:0:
80,259,91208,2,0,L|64:187,1,55,8|2,0:0|0:0,0:0:0:0:
44,155,91639,2,0,P|32:99|48:27,1,110,2|10,0:0|0:0,0:0:0:0:
140,95,92503,2,0,P|194:102|247:90,1,110,2|8,0:0|0:0,0:0:0:0:
336,23,93366,6,0,P|390:29|437:131,1,165,2|2,0:0|0:0,0:0:0:0:
416,171,94229,1,2,0:0:0:0:
456,275,94661,2,0,L|480:335,2,55,8|2|2,0:0|0:0|0:0,0:0:0:0:
345,257,95524,1,10,0:0:0:0:
268,335,95956,1,2,0:0:0:0:
161,307,96387,1,10,0:0:0:0:
238,229,96819,6,0,P|244:155|208:59,1,165,2|2,0:0|0:0,0:0:0:0:
164,51,97682,2,0,L|36:47,2,110,0|8|2,0:0|0:0|0:0,0:0:0:0:
152,159,98977,1,10,0:0:0:0:
260,171,99409,1,2,0:0:0:0:
272,63,99841,1,10,0:0:0:0:
380,75,100272,6,0,L|360:238,1,165,2|2,0:0|0:0,0:0:0:0:
352,294,101136,2,0,P|282:337|200:338,1,165,0|0,0:0|0:0,0:0:0:0:
152,315,101999,2,0,P|140:247|116:187,2,110,2|8|2,0:0|0:0|0:0,0:0:0:0:
228,235,103294,2,0,L|265:194,1,55,10|10,0:1|0:1,0:0:0:0:
304,155,103726,6,2,P|368:175|476:155,1,165,6|0,0:0|0:0,0:1:0:0:
504,123,104589,1,2,0:0:0:0:
512,15,105021,1,8,0:0:0:0:
415,63,105452,2,0,P|360:75|292:59,1,110,2|10,0:0|0:0,0:0:0:0:
204,31,106316,2,0,P|149:19|81:35,1,110,2|8,0:0|0:0,0:0:0:0:
20,107,107179,6,0,L|8:275,1,165,2|2,0:0|0:0,0:0:0:0:
8,327,108042,2,0,P|60:291|160:291,1,165,2|2,0:0|0:0,0:0:0:0:
208,319,108905,1,2,0:0:0:0:
308,271,109337,1,8,0:0:0:0:
360,172,109769,1,8,0:0:0:0:
292,84,110200,2,0,L|232:76,2,55,8|10|10,0:0|0:0|0:0,0:0:0:0:
220,167,111064,6,2,L|48:147,1,165,10|2,0:0|0:0,0:1:0:0:
0,143,111927,1,8,0:0:0:0:
48,243,112359,1,2,0:0:0:0:
104,339,112790,2,0,P|78:352|45:354,2,55,8|10|10,0:0|0:0|0:0,0:0:0:0:
196,279,113654,2,0,L|256:291,1,55,8|8,0:0|0:0,0:0:0:0:
304,303,114085,5,2,0:0:0:0:
404,256,114517,2,2,B|448:120|360:180|396:41,1,220,12|8,0:0|0:0,0:1:0:0:
256,192,115812,12,4,117539,0:1:0:0:
240,244,131352,5,2,0:0:0:0:
160,172,131783,2,0,P|104:188|168:300,1,220,2|2,0:0|0:0,0:0:0:0:
240,244,133078,1,0,0:0:0:0:
331,185,133509,2,0,P|398:257|321:317,1,220,2|0,0:0|0:0,0:0:0:0:
240,244,134805,6,0,L|248:168,2,55,2|2|0,0:0|0:0|0:0,0:0:0:0:
256,51,136316,5,2,0:0:0:0:
340,123,136747,2,0,L|412:111,2,55,0|2|2,0:0|0:0|0:0,0:0:0:0:
256,51,137611,1,2,0:0:0:0:
172,123,138042,2,0,L|100:111,2,55,2|2|2,0:0|0:0|0:0,0:0:0:0:
216,295,140416,6,0,P|276:259|388:271,2,165,2|2|2,0:0|0:0|0:0,0:0:0:0:
132,363,142143,1,2,0:0:0:0:
40,299,142575,2,0,P|36:279|48:219,1,55,2|2,0:0|0:0,0:0:0:0:
64,195,143006,1,0,0:0:0:0:
64,195,143222,6,0,P|159:173|220:91,1,165,2|2,0:0|0:0,0:0:0:0:
288,56,144301,1,0,0:0:0:0:
288,56,144517,2,0,L|416:68,1,110,0|2,0:0|0:0,0:0:0:0:
440,100,145164,5,4,0:0:0:0:
264,223,158114,6,0,L|284:351,2,110,2|4|6,0:0|0:0|0:0,0:0:0:0:
256,167,159193,2,0,P|196:155|116:163,1,110,2|2,0:0|0:0,0:0:0:0:
96,171,159841,1,2,0:0:0:0:
4,110,160272,1,8,0:0:0:0:
101,60,160704,1,2,0:0:0:0:
96,171,161136,6,0,L|80:307,1,110,10|2,0:0|0:0,0:0:0:0:
112,328,161783,1,2,0:0:0:0:
112,328,161999,2,0,L|232:340,1,110,8|2,0:0|0:0,0:0:0:0:
272,316,162646,1,2,0:0:0:0:
272,316,162862,2,0,B|236:168|312:252|272:92,1,220,8|8,0:0|0:0,0:0:0:0:
168,68,164157,6,0,L|176:8,2,55,2|2|10,0:0|0:0|0:0,0:0:0:0:
192,120,164805,1,2,0:0:0:0:
120,200,165236,2,0,L|48:172,2,55,0|8|2,0:0|0:0|0:0,0:0:0:0:
170,220,165884,1,2,0:0:0:0:
170,220,166100,2,0,P|188:312|236:376,1,165,2|2,0:0|0:0,0:0:0:0:
336,348,167179,1,8,0:0:0:0:
416,276,167611,5,2,0:0:0:0:
312,238,168042,2,0,P|352:185|409:166,1,110,10|2,0:0|0:0,0:0:0:0:
444,172,168690,1,2,0:0:0:0:
444,172,168905,2,0,P|440:92|452:28,1,110,8|2,0:0|0:0,0:0:0:0:
340,24,169769,2,0,L|203:42,1,110,8|2,0:0|0:0,0:0:0:0:
176,52,170416,2,0,L|156:0,2,55,2|8|2,0:0|0:0|0:0,0:0:0:0:
196,104,171064,1,2,0:0:0:0:
108,172,171495,5,12,0:0:0:0:
184,252,171927,2,0,P|188:284|176:328,2,55,2|2|8,0:0|0:0|0:0,0:0:0:0:
108,172,172790,2,0,L|28:156,1,55,6|2,0:0|0:0,0:0:0:0:
0,148,173222,2,0,P|32:216|28:368,1,220,8|8,0:0|0:0,0:0:0:0:
140,344,174517,5,2,0:0:0:0:
220,268,174949,2,0,P|288:256|352:276,1,110,8|2,0:0|0:0,0:0:0:0:
364,308,175596,2,0,L|380:376,1,55,0|10,0:0|0:0,0:0:0:0:
464,292,176244,2,0,L|448:224,1,55,2|2,0:0|0:0,0:0:0:0:
476,188,176675,2,0,P|440:132|324:104,1,165,10|2,0:0|0:3,0:0:0:0:
248,140,177754,6,0,P|176:132|152:120,2,55,2|0|2,0:0|0:0|0:0,0:0:0:0:
264,192,178402,2,0,L|280:264,1,55,8|2,0:0|0:0,0:0:0:0:
204,328,179049,2,0,L|220:400,2,55,0|8|2,0:0|0:0|0:0,0:0:0:0:
188,276,179697,1,2,0:0:0:0:
188,276,179913,2,0,P|120:244|20:248,1,165,2|2,0:0|0:0,0:0:0:0:
64,140,180992,1,8,0:0:0:0:
96,36,181423,5,2,0:0:0:0:
196,84,181855,2,0,L|344:76,2,110,10|2|8,0:0|0:0|0:0,0:0:0:0:
144,180,183150,2,0,L|-4:188,2,110,2|10|2,0:0|0:0|0:0,0:0:0:0:
236,240,184445,2,0,L|304:284,1,55,8|2,0:0|0:0,0:0:0:0:
332,296,184877,6,0,P|304:204|456:32,1,330,6|10,0:0|0:0,0:0:0:0:
453,143,186603,2,0,L|469:251,2,110,6|8|0,0:0|0:0|0:0,0:0:0:0:
360,84,187898,6,0,L|251:67,2,110,8|0|8,0:0|0:0|0:0,0:0:0:0:
356,196,189193,2,0,L|356:264,1,55,0|8,0:0|0:0,0:0:0:0:
320,292,189625,2,0,P|259:304|192:280,1,110,8|2,0:0|0:0,0:0:0:0:
135,214,190488,5,8,0:0:0:0:
135,214,190704,2,0,P|123:122|99:82,1,110,2|10,0:0|0:0,0:0:0:0:
75,70,191352,2,0,L|211:50,1,110,8|2,0:0|0:0,0:0:0:0:
279,110,192215,2,0,L|415:90,1,110,8|0,0:0|0:0,0:0:0:0:
443,86,192862,1,10,0:0:0:0:
443,86,193078,2,0,P|495:130|503:194,1,110,8|0,0:0|0:0,0:0:0:0:
428,244,193941,6,0,P|432:332|440:372,1,110,8|0,0:0|0:0,0:0:0:0:
332,316,194805,2,0,P|331:261|324:206,1,110,8|0,0:0|0:0,0:0:0:0:
244,128,195668,1,8,0:0:0:0:
144,172,196100,2,0,L|88:156,2,55,0|8|8,0:0|0:0|0:0,0:0:0:0:
224,248,196963,6,0,P|164:280|94:273,2,110,2|8|0,0:0|0:0|0:0,0:0:0:0:
264,212,198042,2,0,P|290:205|320:207,1,55,6|8,0:0|0:0,0:0:0:0:
416,256,198690,2,0,L|392:104,1,110,2|8,0:0|0:0,0:0:0:0:
332,60,199553,2,0,L|395:49,1,55,0|10,0:0|0:0,0:0:0:0:
440,44,199985,1,8,0:0:0:0:
496,136,200416,5,6,0:0:0:0:
496,248,200848,1,8,0:0:0:0:
428,336,201280,1,0,0:0:0:0:
320,364,201711,2,0,L|210:350,1,110,8|0,0:0|0:0,0:0:0:0:
240,244,202575,2,0,L|349:257,1,110,8|0,0:0|0:0,0:0:0:0:
400,236,203222,1,8,0:0:0:0:
400,236,203438,2,0,P|404:140|380:96,1,110,8|2,0:0|0:0,0:0:0:0:
292,116,204301,6,0,P|240:98|199:62,2,110,8|0|8,0:0|0:0|0:0,0:0:0:0:
356,28,205596,1,2,0:0:0:0:
399,128,206028,1,8,0:0:0:0:
335,216,206459,2,0,L|260:208,1,55,0|8,0:0|0:0,0:0:0:0:
232,236,206891,2,0,P|192:196|120:184,1,110,8|2,0:0|0:0,0:0:0:0:
80,276,207754,6,0,P|118:314|170:329,2,110,8|0|8,0:0|0:0|0:0,0:0:0:0:
31,177,209049,1,0,0:0:0:0:
92,84,209481,1,8,0:0:0:0:
188,136,209913,2,0,L|184:200,2,55,0|8|8,0:0|0:0|0:0,0:0:0:0:
288,88,210776,6,0,P|247:41|169:27,2,110,2|8|0,0:0|0:0|0:0,0:0:0:0:
296,144,211855,2,0,L|280:284,1,110,10|2,0:0|0:0,0:0:0:0:
276,308,212503,1,10,0:2:0:0:
176,356,212934,1,8,0:0:0:0:
100,276,213366,1,8,0:0:0:0:
153,179,213798,2,0,L|140:120,1,55,8|8,0:0|0:0,0:0:0:0:
128,72,214229,5,4,0:1:0:0:
