osu file format v14

[General]
AudioFilename: audio.mp3
AudioLeadIn: 0
PreviewTime: 158174
Countdown: 0
SampleSet: Soft
StackLeniency: 0.7
Mode: 3
LetterboxInBreaks: 0
SpecialStyle: 0
WidescreenStoryboard: 0

[Editor]
DistanceSpacing: 0.85
BeatDivisor: 4
GridSize: 32
TimelineZoom: 1.5

[Metadata]
Title:lastendconductor (Cut Ver.)
TitleUnicode:lastendconductor (Cut Ver.)
Artist:zts
ArtistUnicode:zts
Creator:by-ad
Version:Easy
Source:うみねこのなく頃に散
Tags:Achsanlovers Sherly Lam- FAMoss Video Game visual novel electronic Umineko no Naku Koro ni Chiru Instrumental When the Seagulls Cry ZTSL-019 musicbox Red Doujin vn OST Original Soundtrack Twilight of the Golden Witch uplifting trance
BeatmapID:2974647
BeatmapSetID:1446316

[Difficulty]
HPDrainRate:6.5
CircleSize:4
OverallDifficulty:7
ApproachRate:5
SliderMultiplier:1.4
SliderTickRate:1

[Events]
//Background and Video events
0,0,"BeGe.jpg",0,0
//Break Periods
2,117798,128420
//Storyboard Layer 0 (Background)
//Storyboard Layer 1 (Fail)
//Storyboard Layer 2 (Pass)
//Storyboard Layer 3 (Foreground)
//Storyboard Layer 4 (Overlay)
//Storyboard Sound Samples
Sample,7094,0,"cymbal10.wav",70
Sample,21339,0,"clap09.wav",100
Sample,22202,0,"clap09.wav",100
Sample,23066,0,"clap09.wav",100
Sample,23929,0,"clap09.wav",100
Sample,24792,0,"clap09.wav",100
Sample,25656,0,"clap09.wav",100
Sample,26519,0,"clap09.wav",100
Sample,27382,0,"clap09.wav",100
Sample,28246,0,"clap09.wav",100
Sample,29109,0,"clap09.wav",100
Sample,29972,0,"clap09.wav",100
Sample,30836,0,"clap09.wav",100
Sample,31699,0,"clap09.wav",100
Sample,32562,0,"clap09.wav",100
Sample,33425,0,"clap09.wav",100
Sample,34289,0,"clap09.wav",100
Sample,35152,0,"clap09.wav",100
Sample,36015,0,"clap09.wav",100
Sample,36879,0,"clap09.wav",100
Sample,37742,0,"clap09.wav",100
Sample,38605,0,"clap09.wav",100
Sample,39469,0,"clap09.wav",100
Sample,40332,0,"clap09.wav",100
Sample,41195,0,"clap09.wav",100
Sample,42059,0,"clap09.wav",100
Sample,42922,0,"clap09.wav",100
Sample,43785,0,"clap09.wav",100
Sample,44648,0,"clap09.wav",100
Sample,45512,0,"clap09.wav",100
Sample,46375,0,"clap09.wav",100
Sample,47238,0,"clap09.wav",100
Sample,48102,0,"clap09.wav",100
Sample,48965,0,"clap09.wav",100
Sample,49828,0,"clap09.wav",100
Sample,50692,0,"clap09.wav",100
Sample,51555,0,"clap09.wav",100
Sample,52418,0,"clap09.wav",100
Sample,53282,0,"clap09.wav",100
Sample,54145,0,"clap09.wav",100
Sample,55008,0,"clap09.wav",100
Sample,55871,0,"clap09.wav",100
Sample,56735,0,"clap09.wav",100
Sample,57598,0,"clap09.wav",100
Sample,58461,0,"clap09.wav",100
Sample,76591,0,"clap09.wav",100
Sample,77454,0,"clap09.wav",100
Sample,78318,0,"clap09.wav",100
Sample,79181,0,"clap09.wav",100
Sample,80044,0,"clap09.wav",100
Sample,80907,0,"clap09.wav",100
Sample,81771,0,"clap09.wav",100
Sample,82634,0,"clap09.wav",100
Sample,83497,0,"clap09.wav",100
Sample,84361,0,"clap09.wav",100
Sample,85224,0,"clap09.wav",100
Sample,86087,0,"clap09.wav",100
Sample,86951,0,"clap09.wav",100
Sample,87814,0,"clap09.wav",100
Sample,88677,0,"clap09.wav",100
Sample,89109,0,"cymbal10.wav",70
Sample,89541,0,"clap09.wav",100
Sample,90404,0,"clap09.wav",100
Sample,91267,0,"clap09.wav",100
Sample,92130,0,"clap09.wav",100
Sample,92994,0,"clap09.wav",100
Sample,93857,0,"clap09.wav",100
Sample,94720,0,"clap09.wav",100
Sample,95584,0,"clap09.wav",100
Sample,96447,0,"clap09.wav",100
Sample,97310,0,"clap09.wav",100
Sample,98174,0,"clap09.wav",100
Sample,99037,0,"clap09.wav",100
Sample,99900,0,"clap09.wav",100
Sample,100764,0,"clap09.wav",100
Sample,101627,0,"clap09.wav",100
Sample,102490,0,"clap09.wav",100
Sample,103353,0,"clap09.wav",100
Sample,104217,0,"clap09.wav",100
Sample,105080,0,"clap09.wav",100
Sample,105943,0,"clap09.wav",100
Sample,106807,0,"clap09.wav",100
Sample,107670,0,"clap09.wav",100
Sample,108533,0,"clap09.wav",100
Sample,109397,0,"clap09.wav",100
Sample,110260,0,"clap09.wav",100
Sample,111123,0,"clap09.wav",100
Sample,111987,0,"clap09.wav",100
Sample,112850,0,"clap09.wav",100
Sample,113713,0,"clap09.wav",100
Sample,114577,0,"clap09.wav",100
Sample,115440,0,"clap09.wav",100
Sample,173282,0,"clap09.wav",100
Sample,174145,0,"clap09.wav",100
Sample,175008,0,"clap09.wav",100
Sample,175871,0,"clap09.wav",100
Sample,176735,0,"clap09.wav",100
Sample,177598,0,"clap09.wav",100
Sample,178461,0,"clap09.wav",100
Sample,179325,0,"clap09.wav",100
Sample,180188,0,"clap09.wav",100
Sample,181051,0,"clap09.wav",100
Sample,181915,0,"clap09.wav",100
Sample,182778,0,"clap09.wav",100
Sample,183641,0,"clap09.wav",100
Sample,184505,0,"clap09.wav",100
Sample,185368,0,"Kick 12.wav",70
Sample,187095,0,"clap09.wav",100
Sample,187958,0,"clap09.wav",100
Sample,188821,0,"clap09.wav",100
Sample,189684,0,"clap09.wav",100
Sample,190548,0,"clap09.wav",100
Sample,191411,0,"clap09.wav",100
Sample,192274,0,"clap09.wav",100
Sample,193138,0,"clap09.wav",100
Sample,194001,0,"clap09.wav",100
Sample,194864,0,"clap09.wav",100
Sample,195728,0,"clap09.wav",100
Sample,196591,0,"clap09.wav",100
Sample,197454,0,"clap09.wav",100
Sample,198318,0,"clap09.wav",100
Sample,199181,0,"clap09.wav",100
Sample,200044,0,"clap09.wav",100
Sample,200907,0,"clap09.wav",100
Sample,201771,0,"clap09.wav",100
Sample,202634,0,"clap09.wav",100
Sample,203497,0,"clap09.wav",100
Sample,204361,0,"clap09.wav",100
Sample,205224,0,"clap09.wav",100
Sample,206087,0,"clap09.wav",100
Sample,206951,0,"clap09.wav",100
Sample,207814,0,"clap09.wav",100
Sample,208677,0,"clap09.wav",100
Sample,209541,0,"clap09.wav",100
Sample,210404,0,"clap09.wav",100
Sample,211267,0,"clap09.wav",100
Sample,212130,0,"clap09.wav",100
Sample,212994,0,"clap09.wav",100
Sample,213857,0,"clap09.wav",100

[TimingPoints]
7095,431.654676258993,4,2,1,70,1,0
159037,-100,4,2,1,70,0,1
214289,-100,4,2,1,70,0,0

[HitObjects]
64,192,7094,1,0,0:0:0:70:Kick 18.wav
320,192,7526,1,0,0:0:0:70:Kick 18.wav
192,192,7958,1,0,0:0:0:70:Kick 18.wav
448,192,8389,1,0,0:0:0:70:Kick 18.wav
64,192,8821,1,0,0:0:0:70:Kick 18.wav
320,192,9253,1,0,0:0:0:70:Kick 18.wav
192,192,9684,1,0,0:0:0:70:Kick 18.wav
448,192,10116,128,0,10548:0:0:0:70:Kick 18.wav
320,192,10548,1,0,0:0:0:70:Kick 18.wav
64,192,10979,1,0,0:0:0:70:Kick 18.wav
448,192,11411,1,0,0:0:0:70:Kick 18.wav
192,192,11843,1,0,0:0:0:70:Kick 18.wav
320,192,12274,1,0,0:0:0:70:Kick 18.wav
64,192,12706,1,0,0:0:0:70:Kick 18.wav
448,192,13138,1,0,0:0:0:70:Kick 18.wav
192,192,13569,128,0,14001:0:0:0:70:Kick 18.wav
448,192,14001,1,0,0:0:0:70:Kick 18.wav
192,192,14433,1,0,0:0:0:70:Kick 18.wav
320,192,14864,1,0,0:0:0:70:Kick 18.wav
64,192,15296,1,0,0:0:0:70:Kick 18.wav
448,192,15728,1,0,0:0:0:70:Kick 18.wav
192,192,16159,1,0,0:0:0:70:Kick 18.wav
320,192,16591,1,0,0:0:0:70:Kick 18.wav
64,192,17023,128,0,17454:0:0:0:70:Kick 18.wav
192,192,17454,1,0,0:0:0:70:Kick 18.wav
448,192,17886,1,0,0:0:0:70:Kick 18.wav
64,192,18318,1,0,0:0:0:70:Kick 18.wav
320,192,18749,1,0,0:0:0:70:Kick 18.wav
192,192,19181,1,0,0:0:0:70:Kick 18.wav
448,192,19612,1,0,0:0:0:70:Kick 18.wav
64,192,20044,1,0,0:0:0:70:Kick 18.wav
320,192,20476,128,0,20907:0:0:0:70:Kick 18.wav
64,192,20907,1,0,0:0:0:70:Kick 18.wav
192,192,20907,1,0,0:0:0:70:cymbal10.wav
448,192,21339,1,0,0:0:0:70:Kick 18.wav
320,192,21771,1,0,0:0:0:70:Kick 18.wav
64,192,22202,1,0,0:0:0:70:Kick 18.wav
320,192,22634,1,0,0:0:0:70:Kick 18.wav
448,192,23066,1,0,0:0:0:70:Kick 18.wav
192,192,23497,1,0,0:0:0:70:Kick 18.wav
64,192,23929,1,0,0:0:0:70:Kick 18.wav
320,192,24361,1,0,0:0:0:70:Kick 18.wav
64,192,24792,1,0,0:0:0:70:Kick 18.wav
192,192,25224,1,0,0:0:0:70:Kick 18.wav
448,192,25656,1,0,0:0:0:70:Kick 18.wav
192,192,26087,1,0,0:0:0:70:Kick 18.wav
64,192,26519,1,0,0:0:0:70:Kick 18.wav
320,192,26951,1,0,0:0:0:70:Kick 18.wav
448,192,27382,1,0,0:0:0:70:Kick 18.wav
64,192,27814,1,0,0:0:0:70:Kick 18.wav
192,192,28246,1,0,0:0:0:70:Kick 18.wav
448,192,28677,1,0,0:0:0:70:Kick 18.wav
320,192,29109,1,0,0:0:0:70:Kick 18.wav
64,192,29541,1,0,0:0:0:70:Kick 18.wav
448,192,29972,1,0,0:0:0:70:Kick 18.wav
192,192,30404,1,0,0:0:0:70:Kick 18.wav
320,192,30836,1,0,0:0:0:70:Kick 18.wav
448,192,31267,1,0,0:0:0:70:Kick 18.wav
64,192,31699,1,0,0:0:0:70:Kick 18.wav
320,192,32130,1,0,0:0:0:70:Kick 18.wav
192,192,32562,1,0,0:0:0:70:Kick 18.wav
448,192,32994,1,0,0:0:0:70:Kick 18.wav
320,192,33425,1,0,0:0:0:70:Kick 18.wav
64,192,33857,1,0,0:0:0:70:Kick 18.wav
448,192,34073,1,0,0:0:0:70:Kick 18.wav
192,192,34289,1,0,0:0:0:70:Kick 18.wav
320,192,34505,1,0,0:0:0:0:
64,192,34720,1,0,0:0:0:70:Kick 18.wav
448,192,34720,128,0,35152:0:0:0:70:cymbal10.wav
192,192,35152,128,0,35584:0:0:0:70:Kick 18.wav
448,192,35584,128,0,36015:0:0:0:70:Kick 18.wav
64,192,36015,128,0,36447:0:0:0:70:Kick 18.wav
192,192,36447,128,0,36879:0:0:0:70:Kick 18.wav
448,192,36879,128,0,37310:0:0:0:70:Kick 18.wav
192,192,37310,128,0,37742:0:0:0:70:Kick 18.wav
320,192,37742,128,0,38174:0:0:0:70:Kick 18.wav
64,192,38174,128,0,38605:0:0:0:70:Kick 18.wav
448,192,38605,128,0,39037:0:0:0:70:Kick 18.wav
64,192,39037,128,0,39469:0:0:0:70:Kick 18.wav
320,192,39469,128,0,39900:0:0:0:70:Kick 18.wav
448,192,39900,128,0,40332:0:0:0:70:Kick 18.wav
64,192,40332,128,0,40764:0:0:0:70:Kick 18.wav
448,192,40764,128,0,41195:0:0:0:70:Kick 18.wav
192,192,41195,128,0,41627:0:0:0:70:Kick 18.wav
320,192,41627,128,0,42059:0:0:0:70:Kick 18.wav
64,192,42059,128,0,42490:0:0:0:70:Kick 18.wav
320,192,42490,128,0,42922:0:0:0:70:Kick 18.wav
192,192,42922,128,0,43353:0:0:0:70:Kick 18.wav
448,192,43353,128,0,43785:0:0:0:70:Kick 18.wav
64,192,43785,128,0,44217:0:0:0:70:Kick 18.wav
448,192,44217,128,0,44648:0:0:0:70:Kick 18.wav
192,192,44648,128,0,45080:0:0:0:70:Kick 18.wav
320,192,45080,128,0,45512:0:0:0:70:Kick 18.wav
64,192,45512,128,0,45943:0:0:0:70:Kick 18.wav
320,192,45943,128,0,46375:0:0:0:70:Kick 18.wav
448,192,46375,128,0,46807:0:0:0:70:Kick 18.wav
192,192,46807,128,0,47238:0:0:0:70:Kick 18.wav
448,192,47238,128,0,47670:0:0:0:70:Kick 18.wav
320,192,47670,1,0,0:0:0:70:Kick 18.wav
64,192,47886,1,0,0:0:0:70:Kick 18.wav
448,192,48102,1,0,0:0:0:70:Kick 18.wav
192,192,48318,1,0,0:0:0:70:Kick 12.wav
64,192,48533,128,0,48965:0:0:0:70:Kick 18.wav
448,192,48533,1,0,0:0:0:70:cymbal10.wav
320,192,48965,128,0,49397:0:0:0:70:Kick 18.wav
64,192,49397,128,0,49828:0:0:0:70:Kick 18.wav
448,192,49828,128,0,50260:0:0:0:70:Kick 18.wav
320,192,50260,128,0,50692:0:0:0:70:Kick 18.wav
64,192,50692,128,0,51123:0:0:0:70:Kick 18.wav
320,192,51123,128,0,51555:0:0:0:70:Kick 18.wav
192,192,51555,128,0,51987:0:0:0:70:Kick 18.wav
448,192,51987,128,0,52418:0:0:0:70:Kick 18.wav
64,192,52418,128,0,52850:0:0:0:70:Kick 18.wav
448,192,52850,128,0,53282:0:0:0:70:Kick 18.wav
192,192,53282,128,0,53713:0:0:0:70:Kick 18.wav
64,192,53713,128,0,54145:0:0:0:70:Kick 18.wav
448,192,54145,128,0,54577:0:0:0:70:Kick 18.wav
64,192,54577,128,0,55008:0:0:0:70:Kick 18.wav
320,192,55008,128,0,55440:0:0:0:70:Kick 18.wav
192,192,55440,128,0,55871:0:0:0:70:Kick 18.wav
448,192,55871,128,0,56303:0:0:0:70:Kick 18.wav
192,192,56303,128,0,56735:0:0:0:70:Kick 18.wav
320,192,56735,128,0,57166:0:0:0:70:Kick 18.wav
64,192,57166,128,0,57598:0:0:0:70:Kick 18.wav
448,192,57598,128,0,58030:0:0:0:70:Kick 18.wav
64,192,58030,128,0,58461:0:0:0:70:Kick 18.wav
320,192,58461,128,0,58893:0:0:0:70:Kick 18.wav
64,192,58893,1,0,0:0:0:70:Kick 18.wav
448,192,58893,1,0,0:0:0:70:cymbal10.wav
192,192,59109,1,0,0:0:0:70:Kick 12.wav
320,192,59325,1,0,0:0:0:100:clap09.wav
64,192,59541,1,0,0:0:0:70:Kick 12.wav
448,192,59972,1,0,0:0:0:70:Kick 12.wav
320,192,60188,1,0,0:0:0:100:clap09.wav
192,192,60404,1,0,0:0:0:70:Kick 12.wav
448,192,60620,1,0,0:0:0:70:Kick 12.wav
64,192,60836,1,0,0:0:0:70:Kick 12.wav
192,192,61051,1,0,0:0:0:100:clap09.wav
320,192,61267,1,0,0:0:0:70:Kick 12.wav
448,192,61699,1,0,0:0:0:70:Kick 12.wav
192,192,61915,1,0,0:0:0:100:clap09.wav
64,192,62130,1,0,0:0:0:70:Kick 12.wav
320,192,62346,1,0,0:0:0:70:Kick 18.wav
448,192,62346,128,0,62778:0:0:0:70:cymbal10.wav
192,192,62778,1,0,0:0:0:70:Kick 18.wav
320,192,63210,128,0,63641:0:0:0:70:Kick 18.wav
64,192,63641,1,0,0:0:0:70:Kick 18.wav
192,192,64073,128,0,64505:0:0:0:70:Kick 18.wav
448,192,64505,1,0,0:0:0:70:Kick 18.wav
64,192,64936,128,0,65368:0:0:0:70:Kick 18.wav
320,192,65368,1,0,0:0:0:70:Kick 18.wav
448,192,65800,128,0,66231:0:0:0:70:Kick 18.wav
192,192,66231,1,0,0:0:0:70:Kick 18.wav
64,192,66663,128,0,67095:0:0:0:70:Kick 18.wav
320,192,67095,1,0,0:0:0:70:Kick 18.wav
192,192,67526,128,0,67958:0:0:0:70:Kick 18.wav
64,192,67958,1,0,0:0:0:70:Kick 18.wav
320,192,68389,128,0,68821:0:0:0:70:Kick 18.wav
448,192,68821,1,0,0:0:0:70:Kick 18.wav
64,192,69253,128,0,70116:0:0:0:70:Kick 18.wav
320,192,69684,1,0,0:0:0:70:Kick 18.wav
448,192,70116,128,0,70979:0:0:0:70:Kick 18.wav
64,192,70548,1,0,0:0:0:70:Kick 18.wav
192,192,70979,128,0,71843:0:0:0:70:Kick 18.wav
448,192,71411,1,0,0:0:0:70:Kick 18.wav
320,192,71843,128,0,72706:0:0:0:70:Kick 18.wav
192,192,72274,1,0,0:0:0:70:Kick 18.wav
64,192,72706,128,0,74433:0:0:0:70:Kick 18.wav
448,192,73138,1,0,0:0:0:70:Kick 18.wav
192,192,73569,1,0,0:0:0:70:Kick 18.wav
320,192,74001,1,0,0:0:0:70:Kick 18.wav
448,192,74433,128,0,74864:0:0:0:70:Kick 18.wav
64,192,74864,128,0,75296:0:0:0:70:Kick 18.wav
320,192,75296,128,0,75728:0:0:0:70:Kick 18.wav
64,192,75728,1,0,0:0:0:70:Kick 18.wav
448,192,75728,128,0,76159:0:0:0:70:cymbal10.wav
64,192,76159,128,0,76591:0:0:0:70:Kick 18.wav
192,192,76159,1,0,0:0:0:70:cymbal10.wav
320,192,76591,1,0,0:0:0:70:Kick 18.wav
192,192,77023,128,0,77454:0:0:0:70:Kick 18.wav
448,192,77454,1,0,0:0:0:70:Kick 18.wav
320,192,77886,128,0,78318:0:0:0:70:Kick 18.wav
64,192,78318,1,0,0:0:0:70:Kick 18.wav
448,192,78749,128,0,79181:0:0:0:70:Kick 18.wav
192,192,79181,1,0,0:0:0:70:Kick 18.wav
64,192,79612,128,0,80044:0:0:0:70:Kick 18.wav
320,192,80044,1,0,0:0:0:70:Kick 18.wav
448,192,80476,128,0,80907:0:0:0:70:Kick 18.wav
192,192,80907,1,0,0:0:0:70:Kick 18.wav
320,192,81339,128,0,81771:0:0:0:70:Kick 18.wav
448,192,81771,1,0,0:0:0:70:Kick 18.wav
192,192,82202,128,0,82634:0:0:0:70:Kick 18.wav
64,192,82634,1,0,0:0:0:70:Kick 18.wav
448,192,83066,128,0,83929:0:0:0:70:Kick 18.wav
192,192,83497,1,0,0:0:0:70:Kick 18.wav
64,192,83929,128,0,84792:0:0:0:70:Kick 18.wav
448,192,84361,1,0,0:0:0:70:Kick 18.wav
320,192,84792,128,0,85656:0:0:0:70:Kick 18.wav
64,192,85224,1,0,0:0:0:70:Kick 18.wav
192,192,85656,128,0,86519:0:0:0:70:Kick 18.wav
320,192,86087,1,0,0:0:0:70:Kick 18.wav
448,192,86519,128,0,88246:0:0:0:70:Kick 18.wav
64,192,86951,1,0,0:0:0:70:Kick 18.wav
320,192,87382,1,0,0:0:0:70:Kick 18.wav
192,192,87814,1,0,0:0:0:70:Kick 18.wav
64,192,88246,128,0,88677:0:0:0:70:Kick 18.wav
448,192,88677,128,0,89109:0:0:0:70:Kick 18.wav
192,192,89109,128,0,89541:0:0:0:70:Kick 18.wav
320,192,89541,128,0,89972:0:0:0:70:Kick 18.wav
64,192,89972,1,0,0:0:0:70:Kick 18.wav
448,192,89972,1,0,0:0:0:70:cymbal10.wav
192,192,90404,1,0,0:0:0:70:Kick 18.wav
320,192,90620,1,0,0:0:0:70:Kick 12.wav
448,192,90836,1,0,0:0:0:70:Kick 18.wav
64,192,91267,1,0,0:0:0:70:Kick 18.wav
320,192,91483,1,0,0:0:0:70:Kick 12.wav
192,192,91699,1,0,0:0:0:70:Kick 18.wav
448,192,92130,1,0,0:0:0:70:Kick 18.wav
64,192,92346,1,0,0:0:0:70:Kick 12.wav
320,192,92562,1,0,0:0:0:70:Kick 18.wav
192,192,92994,1,0,0:0:0:70:Kick 18.wav
64,192,93210,1,0,0:0:0:70:Kick 12.wav
320,192,93425,1,0,0:0:0:70:Kick 18.wav
192,192,93857,1,0,0:0:0:70:Kick 18.wav
448,192,94073,1,0,0:0:0:70:Kick 12.wav
320,192,94289,1,0,0:0:0:70:Kick 18.wav
192,192,94720,1,0,0:0:0:70:Kick 18.wav
448,192,94936,1,0,0:0:0:70:Kick 12.wav
64,192,95152,1,0,0:0:0:70:Kick 18.wav
320,192,95584,1,0,0:0:0:70:Kick 18.wav
192,192,95800,1,0,0:0:0:70:Kick 12.wav
448,192,96015,1,0,0:0:0:70:Kick 18.wav
64,192,96447,1,0,0:0:0:70:Kick 18.wav
320,192,96663,1,0,0:0:0:70:Kick 12.wav
192,192,96879,1,0,0:0:0:70:Kick 18.wav
448,192,97310,1,0,0:0:0:70:Kick 18.wav
64,192,97526,1,0,0:0:0:70:Kick 12.wav
320,192,97742,1,0,0:0:0:70:Kick 18.wav
192,192,98174,1,0,0:0:0:70:Kick 18.wav
448,192,98389,1,0,0:0:0:70:Kick 12.wav
64,192,98605,1,0,0:0:0:70:Kick 18.wav
192,192,99037,1,0,0:0:0:70:Kick 18.wav
448,192,99253,1,0,0:0:0:70:Kick 12.wav
320,192,99469,1,0,0:0:0:70:Kick 18.wav
192,192,99900,1,0,0:0:0:70:Kick 18.wav
64,192,100116,1,0,0:0:0:70:Kick 12.wav
448,192,100332,128,0,101195:0:0:0:70:Kick 18.wav
320,192,100764,1,0,0:0:0:70:Kick 18.wav
64,192,101195,128,0,102059:0:0:0:70:Kick 18.wav
192,192,101627,1,0,0:0:0:70:Kick 18.wav
320,192,102059,128,0,102922:0:0:0:70:Kick 18.wav
64,192,102490,1,0,0:0:0:70:Kick 18.wav
192,192,102922,128,0,103353:0:0:0:70:Kick 18.wav
448,192,103353,1,0,0:0:0:70:Kick 18.wav
320,192,103569,1,0,0:0:0:70:Kick 18.wav
64,192,103785,128,0,104217:0:0:0:70:Kick 18.wav
448,192,104217,1,0,0:0:0:70:Kick 18.wav
192,192,104433,1,0,0:0:0:70:Kick 12.wav
320,192,104648,128,0,105080:0:0:0:70:Kick 18.wav
64,192,105080,1,0,0:0:0:70:Kick 18.wav
448,192,105296,1,0,0:0:0:70:Kick 12.wav
192,192,105512,128,0,105943:0:0:0:70:Kick 18.wav
320,192,105943,1,0,0:0:0:70:Kick 18.wav
64,192,106159,1,0,0:0:0:70:Kick 12.wav
320,192,106375,128,0,106807:0:0:0:70:Kick 18.wav
192,192,106807,1,0,0:0:0:70:Kick 18.wav
448,192,107023,1,0,0:0:0:70:Kick 12.wav
192,192,107238,128,0,107670:0:0:0:70:Kick 18.wav
64,192,107670,1,0,0:0:0:70:Kick 18.wav
320,192,108102,128,0,108533:0:0:0:70:Kick 18.wav
448,192,108533,1,0,0:0:0:70:Kick 18.wav
64,192,108965,128,0,109397:0:0:0:70:Kick 18.wav
192,192,109397,1,0,0:0:0:70:Kick 18.wav
448,192,109828,128,0,110260:0:0:0:70:Kick 18.wav
320,192,110260,1,0,0:0:0:70:Kick 18.wav
64,192,110476,1,0,0:0:0:70:Kick 18.wav
320,192,110692,128,0,111123:0:0:0:70:Kick 18.wav
448,192,111123,128,0,111987:0:0:0:70:Kick 18.wav
64,192,111555,1,0,0:0:0:70:Kick 18.wav
192,192,111987,128,0,112850:0:0:0:70:Kick 18.wav
448,192,112418,1,0,0:0:0:70:Kick 18.wav
64,192,112850,128,0,113282:0:0:0:70:Kick 18.wav
192,192,113282,128,0,113713:0:0:0:70:Kick 18.wav
320,192,113713,128,0,114145:0:0:0:70:Kick 18.wav
448,192,114145,128,0,114577:0:0:0:70:Kick 18.wav
192,192,114577,128,0,115440:0:0:0:70:Kick 18.wav
64,192,115008,1,0,0:0:0:70:Kick 18.wav
320,192,115440,128,0,115871:0:0:0:70:Kick 18.wav
64,192,115871,128,0,117598:0:0:0:70:Kick 18.wav
448,192,115871,1,0,0:0:0:0:
192,192,117598,1,0,0:0:0:70:Kick 18.wav
320,192,117598,1,0,0:0:0:70:cymbal10.wav
448,192,130548,5,0,0:0:0:100:clap09.wav
192,192,130979,128,0,131411:0:0:0:0:
320,192,131411,1,0,0:0:0:70:Kick 12.wav
64,192,131627,1,0,0:0:0:70:Kick 12.wav
448,192,133569,128,0,134001:0:0:0:100:clap09.wav
192,192,134001,128,0,134433:0:0:0:0:
64,192,134433,128,0,134864:0:0:0:0:
448,192,134864,1,0,0:0:0:0:
192,192,135080,1,0,0:0:0:0:
320,192,135296,1,0,0:0:0:100:clap09.wav
320,192,136375,1,0,0:0:0:0:
448,192,136591,128,0,137023:0:0:0:0:
192,192,137023,1,0,0:0:0:100:clap09.wav
64,192,137238,128,0,137670:0:0:0:0:
448,192,137670,1,0,0:0:0:0:
320,192,137886,128,0,138318:0:0:0:0:
64,192,138318,1,0,0:0:0:0:
448,192,138533,1,0,0:0:0:0:
192,192,140476,128,0,140907:0:0:0:100:clap09.wav
448,192,140907,128,0,141339:0:0:0:0:
64,192,141339,128,0,141771:0:0:0:0:
320,192,141771,128,0,142202:0:0:0:0:
192,192,142202,128,0,142634:0:0:0:100:clap09.wav
320,192,142634,1,0,0:0:0:0:
448,192,142850,1,0,0:0:0:0:
64,192,143066,1,0,0:0:0:0:
192,192,143282,1,0,0:0:0:0:
64,192,145224,1,0,0:0:0:70:Kick 12.wav
448,192,145224,1,0,0:0:0:0:
192,192,145656,1,0,0:0:0:100:clap09.wav
320,192,145656,128,0,148677:0:0:0:0:
64,192,146951,1,0,0:0:0:0:
448,192,147382,1,0,0:0:0:100:clap09.wav
64,192,148677,128,0,152130:0:0:0:0:
192,192,148677,1,0,0:0:0:0:
448,192,149109,1,0,0:0:0:100:clap09.wav
320,192,150404,1,0,0:0:0:0:
192,192,150836,1,0,0:0:0:100:clap09.wav
320,192,152130,1,0,0:0:0:0:
448,192,152130,128,0,155584:0:0:0:0:
64,192,152562,1,0,0:0:0:100:clap09.wav
64,192,153857,1,0,0:0:0:0:
320,192,154289,1,0,0:0:0:100:clap09.wav
64,192,155584,1,0,0:0:0:0:
192,192,155584,128,0,157310:0:0:0:0:
448,192,156015,1,0,0:0:0:100:clap09.wav
320,192,157095,1,0,0:0:0:0:
64,192,157310,1,0,0:0:0:70:Kick 18.wav
448,192,157310,1,0,0:0:0:0:
192,192,158174,128,0,158605:0:0:0:0:
320,192,158605,128,0,159037:0:0:0:0:
64,192,159037,128,0,161195:0:0:0:70:Kick 18.wav
448,192,159037,1,0,0:0:0:70:cymbal10.wav
192,192,159469,1,0,0:0:0:70:Kick 18.wav
448,192,159900,1,0,0:0:0:70:Kick 18.wav
320,192,160332,1,0,0:0:0:70:Kick 18.wav
192,192,160764,1,0,0:0:0:70:Kick 18.wav
448,192,161195,128,0,161627:0:0:0:70:Kick 18.wav
64,192,161627,128,0,162059:0:0:0:70:Kick 18.wav
448,192,162059,128,0,162490:0:0:0:70:Kick 18.wav
192,192,162490,128,0,162922:0:0:0:70:Kick 18.wav
448,192,162922,128,0,164217:0:0:0:70:Kick 18.wav
64,192,163353,1,0,0:0:0:70:Kick 18.wav
320,192,163785,1,0,0:0:0:70:Kick 18.wav
64,192,164217,128,0,164648:0:0:0:70:Kick 18.wav
320,192,164648,128,0,165080:0:0:0:70:Kick 18.wav
192,192,165080,1,0,0:0:0:70:Kick 18.wav
64,192,165512,128,0,165943:0:0:0:70:Kick 18.wav
320,192,165943,1,0,0:0:0:70:Kick 18.wav
448,192,165943,128,0,168102:0:0:0:0:
64,192,166375,1,0,0:0:0:70:Kick 18.wav
320,192,166807,1,0,0:0:0:70:Kick 18.wav
64,192,167238,1,0,0:0:0:70:Kick 18.wav
192,192,167670,1,0,0:0:0:70:Kick 18.wav
320,192,168102,128,0,168533:0:0:0:70:Kick 18.wav
64,192,168533,128,0,168965:0:0:0:70:Kick 18.wav
192,192,168965,128,0,169397:0:0:0:70:Kick 18.wav
320,192,169397,128,0,169828:0:0:0:70:Kick 18.wav
448,192,169828,128,0,170260:0:0:0:70:Kick 18.wav
64,192,170260,128,0,170692:0:0:0:70:Kick 18.wav
448,192,170692,128,0,171123:0:0:0:70:Kick 18.wav
192,192,171123,128,0,171555:0:0:0:70:Kick 18.wav
448,192,171555,1,0,0:0:0:70:Kick 18.wav
320,192,171987,128,0,172418:0:0:0:70:Kick 18.wav
192,192,172418,128,0,172850:0:0:0:70:Kick 18.wav
64,192,172850,1,0,0:0:0:70:Kick 18.wav
448,192,172850,128,0,175008:0:0:0:70:cymbal10.wav
320,192,173282,1,0,0:0:0:70:Kick 18.wav
64,192,173713,1,0,0:0:0:70:Kick 18.wav
192,192,174145,1,0,0:0:0:70:Kick 18.wav
320,192,174577,1,0,0:0:0:70:Kick 18.wav
64,192,175008,128,0,175440:0:0:0:70:Kick 18.wav
448,192,175440,128,0,175871:0:0:0:70:Kick 18.wav
64,192,175871,128,0,176303:0:0:0:70:Kick 18.wav
320,192,176303,128,0,176735:0:0:0:70:Kick 18.wav
64,192,176735,128,0,178030:0:0:0:70:Kick 18.wav
448,192,177166,1,0,0:0:0:70:Kick 18.wav
192,192,177598,1,0,0:0:0:70:Kick 18.wav
448,192,178030,128,0,178461:0:0:0:70:Kick 18.wav
192,192,178461,128,0,178893:0:0:0:70:Kick 18.wav
320,192,178893,1,0,0:0:0:70:Kick 18.wav
448,192,179325,128,0,179756:0:0:0:70:Kick 18.wav
64,192,179756,128,0,181915:0:0:0:70:Kick 18.wav
192,192,179756,1,0,0:0:0:0:
448,192,180188,1,0,0:0:0:70:Kick 18.wav
192,192,180620,1,0,0:0:0:70:Kick 18.wav
448,192,181051,1,0,0:0:0:70:Kick 18.wav
192,192,181483,1,0,0:0:0:70:Kick 18.wav
448,192,181915,128,0,182346:0:0:0:70:Kick 18.wav
320,192,182346,128,0,182778:0:0:0:70:Kick 18.wav
192,192,182778,128,0,183210:0:0:0:70:Kick 18.wav
64,192,183210,128,0,183641:0:0:0:70:Kick 18.wav
448,192,183641,128,0,184073:0:0:0:70:Kick 18.wav
64,192,184073,128,0,184505:0:0:0:70:Kick 18.wav
320,192,184505,128,0,184936:0:0:0:70:Kick 18.wav
64,192,184936,1,0,0:0:0:70:Kick 18.wav
448,192,184936,1,0,0:0:0:70:cymbal10.wav
192,192,185152,1,0,0:0:0:70:Kick 12.wav
320,192,185368,1,0,0:0:0:100:clap09.wav
64,192,185800,1,0,0:0:0:70:Kick 12.wav
448,192,185800,1,0,0:0:0:0:
64,192,186123,1,0,0:0:0:70:Kick 12.wav
448,192,186123,1,0,0:0:0:0:
448,192,186555,1,0,0:0:0:70:Kick 12.wav
192,192,186663,1,0,0:0:0:70:Kick 18.wav
320,192,186663,1,0,0:0:0:70:cymbal10.wav
64,192,187095,1,0,0:0:0:70:Kick 18.wav
448,192,187526,1,0,0:0:0:70:Kick 18.wav
320,192,187958,1,0,0:0:0:70:Kick 18.wav
192,192,188389,1,0,0:0:0:70:Kick 18.wav
64,192,188821,1,0,0:0:0:70:Kick 18.wav
320,192,189253,1,0,0:0:0:70:Kick 18.wav
448,192,189684,1,0,0:0:0:70:Kick 18.wav
64,192,190116,1,0,0:0:0:70:Kick 18.wav
448,192,190548,1,0,0:0:0:70:Kick 18.wav
192,192,190979,1,0,0:0:0:70:Kick 18.wav
64,192,191411,1,0,0:0:0:70:Kick 18.wav
320,192,191843,1,0,0:0:0:70:Kick 18.wav
192,192,192274,1,0,0:0:0:70:Kick 18.wav
448,192,192706,1,0,0:0:0:70:Kick 18.wav
320,192,193138,1,0,0:0:0:70:Kick 18.wav
64,192,193569,128,0,194001:0:0:0:70:Kick 18.wav
448,192,194001,128,0,194433:0:0:0:70:Kick 18.wav
64,192,194433,128,0,194864:0:0:0:70:Kick 18.wav
320,192,194864,128,0,195296:0:0:0:70:Kick 18.wav
448,192,195296,128,0,195728:0:0:0:70:Kick 18.wav
64,192,195728,128,0,196159:0:0:0:70:Kick 18.wav
448,192,196159,128,0,196591:0:0:0:70:Kick 18.wav
192,192,196591,128,0,197023:0:0:0:70:Kick 18.wav
320,192,197023,128,0,197454:0:0:0:70:Kick 18.wav
64,192,197454,128,0,197886:0:0:0:70:Kick 18.wav
320,192,197886,128,0,198318:0:0:0:70:Kick 18.wav
192,192,198318,128,0,198749:0:0:0:70:Kick 18.wav
448,192,198749,128,0,199181:0:0:0:70:Kick 18.wav
64,192,199181,128,0,199612:0:0:0:70:Kick 18.wav
192,192,199612,1,0,0:0:0:70:Kick 18.wav
448,192,199828,1,0,0:0:0:70:Kick 18.wav
320,192,200044,1,0,0:0:0:70:Kick 18.wav
192,192,200260,128,0,200476:0:0:0:70:Kick 12.wav
64,192,200476,1,0,0:0:0:70:Kick 18.wav
448,192,200476,1,0,0:0:0:70:cymbal10.wav
320,192,200907,1,0,0:0:0:70:Kick 18.wav
64,192,201339,1,0,0:0:0:70:Kick 18.wav
192,192,201771,1,0,0:0:0:70:Kick 18.wav
320,192,202202,1,0,0:0:0:70:Kick 18.wav
448,192,202634,1,0,0:0:0:70:Kick 18.wav
192,192,203066,1,0,0:0:0:70:Kick 18.wav
64,192,203497,1,0,0:0:0:70:Kick 18.wav
448,192,203929,1,0,0:0:0:70:Kick 18.wav
64,192,204361,1,0,0:0:0:70:Kick 18.wav
320,192,204792,1,0,0:0:0:70:Kick 18.wav
448,192,205224,1,0,0:0:0:70:Kick 18.wav
192,192,205656,1,0,0:0:0:70:Kick 18.wav
320,192,206087,1,0,0:0:0:70:Kick 18.wav
64,192,206519,1,0,0:0:0:70:Kick 18.wav
192,192,206951,1,0,0:0:0:70:Kick 18.wav
320,192,207166,1,0,0:0:0:70:Kick 18.wav
448,192,207382,128,0,209109:0:0:0:70:Kick 18.wav
64,192,207814,1,0,0:0:0:70:Kick 18.wav
320,192,208246,1,0,0:0:0:70:Kick 18.wav
64,192,208677,1,0,0:0:0:70:Kick 18.wav
192,192,209109,128,0,210836:0:0:0:70:Kick 18.wav
448,192,209541,1,0,0:0:0:70:Kick 18.wav
64,192,209972,1,0,0:0:0:70:Kick 18.wav
320,192,210404,1,0,0:0:0:70:Kick 18.wav
64,192,210836,128,0,212562:0:0:0:70:Kick 18.wav
448,192,211267,1,0,0:0:0:70:Kick 18.wav
192,192,211699,1,0,0:0:0:70:Kick 18.wav
448,192,212130,1,0,0:0:0:70:Kick 18.wav
320,192,212562,128,0,214289:0:0:0:70:Kick 18.wav
64,192,212994,1,0,0:0:0:70:Kick 18.wav
448,192,213425,1,0,0:0:0:70:Kick 18.wav
192,192,213857,128,0,214289:0:0:0:70:Kick 18.wav
64,192,214289,1,0,0:0:0:70:Kick 18.wav
448,192,214289,1,0,0:0:0:70:cymbal10.wav
