osu file format v14

[General]
AudioFilename: audio.mp3
AudioLeadIn: 0
PreviewTime: 72470
Countdown: 0
SampleSet: Soft
StackLeniency: 0.4
Mode: 0
LetterboxInBreaks: 0
WidescreenStoryboard: 0

[Editor]
Bookmarks: 14725,43598,72470,101342,115778,130214,159539,173975,192020,220892
DistanceSpacing: 0.4
BeatDivisor: 4
GridSize: 32
TimelineZoom: 3.299999

[Metadata]
Title:goldenslaughterer
TitleUnicode:goldenslaughterer
Artist:zts
ArtistUnicode:zts
Creator:Vereor Nox
Version:Expert
Source:うみねこのなく頃に
Tags:umineko no naku koro ni 07th expansion seagulls when cry musicbox red noxy
BeatmapID:1947091
BeatmapSetID:932589

[Difficulty]
HPDrainRate:7
CircleSize:4
OverallDifficulty:8
ApproachRate:8
SliderMultiplier:2.2
SliderTickRate:1

[Events]
//Background and Video events
0,0,"maria.jpg",0,0
//Break Periods
//Storyboard Layer 0 (Background)
//Storyboard Layer 1 (Fail)
//Storyboard Layer 2 (Pass)
//Storyboard Layer 3 (Foreground)
//Storyboard Sound Samples

[TimingPoints]
289,451.127819548872,4,2,1,30,1,0
289,-1000,4,2,1,10,0,0
14726,-200,4,2,1,30,0,0
20365,-100,4,2,1,30,0,0
20590,-200,4,2,1,35,0,0
21041,-200,4,2,2,35,0,0
21718,-100,4,2,1,35,0,0
21944,-133.333333333333,4,2,1,40,0,0
43598,-133.333333333333,4,2,1,45,0,0
57132,-133.333333333333,4,2,1,46,0,0
57357,-133.333333333333,4,2,1,47,0,0
57583,-133.333333333333,4,2,1,48,0,0
57808,-133.333333333333,4,2,1,49,0,0
58034,-117.647058823529,4,2,1,50,0,0
72469,-100,4,2,1,50,0,0
86905,-86.9565217391304,4,2,1,55,0,0
99988,-80,4,2,1,55,0,0
100439,-74.0740740740741,4,2,1,55,0,0
101341,-133.333333333333,4,2,1,35,0,0
104950,-200,4,2,1,15,0,0
106755,-333.333333333333,4,2,1,10,0,0
108559,-133.333333333333,4,2,1,35,0,0
112168,-200,4,2,1,15,0,0
113973,-333.333333333333,4,2,1,10,0,0
114424,-333.333333333333,4,2,1,15,0,0
114649,-333.333333333333,4,2,1,20,0,0
114875,-333.333333333333,4,2,1,25,0,0
115101,-333.333333333333,4,2,1,30,0,0
115326,-333.333333333333,4,2,1,35,0,0
115552,-333.333333333333,4,2,1,40,0,0
115778,-200,4,2,1,45,0,0
126605,-100,4,2,1,50,0,0
129989,-200,4,2,1,50,0,0
130214,-80,4,2,1,60,0,0
134725,-66.6666666666667,4,2,1,60,0,0
135177,-80,4,2,1,60,0,0
141944,-66.6666666666667,4,2,1,60,0,0
142846,-80,4,2,1,60,0,0
143522,-80,4,2,1,62,0,0
143748,-66.6666666666667,4,2,1,64,0,0
143974,-57.1428571428571,4,2,1,66,0,0
144199,-50,4,2,1,68,0,0
144425,-44.4444444444445,4,2,1,70,0,0
144876,-66.6666666666667,4,2,1,70,0,0
159086,-200,4,2,1,60,0,0
159539,451.127819548872,4,2,1,50,1,0
159539,-333.333333333333,4,2,1,50,0,0
159567,-333.333333333333,4,2,2,30,0,0
159595,-333.333333333333,4,2,1,30,0,0
161343,-333.333333333333,4,2,1,30,0,0
163373,-500,4,2,1,30,0,0
170591,-1000,4,2,1,30,0,0
173523,-50,4,2,1,30,0,0
173975,-100,4,2,1,40,0,0
180290,-200,4,2,1,40,0,0
180742,-66.6666666666667,4,2,1,40,0,0
181193,-100,4,2,1,40,0,0
187508,-100,4,2,1,45,0,0
188411,-100,4,2,1,50,0,0
190215,-100,4,2,1,55,0,0
191117,-333.333333333333,4,2,1,45,0,0
192020,-80,4,2,1,60,0,0
206456,-66.6666666666667,4,2,1,70,0,0
213674,-66.6666666666667,4,2,1,75,0,0
217283,-66.6666666666667,4,2,1,80,0,0
220215,-57.1428571428571,4,2,1,80,0,0
220441,-50,4,2,1,80,0,0
220666,-44.4444444444445,4,2,1,80,0,0

[Colours]
Combo1 : 156,33,182
Combo2 : 193,36,36
Combo3 : 225,139,45
Combo4 : 184,22,115

[HitObjects]
57,382,289,6,2,L|49:206,1,176,0|0,0:0|0:0,0:0:0:0:
465,13,7507,6,2,L|449:267,1,253,0|0,0:0|0:0,0:0:0:0:
36,137,14726,6,0,P|65:129|104:128,1,55,0|2,3:0|0:3,0:0:0:0:
116,202,15177,2,0,P|146:208|181:224,1,55,0|2,3:0|0:3,0:0:0:0:
238,185,15628,1,8,0:1:0:0:
238,185,16079,5,2,0:3:0:0:
296,237,16304,2,0,P|295:267|299:293,1,55,0|0,3:0|0:3,0:0:0:0:
372,322,16756,1,2,0:3:0:0:
320,380,16981,2,0,P|290:379|264:383,1,55,0|0,3:0|0:3,0:0:0:0:
198,347,17432,1,8,0:1:0:0:
42,344,17883,5,2,3:0:0:0:
84,281,18109,1,0,3:0:0:0:
47,220,18335,1,2,0:0:0:0:
47,220,18560,1,2,0:3:0:0:
302,151,19237,5,2,0:3:0:0:
502,246,20139,6,0,L|486:251,3,13.75,2|0|0|0,0:3|0:0|0:0|0:0,0:0:0:0:
467,262,20365,6,0,L|469:222,3,27.5,2|2|2|2,0:0|0:0|0:0|0:0,0:0:0:0:
474,161,20590,1,2,0:0:0:0:
378,37,21041,6,0,L|382:52,1,13.75,8|8,0:1|0:1,0:1:0:0:
376,40,21154,2,0,L|376:56,1,13.75,8|8,0:1|0:1,0:1:0:0:
373,41,21267,2,0,L|368:58,1,13.75,8|8,0:1|0:1,0:1:0:0:
370,42,21380,1,8,0:1:0:0:
180,87,21718,6,0,L|186:47,1,27.5,0|0,3:0|3:0,0:0:0:0:
196,97,21831,2,0,L|202:57,1,27.5,0|0,3:0|3:0,0:0:0:0:
219,107,21944,5,4,0:1:0:0:
192,216,22395,1,0,3:0:0:0:
169,322,22846,1,8,0:3:0:0:
395,92,23522,5,0,3:0:0:0:
300,31,23974,1,2,0:3:0:0:
227,60,24199,1,0,3:0:0:0:
118,32,24650,1,8,0:1:0:0:
113,43,25101,1,2,0:3:0:0:
99,122,25327,1,4,0:3:0:0:
296,134,25553,5,0,3:0:0:0:
320,246,26004,1,0,3:0:0:0:
344,358,26455,1,8,0:3:0:0:
337,252,26906,1,2,0:3:0:0:
271,295,27132,1,0,3:0:0:0:
178,248,27357,6,2,L|186:352,1,82.5000031471254,2|8,0:0|0:0,0:0:0:0:
130,384,27808,1,0,3:0:0:0:
126,193,28259,1,8,0:1:0:0:
80,21,28936,5,0,3:0:0:0:
21,70,29162,5,4,0:1:0:0:
145,81,29613,1,0,3:0:0:0:
270,93,30064,1,8,0:1:0:0:
389,343,30741,5,0,3:0:0:0:
406,210,31192,1,2,0:3:0:0:
358,150,31417,1,0,3:0:0:0:
415,29,31868,1,8,0:1:0:0:
419,44,32319,1,2,0:3:0:0:
336,38,32545,1,4,0:3:0:0:
182,52,32771,5,0,3:0:0:0:
212,192,33222,1,0,3:0:0:0:
185,334,33673,1,8,0:1:0:0:
210,207,34124,1,2,0:3:0:0:
146,258,34350,1,0,3:0:0:0:
60,252,34575,6,2,L|48:131,1,82.5000031471254,2|8,0:0|0:0,0:0:0:0:
95,103,35026,1,0,3:0:0:0:
55,278,35477,1,8,0:1:0:0:
411,142,36154,5,0,0:0:0:0:
444,229,36380,5,4,0:1:0:0:
298,196,36831,1,0,3:0:0:0:
154,164,37282,1,8,0:1:0:0:
234,368,37959,5,0,3:0:0:0:
144,252,38410,1,2,0:3:0:0:
64,270,38635,1,0,3:0:0:0:
0,137,39086,1,8,0:1:0:0:
11,144,39538,1,0,0:0:0:0:
96,99,39763,1,0,0:0:0:0:
280,90,39989,5,0,3:0:0:0:
263,237,40440,1,0,3:0:0:0:
246,384,40891,1,8,0:1:0:0:
251,247,41342,1,2,0:3:0:0:
352,271,41568,1,0,3:0:0:0:
445,218,41793,6,2,L|439:336,1,82.5000031471254,2|8,0:0|0:0,0:0:0:0:
373,371,42244,1,0,3:0:0:0:
337,101,42695,1,8,0:1:0:0:
35,243,43372,5,0,3:0:0:0:
66,138,43598,5,2,1:3:0:0:
145,189,43823,1,2,0:0:0:0:
145,189,43936,1,0,0:0:0:0:
145,189,44049,1,2,0:3:0:0:
218,133,44274,1,0,3:0:0:0:
316,123,44500,5,8,0:1:0:0:
339,130,44613,1,0,0:0:0:0:
363,132,44725,1,0,0:0:0:0:
386,124,44838,1,0,0:0:0:0:
404,107,44951,1,2,0:3:0:0:
411,83,45064,1,0,0:0:0:0:
416,107,45177,1,0,3:0:0:0:
423,130,45289,1,0,0:0:0:0:
429,152,45401,6,0,L|433:254,1,82.5000031471254,2|2,1:3|0:3,0:0:0:0:
355,296,45853,1,0,3:0:0:0:
333,307,45966,1,0,0:0:0:0:
308,304,46079,1,2,0:3:0:0:
285,314,46192,1,0,0:0:0:0:
260,313,46304,5,8,0:1:0:0:
150,240,46530,1,2,0:0:0:0:
152,264,46643,1,0,0:0:0:0:
155,288,46756,2,0,L|163:386,1,82.5000031471254,2|0,0:3|3:0,0:0:0:0:
32,288,47207,5,2,1:3:0:0:
0,198,47432,2,0,L|81:219,1,82.5000031471254,2|2,0:0|0:3,0:0:0:0:
104,224,47771,1,0,0:0:0:0:
128,222,47883,1,0,3:0:0:0:
150,211,47996,1,0,0:0:0:0:
165,191,48109,5,8,0:1:0:0:
98,117,48335,1,2,0:0:0:0:
100,92,48447,1,0,0:0:0:0:
103,67,48560,1,2,0:3:0:0:
106,42,48673,1,2,0:0:0:0:
204,13,48898,1,2,0:0:0:0:
204,13,49011,6,0,L|212:102,1,82.5000031471254,2|0,1:3|0:0,0:0:0:0:
258,182,49462,1,0,3:0:0:0:
282,178,49575,1,2,0:0:0:0:
306,175,49688,1,2,0:3:0:0:
330,169,49801,1,2,0:0:0:0:
354,166,49913,5,8,0:1:0:0:
380,62,50139,1,2,0:0:0:0:
380,62,50252,1,0,0:0:0:0:
380,62,50365,1,2,0:3:0:0:
461,126,50590,1,0,3:0:0:0:
389,300,50815,6,0,L|380:196,1,82.5000031471254,2|0,1:3|0:0,0:0:0:0:
302,302,51267,1,2,0:3:0:0:
277,307,51380,1,2,0:0:0:0:
252,310,51492,1,0,0:0:0:0:
227,315,51605,1,2,0:0:0:0:
190,299,51718,5,8,0:1:0:0:
175,201,51944,1,2,0:0:0:0:
185,178,52056,1,0,0:0:0:0:
160,171,52169,1,2,0:3:0:0:
135,165,52282,1,2,0:0:0:0:
110,160,52395,1,0,3:0:0:0:
114,135,52507,1,2,0:0:0:0:
121,111,52620,5,2,1:3:0:0:
43,199,52846,1,2,0:0:0:0:
120,265,53071,1,0,3:0:0:0:
124,297,53184,1,2,0:0:0:0:
128,329,53297,1,2,0:3:0:0:
133,361,53410,1,2,0:0:0:0:
180,358,53522,5,8,0:1:0:0:
180,358,53635,1,2,0:0:0:0:
203,228,53861,1,2,0:0:0:0:
172,239,53974,1,2,0:3:0:0:
145,220,54086,1,2,0:0:0:0:
113,228,54199,1,0,3:0:0:0:
4,147,54425,5,2,1:3:0:0:
80,79,54650,1,2,0:0:0:0:
80,79,54763,1,0,0:0:0:0:
80,79,54876,1,2,0:3:0:0:
174,127,55101,1,0,3:0:0:0:
233,12,55327,5,8,0:1:0:0:
314,75,55553,1,2,0:0:0:0:
313,107,55665,1,0,0:0:0:0:
311,140,55778,1,2,0:3:0:0:
400,208,56004,1,0,0:3:0:0:
403,240,56116,1,2,0:0:0:0:
405,269,56228,6,0,L|411:378,1,82.5000031471254,2|0,1:3|0:0,0:0:0:0:
491,308,56680,1,2,0:3:0:0:
491,308,56793,1,0,0:0:0:0:
491,308,56906,1,2,0:0:0:0:
371,354,57132,5,8,0:1:0:0:
344,334,57244,1,2,0:0:0:0:
317,353,57357,1,0,0:0:0:0:
286,341,57470,1,2,0:0:0:0:
249,359,57583,1,2,0:3:0:0:
213,337,57695,1,2,0:0:0:0:
158,354,57808,1,0,3:0:0:0:
111,319,57921,1,2,0:0:0:0:
76,349,58034,5,4,1:0:0:0:
125,226,58259,1,2,0:3:0:0:
108,103,58485,1,8,1:0:0:0:
143,115,58598,1,2,0:0:0:0:
178,127,58710,1,2,0:0:0:0:
324,87,58936,5,0,1:0:0:0:
324,87,59049,1,0,0:0:0:0:
323,124,59162,1,2,0:3:0:0:
345,153,59274,1,0,0:0:0:0:
340,190,59387,5,8,1:0:0:0:
305,204,59500,1,0,0:0:0:0:
353,227,59613,1,2,0:3:0:0:
318,241,59725,1,2,0:0:0:0:
315,292,59838,5,0,1:0:0:0:
439,299,60064,1,2,0:3:0:0:
449,167,60289,1,8,1:0:0:0:
461,34,60515,1,2,0:0:0:0:
424,40,60628,1,0,0:0:0:0:
387,46,60741,5,0,1:0:0:0:
387,46,60853,1,8,1:0:0:0:
234,59,61079,1,0,1:0:0:0:
234,9,61192,1,8,1:0:0:0:
197,16,61304,1,0,0:0:0:0:
160,25,61417,1,2,0:3:0:0:
124,35,61530,1,8,1:0:0:0:
124,35,61643,5,0,1:0:0:0:
23,101,61868,1,2,0:3:0:0:
99,190,62094,1,8,1:0:0:0:
103,227,62207,1,0,0:0:0:0:
106,263,62319,1,2,0:0:0:0:
110,300,62432,1,0,0:0:0:0:
116,336,62545,5,0,1:0:0:0:
116,336,62658,1,8,0:1:0:0:
239,370,62883,1,0,0:1:0:0:
239,370,62996,1,8,1:0:0:0:
355,321,63222,1,2,0:3:0:0:
509,183,63447,5,0,1:0:0:0:
381,148,63673,1,2,0:3:0:0:
281,190,63898,1,8,1:0:0:0:
243,187,64011,1,0,0:0:0:0:
213,210,64124,1,2,0:0:0:0:
176,203,64237,1,0,1:0:0:0:
176,203,64350,5,0,1:0:0:0:
172,156,64462,1,8,1:0:0:0:
168,109,64575,1,2,0:3:0:0:
83,44,64801,1,8,1:0:0:0:
60,178,65026,1,0,1:0:0:0:
54,224,65139,1,0,1:0:0:0:
47,270,65252,5,4,1:0:0:0:
113,376,65477,1,2,0:3:0:0:
249,343,65703,1,8,1:0:0:0:
285,350,65816,1,2,0:0:0:0:
321,359,65929,1,2,0:0:0:0:
437,259,66154,5,0,1:0:0:0:
400,266,66267,1,2,0:0:0:0:
363,275,66380,1,2,0:3:0:0:
326,283,66492,5,2,0:0:0:0:
312,248,66605,1,8,1:0:0:0:
333,217,66718,1,0,0:0:0:0:
312,185,66831,1,2,0:3:0:0:
326,20,67056,5,0,1:0:0:0:
207,67,67282,1,2,0:3:0:0:
368,111,67507,1,8,1:0:0:0:
405,108,67620,1,2,0:0:0:0:
437,104,67733,1,0,0:0:0:0:
469,100,67846,1,2,0:0:0:0:
501,96,67959,5,0,1:0:0:0:
501,142,68071,1,8,1:0:0:0:
417,255,68296,1,0,1:0:0:0:
421,285,68409,1,8,1:0:0:0:
493,374,68635,1,2,0:3:0:0:
455,377,68748,1,0,1:0:0:0:
416,384,68861,5,0,1:0:0:0:
289,354,69086,1,2,0:3:0:0:
160,368,69311,1,8,1:0:0:0:
127,362,69424,1,2,0:0:0:0:
95,354,69537,1,2,0:0:0:0:
41,217,69762,5,0,1:0:0:0:
72,227,69875,1,8,1:0:0:0:
182,114,70101,1,0,1:0:0:0:
151,124,70214,1,8,1:0:0:0:
34,96,70439,1,2,0:3:0:0:
225,11,70664,5,0,1:0:0:0:
266,143,70890,1,2,0:3:0:0:
243,269,71116,1,8,1:0:0:0:
266,267,71228,1,2,0:0:0:0:
290,288,71341,1,2,0:3:0:0:
315,285,71453,1,0,1:0:0:0:
315,285,71567,5,0,1:0:0:0:
469,304,71792,1,0,1:0:0:0:
405,160,72018,1,8,1:0:0:0:
392,245,72243,1,0,1:0:0:0:
325,211,72356,5,0,1:0:0:0:
261,257,72469,6,0,B|244:309|244:309|284:380,1,110,4|2,1:0|0:3,0:0:0:0:
361,384,72920,1,8,1:0:0:0:
338,297,73146,1,2,0:3:0:0:
338,297,73258,1,0,0:0:0:0:
338,297,73371,1,0,1:0:0:0:
198,291,73597,1,2,0:3:0:0:
168,375,73822,1,8,1:0:0:0:
140,222,74048,1,2,0:3:0:0:
113,229,74161,1,2,0:0:0:0:
87,239,74273,6,0,P|70:183|92:112,1,110,0|2,1:0|0:3,0:0:0:0:
155,62,74725,1,8,1:0:0:0:
254,107,74950,1,2,0:3:0:0:
258,134,75063,1,0,0:0:0:0:
261,161,75176,5,0,1:0:0:0:
287,168,75288,1,8,1:0:0:0:
322,152,75401,1,0,1:0:0:0:
348,144,75514,1,0,1:0:0:0:
382,161,75627,5,8,1:0:0:0:
446,24,75852,1,2,0:3:0:0:
446,24,75965,1,8,1:0:0:0:
446,24,76078,6,0,B|464:70|464:70|449:130,1,110,0|2,1:0|0:3,0:0:0:0:
337,217,76529,2,0,L|344:90,1,110,8|2,1:0|0:3,0:0:0:0:
258,29,76980,1,0,1:0:0:0:
241,51,77093,1,2,0:0:0:0:
227,72,77206,1,2,0:3:0:0:
234,98,77319,1,2,0:0:0:0:
244,123,77431,1,8,1:0:0:0:
342,222,77657,1,2,0:3:0:0:
342,249,77770,1,2,0:0:0:0:
344,276,77882,6,0,L|218:257,1,110,0|2,1:0|0:3,0:0:0:0:
95,230,78334,1,8,1:0:0:0:
178,161,78559,1,2,0:3:0:0:
178,161,78672,1,0,0:0:0:0:
178,161,78785,5,0,1:0:0:0:
181,188,78898,1,2,0:0:0:0:
164,222,79010,1,2,0:3:0:0:
158,249,79123,1,2,0:0:0:0:
177,282,79236,1,8,1:0:0:0:
190,316,79349,1,0,0:0:0:0:
190,316,79461,1,8,1:0:0:0:
190,316,79574,1,8,1:0:0:0:
190,316,79687,6,0,B|241:302|241:302|318:323,1,110,0|2,1:0|0:3,0:0:0:0:
418,358,80138,1,8,1:0:0:0:
415,319,80251,1,0,0:0:0:0:
410,280,80364,1,2,0:3:0:0:
320,212,80589,1,0,1:0:0:0:
310,318,80815,1,2,0:3:0:0:
492,303,81040,1,8,1:0:0:0:
441,180,81266,1,2,0:3:0:0:
464,194,81379,1,2,0:0:0:0:
488,207,81492,6,0,P|501:156|483:96,1,110,0|2,1:0|0:3,0:0:0:0:
384,34,81943,1,8,1:0:0:0:
297,98,82168,1,2,0:3:0:0:
269,94,82281,1,0,0:0:0:0:
241,89,82394,5,0,1:0:0:0:
224,123,82507,1,2,0:0:0:0:
238,154,82619,1,2,0:3:0:0:
225,190,82732,1,2,0:0:0:0:
237,226,82845,1,8,1:0:0:0:
141,163,83070,1,2,0:3:0:0:
141,163,83183,1,8,1:0:0:0:
141,163,83296,6,0,B|119:107|119:107|152:37,1,110,0|2,1:0|0:3,0:0:0:0:
268,11,83747,2,0,L|259:140,1,110,8|2,1:0|0:3,0:0:0:0:
367,176,84198,1,0,1:0:0:0:
379,151,84311,1,8,1:0:0:0:
500,131,84537,1,0,1:0:0:0:
512,156,84650,1,8,1:0:0:0:
453,275,84875,1,2,0:3:0:0:
451,302,84988,1,2,0:0:0:0:
449,329,85101,6,0,P|387:329|342:372,1,110,0|2,1:0|0:3,0:0:0:0:
269,262,85552,1,8,1:0:0:0:
188,359,85777,1,2,0:3:0:0:
188,359,85890,1,2,0:0:0:0:
188,359,86003,5,0,1:0:0:0:
160,355,86116,1,0,1:0:0:0:
144,320,86228,1,2,0:3:0:0:
117,327,86341,1,0,1:0:0:0:
73,305,86454,1,8,1:0:0:0:
115,147,86679,1,8,1:0:0:0:
158,155,86792,1,8,1:0:0:0:
158,155,86905,6,0,P|167:86|147:0,1,126.500002412796,0|2,1:0|0:3,0:0:0:0:
32,21,87356,1,8,1:0:0:0:
22,149,87582,1,2,0:3:0:0:
155,162,87807,1,0,1:0:0:0:
294,126,88033,1,2,0:3:0:0:
290,155,88146,1,0,0:0:0:0:
285,186,88258,2,0,P|279:244|285:326,1,126.500002412796,8|2,1:0|0:3,0:0:0:0:
406,223,88710,6,0,P|421:164|386:72,1,126.500002412796,0|2,1:0|0:3,0:0:0:0:
286,25,89161,2,0,L|305:173,1,126.500002412796,8|2,1:0|0:3,0:0:0:0:
238,254,89612,1,0,1:0:0:0:
204,235,89725,1,2,0:0:0:0:
185,201,89837,1,2,0:3:0:0:
178,163,89950,1,2,0:0:0:0:
185,125,90063,1,8,1:0:0:0:
106,8,90288,1,2,0:3:0:0:
74,13,90401,1,2,0:0:0:0:
42,18,90514,6,0,B|61:78|61:78|33:155,1,126.500002412796,0|2,1:0|0:3,0:0:0:0:
99,264,90965,1,8,1:0:0:0:
161,140,91191,1,2,0:3:0:0:
161,140,91304,1,2,0:0:0:0:
161,140,91416,1,0,1:0:0:0:
257,236,91642,1,2,0:3:0:0:
250,266,91755,1,0,0:0:0:0:
270,304,91867,1,8,1:0:0:0:
277,334,91980,1,2,0:0:0:0:
418,348,92206,1,2,0:0:0:0:
439,354,92319,6,0,P|433:287|441:221,1,126.500002412796,0|2,1:0|0:3,0:0:0:0:
491,113,92770,1,8,1:0:0:0:
363,132,92995,1,2,0:3:0:0:
332,123,93108,1,0,0:0:0:0:
301,112,93221,1,0,1:0:0:0:
186,20,93446,1,2,0:3:0:0:
182,51,93559,1,0,0:0:0:0:
177,82,93672,1,8,1:0:0:0:
158,191,93898,1,8,1:0:0:0:
131,338,94123,6,0,P|199:318|279:331,1,126.500002412796,0|2,1:0|0:3,0:0:0:0:
379,363,94574,2,0,L|365:212,1,126.500002412796,8|2,1:0|0:3,0:0:0:0:
349,113,95025,1,0,1:0:0:0:
468,179,95251,1,2,0:3:0:0:
468,210,95364,1,0,0:0:0:0:
468,241,95476,1,8,1:0:0:0:
319,277,95702,1,2,0:3:0:0:
184,203,95928,6,0,L|193:336,1,126.500002412796,0|0,1:0|0:3,0:0:0:0:
309,261,96379,1,8,1:0:0:0:
301,133,96604,1,2,0:3:0:0:
159,110,96830,1,0,1:0:0:0:
152,140,96943,1,8,1:0:0:0:
186,342,97281,1,8,1:0:0:0:
75,258,97507,1,2,0:3:0:0:
46,271,97619,1,2,0:0:0:0:
16,281,97732,6,0,P|23:199|-9:133,1,126.500002412796,0|2,1:0|0:3,0:0:0:0:
129,42,98183,2,0,L|116:173,1,126.500002412796,8|2,1:0|0:3,0:0:0:0:
201,267,98634,1,0,1:0:0:0:
213,224,98747,1,2,0:0:0:0:
226,181,98860,1,2,0:3:0:0:
238,138,98973,1,2,0:0:0:0:
238,138,99085,1,8,0:1:0:0:
512,17,99537,6,2,P|453:20|416:111,1,126.500002412796,2|2,1:0|0:3,1:0:0:0:
426,126,99875,5,0,1:0:0:0:
396,162,99988,6,2,B|332:147|332:147|224:182,1,137.5,10|2,1:0|0:3,1:0:0:0:
207,194,100326,5,0,1:0:0:0:
157,156,100439,6,2,P|145:81|173:3,1,148.500000566483,2|2,1:0|1:3,1:0:0:0:
166,13,100777,1,0,1:0:0:0:
320,123,101116,1,8,1:0:0:0:
326,181,101228,1,8,1:0:0:0:
332,240,101341,5,4,1:0:0:0:
259,254,101567,1,0,0:0:0:0:
189,270,101792,1,0,0:0:0:0:
120,289,102018,1,2,0:0:0:0:
172,188,102243,1,2,0:0:0:0:
223,350,102469,6,0,L|230:317,2,27.5000010490418,2|2|2,0:0|0:0|0:0,0:0:0:0:
220,366,102695,1,2,0:0:0:0:
293,363,102920,1,2,0:0:0:0:
403,207,103146,5,2,0:0:0:0:
327,191,103371,1,0,0:0:0:0:
354,56,103597,1,0,0:0:0:0:
303,114,103822,1,2,0:0:0:0:
452,150,104048,1,2,0:0:0:0:
443,41,104273,6,0,L|435:78,2,27.5000010490418,2|2|2,0:0|0:0|0:0,0:0:0:0:
448,20,104499,1,2,0:0:0:0:
303,28,104950,5,2,0:0:0:0:
230,47,105176,2,0,L|234:21,2,18.3333333333333,2|2|2,0:0|0:0|0:0,0:0:0:0:
234,131,105627,1,2,0:0:0:0:
101,133,105852,5,2,0:0:0:0:
28,114,106078,2,0,L|32:140,2,18.3333333333333,2|2|2,0:0|0:0|0:0,0:0:0:0:
49,32,106529,1,2,0:0:0:0:
179,181,106755,5,2,0:0:0:0:
132,191,106980,2,0,L|147:195,2,10.9999996643067,2|2|2,0:0|0:0|0:0,0:0:0:0:
211,211,107431,1,2,0:0:0:0:
62,328,107657,5,2,0:0:0:0:
109,338,107882,2,0,L|94:342,2,10.9999996643067,2|2|2,0:0|0:0|0:0,0:0:0:0:
30,358,108333,1,2,0:0:0:0:
197,262,108559,5,2,0:0:0:0:
243,323,108785,1,0,0:0:0:0:
304,277,109010,1,0,0:0:0:0:
258,216,109236,1,2,0:0:0:0:
379,291,109461,1,2,0:0:0:0:
371,153,109687,6,0,L|376:193,2,27.5000010490418,2|2|2,0:0|0:0|0:0,0:0:0:0:
368,136,109913,1,2,0:0:0:0:
444,155,110138,1,2,0:0:0:0:
478,309,110364,5,2,0:0:0:0:
412,341,110589,1,2,0:0:0:0:
353,292,110815,1,0,0:0:0:0:
289,329,111040,1,2,0:0:0:0:
226,241,111266,1,2,0:0:0:0:
179,358,111492,6,0,L|146:364,2,27.5000010490418,2|2|2,0:0|0:0|0:0,0:0:0:0:
198,355,111717,1,2,0:0:0:0:
0,192,112168,5,2,0:0:0:0:
75,217,112394,2,0,L|100:222,2,18.3333333333333,2|2|2,0:0|0:0|0:0,0:0:0:0:
54,135,112845,1,2,0:0:0:0:
187,23,113070,5,2,0:0:0:0:
111,46,113296,2,0,L|86:51,2,18.3333333333333,2|2|2,0:0|0:0|0:0,0:0:0:0:
172,102,113747,1,2,0:0:0:0:
315,22,113973,5,2,0:0:0:0:
315,22,114198,2,0,L|329:24,2,10.9999996643067,2|2|2,0:0|0:0|0:0,0:0:0:0:
256,192,114424,12,0,115552,0:0:0:0:
17,307,115778,5,4,0:0:0:0:
113,282,116004,1,2,0:0:0:0:
124,289,116116,1,2,0:3:0:0:
135,296,116229,1,8,0:0:0:0:
135,296,116568,5,2,0:0:0:0:
134,309,116680,1,2,0:3:0:0:
240,347,116906,1,2,0:0:0:0:
236,333,117019,1,2,0:3:0:0:
208,223,117244,1,2,0:0:0:0:
219,230,117357,1,2,0:3:0:0:
362,67,117583,5,2,0:0:0:0:
244,30,117808,1,2,0:0:0:0:
139,70,118034,1,8,0:0:0:0:
41,22,118259,1,2,0:3:0:0:
124,174,118485,5,2,0:0:0:0:
203,221,118710,1,2,0:0:0:0:
202,234,118823,1,2,0:3:0:0:
201,247,118936,1,8,0:0:0:0:
284,167,119162,1,2,0:3:0:0:
426,195,119387,5,0,3:0:0:0:
415,290,119613,1,0,3:0:0:0:
404,383,119838,1,8,0:0:0:0:
319,270,120064,5,2,0:3:0:0:
322,283,120177,1,2,0:0:0:0:
324,296,120289,1,2,0:3:0:0:
223,235,120515,5,2,0:0:0:0:
221,248,120628,1,2,0:3:0:0:
142,321,120853,1,2,0:0:0:0:
140,308,120966,1,2,0:3:0:0:
28,177,121192,5,0,3:0:0:0:
133,187,121417,1,0,3:0:0:0:
231,196,121643,1,8,0:0:0:0:
231,196,121981,5,2,0:0:0:0:
234,209,122094,1,2,0:3:0:0:
119,300,122319,1,2,0:0:0:0:
125,288,122432,1,0,0:0:0:0:
130,275,122545,1,8,0:0:0:0:
105,160,122771,1,2,0:3:0:0:
251,296,122996,5,0,3:0:0:0:
241,186,123222,1,0,3:0:0:0:
232,76,123447,1,8,0:0:0:0:
232,76,123786,5,2,0:0:0:0:
244,81,123899,1,2,0:3:0:0:
336,144,124124,1,2,0:0:0:0:
324,149,124237,1,2,0:3:0:0:
320,257,124462,1,2,0:0:0:0:
332,262,124575,1,2,0:3:0:0:
470,186,124801,5,0,3:0:0:0:
468,172,124913,1,2,0:0:0:0:
466,158,125026,1,0,0:0:0:0:
464,144,125139,1,2,0:0:0:0:
462,130,125252,1,8,0:0:0:0:
404,34,125477,1,2,0:0:0:0:
390,37,125590,1,2,0:0:0:0:
376,40,125703,5,2,0:3:0:0:
227,76,125929,1,2,0:0:0:0:
241,79,126040,1,2,0:3:0:0:
255,82,126153,1,8,0:0:0:0:
300,4,126380,1,2,0:3:0:0:
248,167,126605,5,0,3:0:0:0:
220,171,126718,1,2,0:0:0:0:
192,176,126830,1,2,0:3:0:0:
161,298,127055,1,8,0:0:0:0:
45,343,127282,1,2,0:0:0:0:
39,315,127395,1,2,0:0:0:0:
34,288,127507,5,2,0:3:0:0:
52,185,127733,1,2,0:0:0:0:
56,158,127846,1,2,0:3:0:0:
60,131,127959,1,8,0:0:0:0:
16,17,128184,1,2,0:3:0:0:
175,32,128410,5,0,3:0:0:0:
185,33,128522,1,2,0:0:0:0:
195,34,128635,1,2,0:3:0:0:
205,35,128748,1,2,0:0:0:0:
225,53,128861,5,8,0:0:0:0:
229,80,128974,1,2,0:0:0:0:
234,106,129086,1,2,0:0:0:0:
238,133,129199,1,2,0:0:0:0:
276,163,129312,5,0,1:0:0:0:
319,139,129425,1,0,3:0:0:0:
366,152,129538,1,0,3:0:0:0:
414,147,129650,1,0,3:0:0:0:
477,180,129763,5,12,1:0:0:0:
383,311,129989,6,2,L|388:362,1,41.25,2|0,0:1|0:0,1:0:0:0:
377,369,130214,6,0,L|362:219,1,137.5,4|0,1:0|0:0,0:0:0:0:
358,197,130553,1,2,0:0:0:0:
355,162,130665,1,8,1:0:0:0:
250,171,130891,1,2,0:0:0:0:
28,115,131116,6,0,P|95:126|130:198,1,137.5,0|0,1:0|0:0,0:0:0:0:
131,216,131455,1,2,0:0:0:0:
113,245,131568,1,8,1:0:0:0:
38,308,131793,1,2,0:0:0:0:
37,202,132019,6,2,P|48:123|48:48,1,137.5,0|0,1:0|0:0,0:0:0:0:
47,30,132357,1,2,0:0:0:0:
75,10,132470,2,2,P|124:0|221:27,1,137.5,8|0,1:0|0:0,0:0:0:0:
231,44,132808,1,2,0:0:0:0:
231,44,132921,5,0,1:0:0:0:
236,64,133034,1,2,0:1:0:0:
224,96,133147,1,2,0:0:0:0:
229,116,133259,1,2,0:0:0:0:
248,144,133372,5,10,1:0:0:0:
402,160,133598,1,2,0:1:0:0:
315,345,133823,6,2,L|159:322,1,137.5,0|0,1:0|0:0,0:0:0:0:
184,337,134162,1,2,0:0:0:0:
189,349,134274,2,2,L|33:331,1,137.5,8|0,1:0|0:0,0:0:0:0:
66,330,134613,1,2,0:0:0:0:
78,325,134725,6,2,P|49:176|72:64,1,247.500009441376,0|2,1:0|0:0,0:1:0:0:
84,54,135177,5,8,1:0:0:0:
104,50,135289,1,2,0:0:0:0:
129,72,135402,1,2,0:0:0:0:
149,70,135515,1,2,0:0:0:0:
191,66,135628,5,0,1:0:0:0:
321,17,135853,1,2,0:0:0:0:
355,18,135966,1,2,0:0:0:0:
389,21,136079,2,0,P|430:31|452:129,1,137.5,8|0,1:0|0:0,0:0:0:0:
417,175,136417,5,0,1:0:0:0:
360,133,136530,6,0,B|295:124|295:124|220:155,1,137.5,0|0,1:0|0:0,0:0:0:0:
239,169,136868,1,2,0:0:0:0:
249,186,136981,1,8,1:0:0:0:
257,204,137094,1,0,0:0:0:0:
218,233,137207,5,8,1:0:0:0:
171,242,137319,1,8,1:0:0:0:
123,248,137432,5,0,1:0:0:0:
27,259,137658,1,2,0:3:0:0:
91,365,137883,1,8,1:0:0:0:
110,362,137996,1,2,0:0:0:0:
126,349,138109,1,2,0:3:0:0:
145,346,138222,1,2,0:0:0:0:
190,344,138335,5,0,1:0:0:0:
303,365,138560,1,2,0:3:0:0:
335,355,138673,1,2,0:0:0:0:
368,364,138786,1,8,1:0:0:0:
404,220,139011,1,2,0:3:0:0:
234,64,139237,6,2,P|303:71|347:120,1,137.5,0|2,1:0|0:3,0:0:0:0:
349,153,139575,1,2,0:0:0:0:
351,187,139688,2,2,P|411:210|495:179,1,137.5,8|2,1:0|0:3,0:0:0:0:
506,169,140026,1,0,0:0:0:0:
506,169,140139,5,0,1:0:0:0:
502,148,140252,1,2,0:1:0:0:
472,132,140365,1,2,0:3:0:0:
476,111,140476,1,2,0:0:0:0:
502,87,140590,5,10,1:0:0:0:
276,31,140816,1,2,0:1:0:0:
323,246,141041,6,2,L|330:93,1,137.5,0|2,1:0|0:3,0:0:0:0:
340,126,141380,1,0,0:0:0:0:
352,142,141492,2,2,L|348:-4,1,137.5,8|2,1:0|0:3,0:0:0:0:
362,19,141831,1,2,0:0:0:0:
380,35,141944,6,2,P|390:165|370:305,1,247.500009441376,0|2,1:0|0:0,0:1:0:0:
336,293,142395,5,8,1:0:0:0:
311,297,142507,1,2,0:0:0:0:
295,335,142620,1,2,0:3:0:0:
270,331,142733,1,2,0:0:0:0:
231,323,142846,5,2,1:0:0:0:
202,154,143071,1,2,0:3:0:0:
202,154,143184,1,0,0:0:0:0:
202,154,143297,1,10,1:0:0:0:
38,181,143522,6,2,L|53:297,1,68.75,2|0,0:1|0:0,0:1:0:0:
171,357,143748,6,2,L|192:233,1,82.5000031471254,2|0,1:0|0:0,0:1:0:0:
228,44,143974,6,2,L|118:70,1,96.2500009179115,2|0,0:1|1:0,0:1:0:0:
323,208,144199,6,2,L|334:55,1,110,10|0,1:0|0:0,0:1:0:0:
330,98,144425,5,2,1:0:0:0:
330,98,144538,1,2,1:0:0:0:
330,98,144650,6,2,P|446:126|489:264,1,247.500009441376,6|0,1:0|0:0,0:1:0:0:
486,269,144988,1,2,0:0:0:0:
462,291,145101,1,8,1:0:0:0:
306,298,145327,1,2,0:0:0:0:
274,308,145440,1,0,0:0:0:0:
258,337,145553,5,0,1:0:0:0:
258,337,145665,1,2,0:0:0:0:
225,342,145778,1,0,0:0:0:0:
192,346,145891,1,2,0:0:0:0:
159,351,146004,5,8,1:0:0:0:
186,190,146229,1,2,0:0:0:0:
26,20,146455,5,0,1:0:0:0:
262,162,146680,5,2,0:0:0:0:
254,243,146906,1,8,1:0:0:0:
347,122,147132,5,2,0:0:0:0:
347,122,147207,1,2,0:0:0:0:
347,122,147282,1,2,0:0:0:0:
347,122,147357,1,0,1:0:0:0:
185,114,147583,5,2,0:0:0:0:
185,114,147658,1,2,0:0:0:0:
185,114,147733,1,2,0:0:0:0:
185,114,147808,1,0,1:0:0:0:
344,20,148034,5,2,0:0:0:0:
443,173,148259,5,0,1:0:0:0:
496,308,148485,1,2,0:0:0:0:
492,340,148598,1,0,0:0:0:0:
487,372,148710,1,8,1:0:0:0:
311,262,148936,1,2,0:0:0:0:
360,257,149049,1,2,0:0:0:0:
409,254,149162,5,0,1:0:0:0:
275,183,149387,1,2,0:0:0:0:
288,357,149613,1,8,1:0:0:0:
142,266,149838,1,2,0:0:0:0:
184,19,150064,5,0,1:0:0:0:
50,196,150289,5,2,0:1:0:0:
64,296,150515,1,10,1:0:0:0:
432,325,150741,5,2,0:1:0:0:
446,225,150965,1,2,1:0:0:0:
253,87,151192,5,2,0:1:0:0:
253,87,151267,1,2,0:0:0:0:
253,87,151342,1,2,0:0:0:0:
253,87,151417,5,8,1:0:0:0:
264,215,151643,1,0,1:0:0:0:
254,263,151756,1,0,1:0:0:0:
266,310,151868,5,2,1:0:0:0:
267,151,152094,1,2,1:0:0:0:
478,41,152319,5,10,1:0:0:0:
493,116,152545,1,2,1:0:0:0:
290,61,152771,1,2,1:0:0:0:
347,10,152995,1,2,1:0:0:0:
399,214,153222,1,10,1:0:0:0:
327,192,153447,1,2,1:0:0:0:
150,68,153673,5,2,1:0:0:0:
162,203,153898,1,2,1:0:0:0:
24,222,154124,1,10,1:0:0:0:
20,20,154350,5,2,1:0:0:0:
20,20,154425,1,2,0:0:0:0:
20,20,154500,1,2,0:0:0:0:
20,20,154574,5,2,1:0:0:0:
185,43,154801,1,2,1:0:0:0:
342,69,155026,1,10,1:0:0:0:
498,99,155252,1,2,1:0:0:0:
429,231,155477,5,0,1:0:0:0:
441,270,155590,1,0,1:0:0:0:
447,310,155703,1,0,1:0:0:0:
442,351,155816,1,0,1:0:0:0:
388,376,155929,5,8,1:0:0:0:
361,344,156041,1,0,1:0:0:0:
347,305,156154,1,0,1:0:0:0:
346,263,156267,1,0,1:0:0:0:
372,207,156380,5,0,1:0:0:0:
412,210,156492,1,0,1:0:0:0:
453,214,156605,1,0,1:0:0:0:
493,219,156718,1,0,1:0:0:0:
487,285,156831,5,8,1:0:0:0:
447,288,156943,1,0,1:0:0:0:
406,292,157056,1,0,1:0:0:0:
366,297,157169,1,0,1:0:0:0:
313,300,157282,5,0,1:0:0:0:
22,365,157507,5,2,0:3:0:0:
32,286,157733,1,8,1:0:0:0:
492,218,157959,5,2,0:3:0:0:
497,258,158071,1,0,1:0:0:0:
500,297,158184,1,0,1:0:0:0:
256,198,158522,5,0,1:0:0:0:
256,198,158635,1,8,1:0:0:0:
294,105,158786,5,8,0:3:0:0:
253,23,158936,5,8,0:3:0:0:
230,35,159086,6,0,L|235:67,1,27.5,4|0,0:3|3:0,0:0:0:0:
492,21,159425,1,0,3:0:0:0:
492,21,159539,6,0,P|507:150|494:302,1,263.99999194336,4|0,0:2|0:0,0:0:0:0:
314,363,161681,6,0,P|289:232|328:192,1,197.99999395752,2|0,0:0|0:0,0:0:0:0:
197,20,163373,6,0,P|196:83|191:173,1,154,2|0,0:0|0:0,0:0:0:0:
26,263,165290,6,0,L|176:274,1,143,2|0,0:0|0:0,0:0:0:0:
26,263,167095,6,0,L|176:274,1,143,2|0,0:0|0:0,0:0:0:0:
439,368,168899,6,0,P|429:302|372:261,1,132,2|0,0:0|0:0,0:0:0:0:
170,92,170591,6,0,L|247:99,1,77,2|0,0:0|0:0,0:0:0:0:
439,2,172508,6,0,L|436:47,1,44,2|0,0:0|0:0,0:0:0:0:
507,62,173523,6,2,B|397:54|397:54|351:118|351:118|193:109,1,330,0|0,0:0|0:0,1:0:0:0:
210,109,173975,6,0,L|215:238,1,110,4|0,0:0|0:0,0:0:0:0:
218,229,174313,1,2,0:0:0:0:
221,239,174426,1,8,0:0:0:0:
105,22,175102,5,0,3:0:0:0:
33,51,175328,2,0,L|40:184,1,110,8|0,0:0|0:0,0:0:0:0:
46,246,175779,5,0,3:0:0:0:
117,260,176005,1,0,3:0:0:0:
214,279,176230,1,8,0:0:0:0:
311,214,176456,5,2,0:0:0:0:
313,224,176569,1,2,0:0:0:0:
315,234,176681,1,2,0:0:0:0:
317,244,176794,1,2,0:0:0:0:
345,259,176907,1,0,3:0:0:0:
415,231,177132,2,0,L|422:99,1,110,8|0,0:0|0:0,0:0:0:0:
481,56,177584,5,0,3:0:0:0:
494,135,177809,1,0,3:0:0:0:
510,227,178035,1,8,0:0:0:0:
427,300,178260,5,2,0:0:0:0:
390,288,178373,1,0,0:3:0:0:
390,288,178486,1,2,0:0:0:0:
351,302,178599,1,2,0:3:0:0:
312,296,178711,1,0,3:0:0:0:
312,296,178824,1,2,0:3:0:0:
275,315,178937,1,8,0:0:0:0:
132,86,179388,5,0,3:0:0:0:
211,73,179614,1,0,3:0:0:0:
308,58,179839,1,8,0:0:0:0:
276,175,180065,5,2,0:0:0:0:
275,186,180178,1,0,0:3:0:0:
273,196,180290,6,2,P|223:206|179:196,1,82.5,2|2,0:0|0:3,0:0:0:0:
169,121,180742,6,2,P|174:242|167:382,1,247.500009441376,8|0,0:0|0:0,0:0:0:0:
152,376,181193,5,0,3:0:0:0:
73,366,181418,1,0,3:0:0:0:
25,268,181644,1,8,0:0:0:0:
126,118,181982,5,0,3:0:0:0:
127,128,182095,1,2,0:3:0:0:
222,175,182320,1,0,3:0:0:0:
222,164,182433,1,2,0:3:0:0:
247,153,182546,1,8,0:0:0:0:
415,7,182997,5,0,3:0:0:0:
404,87,183223,1,0,3:0:0:0:
481,159,183448,1,8,0:0:0:0:
309,138,183674,5,2,0:0:0:0:
289,171,183787,1,0,3:0:0:0:
289,171,183899,1,2,0:3:0:0:
292,209,184012,1,2,0:0:0:0:
280,245,184125,1,0,3:0:0:0:
280,245,184238,1,2,0:3:0:0:
284,283,184351,1,8,0:0:0:0:
478,361,184802,5,0,3:0:0:0:
489,281,185027,1,0,3:0:0:0:
422,198,185253,1,8,0:0:0:0:
294,300,185478,5,2,0:0:0:0:
267,308,185591,1,0,0:0:0:0:
231,321,185703,1,2,0:3:0:0:
205,310,185816,1,2,0:0:0:0:
168,297,185929,1,0,3:0:0:0:
141,303,186042,1,2,0:3:0:0:
114,311,186155,2,0,L|127:166,1,110,8|0,0:0|0:0,0:0:0:0:
143,93,186606,5,0,3:0:0:0:
170,89,186719,1,0,3:0:0:0:
197,85,186832,1,2,3:0:0:0:
224,82,186945,1,0,3:0:0:0:
239,115,187057,5,8,3:1:0:0:
266,119,187170,1,0,3:0:0:0:
293,123,187283,1,0,3:0:0:0:
320,126,187396,1,0,3:0:0:0:
353,100,187508,5,2,3:3:0:0:
380,96,187621,1,8,3:1:0:0:
407,92,187734,1,0,3:0:0:0:
434,89,187847,1,0,3:0:0:0:
457,131,187960,5,8,3:1:0:0:
449,168,188072,1,0,3:0:0:0:
465,202,188185,1,0,3:0:0:0:
452,238,188298,1,0,3:0:0:0:
460,292,188411,5,0,3:0:0:0:
405,286,188523,1,0,3:0:0:0:
405,286,188636,1,2,3:0:0:0:
356,311,188749,1,0,3:0:0:0:
308,283,188862,1,8,3:1:0:0:
308,283,188975,1,2,3:0:0:0:
262,313,189087,1,0,3:0:0:0:
213,285,189200,1,2,3:0:0:0:
165,313,189313,5,8,3:1:0:0:
126,316,189426,1,0,3:0:0:0:
91,272,189539,1,0,3:0:0:0:
52,269,189652,1,2,3:0:0:0:
72,218,189764,1,8,3:1:0:0:
67,179,189877,1,0,3:0:0:0:
30,137,189990,1,2,3:0:0:0:
38,99,190103,1,2,3:0:0:0:
38,99,190215,6,0,L|86:106,5,36.6666666666667,0|0|0|0|0|0,3:0|3:0|3:0|3:0|3:0|3:0,0:0:0:0:
111,28,190666,6,0,L|138:59,5,36.6666666666667,0|0|0|0|0|0,3:0|3:0|3:0|3:0|3:0|3:0,0:0:0:0:
216,79,191117,6,2,L|343:70,1,115.49999647522,4|0,0:0|0:0,0:1:0:0:
337,81,192020,5,0,1:0:0:0:
327,166,192245,1,2,0:3:0:0:
180,180,192471,2,0,L|202:334,1,137.5,0|0,1:0|0:0,0:0:0:0:
206,304,192809,1,2,0:0:0:0:
214,293,192922,5,0,1:0:0:0:
336,248,193148,1,0,1:0:0:0:
304,235,193260,1,8,1:0:0:0:
323,384,193487,1,0,1:0:0:0:
346,359,193599,1,8,1:0:0:0:
63,248,193824,6,0,L|47:69,1,137.5,0|0,1:0|0:0,0:0:0:0:
196,232,194275,2,0,L|181:376,1,137.5,8|0,1:0|0:0,0:0:0:0:
80,214,194726,5,0,1:0:0:0:
187,78,194952,1,0,1:0:0:0:
155,92,195065,1,8,1:0:0:0:
290,177,195290,1,0,1:0:0:0:
258,163,195403,1,8,1:0:0:0:
434,105,195629,5,0,1:0:0:0:
446,210,195854,1,2,0:3:0:0:
289,195,196080,2,0,L|303:26,1,137.5,8|0,1:0|0:0,0:0:0:0:
303,71,196418,1,2,0:0:0:0:
305,84,196531,5,0,1:0:0:0:
381,220,196757,1,0,1:0:0:0:
334,231,196869,1,8,1:0:0:0:
238,317,197095,1,0,1:0:0:0:
285,328,197207,1,8,1:0:0:0:
184,178,197433,6,0,B|115:169|115:169|44:217,1,137.5,0|0,1:0|0:0,0:0:0:0:
0,158,197884,1,8,1:0:0:0:
99,55,198110,1,2,0:3:0:0:
96,65,198223,1,2,0:0:0:0:
92,78,198335,5,0,1:0:0:0:
232,114,198561,1,0,1:0:0:0:
224,66,198674,1,8,1:0:0:0:
354,64,198899,1,0,1:0:0:0:
346,16,199012,1,8,1:0:0:0:
383,1,199125,5,0,1:0:0:0:
382,0,199238,5,0,1:0:0:0:
469,114,199463,1,2,0:3:0:0:
389,199,199689,1,8,1:0:0:0:
372,176,199802,1,2,0:0:0:0:
355,154,199914,1,2,0:0:0:0:
258,17,200140,5,0,1:0:0:0:
128,44,200366,1,0,1:0:0:0:
124,91,200478,1,8,1:0:0:0:
215,161,200704,1,0,1:0:0:0:
258,141,200816,1,8,1:0:0:0:
203,72,201042,6,0,P|142:97|116:193,1,137.5,0|0,1:0|0:0,0:0:0:0:
173,285,201493,1,8,1:0:0:0:
173,285,201606,1,2,0:0:0:0:
173,285,201719,1,2,0:0:0:0:
262,188,201945,5,0,1:0:0:0:
407,164,202170,1,0,1:0:0:0:
421,210,202283,1,8,1:0:0:0:
329,296,202508,1,0,1:0:0:0:
325,344,202621,1,8,1:0:0:0:
337,218,202847,6,0,B|360:154|360:154|331:65,1,137.5,0|0,1:0|0:0,0:0:0:0:
117,45,203298,1,8,1:0:0:0:
113,163,203523,1,2,0:3:0:0:
122,196,203636,1,2,0:0:0:0:
132,228,203749,5,0,1:0:0:0:
183,96,203975,1,0,1:0:0:0:
178,48,204087,1,8,1:0:0:0:
0,112,204313,1,0,1:0:0:0:
29,149,204426,1,8,1:0:0:0:
64,20,204651,5,0,1:0:0:0:
201,28,204877,1,2,0:3:0:0:
332,46,205102,1,8,1:0:0:0:
335,79,205215,1,2,0:0:0:0:
338,114,205328,1,2,0:3:0:0:
433,12,205554,5,0,1:0:0:0:
356,234,205779,5,2,3:0:0:0:
353,217,205892,5,8,3:2:0:0:
366,204,206005,5,10,1:0:0:0:
392,219,206117,5,2,3:1:0:0:
401,253,206230,5,2,3:1:0:0:
384,300,206343,5,2,3:1:0:0:
316,326,206456,6,2,P|243:302|222:173,1,165.000006294251,6|0,1:0|0:0,1:0:0:0:
263,87,206907,5,10,1:0:0:0:
117,183,207132,5,2,0:3:0:0:
113,261,207358,1,2,1:0:0:0:
108,339,207584,1,2,0:3:0:0:
222,245,207809,2,2,L|188:71,1,165.000006294251,8|0,1:0|0:0,1:0:0:0:
0,20,208260,6,2,P|83:51|86:142,1,165.000006294251,2|0,1:0|0:0,1:0:0:0:
33,253,208711,1,10,1:0:0:0:
279,227,208937,5,2,0:3:0:0:
270,147,209163,1,2,1:0:0:0:
261,69,209388,1,2,0:3:0:0:
391,17,209614,6,2,P|357:98|409:198,1,165.000006294251,10|0,1:0|0:0,1:0:0:0:
452,188,209952,5,0,1:0:0:0:
512,137,210065,6,2,L|496:332,1,165.000006294251,2|0,1:0|0:0,1:0:0:0:
370,377,210516,1,10,1:0:0:0:
259,173,210742,5,0,1:0:0:0:
259,173,210854,1,0,1:0:0:0:
259,173,210967,1,2,1:0:0:0:
246,251,211193,1,2,0:3:0:0:
215,96,211418,5,2,1:0:0:0:
195,19,211644,1,2,0:3:0:0:
77,176,211869,6,2,P|73:251|126:338,1,165.000006294251,2|0,1:0|0:0,1:0:0:0:
255,365,212320,1,10,1:0:0:0:
328,155,212546,5,2,0:3:0:0:
347,232,212772,1,2,1:0:0:0:
367,307,212997,1,2,0:3:0:0:
433,123,213223,5,10,1:0:0:0:
448,95,213335,5,2,3:1:0:0:
455,147,213448,5,2,3:1:0:0:
405,125,213561,5,2,3:1:0:0:
433,123,213674,5,2,1:0:0:0:
450,229,213899,1,2,0:3:0:0:
465,329,214125,1,10,1:0:0:0:
249,234,214351,5,2,0:3:0:0:
271,129,214576,1,10,1:0:0:0:
288,32,214802,1,2,0:3:0:0:
88,169,215027,5,10,1:0:0:0:
109,276,215253,1,2,0:3:0:0:
131,371,215478,1,2,1:0:0:0:
252,197,215704,5,2,0:3:0:0:
217,67,215929,1,10,1:0:0:0:
341,111,216155,1,2,0:3:0:0:
249,214,216381,5,2,1:0:0:0:
214,344,216606,1,2,0:3:0:0:
338,300,216832,1,10,1:0:0:0:
248,184,217057,5,2,0:3:0:0:
94,36,217283,5,2,1:0:0:0:
78,134,217508,1,2,1:0:0:0:
263,97,217734,1,10,1:0:0:0:
213,19,217960,1,2,1:0:0:0:
150,211,218185,1,2,1:0:0:0:
236,193,218411,1,2,1:0:0:0:
372,88,218636,5,10,1:0:0:0:
397,199,218862,1,2,1:0:0:0:
364,351,219087,5,2,1:0:0:0:
203,336,219313,1,2,1:0:0:0:
49,315,219538,1,10,1:0:0:0:
214,346,219764,5,2,1:0:0:0:
214,346,219877,1,0,1:0:0:0:
213,347,219990,6,2,L|202:250,1,82.5000031471254,0|0,1:0|0:0,1:0:0:0:
242,49,220215,6,2,L|124:69,1,96.2500009179115,2|0,1:0|0:0,1:0:0:0:
340,246,220441,6,2,L|373:104,1,110,10|0,1:0|0:0,1:0:0:0:
65,165,220666,6,2,L|93:303,1,123.750004720688,2|0,1:0|0:0,1:0:0:0:
89,286,220892,5,4,1:2:0:0:
