osu file format v14

[General]
AudioFilename: audio.mp3
AudioLeadIn: 0
PreviewTime: 130843
Countdown: 0
SampleSet: Soft
StackLeniency: 0.6
Mode: 0
LetterboxInBreaks: 1
WidescreenStoryboard: 1

[Editor]
Bookmarks: 919,44227,73099,101971,116407,130843,145279,160166,160279,160392,160505,160618,160730,160843,160956,161069,161181,161294,161407,161520,161633,161745,161858,161971,162084,162196,162309,162422,162535,162648,162760,162873,162986,163099,163212,163324,163437,163550,163663,163775,163888,164001,164114,164227,164339,164452,164565,164678,164790,164903,165016,165129,165242,165354,165467,165580,165693,165806,165918,166031,166144,166257,166369,166482,166595,166708,166821,166933,167046,167159,167272,167384,167497,167610,167723,167836,167948,168061,168174,168287,168399,168512,168625,168738,168851,168963,169076,169189,169302,169415,169527,169640,169753,169866,169978,170091,170204,170317,170430,170542,170655,170768,170881,170993,171106,171219,171332,171445,171557,171670,171783,171896,172009,172121,172234,172347,172460,172572,172685,172798,172911,173024,173136,173249,173362,173475,173587,173700,173813,173926,174039,174151,174264,174377,174490,174603,192648,207084,221520
DistanceSpacing: 0.5
BeatDivisor: 4
GridSize: 32
TimelineZoom: 2.5

[Metadata]
Title:goldenslaughterer
TitleUnicode:goldenslaughterer
Artist:zts
ArtistUnicode:zts
Creator:Dada
Version:The First Twilight
Source:うみねこのなく頃に
Tags:umineko no naku koro ni when the seagulls cry they code zts label czl musicbox red 07th Expansion Ryukishi07 chapter 1 one maria ushiromiya electronic video game instrumental PandaHero deetz Luscent 404 AimNotFound
BeatmapID:2367515
BeatmapSetID:931948

[Difficulty]
HPDrainRate:6
CircleSize:4
OverallDifficulty:8
ApproachRate:8
SliderMultiplier:2
SliderTickRate:1

[Events]
//Background and Video events
0,0,"whenyournosebleedswhilesleeping.jpg",0,0
//Break Periods
2,160366,172048
//Storyboard Layer 0 (Background)
//Storyboard Layer 1 (Fail)
//Storyboard Layer 2 (Pass)
//Storyboard Layer 3 (Foreground)
//Storyboard Layer 4 (Overlay)
//Storyboard Sound Samples

[TimingPoints]
919,451.127268623025,4,2,1,45,1,0
919,-1000,4,2,1,45,0,0
4528,-1000,4,2,1,21,0,0
8137,-1000,4,2,1,45,0,0
15355,-142.857142857143,4,2,1,55,0,0
44227,-142.857142857143,4,2,1,60,0,0
58663,-111.111111111111,4,2,1,60,0,0
73099,-111.111111111111,4,2,1,60,0,0
101971,-111.111111111111,4,2,1,50,0,0
103099,-133.333333333333,4,2,1,50,0,0
105806,-1000,4,2,1,50,0,0
109189,-133.333333333333,4,2,1,50,0,0
112798,-1000,4,2,1,50,0,0
116407,-133.333333333333,4,2,1,60,0,0
130843,-100,4,2,1,75,0,0
145279,-100,4,2,1,75,0,0
152497,-90.9090909090909,4,2,1,75,0,0
172798,-90.9090909090909,4,2,1,55,0,0
174603,451.127268623025,4,2,1,55,1,0
175054,-133.333333333333,4,2,1,55,0,0
181369,-83.3333333333333,4,2,1,55,0,0
181821,-133.333333333333,4,2,1,55,0,0
185430,-133.333333333333,4,2,1,65,0,0
188136,-100,4,2,1,70,0,0
191745,-250,4,2,1,75,0,0
192648,-111.111111111111,4,2,1,75,0,0
199866,-100,4,2,1,75,0,0
207084,-83.3333333333333,4,2,1,75,0,0
214302,-76.9230769230769,4,2,1,75,0,0
221069,-76.9230769230769,4,2,1,80,0,0
221219,-76.9230769230769,4,2,1,65,0,0
221369,-76.9230769230769,4,2,1,50,0,0
221520,-76.9230769230769,4,2,1,35,0,0

[Colours]
Combo1 : 209,190,220
Combo2 : 255,72,72
Combo3 : 255,128,64
Combo4 : 199,193,3
Combo5 : 170,0,0

[HitObjects]
177,141,919,6,2,P|256:146|334:166,1,160,0|0,0:0|0:0,0:0:0:0:
370,286,8137,6,2,P|255:291|143:314,1,230,0|0,0:0|0:0,0:0:0:0:
131,304,15355,6,0,P|188:304|231:312,1,69.9999978637696,4|0,0:0|0:0,0:0:0:0:
277,334,15806,2,0,P|332:319|375:315,1,69.9999978637696
426,325,16257,1,8,1:0:0:0:
433,332,16708,5,0,0:0:0:0:
470,226,16934,1,0,1:0:0:0:
440,339,17385,5,0,0:0:0:0:
477,233,17610,2,0,P|488:195|490:164,1,69.9999978637696,0|0,1:0|0:0,0:0:0:0:
384,108,18061,2,0,L|396:178,1,69.9999978637696,8|0,1:0|0:0,0:0:0:0:
289,119,18512,2,0,P|292:84|303:51,1,69.9999978637696,0|0,1:0|1:0,0:0:0:0:
391,12,18964,6,0,P|432:21|472:21,3,69.9999978637696,2|2|2|2,2:0|0:0|0:0|0:0,0:0:0:0:
384,108,19866,2,0,P|343:117|303:117,3,69.9999978637696,2|2|2|2,0:0|0:0|0:0|0:0,0:0:0:0:
382,209,20768,5,2,0:0:0:0:
305,254,20994,2,0,L|282:250,4,17.4999994659424,0|0|0|0|0,3:0|0:0|0:0|0:0|0:0,0:0:0:0:
220,192,21445,1,2,0:0:0:0:
297,147,21671,2,0,L|320:151,4,17.4999994659424,0|0|0|0|0,3:0|0:0|0:0|0:0|0:0,0:0:0:0:
312,261,22121,1,2,0:0:0:0:
206,306,22347,6,0,L|183:310,4,17.4999994659424,0|0|0|0|8,3:0|3:0|3:0|3:0|3:0,3:0:0:0:
140,238,22798,1,0,0:0:0:0:
102,315,23024,1,0,1:0:0:0:
46,181,23475,2,0,B|116:170|109:214|179:204,1,139.999995727539,8|0,1:0|0:0,0:0:0:0:
250,153,24152,1,2,0:0:0:0:
257,160,24603,5,2,0:0:0:0:
162,107,24828,2,0,P|123:103|82:107,1,69.9999978637696,0|0,1:0|0:0,0:0:0:0:
0,179,25279,2,0,L|12:106,1,69.9999978637696,8|0,1:0|0:0,0:0:0:0:
86,191,25730,2,0,P|102:226|126:260,1,69.9999978637696,0|0,1:0|1:0,0:0:0:0:
199,285,26182,5,2,0:0:0:0:
281,273,26633,5,2,0:0:0:0:
363,261,27084,6,0,P|406:260|445:266,1,69.9999978637696,8|0,1:0|0:0,0:0:0:0:
504,311,27535,1,0,0:0:0:0:
426,348,27761,1,0,1:0:0:0:
419,355,28212,5,8,1:2:0:0:
439,256,28438,1,0,0:0:0:0:
412,362,28888,5,8,1:2:0:0:
432,263,29114,1,0,0:0:0:0:
405,369,29565,5,0,0:0:0:0:
326,334,29791,2,2,P|279:343|233:345,1,69.9999978637696,4|0,0:0|0:0,1:0:0:0:
194,286,30242,2,2,P|146:289|101:299,1,69.9999978637696,0|0,0:0|0:0,1:0:0:0:
51,338,30693,2,2,P|40:282|9:191,1,139.999995727539,8|0,1:0|0:0,1:0:0:0:
69,136,31370,1,2,0:0:0:0:
76,129,31821,5,2,0:0:0:0:
147,181,32046,2,0,P|189:182|220:177,1,69.9999978637696,0|0,1:0|0:0,0:0:0:0:
287,110,32497,1,8,1:0:0:0:
309,204,32723,1,0,0:0:0:0:
403,182,32949,1,0,1:0:0:0:
381,88,33174,1,0,1:0:0:0:
287,110,33400,5,2,0:0:0:0:
403,182,33851,6,2,B|388:261|388:261|400:291,1,104.999996795654,0|0,3:0|0:0,1:0:0:0:
413,290,34302,2,2,B|337:280|337:280|209:316|209:316|129:309,1,279.999991455078,8|0,1:0|0:0,1:0:0:0:
48,350,35430,5,8,1:2:0:0:
72,234,35655,1,0,0:0:0:0:
41,357,36106,5,8,1:2:0:0:
65,241,36331,1,0,0:0:0:0:
34,364,36783,5,0,0:0:0:0:
141,312,37009,2,2,B|245:293|245:293|294:306,2,139.999995727539,4|0|8,0:0|1:0|1:0,1:0:0:0:
95,208,38136,2,0,L|164:221,1,69.9999978637696
249,207,38588,1,2,0:0:0:0:
256,200,39039,5,2,0:0:0:0:
197,137,39264,2,0,P|152:125|121:123,1,69.9999978637696,0|0,1:0|0:0,0:0:0:0:
9,66,39715,2,0,L|78:54,1,69.9999978637696,8|0,1:0|0:0,0:0:0:0:
162,40,40167,1,0,1:0:0:0:
245,25,40392,1,0,1:0:0:0:
314,73,40618,6,0,P|309:128|312:224,1,139.999995727539,2|2,0:0|0:0,0:0:0:0:
416,306,41520,6,2,P|421:251|418:155,1,139.999995727539,8|0,1:0|0:0,1:0:0:0:
399,83,42197,2,0,P|428:69|467:59,1,69.9999978637696,2|0,0:0|0:0,0:0:0:0:
501,139,42648,1,8,1:2:0:0:
392,76,42873,2,0,L|312:90,1,69.9999978637696
209,110,43324,5,8,1:2:0:0:
304,171,43550,1,0,0:0:0:0:
193,274,43776,1,0,0:0:0:0:
175,189,44001,1,8,1:2:0:0:
322,256,44227,5,2,0:0:0:0:
378,323,44452,1,0,0:0:0:0:
469,315,44678,1,0,0:0:0:0:
469,315,44791,1,0,0:0:0:0:
469,315,44903,1,0,0:0:0:0:
246,339,45129,5,0,1:2:0:0:
211,334,45242,1,0,0:0:0:0:
176,329,45355,1,0,0:0:0:0:
141,324,45467,1,2,0:0:0:0:
44,364,45693,1,2,0:0:0:0:
44,364,45806,1,0,0:0:0:0:
201,250,46031,6,0,P|219:187|191:105,1,139.999995727539,2|0,0:0|0:0,0:0:0:0:
55,189,46708,1,0,0:0:0:0:
55,189,46821,1,0,0:0:0:0:
55,189,46933,2,0,L|146:183,1,69.9999978637696,0|0,1:0|0:0,0:0:0:0:
308,235,47385,1,0,0:0:0:0:
308,235,47497,1,0,0:0:0:0:
308,235,47610,1,0,0:0:0:0:
232,34,47836,6,0,P|264:76|301:91,1,69.9999978637696,4|0,0:0|0:0,0:0:0:0:
356,114,48287,2,0,P|404:112|453:90,1,69.9999978637696,4|0,0:0|0:0,0:0:0:0:
512,105,48738,1,0,1:0:0:0:
509,139,48851,1,0,0:0:0:0:
506,173,48964,1,0,0:0:0:0:
503,207,49076,1,2,0:0:0:0:
497,308,49302,1,2,0:0:0:0:
497,308,49415,1,0,0:0:0:0:
234,315,49640,6,0,B|183:320|136:325,1,69.9999978637696,2|0,0:0|0:0,0:0:0:0:
318,265,50091,2,0,P|324:309|328:363,1,69.9999978637696
63,278,50542,1,0,1:0:0:0:
70,243,50655,1,0,0:0:0:0:
96,219,50768,1,0,0:0:0:0:
130,210,50881,1,2,0:0:0:0:
243,237,51106,1,2,0:0:0:0:
243,237,51219,1,0,0:0:0:0:
42,123,51445,6,0,P|121:123|193:90,1,139.999995727539,2|0,0:0|0:0,0:0:0:0:
316,154,52121,1,0,0:0:0:0:
392,117,52347,2,0,P|393:79|391:36,1,69.9999978637696,0|0,1:2|0:0,0:0:0:0:
457,195,52685,1,0,0:0:0:0:
457,195,52798,2,0,P|456:233|458:276,1,69.9999978637696,2|0,0:0|0:0,0:0:0:0:
344,330,53249,6,0,P|304:319|272:297,1,69.9999978637696,2|0,0:0|0:0,0:0:0:0:
174,244,53700,2,0,P|148:272|113:288,1,69.9999978637696
335,245,54152,1,0,1:2:0:0:
332,210,54264,1,0,0:0:0:0:
329,174,54377,1,0,0:0:0:0:
327,138,54490,1,2,0:0:0:0:
98,210,54715,1,2,0:0:0:0:
98,210,54828,1,0,0:0:0:0:
247,241,55054,6,0,P|254:204|244:161,1,69.9999978637696,2|0,0:0|0:0,0:0:0:0:
29,257,55505,2,0,P|22:294|32:337,1,69.9999978637696
257,335,55956,1,0,1:0:0:0:
291,330,56069,1,0,0:0:0:0:
325,325,56182,1,0,0:0:0:0:
359,320,56294,1,2,0:0:0:0:
98,210,56520,1,2,0:0:0:0:
98,210,56633,1,0,0:0:0:0:
256,192,56858,12,0,58437,0:0:0:0:
153,87,58663,6,0,P|153:138|198:220,1,134.999995880127,4|0,0:0|0:0,0:0:0:0:
189,211,59114,2,0,L|278:198,1,89.9999972534181,0|0,1:0|0:0,0:0:0:0:
388,270,59565,1,0,0:0:0:0:
388,270,59678,1,0,0:0:0:0:
388,270,59791,1,0,0:0:0:0:
487,152,60016,2,0,P|436:175|378:170,1,89.9999972534181,0|0,1:0|0:0,0:0:0:0:
439,6,60467,6,0,P|484:38|509:91,1,89.9999972534181
333,118,60918,2,0,P|338:62|371:14,1,89.9999972534181,0|0,1:0|0:0,0:0:0:0:
512,239,61370,1,0,0:0:0:0:
512,239,61482,1,2,0:0:0:0:
512,239,61595,1,2,0:0:0:0:
297,317,61821,1,0,1:0:0:0:
200,253,62046,5,0,0:0:0:0:
208,255,62159,1,2,0:0:0:0:
216,257,62272,2,0,L|223:122,1,134.999995880127
222,122,62723,2,0,P|164:140|114:141,1,89.9999972534181,0|0,1:0|0:0,0:0:0:0:
350,182,63174,1,0,0:0:0:0:
350,182,63287,1,0,0:0:0:0:
350,182,63400,1,0,0:0:0:0:
473,131,63625,2,0,P|476:68|453:11,1,89.9999972534181,0|0,1:0|0:0,0:0:0:0:
409,288,64076,5,0,0:0:0:0:
319,275,64302,1,0,0:0:0:0:
230,262,64527,1,0,1:0:0:0:
96,371,64753,6,0,L|152:366,1,44.999998626709
224,349,64979,1,2,0:1:0:0:
224,349,65091,1,0,0:0:0:0:
224,349,65204,2,0,P|235:283|217:235,1,89.9999972534181,2|0,0:1|0:0,0:0:0:0:
23,123,65655,1,2,0:1:0:0:
18,145,65768,1,0,0:0:0:0:
21,167,65881,6,0,B|64:179|129:167,1,89.9999972534181,4|0,0:0|0:0,0:0:0:0:
280,228,66332,1,0,1:0:0:0:
185,98,66558,1,0,0:0:0:0:
338,147,66783,1,0,0:0:0:0:
338,147,66896,1,0,0:0:0:0:
338,147,67009,1,0,0:0:0:0:
185,197,67234,1,0,1:0:0:0:
280,67,67460,1,0,0:0:0:0:
380,214,67685,6,0,P|442:208|492:193,1,89.9999972534181
512,290,68136,1,0,1:0:0:0:
227,268,68362,1,0,0:0:0:0:
288,350,68588,5,0,0:0:0:0:
288,350,68700,1,2,0:0:0:0:
288,350,68813,1,2,0:0:0:0:
269,179,69039,1,0,1:0:0:0:
137,280,69264,1,2,1:0:0:0:
341,139,69490,6,0,P|394:144|461:142,1,89.9999972534181
206,98,69941,2,0,P|153:103|86:101,1,89.9999972534181,0|0,1:0|0:0,0:0:0:0:
38,129,70279,1,0,0:0:0:0:
38,129,70392,2,0,L|54:191,1,44.999998626709
11,239,70618,2,0,L|72:256,1,44.999998626709,2|0,0:1|0:0,0:0:0:0:
104,309,70843,2,0,L|149:264,1,44.999998626709
208,234,71069,1,2,0:1:0:0:
208,234,71182,1,0,0:0:0:0:
208,234,71294,6,2,L|322:237,1,89.9999972534181,0|0,0:0|0:0,1:0:0:0:
462,343,71745,2,2,L|372:340,1,89.9999972534181,2|0,1:0|0:0,0:0:0:0:
239,361,72197,1,2,0:0:0:0:
265,336,72309,1,2,0:0:0:0:
289,309,72422,1,2,0:0:0:0:
123,202,72648,1,0,1:0:0:0:
443,157,72873,1,2,0:0:0:0:
443,157,72986,1,2,0:0:0:0:
443,157,73099,6,0,L|382:167,1,44.999998626709,4|0,0:0|0:0,0:0:0:0:
365,90,73324,2,0,L|318:129,1,44.999998626709,2|0,0:0|0:0,0:0:0:0:
263,70,73550,2,0,B|248:113|248:113|264:206,1,134.999995880127,0|0,1:0|0:0,0:0:0:0:
286,210,74001,1,2,0:0:0:0:
159,256,74227,1,0,0:0:0:0:
162,233,74339,1,0,0:0:0:0:
166,211,74452,1,0,1:0:0:0:
267,330,74791,1,0,0:0:0:0:
267,330,74903,6,0,P|210:336|171:348,1,89.9999972534181,2|0,0:0|0:0,0:0:0:0:
331,280,75354,2,0,P|388:286|427:298,1,89.9999972534181,0|0,1:0|0:0,0:0:0:0:
430,311,75693,1,0,0:0:0:0:
430,311,75806,2,0,L|449:268,1,44.999998626709,2|0,0:0|0:0,0:0:0:0:
380,164,76031,2,0,L|400:205,1,44.999998626709,2|0,0:0|0:0,0:0:0:0:
331,280,76257,2,0,P|277:257|233:206,1,89.9999972534181,0|0,1:0|0:0,0:0:0:0:
249,192,76595,1,0,0:0:0:0:
258,212,76707,5,2,0:0:0:0:
321,109,76933,1,2,0:0:0:0:
218,46,77159,2,0,P|162:46|111:59,1,89.9999972534181,0|0,1:0|0:0,0:0:0:0:
41,150,77610,1,2,0:0:0:0:
63,146,77722,1,0,0:0:0:0:
85,142,77835,1,0,0:0:0:0:
107,138,77948,1,2,0:0:0:0:
130,135,78061,1,0,1:0:0:0:
42,234,78400,1,0,0:0:0:0:
19,230,78513,5,2,0:0:0:0:
142,260,78738,2,0,L|123:220,1,44.999998626709,2|0,0:0|0:0,0:0:0:0:
63,314,78964,2,0,P|126:348|158:376,1,89.9999972534181,0|0,1:0|0:0,0:0:0:0:
142,378,79302,1,0,0:0:0:0:
162,368,79414,1,2,0:0:0:0:
182,358,79527,1,2,0:0:0:0:
203,349,79640,2,0,L|247:341,1,44.999998626709,2|0,0:0|0:0,0:0:0:0:
313,216,79866,2,0,P|292:253|312:292,1,89.9999972534181,0|0,1:0|0:0,0:0:0:0:
395,235,80204,1,2,0:0:0:0:
385,255,80317,6,0,P|421:309|450:330,1,89.9999972534181,4|0,0:0|0:0,0:0:0:0:
454,177,80768,2,0,P|395:144|328:134,1,134.999995880127,0|0,1:0|0:0,0:0:0:0:
315,147,81219,1,2,0:0:0:0:
424,59,81445,1,0,0:0:0:0:
444,68,81557,1,2,0:0:0:0:
464,78,81670,1,0,1:0:0:0:
347,31,81896,1,2,0:0:0:0:
326,40,82008,1,0,0:0:0:0:
306,50,82121,5,2,0:0:0:0:
315,147,82347,1,0,0:0:0:0:
209,59,82573,2,0,P|150:50|65:56,1,134.999995880127,0|0,1:0|0:0,0:0:0:0:
66,69,83024,1,2,0:0:0:0:
79,87,83136,1,2,0:0:0:0:
88,107,83249,1,2,0:0:0:0:
94,129,83362,1,0,0:0:0:0:
96,151,83475,1,0,1:0:0:0:
12,292,83813,1,0,0:0:0:0:
15,269,83926,5,2,0:0:0:0:
119,334,84151,1,2,0:0:0:0:
161,201,84377,2,0,P|214:200|251:208,1,89.9999972534181,0|0,1:0|0:0,0:0:0:0:
328,307,84828,2,0,L|353:251,1,44.999998626709,2|0,0:0|0:0,0:0:0:0:
272,380,85054,2,0,L|253:340,1,44.999998626709,2|0,0:0|0:0,0:0:0:0:
389,361,85279,2,0,P|443:336|475:310,1,89.9999972534181,0|0,1:0|0:0,0:0:0:0:
436,226,85618,1,0,0:0:0:0:
426,246,85730,6,0,P|367:236|335:215,1,89.9999972534181,2|0,0:0|0:0,0:0:0:0:
257,92,86182,2,0,P|298:107|331:138,1,89.9999972534181,0|0,1:0|0:0,0:0:0:0:
276,221,86520,1,0,0:0:0:0:
297,212,86633,2,0,L|349:221,1,44.999998626709,0|0,1:0|0:0,0:0:0:0:
242,297,86858,2,0,L|232:349,1,44.999998626709,2|0,0:0|0:0,0:0:0:0:
200,187,87084,2,0,P|150:158|100:144,1,89.9999972534181,0|0,1:2|0:0,0:0:0:0:
75,218,87422,1,0,1:0:0:0:
96,227,87535,6,0,B|131:243|131:243|165:290,1,89.9999972534181,4|0,0:0|0:0,0:0:0:0:
39,144,87986,2,0,L|20:36,1,89.9999972534181,0|0,1:0|0:0,0:0:0:0:
164,130,88437,1,2,0:0:0:0:
222,8,88663,1,2,0:0:0:0:
244,11,88776,1,0,0:0:0:0:
266,15,88888,2,0,P|324:29|375:24,1,89.9999972534181,0|0,1:0|0:0,0:0:0:0:
389,0,89227,1,0,0:0:0:0:
379,20,89339,6,0,P|376:78|384:119,1,89.9999972534181,2|0,0:0|0:0,0:0:0:0:
501,245,89791,2,0,P|505:166|494:110,1,134.999995880127,0|0,1:0|0:0,0:0:0:0:
474,112,90242,2,0,L|481:68,1,44.999998626709,2|0,0:0|0:0,0:0:0:0:
388,204,90467,2,0,L|425:179,1,44.999998626709,2|0,0:0|0:0,0:0:0:0:
262,207,90693,2,0,P|303:222|315:263,1,89.9999972534181,0|0,1:0|0:0,0:0:0:0:
223,301,91031,1,0,0:0:0:0:
245,304,91144,6,0,P|298:344|337:341,1,89.9999972534181,2|0,0:0|0:0,0:0:0:0:
384,296,91482,1,0,0:0:0:0:
404,305,91595,2,0,P|408:248|432:200,1,89.9999972534181,0|0,1:0|0:0,0:0:0:0:
347,82,92046,6,0,P|343:139|319:187,1,89.9999972534181,2|0,0:0|0:0,0:0:0:0:
265,112,92385,1,0,0:0:0:0:
268,89,92497,2,0,P|229:59|169:41,1,89.9999972534181,0|0,1:0|0:0,0:0:0:0:
20,137,92948,5,0,1:0:0:0:
127,117,93174,1,2,0:0:0:0:
180,213,93400,2,0,P|178:278|169:308,1,89.9999972534181,0|0,1:0|0:0,0:0:0:0:
139,330,93738,1,0,0:0:0:0:
148,309,93850,1,0,1:0:0:0:
260,279,94076,1,2,0:0:0:0:
278,266,94188,1,0,0:0:0:0:
296,253,94301,1,0,1:0:0:0:
407,283,94527,1,0,1:0:0:0:
430,281,94639,1,0,1:0:0:0:
452,279,94752,5,4,0:0:0:0:
337,323,94979,1,0,0:0:0:0:
432,202,95204,1,0,1:0:0:0:
311,107,95430,1,2,0:0:0:0:
288,103,95542,1,0,0:0:0:0:
266,99,95655,2,0,P|214:106|169:123,1,89.9999972534181,2|0,0:0|0:0,0:0:0:0:
112,192,95994,1,0,0:0:0:0:
116,170,96106,2,0,P|87:122|28:61,1,134.999995880127,0|0,1:0|0:0,0:0:0:0:
18,166,96557,6,0,L|33:254,1,89.9999972534181,2|0,0:0|0:0,0:0:0:0:
156,301,97009,2,0,P|91:318|30:356,1,134.999995880127,0|0,1:0|0:0,0:0:0:0:
41,375,97460,2,0,L|0:357,1,44.999998626709,2|0,0:0|0:0,0:0:0:0:
33,254,97685,2,0,L|73:236,1,44.999998626709,2|0,0:0|0:0,0:0:0:0:
151,331,97911,1,0,1:0:0:0:
165,203,98136,1,0,0:0:0:0:
167,180,98248,1,0,0:0:0:0:
169,158,98362,6,0,P|156:112|132:76,1,89.9999972534181,2|0,0:0|0:0,0:0:0:0:
246,186,98813,2,0,P|265:253|300:306,1,134.999995880127,0|0,1:0|0:0,0:0:0:0:
323,311,99264,1,2,0:0:0:0:
330,289,99376,1,2,0:0:0:0:
342,271,99489,1,0,0:0:0:0:
359,255,99602,1,0,0:0:0:0:
378,244,99715,1,0,1:0:0:0:
458,325,99941,1,0,0:0:0:0:
428,170,100166,6,0,P|395:227|368:253,1,89.9999972534181,4|0,0:0|0:0,0:0:0:0:
328,156,100505,1,0,0:0:0:0:
307,165,100618,2,0,P|243:181|205:181,1,89.9999972534181,0|0,1:0|0:0,0:0:0:0:
163,103,100956,1,0,0:0:0:0:
141,95,101068,5,0,1:0:0:0:
101,205,101294,1,0,0:0:0:0:
118,190,101406,1,0,1:0:0:0:
43,100,101633,1,0,0:0:0:0:
48,122,101745,1,0,1:0:0:0:
26,127,101858,1,0,1:0:0:0:
21,105,101971,5,2,0:0:0:0:
4,200,102197,1,0,0:0:0:0:
101,285,102422,1,2,0:0:0:0:
118,190,102648,1,2,0:0:0:0:
285,225,102873,5,2,0:0:0:0:
226,292,103099,2,2,L|201:289,2,25.0000009536744
226,292,103324,2,0,P|234:333|228:376,1,75.0000028610231,2|0,0:0|0:0,0:0:0:0:
416,317,103776,5,2,0:0:0:0:
361,257,104001,1,0,0:0:0:0:
424,203,104227,1,2,0:0:0:0:
479,263,104452,1,2,0:0:0:0:
307,316,104678,5,2,0:0:0:0:
263,206,104903,1,2,0:0:0:0:
266,193,104979,1,2,0:0:0:0:
269,181,105054,1,2,0:0:0:0:
272,169,105129,1,2,0:0:0:0:
69,79,105580,5,0,0:0:0:0:
72,82,106031,2,0,P|128:74|183:41,1,120,2|0,0:0|0:0,0:0:0:0:
182,43,108851,1,2,0:0:0:0:
68,202,109189,5,2,0:0:0:0:
149,189,109415,1,0,0:0:0:0:
209,283,109640,1,2,0:0:0:0:
128,296,109866,1,2,0:0:0:0:
309,195,110091,5,2,0:0:0:0:
250,128,110317,2,2,L|225:131,2,25.0000009536744
250,128,110542,2,0,P|258:87|252:44,1,75.0000028610231,2|0,0:0|0:0,0:0:0:0:
440,28,110994,5,2,0:0:0:0:
396,98,111219,1,0,0:0:0:0:
446,163,111445,1,2,0:0:0:0:
408,236,111670,1,2,0:0:0:0:
455,338,111896,5,2,0:0:0:0:
315,285,112121,1,0,0:0:0:0:
315,285,112234,1,0,0:0:0:0:
315,285,112347,1,0,0:0:0:0:
151,333,112798,5,0,0:0:0:0:
155,337,113249,2,0,P|93:304|41:298,1,120,2|0,0:0|0:0,0:0:0:0:
44,297,116069,1,2,0:0:0:0:
205,214,116407,5,4,0:0:0:0:
283,239,116633,1,0,0:0:0:0:
187,133,116858,2,0,P|131:133|102:138,1,75.0000028610231,0|0,1:0|0:0,0:0:0:0:
103,156,117197,1,0,0:0:0:0:
103,156,117309,1,2,0:0:0:0:
200,52,117535,1,0,0:0:0:0:
217,60,117647,1,2,0:0:0:0:
234,68,117760,1,0,1:0:0:0:
251,76,117873,1,0,0:0:0:0:
268,84,117986,2,0,L|322:74,1,37.5000014305115,2|0,0:0|0:0,0:0:0:0:
407,5,118212,6,0,P|399:49|400:121,1,112.500004291535,2|0,0:0|0:0,0:0:0:0:
416,129,118663,1,0,1:0:0:0:
317,196,118888,1,0,0:0:0:0:
300,188,119000,1,0,0:0:0:0:
283,180,119113,1,2,0:0:0:0:
425,249,119339,1,0,0:0:0:0:
440,239,119451,1,2,0:0:0:0:
309,326,119678,1,0,0:0:0:0:
310,344,119790,1,2,0:0:0:0:
432,242,120016,6,0,P|432:173|430:157,1,75.0000028610231,2|0,0:0|0:0,0:0:0:0:
324,22,120467,2,0,P|324:91|326:107,1,75.0000028610231,0|0,1:0|0:0,0:0:0:0:
344,106,120806,1,0,0:0:0:0:
344,106,120918,1,2,0:0:0:0:
211,82,121144,1,0,0:0:0:0:
194,74,121257,1,2,0:0:0:0:
177,66,121369,1,0,1:0:0:0:
160,58,121482,1,0,0:0:0:0:
143,50,121595,2,0,L|96:58,1,37.5000014305115,2|0,0:0|0:0,0:0:0:0:
10,169,121821,5,2,0:0:0:0:
28,74,122046,1,0,0:0:0:0:
105,187,122272,2,0,P|120:238|123:268,1,75.0000028610231,0|0,1:0|0:0,0:0:0:0:
110,277,122610,1,0,0:0:0:0:
110,277,122723,1,2,0:0:0:0:
230,216,122948,1,0,0:0:0:0:
246,223,123060,1,2,0:0:0:0:
341,347,123287,1,2,0:0:0:0:
348,330,123399,1,0,0:0:0:0:
356,313,123512,1,2,0:0:0:0:
363,296,123625,5,4,0:0:0:0:
443,312,123851,1,0,0:0:0:0:
334,354,124076,2,0,P|262:357|238:354,1,75.0000028610231,0|0,1:0|0:0,0:0:0:0:
251,346,124415,1,0,0:0:0:0:
251,346,124527,1,2,0:0:0:0:
323,223,124753,1,0,0:0:0:0:
315,206,124865,1,2,0:0:0:0:
307,189,124978,1,0,1:0:0:0:
299,172,125091,1,0,0:0:0:0:
291,155,125204,1,2,0:0:0:0:
283,138,125317,1,0,0:0:0:0:
275,121,125430,6,0,P|275:72|282:24,1,75.0000028610231,2|0,0:0|0:0,0:0:0:0:
201,183,125881,2,0,P|200:231|193:279,1,75.0000028610231,0|0,1:0|0:0,0:0:0:0:
185,269,126219,1,0,0:0:0:0:
185,269,126332,2,0,L|130:259,1,37.5000014305115,2|0,0:0|0:0,0:0:0:0:
55,328,126557,1,0,0:0:0:0:
55,328,126670,2,0,L|92:322,1,37.5000014305115,2|0,0:0|0:0,0:0:0:0:
209,351,126896,1,0,0:0:0:0:
209,351,127009,2,0,L|245:357,1,37.5000014305115,2|0,0:0|0:0,0:0:0:0:
340,262,127234,5,2,0:0:0:0:
340,262,127347,1,0,0:0:0:0:
340,262,127460,2,0,L|349:318,1,37.5000014305115,2|0,0:0|0:0,0:0:0:0:
266,208,127685,2,0,P|273:156|274:124,1,75.0000028610231,0|0,1:0|0:0,0:0:0:0:
259,121,128024,1,0,0:0:0:0:
259,121,128136,2,0,L|310:111,1,37.5000014305115,2|0,0:0|0:0,0:0:0:0:
182,62,128362,1,0,0:0:0:0:
163,58,128474,1,2,0:0:0:0:
145,55,128587,1,0,1:0:0:0:
126,52,128700,1,0,0:0:0:0:
108,48,128813,1,2,0:0:0:0:
90,44,128926,1,0,0:0:0:0:
72,40,129039,5,2,0:0:0:0:
49,59,129151,1,0,0:0:0:0:
43,88,129264,1,0,0:0:0:0:
55,115,129377,1,0,0:0:0:0:
74,137,129490,1,0,1:0:0:0:
76,166,129603,1,0,0:0:0:0:
62,192,129715,1,2,0:0:0:0:
32,195,129828,1,2,0:0:0:0:
7,177,129941,5,0,1:0:0:0:
13,213,130054,1,0,0:0:0:0:
19,249,130166,1,2,0:0:0:0:
25,285,130279,1,0,1:0:0:0:
31,321,130391,1,0,0:0:0:0:
37,357,130505,1,2,0:0:0:0:
81,332,130618,5,0,1:0:0:0:
75,296,130730,1,0,1:0:0:0:
69,260,130843,2,0,P|126:268|193:255,1,100,4|0,0:0|0:0,0:0:0:0:
260,342,131181,1,0,0:0:0:0:
237,330,131294,2,0,P|245:294|251:246,1,50,0|0,1:0|0:0,0:0:0:0:
290,158,131520,2,0,P|292:195|302:233,1,50,2|0,0:0|0:0,0:0:0:0:
371,263,131745,6,0,P|444:253|492:232,1,100,4|0,0:0|0:0,0:0:0:0:
393,116,132084,1,2,0:0:0:0:
371,129,132197,2,0,P|373:168|376:205,1,50,0|0,1:0|0:0,0:0:0:0:
295,56,132422,2,0,P|260:59|209:58,1,50,2|0,0:0|0:0,0:0:0:0:
155,187,132648,6,0,P|121:120|133:53,1,100,4|0,0:0|0:0,0:0:0:0:
249,133,132986,1,2,0:0:0:0:
249,133,133099,6,0,P|249:201|206:260,1,100,4|0,0:0|0:0,0:0:0:0:
185,261,133437,1,2,0:0:0:0:
125,256,133550,6,0,L|58:251,1,50,0|0,1:0|0:0,0:0:0:0:
105,359,133775,1,2,0:0:0:0:
154,352,133888,1,2,0:0:0:0:
203,345,134001,1,0,1:0:0:0:
312,384,134227,1,2,0:0:0:0:
475,253,134452,6,0,P|471:286|446:320,1,50,4|0,0:0|0:0,0:0:0:0:
353,316,134678,1,2,0:0:0:0:
353,316,134791,1,0,0:0:0:0:
353,316,134903,2,0,P|326:296|309:257,1,50,0|0,1:0|0:0,0:0:0:0:
351,179,135129,1,2,0:0:0:0:
351,179,135242,1,0,0:0:0:0:
351,179,135354,6,0,P|381:165|423:170,1,50,4|0,0:0|0:0,0:0:0:0:
161,179,135580,2,0,P|130:165|88:170,1,50,2|0,0:0|0:0,0:0:0:0:
26,305,135806,2,0,L|150:291,1,100,8|0,1:0|0:0,0:0:0:0:
207,291,136144,1,2,0:0:0:0:
207,291,136257,6,0,P|207:326|196:371,1,50,8|0,1:0|0:0,0:0:0:0:
64,223,136482,2,0,L|-12:211,1,50,8|0,1:0|0:0,0:0:0:0:
230,306,136708,2,0,P|230:341|219:386,1,50,0|0,1:0|0:0,0:0:0:0:
53,189,136933,2,0,L|-23:177,1,50,0|0,1:0|0:0,0:0:0:0:
301,248,137159,5,8,1:0:0:0:
140,125,137384,1,2,0:0:0:0:
127,173,137497,1,2,0:0:0:0:
144,219,137610,1,0,1:0:0:0:
357,178,137836,1,2,0:0:0:0:
228,48,138061,6,0,P|291:59|358:44,1,100,4|0,0:0|0:0,0:0:0:0:
443,32,138400,1,0,0:0:0:0:
426,50,138512,2,0,P|431:86|425:140,1,50,0|0,1:0|0:0,0:0:0:0:
357,178,138738,2,0,P|324:169|267:168,1,50,2|0,0:0|0:0,0:0:0:0:
140,125,138963,6,0,P|155:200|152:259,1,100,4|0,0:0|0:0,0:0:0:0:
267,281,139302,1,0,0:0:0:0:
252,301,139415,2,0,P|216:306|163:313,1,50,0|0,1:0|0:0,0:0:0:0:
351,339,139640,2,0,P|387:344|440:351,1,50,2|0,0:0|0:0,0:0:0:0:
485,331,139866,6,0,P|504:256|483:202,1,100,4|0,0:0|0:0,0:0:0:0:
376,232,140204,1,2,0:0:0:0:
376,232,140317,6,0,P|362:169|372:114,1,100,4|0,0:0|0:0,0:0:0:0:
402,86,140655,1,2,0:0:0:0:
462,88,140768,6,0,L|534:77,1,50,0|0,1:0|0:0,0:0:0:0:
255,98,140994,1,2,0:0:0:0:
266,49,141106,1,2,0:0:0:0:
278,0,141219,1,0,1:0:0:0:
154,32,141445,1,2,0:0:0:0:
1,138,141670,6,0,P|30:152|72:155,1,50,4|0,0:0|0:0,0:0:0:0:
91,304,141896,1,2,0:0:0:0:
91,304,142009,1,0,0:0:0:0:
91,304,142121,2,0,P|88:271|70:234,1,50,0|0,1:0|0:0,0:0:0:0:
189,142,142347,1,2,0:0:0:0:
189,142,142460,1,0,0:0:0:0:
189,142,142572,6,0,P|162:160|138:194,1,50,4|0,0:0|0:0,0:0:0:0:
361,173,142798,2,0,P|344:155|323:142,1,50,2|0,0:0|0:0,0:0:0:0:
292,307,143024,2,0,L|411:294,1,100,8|0,1:0|0:0,0:0:0:0:
465,289,143362,1,2,0:0:0:0:
512,229,143475,6,0,P|494:195|429:173,1,100,4|0,0:0|0:0,0:0:0:0:
367,190,143813,1,2,0:0:0:0:
294,175,143926,2,0,L|299:89,1,50,8|0,1:0|0:0,0:0:0:0:
409,54,144151,2,0,L|414:122,1,50,8|0,1:0|0:0,0:0:0:0:
317,246,144377,5,4,1:0:0:0:
112,302,144603,1,2,0:0:0:0:
161,309,144715,1,2,0:0:0:0:
210,316,144828,1,8,1:0:0:0:
213,127,145054,1,8,1:0:0:0:
154,358,145279,6,0,P|97:373|46:379,1,100,4|0,0:0|0:0,0:0:0:0:
103,243,145618,1,2,0:0:0:0:
114,266,145730,2,0,P|170:281|221:287,1,100,0|0,1:0|0:0,0:0:0:0:
286,193,146069,1,2,0:0:0:0:
286,193,146181,6,0,L|241:215,1,50,0|0,1:0|0:0,0:0:0:0:
334,300,146407,2,0,L|289:279,1,50,2|0,0:0|0:0,0:0:0:0:
355,154,146633,1,8,1:0:0:0:
404,339,146858,1,2,0:0:0:0:
487,202,147084,5,0,1:0:0:0:
411,332,147309,1,0,1:0:0:0:
362,161,147535,1,0,1:0:0:0:
288,251,147760,5,2,0:0:0:0:
298,256,147835,1,2,0:0:0:0:
308,261,147910,1,2,0:0:0:0:
319,266,147985,1,0,1:0:0:0:
214,341,148212,5,2,0:0:0:0:
224,336,148287,1,2,0:0:0:0:
234,331,148362,1,2,0:0:0:0:
244,326,148437,1,8,1:0:0:0:
213,217,148663,1,2,0:0:0:0:
190,206,148775,1,0,0:0:0:0:
144,226,148888,6,0,P|93:242|30:250,1,100,4|0,0:0|0:0,0:0:0:0:
72,141,149227,1,2,0:0:0:0:
82,165,149339,1,0,1:0:0:0:
105,41,149565,1,2,0:0:0:0:
67,36,149678,1,2,0:0:0:0:
31,42,149790,1,0,1:0:0:0:
166,117,150016,6,0,L|219:107,1,50,8|0,1:0|0:0,0:0:0:0:
311,88,150242,2,0,L|364:78,1,50,8|0,1:0|0:0,0:0:0:0:
456,59,150467,2,0,L|509:49,1,50,4|0,1:2|0:0,0:0:0:0:
391,171,150693,5,4,0:0:0:0:
226,20,150918,1,2,0:0:0:0:
306,5,151144,1,8,1:0:0:0:
166,117,151369,1,2,0:0:0:0:
86,102,151595,1,0,1:0:0:0:
226,214,151821,5,2,0:0:0:0:
236,211,151896,1,2,0:0:0:0:
247,209,151971,1,2,0:0:0:0:
258,207,152046,1,8,1:0:0:0:
166,311,152272,1,0,1:0:0:0:
140,306,152384,1,0,1:0:0:0:
99,269,152497,6,0,P|104:218|93:153,1,110.000003356934,4|0,0:0|0:0,0:0:0:0:
25,299,152836,1,2,0:0:0:0:
14,324,152948,6,0,P|9:273|20:208,1,110.000003356934,8|0,1:1|0:0,0:0:0:0:
88,354,153288,1,2,0:0:0:0:
99,379,153400,1,0,1:0:0:0:
227,276,153625,1,2,0:0:0:0:
200,267,153737,1,2,0:0:0:0:
173,265,153850,1,8,1:0:0:0:
256,353,154076,1,8,1:0:0:0:
240,195,154302,5,0,1:0:0:0:
173,265,154527,1,0,1:0:0:0:
103,198,154753,1,8,1:0:0:0:
170,128,154978,5,2,0:0:0:0:
166,118,155053,1,2,0:0:0:0:
161,108,155128,1,2,0:0:0:0:
156,98,155203,1,0,1:0:0:0:
240,195,155430,1,2,0:0:0:0:
251,219,155542,1,2,0:0:0:0:
263,244,155655,1,8,1:0:0:0:
351,171,155881,1,0,1:0:0:0:
410,313,156106,6,0,L|360:289,1,55.0000016784668,0|0,1:0|0:0,0:0:0:0:
250,326,156332,1,2,0:0:0:0:
240,330,156407,1,2,0:0:0:0:
230,335,156482,1,2,0:0:0:0:
220,340,156557,2,0,L|157:310,1,55.0000016784668,8|0,1:0|0:0,0:0:0:0:
167,200,156783,1,2,0:0:0:0:
157,196,156858,1,2,0:0:0:0:
147,191,156933,1,2,0:0:0:0:
137,186,157008,6,0,L|74:215,1,55.0000016784668,8|0,1:0|0:0,0:0:0:0:
242,122,157234,2,0,L|179:92,1,55.0000016784668,0|0,1:0|0:0,0:0:0:0:
347,209,157460,2,0,L|284:238,1,55.0000016784668,8|0,1:0|0:0,0:0:0:0:
452,98,157685,2,0,L|389:68,1,55.0000016784668,8|0,1:0|0:0,0:0:0:0:
493,302,157911,5,4,0:0:0:0:
347,209,158136,1,2,0:0:0:0:
214,320,158362,1,8,1:0:0:0:
336,331,158587,1,2,0:0:0:0:
225,197,158813,1,0,1:0:0:0:
92,309,159039,5,2,0:0:0:0:
96,319,159114,1,2,0:0:0:0:
101,329,159189,1,2,0:0:0:0:
106,339,159264,5,8,1:0:0:0:
168,276,159415,5,0,1:0:0:0:
245,320,159565,5,0,1:0:0:0:
307,257,159715,6,2,L|369:227,1,55.0000016784668,8|0,1:0|0:0,1:0:0:0:
498,372,160166,1,4,0:0:0:0:
256,192,172798,12,4,174602,0:0:0:0:
93,229,175054,5,0,1:0:0:0:
173,268,175279,1,0,0:0:0:0:
173,268,175392,1,2,0:0:0:0:
173,268,175505,1,0,0:0:0:0:
232,201,175730,1,0,0:0:0:0:
152,162,175956,1,0,1:0:0:0:
304,330,176407,6,0,P|358:306|440:313,1,112.500004291535
422,312,176858,2,0,L|434:218,1,75.0000028610231,0|0,1:0|0:0,0:0:0:0:
349,154,177309,1,0,0:0:0:0:
349,154,177422,1,2,0:0:0:0:
349,154,177535,1,2,0:0:0:0:
356,229,177760,1,0,1:0:0:0:
267,56,178099,1,0,1:0:0:0:
267,56,178212,6,0,L|184:63,1,75.0000028610231
49,142,178663,2,0,L|132:149,1,75.0000028610231,0|0,1:0|0:0,0:0:0:0:
265,138,179114,1,0,0:0:0:0:
265,138,179227,1,2,0:0:0:0:
265,138,179339,1,2,0:0:0:0:
253,220,179565,1,0,1:0:0:0:
169,210,179790,1,0,0:0:0:0:
169,210,179903,1,2,0:0:0:0:
169,210,180016,6,0,P|172:260|173:298,1,75.0000028610231
292,364,180467,2,0,P|293:326|295:289,1,75.0000028610231,0|0,1:0|0:0,0:0:0:0:
295,289,180805,1,0,1:0:0:0:
386,301,181031,1,0,0:0:0:0:
386,301,181144,2,0,P|386:273|391:244,1,37.5000014305115,0|0,1:0|0:0,0:0:0:0:
489,202,181369,6,2,P|395:212|330:148,1,179.999994506836,2|0,1:1|0:0,1:0:0:0:
174,74,181821,5,4,0:0:0:0:
255,61,182046,1,0,0:0:0:0:
99,30,182272,2,0,L|86:164,1,75.0000028610231,0|0,1:0|0:0,0:0:0:0:
87,141,182610,1,2,0:0:0:0:
83,178,182723,1,0,0:0:0:0:
79,215,182836,1,2,0:0:0:0:
75,252,182948,1,0,0:0:0:0:
242,258,183174,2,0,L|238:173,1,75.0000028610231,0|0,1:0|0:0,0:0:0:0:
41,332,183625,5,0,0:0:0:0:
116,382,183851,1,0,0:0:0:0:
197,345,184076,1,0,1:0:0:0:
300,357,184302,5,0,0:0:0:0:
300,357,184415,1,2,0:0:0:0:
386,369,184640,1,2,0:0:0:0:
386,369,184753,1,0,0:0:0:0:
470,376,184978,2,0,P|491:325|475:250,1,112.500004291535,0|0,1:0|0:0,0:0:0:0:
375,288,185430,5,2,0:0:0:0:
372,277,185542,1,0,0:0:0:0:
372,265,185655,1,0,0:0:0:0:
375,254,185768,1,2,0:0:0:0:
382,236,185881,1,0,1:0:0:0:
392,220,185993,1,0,0:0:0:0:
405,207,186106,1,0,0:0:0:0:
421,197,186219,1,0,0:0:0:0:
434,178,186332,5,2,0:0:0:0:
442,157,186445,1,0,0:0:0:0:
445,134,186557,1,0,0:0:0:0:
442,111,186670,1,2,0:0:0:0:
433,86,186783,1,0,1:0:0:0:
416,65,186896,1,0,0:0:0:0:
394,49,187008,1,0,0:0:0:0:
369,39,187121,1,0,0:0:0:0:
339,31,187234,5,0,1:0:0:0:
309,33,187347,1,0,0:0:0:0:
279,40,187460,1,2,0:0:0:0:
254,57,187572,1,2,0:0:0:0:
230,81,187685,1,0,1:0:0:0:
215,111,187798,1,0,0:0:0:0:
210,144,187911,1,2,0:0:0:0:
219,176,188024,1,2,0:0:0:0:
240,216,188136,5,0,1:0:0:0:
242,214,188249,1,0,0:0:0:0:
292,258,188362,1,0,1:0:0:0:
296,259,188475,1,2,0:0:0:0:
361,269,188587,5,0,1:0:0:0:
363,260,188700,1,0,0:0:0:0:
426,243,188813,1,0,1:0:0:0:
425,233,188926,1,2,0:0:0:0:
470,190,189039,5,0,1:0:0:0:
465,176,189151,1,0,0:0:0:0:
481,121,189264,1,0,1:0:0:0:
466,115,189377,1,0,1:0:0:0:
456,55,189490,5,0,1:0:0:0:
436,53,189602,1,0,0:0:0:0:
402,11,189715,1,0,1:0:0:0:
383,17,189828,1,0,1:0:0:0:
333,3,189941,5,8,1:0:0:0:
318,20,190054,1,0,0:0:0:0:
268,26,190166,1,8,1:0:0:0:
265,50,190279,1,8,1:0:0:0:
222,80,190392,5,8,1:0:0:0:
236,105,190505,1,0,0:0:0:0:
211,149,190618,1,8,1:0:0:0:
228,173,190730,1,8,1:0:0:0:
230,228,190843,6,0,L|270:261,2,33.3333333333333,8|0|0,1:0|3:3|3:3,0:0:0:0:
154,315,191069,2,0,L|98:322,2,33.3333333333333,8|0|0,1:0|3:3|3:3,0:0:0:0:
249,352,191294,1,8,1:0:0:0:
264,337,191369,1,0,1:0:0:0:
282,324,191444,1,0,1:0:0:0:
301,312,191519,1,8,1:0:0:0:
322,302,191594,1,0,1:0:0:0:
344,297,191669,1,0,1:0:0:0:
365,293,191745,6,2,B|351:268|351:268|351:255|351:255|346:241|346:241|337:232|337:232|332:221|332:221|328:205|328:205|314:177,1,120,2|0,1:0|0:0,1:0:0:0:
416,356,192648,5,4,0:0:0:0:
287,372,192873,1,0,0:0:0:0:
348,223,193099,2,0,L|399:247,1,44.999998626709,0|0,1:0|0:0,0:0:0:0:
253,242,193324,1,0,0:0:0:0:
249,264,193436,1,0,0:0:0:0:
245,286,193549,1,2,0:0:0:0:
150,232,193775,1,0,0:0:0:0:
153,254,193888,1,2,0:0:0:0:
45,235,194114,1,0,0:0:0:0:
56,255,194227,2,0,L|30:310,1,44.999998626709,2|0,0:0|0:0,0:0:0:0:
135,135,194452,6,0,B|200:123|200:123|239:133,1,89.9999972534181,4|0,0:0|0:0,0:0:0:0:
307,179,194790,1,0,0:0:0:0:
316,199,194903,2,0,L|381:229,1,44.999998626709,0|0,1:0|0:0,0:0:0:0:
298,97,195129,2,0,L|363:66,1,44.999998626709
231,210,195354,1,2,0:0:0:0:
135,155,195579,1,0,0:0:0:0:
138,177,195692,1,2,0:0:0:0:
30,158,195918,1,0,0:0:0:0:
41,178,196031,2,0,L|15:233,1,44.999998626709,2|0,0:0|0:0,0:0:0:0:
124,58,196257,5,4,0:0:0:0:
138,177,196482,1,0,0:0:0:0:
238,73,196708,2,0,L|218:32,1,44.999998626709,0|0,1:0|0:0,0:0:0:0:
235,169,196933,1,0,0:0:0:0:
257,172,197045,1,0,0:0:0:0:
279,176,197158,1,2,0:0:0:0:
229,274,197384,1,0,0:0:0:0:
251,270,197497,1,2,0:0:0:0:
237,378,197723,1,0,0:0:0:0:
256,367,197836,2,0,L|321:378,1,44.999998626709,2|0,0:0|0:0,0:0:0:0:
142,332,198061,6,0,B|107:325|107:325|50:337,1,89.9999972534181,4|0,0:0|0:0,0:0:0:0:
97,216,198399,1,0,0:0:0:0:
106,236,198512,2,0,L|174:248,1,44.999998626709,0|0,1:0|0:0,0:0:0:0:
14,144,198738,2,0,L|26:212,1,44.999998626709
99,68,198963,1,2,0:0:0:0:
213,63,199189,1,0,0:0:0:0:
216,41,199302,1,2,0:0:0:0:
324,75,199527,1,0,0:0:0:0:
335,55,199640,1,2,0:0:0:0:
377,54,199753,1,2,0:0:0:0:
394,38,199866,5,4,0:0:0:0:
391,166,200091,1,0,0:0:0:0:
401,188,200203,1,0,0:0:0:0:
412,211,200317,2,0,L|402:270,1,50,0|0,1:0|0:0,0:0:0:0:
260,188,200542,2,0,L|319:178,1,50
215,257,200768,1,2,0:0:0:0:
123,139,200993,1,0,0:0:0:0:
100,149,201105,1,2,0:0:0:0:
77,160,201219,2,0,L|16:149,1,50,0|0,1:0|0:0,0:0:0:0:
157,47,201445,1,2,0:0:0:0:
197,75,201557,1,0,0:0:0:0:
218,120,201670,6,0,P|209:167|210:222,1,100,4|0,0:0|0:0,0:0:0:0:
329,201,202008,1,0,0:0:0:0:
318,178,202121,2,0,L|327:124,1,50,0|0,1:0|0:0,0:0:0:0:
452,227,202347,2,0,L|403:236,1,50
328,304,202572,1,2,0:0:0:0:
303,299,202684,1,0,0:0:0:0:
278,295,202797,1,0,0:0:0:0:
243,327,202911,1,2,0:0:0:0:
217,330,203023,1,0,1:0:0:0:
192,335,203136,1,0,0:0:0:0:
156,303,203249,2,0,L|92:291,1,50,2|0,0:0|0:0,0:0:0:0:
155,111,203475,5,4,0:0:0:0:
215,246,203700,1,0,0:0:0:0:
239,241,203812,1,0,0:0:0:0:
264,237,203926,2,0,L|327:207,1,50,0|0,1:0|0:0,0:0:0:0:
253,108,204151,2,0,L|232:154,1,50
389,179,204377,1,2,0:0:0:0:
338,9,204602,1,0,0:0:0:0:
315,19,204714,1,2,0:0:0:0:
292,30,204828,2,0,L|200:13,1,50,0|0,1:0|0:0,0:0:0:0:
389,87,205054,1,2,0:0:0:0:
436,99,205166,1,0,0:0:0:0:
470,135,205279,6,0,P|475:201|488:263,1,100,4|0,0:0|0:0,0:0:0:0:
381,293,205617,1,0,0:0:0:0:
391,270,205730,1,0,1:0:0:0:
281,182,205956,1,0,0:0:0:0:
296,215,206068,1,0,0:0:0:0:
312,249,206181,5,2,0:0:0:0:
278,232,206294,1,0,0:0:0:0:
237,231,206407,1,2,0:0:0:0:
193,244,206520,1,2,0:0:0:0:
157,276,206633,1,0,1:0:0:0:
107,296,206745,1,2,0:0:0:0:
48,288,206858,1,2,0:0:0:0:
8,237,206971,1,0,1:0:0:0:
6,166,207084,6,0,B|-5:86|-5:86|32:19,1,119.999996337891,4|0,0:0|0:0,0:0:0:0:
158,67,207422,1,0,0:0:0:0:
143,99,207535,2,0,L|75:112,1,59.9999981689454,0|0,1:0|0:0,0:0:0:0:
224,142,207760,2,0,P|237:96|230:54,1,59.9999981689454,0|0,1:0|0:0,0:0:0:0:
141,202,207986,5,2,0:0:0:0:
141,202,208099,1,0,0:0:0:0:
141,202,208211,2,0,P|193:234|228:232,1,59.9999981689454,0|2,0:0|0:0,0:0:0:0:
288,272,208437,1,0,1:0:0:0:
288,272,208550,2,0,P|298:226|279:177,1,59.9999981689454,0|2,0:0|0:0,0:0:0:0:
394,122,208775,1,0,1:0:0:0:
394,122,208888,6,0,B|381:155|394:181|394:181|405:215|375:282,1,119.999996337891,4|0,0:0|0:0,0:0:0:0:
404,328,209227,1,0,0:0:0:0:
439,329,209339,2,0,P|476:296|491:252,1,59.9999981689454,0|0,1:0|0:0,0:0:0:0:
292,277,209565,2,0,P|313:315|349:344,1,59.9999981689454,0|0,1:0|0:0,0:0:0:0:
207,370,209790,5,2,0:0:0:0:
207,370,209903,1,0,0:0:0:0:
207,370,210016,2,0,L|118:359,1,59.9999981689454,0|2,0:0|0:0,0:0:0:0:
110,267,210242,2,0,L|164:195,1,59.9999981689454,0|0,1:0|0:0,0:0:0:0:
250,253,210467,2,0,L|284:335,1,59.9999981689454,2|0,0:0|0:0,0:0:0:0:
35,324,210693,6,0,P|55:235|59:182,1,119.999996337891,4|0,0:0|0:0,0:0:0:0:
6,96,211031,1,0,0:0:0:0:
28,124,211144,2,0,P|67:128|123:122,1,59.9999981689454,0|0,1:0|0:0,0:0:0:0:
152,72,211369,2,0,P|156:33|150:-23,1,59.9999981689454,0|0,1:0|0:0,0:0:0:0:
222,132,211595,5,2,0:0:0:0:
222,132,211708,1,0,0:0:0:0:
222,132,211820,2,0,P|268:131|313:122,1,59.9999981689454,0|2,0:0|0:0,0:0:0:0:
393,195,212046,1,0,1:0:0:0:
393,195,212159,2,0,P|369:155|338:121,1,59.9999981689454,0|2,0:0|0:0,0:0:0:0:
292,19,212384,1,0,1:0:0:0:
292,19,212497,6,0,P|333:59|413:40,1,119.999996337891,4|0,0:0|0:0,0:0:0:0:
478,97,212836,1,0,0:0:0:0:
511,85,212948,2,0,L|503:-3,1,59.9999981689454,0|0,1:0|0:0,0:0:0:0:
360,144,213174,2,0,L|364:203,1,59.9999981689454,0|0,1:0|0:0,0:0:0:0:
512,277,213399,2,0,P|471:281|425:283,1,59.9999981689454,2|0,0:0|0:0,0:0:0:0:
386,341,213625,5,2,0:0:0:0:
372,330,213738,1,2,0:0:0:0:
344,318,213851,1,0,1:0:0:0:
302,305,213963,1,0,0:0:0:0:
262,298,214076,1,4,0:0:0:0:
192,302,214189,1,0,1:0:0:0:
117,325,214302,6,0,P|118:247|120:167,1,129.999994049073,4|0,0:0|0:0,0:0:0:0:
210,164,214640,1,0,0:0:0:0:
210,164,214753,2,0,P|212:203|199:256,1,64.9999970245363,8|0,1:0|0:0,0:0:0:0:
27,220,214978,2,0,P|25:181|38:128,1,64.9999970245363,8|0,1:0|0:0,0:0:0:0:
169,86,215204,6,0,L|87:80,2,64.9999970245363,2|0|2,0:0|0:0|0:0,0:0:0:0:
257,94,215542,1,0,0:0:0:0:
257,94,215655,2,0,P|264:46|256:4,1,64.9999970245363,8|0,1:0|0:0,0:0:0:0:
368,115,215881,1,8,1:0:0:0:
342,159,215993,1,2,0:0:0:0:
332,210,216106,6,0,P|330:254|371:344,1,129.999994049073,4|0,0:0|0:0,0:0:0:0:
441,312,216445,1,0,0:0:0:0:
441,312,216557,2,0,P|439:265|425:224,1,64.9999970245363,8|0,1:0|0:0,0:0:0:0:
287,360,216783,2,0,L|199:350,1,64.9999970245363,8|0,1:0|0:0,0:0:0:0:
129,308,217008,6,0,P|121:340|122:374,2,64.9999970245363,2|0|2,0:0|0:0|0:0,0:0:0:0:
245,258,217347,1,0,0:0:0:0:
245,258,217460,2,0,L|137:241,1,64.9999970245363,8|0,1:0|0:0,0:0:0:0:
53,262,217685,1,8,1:0:0:0:
39,211,217798,1,2,0:0:0:0:
50,160,217911,6,0,P|101:137|174:146,1,129.999994049073,4|0,0:0|0:0,0:0:0:0:
243,181,218249,1,0,0:0:0:0:
318,203,218362,2,0,L|315:91,1,64.9999970245363,8|0,1:0|0:0,0:0:0:0:
251,4,218587,2,0,L|252:68,1,64.9999970245363,8|0,1:0|0:0,0:0:0:0:
342,210,218813,6,0,L|339:98,1,64.9999970245363,2|0,0:0|0:0,0:0:0:0:
275,11,219038,2,0,L|276:75,1,64.9999970245363,2|0,0:0|0:0,0:0:0:0:
366,217,219265,6,0,L|363:105,1,64.9999970245363,8|0,1:0|0:0,0:0:0:0:
299,18,219490,2,0,L|300:82,1,64.9999970245363,8|0,1:0|0:0,0:0:0:0:
299,276,219715,5,2,0:0:0:0:
301,288,219790,1,2,0:0:0:0:
303,300,219866,1,2,0:0:0:0:
305,312,219941,1,8,1:0:0:0:
182,252,220166,5,2,0:0:0:0:
174,269,220279,1,2,0:0:0:0:
166,286,220392,1,8,1:0:0:0:
92,172,220617,5,2,0:0:0:0:
77,183,220730,1,2,0:0:0:0:
61,194,220843,1,8,1:0:0:0:
98,310,221069,5,8,1:0:0:0:
213,184,221219,5,8,1:0:0:0:
196,69,221369,5,0,1:0:0:0:
157,32,221520,5,4,1:2:0:0:
