osu file format v14

[General]
AudioFilename: audio.mp3
AudioLeadIn: 0
PreviewTime: 130843
Countdown: 0
SampleSet: Soft
StackLeniency: 0.7
Mode: 0
LetterboxInBreaks: 1
WidescreenStoryboard: 0

[Editor]
Bookmarks: 15355,44227,58663,73099,101971,116407,130843,138061,145279,152497,160166,174603,192648,199866,207084,221520
DistanceSpacing: 1.3
BeatDivisor: 12
GridSize: 4
TimelineZoom: 2

[Metadata]
Title:goldenslaughterer
TitleUnicode:goldenslaughterer
Artist:zts
ArtistUnicode:zts
Creator:Dada
Version:PandaHero's Insane
Source:うみねこのなく頃に
Tags:umineko no naku koro ni when the seagulls cry they code zts label czl musicbox red 07th Expansion Ryukishi07 chapter 1 one maria ushiromiya electronic video game instrumental PandaHero deetz Luscent 404 AimNotFound
BeatmapID:1961304
BeatmapSetID:931948

[Difficulty]
HPDrainRate:5
CircleSize:4
OverallDifficulty:7
ApproachRate:8
SliderMultiplier:1.6
SliderTickRate:1

[Events]
//Background and Video events
0,0,"whenyournosebleedswhilesleeping.jpg",0,0
//Break Periods
2,5204,7387
2,13550,14605
2,106231,108439
2,160366,173401
//Storyboard Layer 0 (Background)
//Storyboard Layer 1 (Fail)
//Storyboard Layer 2 (Pass)
//Storyboard Layer 3 (Foreground)
//Storyboard Layer 4 (Overlay)
//Storyboard Sound Samples

[TimingPoints]
919,451.127268623025,4,1,1,15,1,0
919,-1000,4,1,1,15,0,0
8137,-1000,4,1,1,20,0,0
15355,-125,4,2,1,55,0,0
18964,-125,4,2,0,40,0,0
20317,-125,4,2,0,55,0,0
20994,-125,4,2,0,40,0,0
22347,-125,4,1,0,25,0,0
22573,-125,4,2,1,55,0,0
27535,-125,4,2,1,35,0,0
28212,-125,4,2,1,55,0,0
28437,-125,4,2,1,35,0,0
28888,-125,4,2,1,55,0,0
29114,-125,4,2,1,30,0,0
29340,-125,4,2,1,40,0,0
29791,-125,4,2,1,55,0,0
31370,-125,4,2,1,40,0,0
32046,-125,4,2,1,45,0,0
32497,-125,4,2,1,55,0,0
35430,-125,4,2,1,45,0,0
37009,-125,4,2,1,55,0,0
39039,-125,4,2,1,45,0,0
39264,-125,4,2,1,40,0,0
40618,-125,4,2,1,50,0,0
41520,-125,4,2,1,55,0,0
44227,-125,4,2,1,40,0,0
47836,-100,4,1,2,35,0,0
48738,-100,4,1,1,40,0,0
51445,-100,4,1,1,40,0,0
52573,-100,4,1,2,40,0,0
53249,-100,4,1,2,45,0,0
54152,-100,4,1,1,45,0,0
55054,-100,4,1,1,50,0,0
56858,-100,4,1,1,55,0,0
58663,-100,4,1,1,60,0,0
73099,-100,4,2,1,65,0,0
102084,-100,4,2,1,35,0,0
109189,-100,4,2,1,45,0,0
112798,-200,4,2,1,45,0,0
116407,-125,4,1,1,50,0,0
123625,-125,4,1,1,55,0,0
127234,-125,4,1,1,60,0,0
129039,-125,4,1,1,65,0,0
130843,-76.9230769230769,4,1,0,65,0,0
138061,-76.9230769230769,4,1,2,65,0,0
145279,-76.9230769230769,4,1,0,60,0,0
147084,-76.9230769230769,4,1,1,60,0,0
148888,-76.9230769230769,4,1,0,60,0,0
150693,-76.9230769230769,4,1,1,60,0,0
151595,-76.9230769230769,4,1,2,60,0,0
156106,-76.9230769230769,4,1,2,60,0,0
157911,-76.9230769230769,4,1,1,60,0,0
160166,-76.9230769230769,4,1,1,45,0,0
174151,-55.5555555555556,4,1,1,45,0,0
174603,451.127268623025,4,1,2,45,1,0
185430,-100,4,1,1,50,0,0
189039,-100,4,1,0,55,0,0
189490,-100,4,1,1,60,0,0
189941,-100,4,1,0,65,0,0
190392,-100,4,1,0,70,0,0
190843,-100,4,1,0,45,0,0
191745,-200,4,1,1,65,0,0
192196,-50,4,1,1,65,0,0
192648,-76.9230769230769,4,1,1,65,0,0
199866,-76.9230769230769,4,1,1,60,0,0
214302,-66.6666666666667,4,1,2,65,0,0
216106,-66.6666666666667,4,1,1,65,0,0
216557,-66.6666666666667,4,1,2,65,0,0
217911,-66.6666666666667,4,1,1,65,0,0
221069,-66.6666666666667,4,1,1,65,0,0

[Colours]
Combo1 : 90,153,199
Combo2 : 255,72,72
Combo3 : 255,128,64

[HitObjects]
173,205,919,6,2,L|303:218,1,128,0|0,0:0|2:0,0:0:0:0:
324,185,8137,6,2,L|139:199,1,184,0|0,0:0|2:0,0:0:0:0:
56,223,15355,6,0,L|134:204,1,64,4|2,1:2|0:0,0:0:0:0:
185,251,15806,2,0,L|328:251,1,128,0|8,1:0|0:0,0:0:0:0:
390,270,16483,1,0,0:0:0:0:
354,338,16708,1,0,3:0:0:0:
280,328,16934,1,0,1:0:0:0:
280,328,17385,5,2,0:3:0:0:
242,257,17611,1,0,1:0:0:0:
242,257,18061,2,0,L|253:184,1,64,8|0,0:2|3:0,0:0:0:0:
168,121,18513,2,0,L|158:197,2,64,2|2|2,0:3|1:3|0:0,0:0:0:0:
168,121,19415,5,2,0:0:0:0:
168,121,19866,1,8,0:1:0:0:
168,121,20317,1,2,3:0:0:0:
168,121,20543,1,0,3:0:0:0:
274,28,20994,6,0,L|296:35,4,16,0|0|0|0|0,3:0|3:0|3:0|3:0|3:0,3:0:0:0:
433,106,21671,2,0,L|418:111,4,16,0|0|0|0|0,3:0|3:0|3:0|3:0|3:0,3:0:0:0:
250,161,22347,2,0,L|265:168,3,16
275,176,22573,6,0,L|273:311,1,128,4|0,1:0|1:0,0:0:0:0:
272,303,23475,2,0,L|138:297,1,128,8|0,1:0|0:0,0:0:0:0:
72,324,24152,1,0,1:0:0:0:
72,324,24603,1,0,1:0:0:0:
44,250,24829,1,2,0:3:0:0:
44,250,25280,2,0,L|77:122,1,128,8|2,1:0|3:0,0:0:0:0:
129,76,25956,1,0,1:0:0:0:
200,108,26182,6,0,L|345:115,1,128,0|0,1:0|1:0,0:0:0:0:
455,224,27084,2,0,L|310:217,1,128,8|2,1:0|0:0,0:0:0:0:
392,305,27761,2,0,L|318:301,1,64,4|0,0:3|2:0,0:0:0:0:
130,349,28212,1,8,1:0:0:0:
195,302,28438,1,4,0:3:0:0:
41,127,28889,2,0,L|48:207,2,64,8|0|0,1:0|1:0|0:0,0:0:0:0:
102,63,29566,1,4,0:3:0:0:
190,114,29791,5,4,1:0:0:0:
190,114,30242,1,0,1:0:0:0:
259,148,30693,2,0,B|316:142|316:142|373:68,1,128,8|0,1:0|0:0,0:0:0:0:
446,128,31370,2,0,L|427:214,1,64,4|0,0:3|2:0,0:0:0:0:
503,354,31821,1,8,1:0:0:0:
429,324,32047,1,2,0:3:0:0:
429,324,32498,2,0,B|380:355|380:355|285:346,1,128,8|2,1:0|0:3,0:0:0:0:
242,297,33175,1,0,1:0:0:0:
166,297,33400,6,0,L|28:309,2,128,4|4|8,0:3|0:3|0:1,0:0:0:0:
102,86,34979,2,0,L|81:233,1,128,0|8,1:0|0:1,0:0:0:0:
162,191,35656,1,0,1:0:0:0:
268,355,36107,1,8,0:0:0:0:
306,283,36332,2,0,L|299:138,1,128,0|0,1:0|1:0,0:0:0:0:
302,77,37009,6,0,B|369:80|369:80|417:146,1,128,4|4,1:0|0:3,0:0:0:0:
481,258,37911,1,8,0:0:0:0:
481,258,38588,1,0,1:0:0:0:
330,226,39039,1,8,0:1:0:0:
259,255,39264,1,2,0:3:0:0:
106,238,39715,1,8,0:0:0:0:
34,266,39941,1,0,3:0:0:0:
34,266,40392,1,0,1:0:0:0:
38,187,40618,6,0,L|47:43,1,128,4|4,0:3|0:3,0:0:0:0:
181,14,41520,2,0,L|171:161,1,128,8|2,1:0|0:3,0:0:0:0:
167,217,42197,1,4,0:3:0:0:
167,217,42648,1,8,0:0:0:0:
242,207,42873,2,0,L|335:192,1,64,0|0,1:0|0:0,0:0:0:0:
379,209,43324,2,0,L|374:352,1,128,8|0,1:0|0:0,0:0:0:0:
447,353,44001,1,0,1:0:0:0:
495,213,44227,6,0,P|478:151|417:99,1,128,4|0,1:0|3:0,0:0:0:0:
203,38,45129,1,8,1:0:0:0:
203,38,45580,2,0,L|291:25,1,64,2|0,0:0|0:0,0:0:0:0:
201,138,46031,2,0,P|205:195|204:273,1,128,2|0,0:3|0:0,0:0:0:0:
134,298,46708,1,0,0:0:0:0:
134,298,46933,2,0,L|148:357,2,32,8|0|0,1:0|0:0|0:0,0:0:0:0:
68,256,47385,2,0,L|57:171,1,64,2|0,0:0|0:0,0:0:0:0:
34,43,47836,5,8,0:0:0:0:
34,43,48287,2,0,P|111:24|164:122,1,160,12|8,0:0|0:0,0:0:0:0:
202,149,48964,1,0,0:0:0:0:
202,149,49189,2,0,L|267:136,2,40,2|0|0,0:3|0:0|0:0,0:0:0:0:
173,222,49640,2,0,P|172:279|178:327,1,80,2|0,0:3|3:0,0:0:0:0:
214,365,50091,2,0,P|258:352|301:347,1,80,0|2,0:0|0:3,0:0:0:0:
348,300,50542,2,0,P|408:311|472:302,1,120,8|0,0:0|0:0,0:0:0:0:
466,303,50994,1,2,0:3:0:0:
488,232,51219,1,0,0:0:0:0:
436,170,51445,6,0,P|386:162|279:194,1,160,4|0,0:0|0:0,0:0:0:0:
282,191,52121,1,0,0:3:0:0:
208,175,52347,2,0,P|209:143|218:85,1,80,8|2,0:0|3:0,0:0:0:0:
251,27,52798,1,2,0:3:0:0:
251,27,52911,1,0,0:0:0:0:
251,27,53024,1,0,0:0:0:0:
138,63,53249,6,0,P|81:69|46:64,1,80,2|0,0:3|2:0,0:0:0:0:
94,157,53700,2,0,P|36:152|4:139,1,80,0|2,0:0|0:3,0:0:0:0:
110,235,54152,2,0,P|177:221|230:224,1,120,8|0,0:0|0:0,0:0:0:0:
239,244,54603,2,0,P|235:270|238:337,1,80,2|0,0:3|0:0,0:0:0:0:
326,359,55054,5,2,0:2:0:0:
382,286,55279,1,0,0:0:0:0:
382,286,55392,1,0,0:0:0:0:
382,286,55505,1,2,0:3:0:0:
470,326,55730,1,2,0:0:0:0:
419,208,55956,2,0,P|419:153|427:86,1,120,8|0,0:0|0:0,0:0:0:0:
432,65,56407,1,2,0:2:0:0:
334,107,56633,1,0,0:0:0:0:
268,222,56858,6,0,P|262:266|265:314,1,80,2|0,0:3|0:0,0:0:0:0:
128,199,57309,2,0,P|174:180|214:153,1,80,8|2,0:2|0:0,0:0:0:0:
175,337,57761,2,0,P|139:303|96:282,1,80,8|0,0:0|0:0,0:0:0:0:
4,261,58212,1,8,0:2:0:0:
42,353,58437,1,2,0:0:0:0:
85,171,58663,6,2,P|79:100|61:37,1,120,4|0,0:0|2:0,0:2:0:0:
66,52,59114,2,0,P|123:66|176:71,1,80,8|0,0:2|2:0,0:0:0:0:
234,35,59565,1,0,0:0:0:0:
251,129,59791,1,2,3:2:0:0:
402,216,60016,2,0,P|421:147|451:89,1,120,8|0,0:2|0:0,0:0:0:0:
469,87,60467,5,0,0:0:0:0:
390,30,60693,2,0,P|351:31|294:13,2,80,4|8|2,0:2|0:2|3:2,0:0:0:0:
339,139,61370,1,0,0:0:0:0:
339,139,61482,1,0,0:0:0:0:
339,139,61595,1,0,0:0:0:0:
187,93,61821,2,0,P|103:88|30:93,1,120,8|0,0:2|0:0,0:0:0:0:
67,89,62272,6,0,P|63:139|66:187,1,80,0|2,0:0|3:2,0:0:0:0:
63,267,62723,1,8,0:2:0:0:
175,225,62948,1,0,0:0:0:0:
206,220,63061,1,0,0:0:0:0:
238,221,63174,1,0,0:0:0:0:
268,230,63287,1,0,0:0:0:0:
291,251,63400,1,0,0:0:0:0:
260,346,63625,2,0,P|218:353|167:357,1,80,8|0,0:2|0:0,0:0:0:0:
351,313,64076,6,0,P|390:316|430:323,1,80,0|2,0:0|3:2,0:0:0:0:
380,214,64527,2,0,P|353:158|344:95,1,120,8|0,0:2|0:0,0:0:0:0:
346,69,64979,1,0,0:0:0:0:
430,23,65204,1,2,3:2:0:0:
460,114,65430,1,8,0:2:0:0:
287,208,65655,1,0,0:0:0:0:
287,208,65768,1,0,0:0:0:0:
287,208,65881,6,0,P|225:205|174:167,1,120,4|0,3:2|2:0,0:0:0:0:
178,172,66332,2,0,P|117:175|91:179,1,80,8|0,0:2|0:0,0:0:0:0:
10,84,66783,2,0,P|71:81|97:77,1,80,0|2,0:0|3:2,0:0:0:0:
173,30,67234,1,8,0:2:0:0:
240,336,67573,1,0,0:0:0:0:
240,336,67685,5,0,0:0:0:0:
150,301,67911,1,0,0:0:0:0:
229,247,68136,1,8,0:2:0:0:
318,282,68362,1,2,3:2:0:0:
237,253,68588,1,0,0:0:0:0:
237,253,68700,1,0,0:0:0:0:
237,253,68813,1,0,0:0:0:0:
150,301,69039,1,8,0:2:0:0:
247,342,69264,1,0,0:0:0:0:
247,342,69377,1,0,0:0:0:0:
247,342,69490,6,0,P|249:280|233:164,1,160,0|8,0:0|0:2,0:0:0:0:
179,106,70167,1,2,3:2:0:0:
179,106,70279,1,0,0:0:0:0:
179,106,70392,1,0,0:0:0:0:
296,22,70618,2,2,P|351:30|397:14,1,80,2|8,0:0|0:2,0:0:0:0:
474,132,71069,2,2,P|419:124|373:140,1,80,2|0,0:0|0:0,0:0:0:0:
335,204,71520,1,0,0:0:0:0:
424,237,71745,1,8,0:2:0:0:
227,218,71971,5,0,0:0:0:0:
195,211,72084,1,0,0:0:0:0:
163,206,72197,1,0,0:0:0:0:
131,199,72309,1,0,0:0:0:0:
99,194,72422,1,0,0:0:0:0:
12,249,72648,1,8,0:2:0:0:
167,100,72873,1,0,0:0:0:0:
198,104,72986,1,0,0:0:0:0:
229,108,73099,6,2,P|246:59|253:18,1,80,4|0,3:2|0:0,0:2:0:0:
301,161,73550,2,0,P|327:116|341:77,1,80,8|0,0:0|3:0,0:0:0:0:
339,285,74001,2,0,P|373:245|424:152,1,160,4|8,1:3|0:0,0:0:0:0:
252,373,74678,1,2,3:0:0:0:
252,373,74791,1,0,0:0:0:0:
252,373,74903,6,0,P|204:368|151:374,1,80,0|0,1:0|0:0,0:0:0:0:
206,259,75354,2,0,P|159:272|112:297,1,80,8|0,0:0|3:0,0:0:0:0:
138,136,75806,2,0,P|99:165|38:265,1,160,4|8,1:3|0:0,0:0:0:0:
246,51,76482,1,0,1:0:0:0:
246,51,76595,1,0,1:0:0:0:
246,51,76708,6,0,P|317:68|407:61,1,160,4|8,1:3|0:0,0:0:0:0:
485,12,77385,1,0,3:0:0:0:
466,105,77610,1,4,1:3:0:0:
302,95,77836,1,0,0:0:0:0:
302,95,77948,1,0,0:0:0:0:
302,95,78061,1,8,0:0:0:0:
372,160,78287,1,2,3:0:0:0:
442,248,78512,6,0,P|451:326|444:391,1,120,4|0,1:3|0:0,0:0:0:0:
448,367,78964,2,0,P|396:360|364:360,1,80,8|0,1:3|0:0,0:0:0:0:
211,303,79415,2,0,P|250:302|290:296,1,80,4|8,1:3|0:0,0:0:0:0:
338,213,79866,1,8,1:0:0:0:
131,354,80091,1,4,3:0:0:0:
131,354,80204,1,2,3:0:0:0:
131,354,80317,6,0,P|80:349|34:356,1,80,4|0,3:2|0:0,0:0:0:0:
0,246,80768,2,0,P|51:251|97:244,1,80,8|0,0:0|3:0,0:0:0:0:
225,135,81219,2,0,P|133:144|81:132,1,120,4|0,1:3|0:0,0:0:0:0:
74,136,81670,1,8,0:0:0:0:
21,45,81896,1,2,3:0:0:0:
226,30,82121,6,0,P|285:40|350:83,1,120,4|0,1:3|0:0,0:0:0:0:
346,100,82573,2,0,P|341:146|338:200,1,80,8|0,0:0|3:0,0:0:0:0:
495,195,83024,2,0,P|500:170|503:116,1,80,4|2,1:3|3:0,0:0:0:0:
406,295,83475,1,8,0:0:0:0:
225,292,83700,5,0,3:0:0:0:
225,292,83813,1,0,3:0:0:0:
225,292,83926,1,4,1:3:0:0:
323,260,84151,1,0,3:0:0:0:
290,358,84377,1,8,0:0:0:0:
171,196,84603,5,0,3:0:0:0:
171,196,84716,1,0,3:0:0:0:
171,196,84829,1,4,1:3:0:0:
106,262,85054,1,0,3:0:0:0:
73,164,85280,1,8,0:0:0:0:
246,46,85505,5,0,3:0:0:0:
246,46,85618,1,0,3:0:0:0:
246,46,85730,2,0,L|249:157,1,80,4|0,1:3|3:0,0:0:0:0:
312,200,86182,1,8,1:2:0:0:
391,123,86407,1,0,1:0:0:0:
391,123,86520,1,0,1:0:0:0:
391,123,86633,1,4,1:3:0:0:
210,247,86858,1,0,3:0:0:0:
210,247,86971,1,0,3:0:0:0:
210,247,87084,1,4,1:3:0:0:
447,360,87309,1,8,1:3:0:0:
447,360,87422,1,4,1:3:0:0:
447,360,87535,6,0,P|447:290|454:189,1,160,4|8,3:2|0:0,0:0:0:0:
452,200,88212,1,2,3:2:0:0:
339,274,88437,2,0,P|269:258|237:244,2,80,4|0|8,1:3|3:0|0:0,0:0:0:0:
197,172,89114,1,2,3:2:0:0:
122,244,89339,2,0,P|112:282|111:347,1,80,4|0,1:3|0:0,0:0:0:0:
30,129,89791,2,0,P|40:167|41:232,1,80,8|2,0:0|3:2,0:0:0:0:
122,106,90242,2,0,P|112:68|111:3,2,80,4|0|8,1:3|0:0|0:0,0:0:0:0:
315,179,90918,1,2,3:0:0:0:
315,179,91031,1,4,1:3:0:0:
315,179,91144,6,0,P|370:182|420:171,1,80,4|0,1:3|0:0,0:0:0:0:
474,81,91595,2,0,P|404:75|314:79,1,160,12|4,0:0|1:3,0:0:0:0:
217,117,92272,1,4,0:0:0:0:
242,16,92497,1,8,0:0:0:0:
181,199,92723,1,2,3:2:0:0:
181,199,92836,1,0,3:0:0:0:
181,199,92948,6,0,P|160:259|159:302,1,80,4|0,1:3|0:0,0:0:0:0:
243,335,93400,2,0,P|301:321|342:321,1,80,8|2,0:0|3:2,0:0:0:0:
350,333,93738,1,0,1:0:0:0:
350,333,93851,2,0,P|399:344|452:343,1,80,0|2,1:0|3:0,0:0:0:0:
381,228,94302,1,8,0:0:0:0:
146,348,94527,1,0,1:0:0:0:
114,353,94640,1,0,1:0:0:0:
82,358,94753,6,0,P|80:309|96:197,1,160,4|8,3:2|0:0,0:0:0:0:
95,199,95430,1,2,3:2:0:0:
134,103,95655,1,4,1:3:0:0:
33,131,95881,1,2,3:0:0:0:
33,131,95994,1,0,3:0:0:0:
33,131,96106,1,8,0:0:0:0:
202,191,96332,1,2,3:2:0:0:
174,9,96557,5,4,1:2:0:0:
174,9,97009,2,0,P|155:56|144:108,1,80,8|2,0:0|3:2,0:0:0:0:
368,201,97460,1,4,1:2:0:0:
368,201,97911,2,0,P|377:250|378:303,1,80,8|2,0:0|3:2,0:0:0:0:
360,305,98249,1,4,1:3:0:0:
339,329,98362,6,0,P|283:322|158:344,1,160,4|8,1:2|0:0,0:0:0:0:
92,365,99039,1,2,3:0:0:0:
142,248,99264,2,0,P|84:249|47:238,1,80,4|0,1:3|0:0,0:0:0:0:
181,156,99715,2,0,P|239:155|276:166,1,80,8|2,0:0|3:0,0:0:0:0:
409,274,100166,5,4,1:3:0:0:
499,182,100392,1,2,0:3:0:0:
499,182,100505,1,8,1:3:0:0:
499,182,100618,1,8,1:3:0:0:
360,24,100843,1,2,0:3:0:0:
337,47,100956,1,4,1:3:0:0:
313,68,101069,2,0,P|243:66|185:83,1,120,4|8,1:3|1:3,0:0:0:0:
165,90,101520,2,0,P|114:90|71:83,1,80,8|4,1:3|0:3,0:0:0:0:
85,86,101858,1,8,0:3:0:0:
85,86,101971,1,6,3:2:0:0:
256,192,102084,12,2,105129,0:0:0:0:
167,309,105580,5,2,0:1:0:0:
167,309,106031,1,2,0:1:0:0:
256,192,109189,12,0,112347,0:0:0:0:
318,44,112798,5,2,0:1:0:0:
318,44,113249,2,2,P|401:125|408:242,1,240,2|0,0:1|0:0,0:1:0:0:
256,192,114715,12,4,116407,0:0:0:0:
51,243,116858,5,8,0:0:0:0:
114,200,117084,1,0,0:0:0:0:
114,200,117197,1,0,0:0:0:0:
184,229,117422,1,0,0:0:0:0:
184,229,117535,1,0,0:0:0:0:
123,276,117760,1,8,0:0:0:0:
190,142,117986,1,0,0:0:0:0:
260,172,118212,6,0,P|306:186|356:177,1,96,2|0,0:0|2:0,0:0:0:0:
367,199,118663,2,0,P|428:197|449:199,1,64,8|0,0:0|0:0,0:0:0:0:
430,197,119001,1,0,0:0:0:0:
430,197,119114,1,2,0:0:0:0:
498,128,119339,1,0,0:0:0:0:
498,128,119452,1,2,0:0:0:0:
498,128,119565,1,8,0:0:0:0:
441,60,119791,1,2,0:0:0:0:
365,48,120016,6,0,P|319:62|269:53,1,96,4|0,0:2|2:0,0:0:0:0:
258,75,120467,2,0,P|197:73|176:75,1,64,8|0,0:0|0:0,0:0:0:0:
194,73,120806,1,0,0:0:0:0:
194,73,120918,1,0,0:0:0:0:
121,65,121144,1,0,0:0:0:0:
121,65,121257,1,0,0:0:0:0:
121,65,121369,1,8,0:0:0:0:
173,10,121595,1,0,0:0:0:0:
98,139,121821,6,0,P|79:167|68:211,1,64,2|0,0:0|0:0,0:0:0:0:
69,221,122159,1,0,0:0:0:0:
76,245,122272,1,8,0:0:0:0:
152,292,122497,1,2,0:0:0:0:
152,292,122610,1,0,0:0:0:0:
152,292,122723,1,2,0:0:0:0:
215,242,122948,1,0,0:0:0:0:
290,259,123174,1,8,0:0:0:0:
314,267,123287,1,2,0:0:0:0:
339,272,123400,1,0,0:0:0:0:
363,278,123512,1,2,0:0:0:0:
388,282,123625,6,0,P|425:279|472:272,1,64,4|0,0:0|0:0,0:0:0:0:
474,198,124076,2,0,P|442:199|410:203,1,64,8|0,0:0|0:0,0:0:0:0:
384,198,124415,1,0,0:0:0:0:
359,191,124527,1,2,0:0:0:0:
287,146,124753,1,0,0:0:0:0:
287,146,124866,1,2,0:0:0:0:
347,91,125091,1,0,0:0:0:0:
347,91,125204,1,2,0:0:0:0:
166,165,125430,6,0,P|163:209|163:252,1,64,4|0,0:2|0:0,0:0:0:0:
69,192,125881,2,0,P|72:148|72:105,1,64,8|0,0:0|0:0,0:0:0:0:
67,102,126219,1,0,0:0:0:0:
57,78,126332,1,2,0:0:0:0:
113,19,126557,1,0,0:0:0:0:
113,19,126670,1,2,0:0:0:0:
193,41,126896,1,0,0:0:0:0:
193,41,127009,1,2,0:0:0:0:
231,175,127234,6,0,L|215:225,3,32,4|0|0|0,0:0|0:0|0:0|0:0,0:0:0:0:
208,331,127685,2,0,L|195:291,3,32,8|0|0|0,0:0|0:0|0:0|0:0,0:0:0:0:
238,354,128136,5,4,0:2:0:0:
254,354,128249,1,0,0:0:0:0:
269,355,128362,1,2,0:3:0:0:
285,355,128475,1,2,0:0:0:0:
300,356,128588,1,8,0:0:0:0:
316,356,128701,1,2,0:3:0:0:
331,355,128813,1,2,0:0:0:0:
347,354,128927,1,0,0:0:0:0:
380,348,129039,5,4,0:0:0:0:
403,337,129151,1,0,0:0:0:0:
418,316,129264,1,2,0:2:0:0:
419,290,129377,1,0,0:0:0:0:
406,267,129490,1,4,0:2:0:0:
385,251,129603,1,0,0:0:0:0:
369,230,129715,1,2,0:3:0:0:
360,205,129828,1,0,0:0:0:0:
365,179,129941,1,4,0:2:0:0:
379,157,130054,1,0,0:0:0:0:
389,133,130166,1,2,0:2:0:0:
390,107,130279,1,2,0:2:0:0:
380,83,130392,1,4,0:2:0:0:
361,64,130505,1,2,0:2:0:0:
336,57,130618,2,0,L|281:58,1,32,10|0,0:3|2:0,0:0:0:0:
240,30,130843,6,0,P|263:106|259:161,1,103.999995239258,4|0,0:2|0:0,0:0:0:0:
56,204,131294,2,0,L|41:147,1,51.999997619629,10|0,0:0|2:0,0:0:0:0:
97,93,131520,2,0,L|91:35,1,51.999997619629,2|0,0:0|2:0,0:0:0:0:
158,154,131745,2,0,P|146:245|157:314,1,155.999992858887,2|0,0:0|0:0,0:0:0:0:
265,323,132197,2,0,L|338:310,1,51.999997619629,10|0,0:0|2:0,0:0:0:0:
377,360,132422,2,0,L|449:355,1,51.999997619629,2|0,0:0|2:0,0:0:0:0:
486,260,132648,6,0,P|433:217|392:210,1,103.999995239258,2|2,0:0|2:0,0:0:0:0:
367,168,132986,1,2,0:0:0:0:
367,168,133099,2,0,P|299:173|264:197,1,103.999995239258,10|2,0:0|2:0,0:0:0:0:
225,164,133437,1,2,0:0:0:0:
225,164,133550,2,0,L|193:229,1,51.999997619629,2|0,0:0|2:0,0:0:0:0:
125,133,133775,1,2,0:2:0:0:
125,133,133888,1,2,0:2:0:0:
125,133,134001,2,0,P|127:80|136:19,1,103.999995239258,10|10,0:0|0:0,0:0:0:0:
181,50,134339,1,0,0:0:0:0:
181,50,134452,6,0,P|249:64|288:61,1,103.999995239258,2|2,0:0|2:0,0:0:0:0:
283,61,134791,1,2,0:2:0:0:
283,61,134903,1,10,0:0:0:0:
428,37,135129,1,2,0:2:0:0:
428,37,135242,1,2,0:2:0:0:
428,37,135354,1,2,0:0:0:0:
459,164,135580,1,2,0:2:0:0:
262,200,135806,1,10,0:0:0:0:
221,190,135918,1,2,0:2:0:0:
179,188,136031,1,2,0:0:0:0:
137,191,136144,1,2,0:2:0:0:
91,203,136257,6,0,P|49:219|10:277,1,103.999995239258,2|2,0:0|0:0,0:0:0:0:
184,278,136708,2,0,P|164:318|177:387,1,103.999995239258,10|2,0:0|0:0,0:0:0:0:
290,232,137159,2,0,P|309:191|296:122,1,103.999995239258,2|2,0:0|2:0,0:0:0:0:
279,99,137497,1,2,0:2:0:0:
240,83,137610,1,10,0:0:0:0:
488,186,137836,1,10,0:0:0:0:
458,215,137948,1,0,0:0:0:0:
442,253,138061,6,0,P|421:322|430:402,1,103.999995239258,4|2,0:2|3:0,0:0:0:0:
343,231,138512,2,0,L|351:170,1,51.999997619629,10|0,0:0|2:0,0:0:0:0:
367,103,138738,2,0,L|413:54,1,51.999997619629,2|0,0:0|2:0,0:0:0:0:
289,119,138963,2,0,P|225:119|182:86,1,103.999995239258,2|2,0:0|3:0,0:0:0:0:
192,98,139302,1,0,0:0:0:0:
192,98,139415,1,8,0:0:0:0:
116,32,139640,1,2,0:3:0:0:
190,194,139866,6,0,P|215:261|210:380,1,155.999992858887,2|2,0:0|3:0,0:0:0:0:
177,354,140317,2,0,P|118:338|37:347,1,103.999995239258,10|2,0:0|3:0,0:0:0:0:
286,268,140768,1,2,0:0:0:0:
314,298,140881,1,0,0:0:0:0:
348,321,140994,1,0,0:0:0:0:
387,331,141106,1,0,0:0:0:0:
428,326,141219,1,10,0:0:0:0:
501,262,141445,1,10,0:0:0:0:
404,94,141670,6,0,P|418:147|412:244,1,103.999995239258,2|2,0:0|3:0,0:0:0:0:
230,49,142121,2,0,P|296:37|338:19,1,103.999995239258,10|2,0:0|3:0,0:0:0:0:
329,23,142460,1,0,0:0:0:0:
329,23,142572,1,2,0:0:0:0:
231,173,142798,1,2,0:3:0:0:
58,89,143024,1,10,0:0:0:0:
32,121,143136,1,0,0:0:0:0:
18,160,143249,1,2,0:0:0:0:
21,201,143362,1,0,0:0:0:0:
46,234,143475,6,0,P|91:270|169:254,1,103.999995239258,6|2,0:0|3:0,0:0:0:0:
176,262,143813,1,0,0:0:0:0:
205,232,143926,2,0,P|271:217|331:229,1,103.999995239258,10|2,0:0|0:0,0:0:0:0:
466,305,144377,1,6,0:2:0:0:
335,343,144603,1,2,0:0:0:0:
335,343,144715,1,0,0:0:0:0:
335,343,144828,1,8,0:0:0:0:
303,134,145054,1,10,0:0:0:0:
432,100,145279,5,6,0:2:0:0:
160,91,145505,1,2,0:0:0:0:
160,91,145618,1,0,0:0:0:0:
160,91,145730,1,8,0:0:0:0:
275,44,145956,1,2,0:0:0:0:
307,69,146069,1,0,0:0:0:0:
324,106,146181,1,2,0:0:0:0:
329,147,146294,1,0,0:0:0:0:
319,187,146407,1,0,0:0:0:0:
179,286,146633,2,0,P|165:231|168:167,1,103.999995239258,10|2,0:0|0:0,0:0:0:0:
430,302,147084,5,0,0:0:0:0:
341,356,147309,1,2,0:2:0:0:
299,260,147535,1,8,0:2:0:0:
151,329,147760,2,0,L|160:384,3,34.6666650797527,2|0|0|0,3:2|3:0|3:0|0:0,3:0:0:0:
119,142,148212,1,2,0:2:0:0:
119,142,148324,1,0,0:0:0:0:
119,142,148437,1,8,0:2:0:0:
63,230,148663,1,2,0:2:0:0:
242,157,148888,5,0,0:0:0:0:
278,254,149114,1,2,0:0:0:0:
278,254,149227,1,2,0:2:0:0:
278,254,149339,1,10,0:0:0:0:
178,240,149565,1,2,0:0:0:0:
178,240,149678,1,2,0:2:0:0:
178,240,149790,1,4,0:3:0:0:
305,70,150016,1,2,0:0:0:0:
385,270,150242,1,8,0:0:0:0:
290,177,150467,1,2,0:0:0:0:
110,358,150693,6,0,P|48:353|-8:356,1,103.999995239258,0|2,0:0|0:2,0:0:0:0:
161,210,151144,2,0,P|223:205|279:208,1,103.999995239258,8|2,0:2|0:2,0:0:0:0:
47,110,151595,1,4,0:3:0:0:
13,205,151821,2,0,L|0:250,3,34.6666650797527,0|0|0|10,0:0|0:0|0:0|0:3,0:0:0:0:
217,25,152272,1,4,0:3:0:0:
256,37,152384,1,4,0:3:0:0:
294,52,152497,1,6,0:2:0:0:
456,112,152723,5,4,0:3:0:0:
456,112,152836,1,4,0:3:0:0:
456,112,152948,1,8,1:3:0:0:
354,331,153174,1,8,0:3:0:0:
354,331,153287,1,4,0:3:0:0:
354,331,153400,1,8,1:3:0:0:
342,197,153625,1,4,0:3:0:0:
342,197,153738,1,4,0:3:0:0:
342,197,153851,1,8,1:3:0:0:
463,254,154076,1,2,0:3:0:0:
268,116,154302,6,0,P|202:120|144:153,1,103.999995239258,6|4,1:3|0:3,0:3:0:0:
40,358,154753,1,8,0:3:0:0:
152,310,154978,2,0,L|148:267,3,34.6666650797527,2|0|0|4,0:3|0:3|0:3|0:3,0:3:0:0:
19,197,155430,1,4,0:3:0:0:
24,155,155542,1,4,0:3:0:0:
27,113,155655,1,8,0:3:0:0:
136,41,155881,1,2,0:3:0:0:
241,298,156106,5,4,0:0:0:0:
280,312,156219,1,0,0:3:0:0:
319,326,156332,1,2,0:3:0:0:
358,339,156445,1,2,0:3:0:0:
392,316,156557,5,0,0:0:0:0:
356,294,156670,1,0,0:0:0:0:
320,273,156783,1,2,0:3:0:0:
284,253,156896,1,0,0:0:0:0:
280,211,157009,5,6,0:0:0:0:
320,225,157122,1,0,0:0:0:0:
359,239,157235,1,2,0:3:0:0:
398,252,157348,1,2,0:3:0:0:
431,229,157460,5,2,0:0:0:0:
394,207,157573,1,0,0:0:0:0:
358,186,157686,1,4,0:3:0:0:
322,166,157799,1,4,0:3:0:0:
322,124,157911,6,0,B|373:146|373:146|450:123,1,103.999995239258,6|2,0:0|0:2,0:0:0:0:
255,29,158362,2,0,B|205:48|205:48|136:24,1,103.999995239258,8|0,0:0|0:0,0:0:0:0:
133,64,158700,1,8,0:0:0:0:
133,64,158813,2,0,B|89:28|89:28|-2:42,1,103.999995239258,4|0,0:2|0:0,0:0:0:0:
21,71,159151,1,8,0:0:0:0:
5,109,159264,2,0,B|-7:145|-7:145|17:194,2,69.3333301595054,8|8|8,0:0|0:2|0:0,0:0:0:0:
210,203,159715,2,2,P|264:278|225:377,1,207.999990478516,2|4,0:3|0:0,0:2:0:0:
438,99,174151,6,2,B|263:69|340:208|140:161,1,287.999991210938,2|4,2:1|1:0,2:1:0:0:
109,216,174828,5,0,0:0:0:0:
65,283,175054,1,8,0:0:0:0:
21,216,175279,1,2,0:3:0:0:
21,216,175392,1,0,0:0:0:0:
65,149,175618,1,2,0:3:0:0:
65,149,175730,1,0,0:0:0:0:
142,127,175956,2,0,P|188:147|253:150,1,80,8|0,0:0|0:0,0:0:0:0:
311,57,176407,6,0,P|265:37|200:34,1,80,4|8,0:3|0:3,0:0:0:0:
162,64,176858,1,8,0:0:0:0:
124,129,177084,1,2,0:3:0:0:
124,129,177196,1,0,0:0:0:0:
171,193,177422,1,2,0:3:0:0:
171,193,177535,1,0,0:0:0:0:
246,167,177760,1,8,0:0:0:0:
246,167,178212,5,4,0:3:0:0:
310,213,178437,1,4,0:3:0:0:
296,292,178663,1,8,0:0:0:0:
217,306,178888,1,2,0:3:0:0:
217,306,179001,1,0,0:0:0:0:
275,367,179227,1,2,0:3:0:0:
275,367,179339,1,0,0:0:0:0:
353,350,179565,2,0,P|399:330|452:327,1,80,8|0,0:0|0:0,0:0:0:0:
470,193,180016,6,0,P|424:213|371:216,1,80,4|8,0:3|0:3,0:0:0:0:
328,172,180467,1,8,0:0:0:0:
322,92,180693,1,2,0:3:0:0:
340,85,180805,1,0,0:3:0:0:
358,77,180918,1,2,0:3:0:0:
376,69,181031,1,2,0:3:0:0:
394,61,181144,1,0,0:0:0:0:
202,11,181369,2,2,P|154:59|173:147,1,160,2|4,0:0|0:3,0:0:0:0:
232,192,182046,5,8,0:3:0:0:
232,272,182272,1,8,0:0:0:0:
158,308,182497,1,2,0:3:0:0:
158,308,182610,1,0,0:0:0:0:
88,265,182835,1,2,0:3:0:0:
88,265,182948,1,0,0:0:0:0:
157,225,183174,1,8,0:0:0:0:
310,311,183399,1,4,0:3:0:0:
310,311,183512,1,8,0:3:0:0:
310,311,183625,6,0,P|359:350|399:360,1,80,4|4,0:3|0:3,0:0:0:0:
447,322,184076,1,8,0:0:0:0:
459,242,184302,1,0,0:0:0:0:
442,231,184415,1,2,0:3:0:0:
423,222,184527,1,0,0:0:0:0:
404,215,184640,1,0,0:0:0:0:
384,211,184753,1,2,0:3:0:0:
305,225,184978,1,8,0:0:0:0:
299,128,185204,5,4,0:3:0:0:
299,128,185317,1,8,0:3:0:0:
299,128,185430,1,4,0:3:0:0:
219,136,185655,1,8,0:3:0:0:
240,58,185881,1,8,0:0:0:0:
322,48,186106,1,0,0:0:0:0:
322,48,186219,1,0,0:0:0:0:
322,48,186332,2,0,L|385:42,3,40
427,101,186783,2,0,L|490:95,3,40,8|0|4|8,0:0|0:0|0:3|0:3,0:0:0:0:
349,152,187234,5,4,0:3:0:0:
340,170,187347,1,0,0:0:0:0:
332,188,187460,1,4,0:3:0:0:
324,206,187572,1,0,0:0:0:0:
315,223,187685,2,0,L|252:217,3,40,8|0|4|8,0:0|0:0|0:3|0:3,0:0:0:0:
380,280,188136,5,4,0:3:0:0:
386,298,188249,1,0,0:0:0:0:
393,316,188362,1,4,0:3:0:0:
398,335,188475,1,0,0:0:0:0:
405,353,188587,2,0,L|468:347,3,40,8|0|0|0,0:0|0:0|0:0|0:0,0:0:0:0:
316,345,189039,5,4,0:3:0:0:
296,341,189151,1,4,0:3:0:0:
275,341,189264,1,4,0:3:0:0:
255,346,189377,1,4,0:3:0:0:
236,353,189490,1,8,0:0:0:0:
217,359,189602,1,4,0:3:0:0:
197,363,189715,1,4,0:3:0:0:
176,362,189828,1,4,0:3:0:0:
156,363,189941,1,8,0:0:0:0:
135,362,190054,1,4,0:3:0:0:
115,359,190166,1,4,0:3:0:0:
95,356,190279,1,8,0:0:0:0:
75,353,190392,1,4,0:3:0:0:
55,349,190505,1,4,0:3:0:0:
38,337,190618,1,8,0:0:0:0:
28,319,190730,1,4,0:3:0:0:
27,298,190843,6,0,L|30:255,5,26.6666666666667,0|0|0|0|0|0,0:0|0:0|0:0|0:0|0:0|0:0,0:0:0:0:
104,226,191294,2,0,L|105:193,5,26.6666666666667,0|0|0|0|0|0,0:0|0:0|0:0|0:0|0:0|0:0,0:0:0:0:
180,145,191745,2,0,L|186:69,1,60,4|0,3:0|2:0,0:0:0:0:
217,20,192196,6,2,B|177:146|326:107|288:244,1,240,2|0,0:0|0:0,0:0:0:0:
272,306,192648,6,0,P|216:290|150:297,1,103.999995239258,4|0,0:0|0:0,0:0:0:0:
75,300,193099,1,8,0:2:0:0:
133,134,193324,1,10,0:0:0:0:
156,144,193437,1,0,0:0:0:0:
182,153,193550,2,0,P|255:147|303:119,1,103.999995239258,2|0,0:0|0:0,0:0:0:0:
282,134,193888,2,0,L|271:28,1,103.999995239258,2|0,0:0|0:0,0:0:0:0:
272,30,194227,1,2,0:0:0:0:
407,146,194452,6,0,P|379:199|377:276,1,103.999995239258
476,253,194903,1,8,0:2:0:0:
325,330,195129,1,2,0:0:0:0:
325,330,195242,1,2,0:2:0:0:
325,330,195354,1,2,0:0:0:0:
427,348,195580,1,2,0:2:0:0:
427,348,195693,1,2,0:0:0:0:
242,365,195918,1,2,0:2:0:0:
221,350,196031,1,2,0:0:0:0:
202,332,196144,1,0,0:0:0:0:
183,313,196257,6,0,P|177:258|180:204,1,103.999995239258
22,257,196708,2,0,P|28:312|25:366,1,103.999995239258,8|2,0:2|0:0,0:0:0:0:
50,352,197046,1,2,0:2:0:0:
74,343,197159,1,2,0:0:0:0:
132,257,197384,1,2,0:2:0:0:
132,257,197497,1,2,0:0:0:0:
69,173,197723,1,2,0:2:0:0:
69,173,197836,2,0,L|-14:166,1,51.999997619629,2|8,0:0|0:0,0:0:0:0:
129,67,198061,6,0,P|182:85|252:75,1,103.999995239258,4|0,0:2|0:0,0:0:0:0:
317,26,198512,1,8,0:2:0:0:
425,92,198738,1,2,0:0:0:0:
445,108,198851,1,2,0:2:0:0:
467,128,198963,2,0,P|459:169|449:239,1,103.999995239258,2|2,0:0|0:2,0:0:0:0:
449,230,199302,2,0,P|390:222|340:217,1,103.999995239258,2|2,0:0|0:2,0:0:0:0:
320,224,199640,1,2,0:0:0:0:
295,232,199753,1,8,0:3:0:0:
270,239,199866,5,2,0:0:0:0:
236,337,200091,1,2,3:2:0:0:
338,358,200317,1,8,0:2:0:0:
229,258,200542,5,2,0:0:0:0:
229,258,200655,1,2,0:2:0:0:
229,258,200768,1,2,0:0:0:0:
195,356,200993,1,2,3:2:0:0:
297,377,201219,1,8,0:2:0:0:
125,99,201445,5,0,0:0:0:0:
125,99,201557,1,8,0:2:0:0:
125,99,201670,1,2,0:0:0:0:
112,201,201895,1,2,3:2:0:0:
11,176,202121,1,8,0:2:0:0:
153,134,202346,5,2,0:0:0:0:
153,134,202459,1,2,0:2:0:0:
153,134,202572,1,2,0:0:0:0:
141,237,202797,1,2,3:2:0:0:
40,211,203023,1,8,0:2:0:0:
227,43,203249,5,0,0:0:0:0:
227,43,203362,1,2,0:2:0:0:
227,43,203475,1,2,0:0:0:0:
328,62,203700,1,2,3:2:0:0:
430,80,203926,1,8,0:2:0:0:
282,142,204151,5,2,0:0:0:0:
282,142,204264,1,2,0:2:0:0:
282,142,204377,1,2,0:0:0:0:
181,161,204602,1,2,3:2:0:0:
79,179,204828,1,8,0:2:0:0:
236,239,205054,5,0,0:0:0:0:
236,239,205167,1,8,0:2:0:0:
236,239,205280,1,2,0:0:0:0:
337,258,205505,1,2,3:2:0:0:
439,276,205731,1,8,0:2:0:0:
282,331,205956,5,2,0:0:0:0:
282,331,206069,1,4,0:2:0:0:
282,331,206182,1,2,0:0:0:0:
92,371,206407,1,2,3:0:0:0:
59,354,206520,1,2,3:0:0:0:
33,327,206633,1,8,0:0:0:0:
25,291,206745,1,2,3:0:0:0:
26,254,206858,1,8,0:0:0:0:
38,219,206971,1,8,0:0:0:0:
55,187,207084,6,0,P|113:176|179:186,1,103.999995239258,6|2,0:0|3:0,0:0:0:0:
259,83,207535,6,0,L|307:107,1,51.999997619629,8|0,0:0|2:0,0:0:0:0:
384,36,207761,2,0,L|402:87,1,51.999997619629,2|0,0:0|2:0,0:0:0:0:
494,122,207986,2,0,P|476:158|415:199,1,103.999995239258,2|2,0:0|3:0,0:0:0:0:
247,234,208437,6,0,L|201:263,1,51.999997619629,8|0,0:0|2:0,0:0:0:0:
117,201,208663,2,0,L|104:253,1,51.999997619629,2|8,0:0|2:0,0:0:0:0:
16,298,208888,2,0,P|37:332|102:367,1,103.999995239258,2|2,0:0|3:0,0:0:0:0:
304,267,209339,6,0,L|307:201,1,51.999997619629,8|0,0:0|2:0,0:0:0:0:
246,151,209565,2,0,L|247:75,1,51.999997619629,2|0,0:0|2:0,0:0:0:0:
318,18,209790,2,0,P|365:43|394:112,1,103.999995239258,2|2,0:0|3:0,0:0:0:0:
214,359,210242,6,0,L|211:293,1,51.999997619629,8|0,0:0|2:0,0:0:0:0:
272,243,210468,2,0,L|271:167,1,51.999997619629,2|8,0:0|2:0,0:0:0:0:
200,110,210693,2,0,P|153:135|124:204,1,103.999995239258,2|2,0:0|3:0,0:0:0:0:
340,300,211144,5,8,0:0:0:0:
463,283,211369,1,2,0:0:0:0:
463,283,211482,1,0,0:0:0:0:
463,283,211595,1,2,0:0:0:0:
359,214,211820,1,2,0:3:0:0:
209,354,212046,5,8,0:0:0:0:
86,337,212271,1,2,0:0:0:0:
86,337,212384,1,8,0:2:0:0:
86,337,212497,1,2,0:0:0:0:
190,268,212722,1,2,0:3:0:0:
293,82,212948,5,8,0:0:0:0:
267,214,213173,1,2,0:0:0:0:
267,214,213286,1,0,0:0:0:0:
267,214,213399,1,2,0:0:0:0:
130,31,213625,1,2,0:2:0:0:
89,43,213738,1,2,0:2:0:0:
54,68,213851,1,8,0:2:0:0:
31,103,213963,1,2,0:2:0:0:
16,143,214076,1,12,0:2:0:0:
14,185,214189,1,8,0:2:0:0:
28,224,214302,6,0,P|64:277|125:324,1,120.000004577637,6|2,0:0|0:3,0:0:0:0:
293,370,214753,1,8,0:0:0:0:
293,370,214866,1,2,0:0:0:0:
240,256,215091,1,8,0:0:0:0:
240,256,215204,1,2,0:0:0:0:
368,276,215430,1,8,0:0:0:0:
368,276,215542,1,2,0:0:0:0:
307,154,215768,1,8,0:0:0:0:
307,154,215881,1,2,0:0:0:0:
470,90,216106,5,8,3:2:0:0:
470,90,216219,1,8,3:2:0:0:
470,90,216332,1,8,3:1:0:0:
246,32,216557,1,8,0:0:0:0:
246,32,216670,1,2,0:0:0:0:
307,154,216896,1,8,0:0:0:0:
307,154,217008,1,2,0:0:0:0:
179,134,217234,1,8,0:0:0:0:
179,134,217347,1,2,0:0:0:0:
232,248,217572,1,8,0:0:0:0:
232,248,217685,1,2,0:0:0:0:
318,34,217911,5,8,0:3:0:0:
318,34,218023,1,8,0:3:0:0:
318,34,218136,1,4,0:3:0:0:
254,113,218362,1,2,0:0:0:0:
203,26,218587,1,2,0:0:0:0:
327,160,218813,5,4,0:3:0:0:
327,160,218925,1,4,0:3:0:0:
327,160,219038,1,8,0:3:0:0:
252,337,219264,1,2,0:0:0:0:
184,154,219490,1,2,0:0:0:0:
368,296,219715,5,6,0:0:0:0:
132,296,219941,1,2,0:2:0:0:
344,143,220166,1,10,0:0:0:0:
252,360,220392,1,2,0:2:0:0:
171,143,220618,1,6,0:0:0:0:
368,296,220843,1,2,0:2:0:0:
132,296,221069,6,0,B|97:309|97:309|35:296,2,80.0000030517579,8|8|8,0:2|0:0|0:2,0:0:0:0:
195,258,221520,1,4,0:0:0:0:
