osu file format v14

[General]
AudioFilename: audio.mp3
AudioLeadIn: 0
PreviewTime: 130843
Countdown: 0
SampleSet: Soft
StackLeniency: 0.6
Mode: 0
LetterboxInBreaks: 1
WidescreenStoryboard: 1

[Editor]
DistanceSpacing: 1
BeatDivisor: 4
GridSize: 32
TimelineZoom: 1

[Metadata]
Title:goldenslaughterer
TitleUnicode:goldenslaughterer
Artist:zts
ArtistUnicode:zts
Creator:Dada
Version:Normal
Source:うみねこのなく頃に
Tags:umineko no naku koro ni when the seagulls cry they code zts label czl musicbox red 07th Expansion Ryukishi07 chapter 1 one maria ushiromiya electronic video game instrumental PandaHero deetz Luscent 404 AimNotFound
BeatmapID:1954967
BeatmapSetID:931948

[Difficulty]
HPDrainRate:3
CircleSize:3.5
OverallDifficulty:4
ApproachRate:6
SliderMultiplier:0.999999999999999
SliderTickRate:1

[Events]
//Background and Video events
0,0,"whenyournosebleedswhilesleeping.jpg",0,0
//Break Periods
2,4728,6937
2,105580,107836
2,112347,115054
2,160366,172951
//Storyboard Layer 0 (Background)
//Storyboard Layer 1 (Fail)
//Storyboard Layer 2 (Pass)
//Storyboard Layer 3 (Foreground)
//Storyboard Layer 4 (Overlay)
//Storyboard Sound Samples

[TimingPoints]
919,451.127268623025,4,2,1,45,1,0
919,-285.714285714286,4,2,1,45,0,0
1370,-285.714285714286,4,2,1,42,0,0
1821,-285.714285714286,4,2,1,39,0,0
2272,-285.714285714286,4,2,1,36,0,0
2723,-285.714285714286,4,2,1,33,0,0
3174,-285.714285714286,4,2,1,30,0,0
3625,-285.714285714286,4,2,1,27,0,0
4076,-285.714285714286,4,2,1,24,0,0
4528,-285.714285714286,4,2,1,21,0,0
8137,-285.714285714286,4,2,1,45,0,0
8588,-285.714285714286,4,2,1,42,0,0
9039,-285.714285714286,4,2,1,39,0,0
9490,-285.714285714286,4,2,1,36,0,0
9941,-285.714285714286,4,2,1,33,0,0
10392,-285.714285714286,4,2,1,30,0,0
10843,-285.714285714286,4,2,1,27,0,0
11294,-285.714285714286,4,2,1,24,0,0
11746,-285.714285714286,4,2,1,21,0,0
12197,-285.714285714286,4,2,1,18,0,0
12648,-285.714285714286,4,2,1,15,0,0
13099,-285.714285714286,4,2,1,12,0,0
15355,-100,4,2,1,55,0,0
44227,-100,4,2,1,60,0,0
58663,-100,4,2,1,60,0,0
73099,-100,4,2,1,60,0,0
101971,-100,4,2,1,50,0,0
103099,-100,4,2,1,50,0,0
105806,-100,4,2,1,50,0,0
109189,-100,4,2,1,50,0,0
112798,-100,4,2,1,50,0,0
116182,-100,4,2,1,5,0,0
116407,-100,4,2,1,60,0,0
130843,-100,4,2,1,75,0,0
145279,-100,4,2,1,75,0,0
152497,-100,4,2,1,75,0,0
172798,-100,4,2,1,55,0,0
174603,451.127268623025,4,2,1,55,1,0
175054,-100,4,2,1,55,0,0
181369,-100,4,2,1,55,0,0
181821,-100,4,2,1,55,0,0
185430,-100,4,2,1,65,0,0
188136,-100,4,2,1,70,0,0
191745,-100,4,2,1,75,0,0
192648,-100,4,2,1,75,0,0
199866,-100,4,2,1,75,0,0
207084,-100,4,2,1,75,0,0
214302,-100,4,2,1,75,0,0
221069,-100,4,2,1,75,0,0
221219,-100,4,2,1,75,0,0
221369,-100,4,2,1,75,0,0
221520,-100,4,2,1,75,0,0

[Colours]
Combo1 : 209,190,220
Combo2 : 255,72,72
Combo3 : 255,128,64
Combo4 : 199,193,3
Combo5 : 170,0,0

[HitObjects]
160,79,919,6,0,P|232:109|394:231,1,279.999991455078,0|0,0:0|0:0,0:0:0:0:
454,306,8137,6,0,P|312:296|60:360,1,402.499987716675,0|0,0:0|0:0,0:0:0:0:
256,192,15355,5,4,0:0:0:0:
350,223,15806,1,0,0:0:0:0:
444,254,16257,2,0,L|446:204,1,50,8|0,1:0|0:0,0:0:0:0:
455,158,16708,5,0,0:0:0:0:
455,158,16934,1,0,1:0:0:0:
448,258,17385,1,0,0:0:0:0:
448,258,17611,1,0,1:0:0:0:
441,358,18061,2,0,L|391:360,1,50,8|0,1:0|0:0,0:0:0:0:
340,361,18512,2,0,L|290:358,1,50,0|0,1:0|1:0,0:0:0:0:
239,356,18964,6,0,P|229:302|239:255,3,99.9999999999999,2|2|2|2,2:0|0:0|0:0|0:0,0:0:0:0:
290,173,20768,5,2,0:0:0:0:
290,173,20994,2,0,P|248:161|223:147,1,50,0|0,3:0|0:0,0:0:0:0:
184,76,21670,2,0,P|154:107|140:131,1,50,0|0,3:0|0:0,0:0:0:0:
165,216,22347,1,0,3:0:0:0:
165,216,22573,5,8,3:0:0:0:
73,176,23024,1,0,1:0:0:0:
85,276,23475,2,0,L|81:347,1,50,8|0,1:0|0:0,0:0:0:0:
84,379,23926,5,0,0:0:0:0:
84,379,24152,1,2,0:0:0:0:
183,349,24603,1,2,0:0:0:0:
183,349,24829,1,0,1:0:0:0:
282,319,25279,2,0,L|278:255,1,50,8|0,1:0|0:0,0:0:0:0:
276,219,25730,2,0,L|279:155,1,50,0|0,1:0|1:0,0:0:0:0:
281,118,26182,6,0,P|230:99|179:97,1,99.9999999999999,2|2,0:0|0:0,0:0:0:0:
142,186,27084,2,0,L|78:189,1,50,8|0,1:0|0:0,0:0:0:0:
41,189,27535,2,0,P|32:222|33:257,1,50,0|0,0:0|1:0,0:0:0:0:
116,289,28212,6,0,L|112:352,1,50,8|0,1:2|0:0,0:0:0:0:
211,322,28888,2,0,L|207:385,1,50,8|0,1:2|0:0,0:0:0:0:
307,358,29565,1,0,0:0:0:0:
307,358,29791,6,0,B|331:312|386:281,1,99.9999999999999,4|0,0:0|0:0,0:0:0:0:
461,333,30693,2,0,L|457:269,1,50,8|0,1:0|0:0,0:0:0:0:
459,237,31144,5,0,0:0:0:0:
459,237,31370,1,2,0:0:0:0:
465,337,31821,1,2,0:0:0:0:
465,337,32047,1,0,1:0:0:0:
377,288,32497,2,0,L|323:285,1,50,8|0,1:0|0:0,0:0:0:0:
276,284,32949,2,0,L|222:286,1,50,0|0,1:0|1:0,0:0:0:0:
175,288,33400,6,0,P|166:235|177:186,1,99.9999999999999,2|0,0:0|3:0,0:0:0:0:
217,99,34302,2,0,L|163:96,1,50,8|0,1:0|0:0,0:0:0:0:
120,99,34753,5,0,0:0:0:0:
120,99,34979,1,0,0:0:0:0:
221,103,35430,1,8,1:2:0:0:
221,103,35656,1,0,0:0:0:0:
322,107,36106,1,8,1:2:0:0:
322,107,36332,1,0,0:0:0:0:
423,111,36783,1,0,0:0:0:0:
423,111,37009,6,0,P|425:164|440:211,1,99.9999999999999,4|0,0:0|1:0,0:0:0:0:
485,296,37911,2,0,L|420:299,1,50,8|0,1:0|0:0,0:0:0:0:
388,304,38362,5,0,0:0:0:0:
388,304,38588,1,2,0:0:0:0:
489,300,39039,1,2,0:0:0:0:
489,300,39265,1,0,1:0:0:0:
431,218,39715,2,0,L|434:153,1,50,8|0,1:0|0:0,0:0:0:0:
438,118,40167,2,0,L|434:53,1,50,0|0,1:0|1:0,0:0:0:0:
429,18,40618,6,0,P|380:9|331:22,1,99.9999999999999,2|2,0:0|0:0,0:0:0:0:
281,107,41520,2,0,L|216:103,1,50,8|0,1:0|0:0,0:0:0:0:
184,106,41971,5,0,0:0:0:0:
184,106,42197,1,2,0:0:0:0:
285,111,42648,1,8,1:2:0:0:
285,111,42874,1,0,0:0:0:0:
386,116,43324,6,0,P|360:46|327:20,1,99.9999999999999,8|0,1:2|0:0,0:0:0:0:
297,21,44001,1,8,1:2:0:0:
297,21,44227,6,0,P|269:23|239:20,1,50,2|0,0:0|0:0,0:0:0:0:
198,10,44678,2,0,P|170:8|140:11,1,50,0|0,0:0|0:0,0:0:0:0:
98,17,45129,1,0,1:2:0:0:
147,103,45580,6,0,P|139:131|137:158,1,50,0|0,0:0|0:0,0:0:0:0:
144,201,46031,1,2,0:0:0:0:
148,300,46482,2,0,P|172:297|196:289,1,50
236,259,46933,1,0,1:0:0:0:
284,346,47385,1,0,0:0:0:0:
333,349,47610,1,0,0:0:0:0:
382,353,47836,6,0,L|444:356,1,50,4|0,0:0|0:0,0:0:0:0:
481,359,48287,2,0,L|484:296,1,50,4|0,0:0|0:0,0:0:0:0:
489,259,48738,1,0,1:0:0:0:
392,232,49189,6,0,P|389:200|394:166,1,50,0|0,0:0|0:0,0:0:0:0:
411,136,49640,1,2,0:0:0:0:
485,68,50091,1,0,0:0:0:0:
440,46,50317,1,0,0:0:0:0:
395,24,50542,1,0,1:0:0:0:
297,45,50994,1,0,0:0:0:0:
252,67,51219,1,0,0:0:0:0:
207,89,51445,6,0,P|184:98|163:112,1,50,2|0,0:0|0:0,0:0:0:0:
139,156,51896,2,0,L|142:225,1,50,0|0,0:0|0:0,0:0:0:0:
144,255,52347,1,0,1:2:0:0:
45,271,52798,6,0,L|41:201,1,50,2|0,0:0|0:0,0:0:0:0:
40,171,53249,1,2,0:0:0:0:
139,156,53700,2,0,L|142:225,1,50,0|0,0:0|0:0,0:0:0:0:
144,255,54151,1,0,1:2:0:0:
218,322,54603,1,0,0:0:0:0:
266,331,54828,1,0,0:0:0:0:
315,341,55054,6,0,P|339:357|365:367,1,50,2|0,0:0|0:0,0:0:0:0:
408,367,55505,2,0,P|436:365|464:369,1,50,0|0,0:0|0:0,0:0:0:0:
506,377,55956,1,0,1:0:0:0:
472,282,56407,5,0,0:0:0:0:
422,271,56633,1,0,0:0:0:0:
373,263,56858,1,2,0:0:0:0:
302,192,57309,1,0,0:0:0:0:
253,184,57535,1,0,0:0:0:0:
203,173,57761,6,0,P|168:176|139:176,1,50,0|0,1:0|0:0,0:0:0:0:
104,169,58212,2,0,P|100:134|100:105,1,50,0|0,1:0|0:0,0:0:0:0:
112,69,58663,1,4,0:0:0:0:
199,19,59114,6,0,P|233:25|262:28,1,50,0|0,1:0|0:0,0:0:0:0:
298,17,59565,2,0,P|302:52|306:81,1,50,0|0,0:0|0:0,0:0:0:0:
312,117,60016,1,0,1:0:0:0:
210,119,60467,6,0,P|204:85|201:56,1,50,0|0,0:0|0:0,0:0:0:0:
199,19,60918,2,0,P|164:23|135:27,1,50,0|0,1:0|0:0,0:0:0:0:
99,30,61370,2,0,P|64:26|35:22,1,50,0|2,0:0|0:0,0:0:0:0:
0,14,61821,1,0,1:0:0:0:
14,112,62272,1,0,0:0:0:0:
113,128,62723,6,0,P|127:154|157:180,1,50,0|0,1:0|0:0,0:0:0:0:
175,206,63174,2,0,P|180:235|173:273,1,50
156,300,63625,1,0,1:0:0:0:
70,378,64076,6,0,P|45:366|27:346,1,50
6,305,64527,2,0,P|18:283|37:267,1,50,0|0,1:0|0:0,0:0:0:0:
85,253,64979,2,0,P|143:258|202:252,1,99.9999999999999,2|0,0:1|0:0,0:0:0:0:
238,256,65655,1,2,0:1:0:0:
238,256,65881,1,4,0:0:0:0:
286,168,66332,6,0,P|316:178|350:199,1,50,0|0,1:0|0:0,0:0:0:0:
371,217,66783,2,0,P|401:207|435:186,1,50,0|0,0:0|0:0,0:0:0:0:
451,161,67234,1,0,1:0:0:0:
463,61,67685,6,0,P|433:71|399:92,1,50,0|0,0:0|0:0,0:0:0:0:
378,110,68136,2,0,P|348:100|314:79,1,50,0|0,1:0|0:0,0:0:0:0:
292,59,68588,2,0,P|275:79|262:113,1,50
264,152,69039,1,0,1:0:0:0:
195,79,69490,1,0,0:0:0:0:
96,63,69941,6,0,P|73:46|46:35,1,50,0|0,1:0|0:0,0:0:0:0:
8,31,70392,1,0,0:0:0:0:
8,31,70618,1,2,0:1:0:0:
6,135,71069,1,2,0:1:0:0:
6,135,71294,6,2,P|57:146|118:170,3,99.9999999999999,0|0|2|0,0:0|1:0|0:0|1:0,1:0:0:0:
145,197,72873,1,2,0:0:0:0:
145,197,73099,6,0,P|198:194|252:180,1,99.9999999999999,4|0,0:0|1:0,0:0:0:0:
256,282,74001,2,0,P|300:252|340:213,1,99.9999999999999,2|0,0:0|1:0,0:0:0:0:
431,207,74903,2,0,P|416:255|394:300,1,99.9999999999999,2|0,0:0|1:0,0:0:0:0:
334,220,75806,2,0,P|297:254|256:282,1,99.9999999999999,2|0,0:0|1:0,0:0:0:0:
209,299,76482,1,0,0:0:0:0:
209,299,76708,6,0,P|160:297|115:322,1,99.9999999999999,2|0,0:0|1:0,0:0:0:0:
23,358,77610,2,0,P|0:314|2:265,1,99.9999999999999,2|0,0:0|1:0,0:0:0:0:
79,202,78512,2,0,P|127:216|169:251,1,99.9999999999999,2|0,0:0|1:0,0:0:0:0:
190,296,79189,1,0,0:0:0:0:
190,296,79415,2,0,L|291:301,1,99.9999999999999,2|0,0:0|1:0,0:0:0:0:
343,308,80091,1,0,0:0:0:0:
343,308,80317,6,0,P|340:253|359:200,1,99.9999999999999,4|0,0:0|1:0,0:0:0:0:
452,196,81219,2,0,P|427:146|384:110,1,99.9999999999999,2|0,0:0|1:0,0:0:0:0:
296,134,82121,2,0,P|241:137|188:118,1,99.9999999999999,2|0,0:0|1:0,0:0:0:0:
184,25,83023,2,0,P|134:49|98:92,1,99.9999999999999,2|0,0:0|1:0,0:0:0:0:
92,133,83700,1,0,0:0:0:0:
92,133,83926,6,0,P|103:181|131:222,1,99.9999999999999,2|0,0:0|1:0,0:0:0:0:
231,223,84828,2,0,P|258:181|270:133,1,99.9999999999999,2|0,0:0|1:0,0:0:0:0:
230,42,85730,2,0,P|279:38|327:52,1,99.9999999999999,2|0,0:0|1:0,0:0:0:0:
368,89,86407,1,0,0:0:0:0:
368,89,86633,2,0,P|402:55|449:29,1,99.9999999999999,0|0,1:0|1:2,0:0:0:0:
501,30,87309,1,0,0:0:0:0:
501,30,87535,6,0,L|506:138,1,99.9999999999999,4|0,0:0|1:0,0:0:0:0:
412,164,88437,2,0,L|406:263,1,99.9999999999999,2|0,0:0|1:0,0:0:0:0:
334,333,89339,2,0,L|234:338,1,99.9999999999999,2|0,0:0|1:0,0:0:0:0:
217,239,90242,2,0,L|117:233,1,99.9999999999999,2|0,0:0|1:0,0:0:0:0:
71,234,90918,1,0,0:0:0:0:
71,234,91144,6,0,P|65:203|69:176,1,50,2|0,0:0|0:0,0:0:0:0:
84,138,91595,1,0,1:0:0:0:
173,92,92046,6,0,P|183:62|200:40,1,50,2|0,0:0|0:0,0:0:0:0:
235,18,92497,1,0,1:0:0:0:
285,19,92723,1,0,0:0:0:0:
334,22,92948,2,0,P|379:53|413:99,1,99.9999999999999,0|0,1:0|1:0,0:0:0:0:
433,137,93625,1,0,0:0:0:0:
433,137,93851,2,0,P|376:150|321:169,1,99.9999999999999,0|0,1:0|0:0,0:0:0:0:
292,181,94527,1,0,1:0:0:0:
292,181,94753,6,0,L|286:288,1,99.9999999999999,4|0,0:0|1:0,0:0:0:0:
280,380,95655,2,0,L|172:385,1,99.9999999999999,2|0,0:0|1:0,0:0:0:0:
99,325,96557,6,0,P|120:303|140:291,1,50,2|0,0:0|0:0,0:0:0:0:
188,288,97009,1,0,1:0:0:0:
185,188,97460,6,0,P|156:188|131:194,1,50,2|2,0:0|0:0,0:0:0:0:
93,220,97911,2,0,P|66:227|40:227,1,50,0|0,1:0|0:0,0:0:0:0:
0,203,98362,5,2,0:0:0:0:
76,141,98813,1,0,1:0:0:0:
154,79,99264,1,2,0:0:0:0:
240,25,99715,1,0,1:0:0:0:
281,53,99941,1,0,0:0:0:0:
322,80,100166,6,0,P|373:76|435:85,3,99.9999999999999,4|0|0|0,0:0|1:0|1:0|0:0,0:0:0:0:
474,96,101745,1,0,1:0:0:0:
474,96,101971,6,0,L|472:147,1,50,2|0,0:0|0:0,0:0:0:0:
468,195,102422,2,0,L|417:192,1,50,2|2,0:0|0:0,0:0:0:0:
369,189,102873,1,2,0:0:0:0:
307,110,103324,6,0,L|255:112,1,50,2|0,0:0|0:0,0:0:0:0:
208,116,103775,2,0,L|210:167,1,50,2|0,0:0|0:0,0:0:0:0:
214,215,104227,2,0,L|162:217,1,50,2|2,0:0|0:0,0:0:0:0:
114,222,104678,1,2,0:0:0:0:
64,224,104903,1,2,0:0:0:0:
13,226,105129,1,2,0:0:0:0:
304,363,109189,6,0,L|302:312,1,50,2|0,0:0|0:0,0:0:0:0:
298,264,109640,2,0,L|247:267,1,50,2|2,0:0|0:0,0:0:0:0:
199,270,110091,2,0,P|158:237|127:185,1,99.9999999999999,2|2,0:0|0:0,0:0:0:0:
211,136,110994,6,0,L|214:85,1,50,2|0,0:0|0:0,0:0:0:0:
217,37,111445,2,0,L|268:40,1,50,2|2,0:0|0:0,0:0:0:0:
316,43,111896,1,2,0:0:0:0:
212,73,116407,5,4,0:0:0:0:
112,59,116858,6,0,P|74:90|36:136,1,99.9999999999999,0|2,1:0|0:0,0:0:0:0:
79,221,117760,2,0,P|117:190|155:144,1,99.9999999999999,0|2,1:0|0:0,0:0:0:0:
212,73,118663,6,0,L|278:69,1,50,0|0,1:0|0:0,0:0:0:0:
311,68,119114,2,0,P|361:85|410:121,1,99.9999999999999,2|0,0:0|1:0,0:0:0:0:
436,153,119791,1,2,0:0:0:0:
436,153,120016,1,2,0:0:0:0:
433,252,120467,6,0,P|467:291|492:347,1,99.9999999999999,0|2,1:0|0:0,0:0:0:0:
399,379,121369,2,0,P|364:339|339:283,1,99.9999999999999,0|2,1:0|0:0,0:0:0:0:
327,198,122272,6,0,L|260:201,1,50,0|0,1:0|0:0,0:0:0:0:
227,204,122723,1,2,0:0:0:0:
189,236,122948,1,0,0:0:0:0:
152,270,123174,1,0,1:0:0:0:
230,331,123625,1,4,0:0:0:0:
137,367,124076,6,0,P|97:359|43:329,1,99.9999999999999,0|2,1:0|0:0,0:0:0:0:
43,280,124753,1,2,0:0:0:0:
60,233,124978,2,0,P|100:241|154:271,1,99.9999999999999,0|2,1:0|0:0,0:0:0:0:
235,324,125881,6,0,L|239:258,1,50,0|0,1:0|0:0,0:0:0:0:
240,225,126332,1,2,0:0:0:0:
165,158,126783,2,0,L|98:154,1,50,0|2,1:0|0:0,0:0:0:0:
66,153,127234,6,0,P|36:123|29:100,1,50,2|2,0:0|0:0,0:0:0:0:
24,67,127685,1,0,1:0:0:0:
68,43,127911,1,0,0:0:0:0:
113,22,128136,2,0,P|153:10|176:15,1,50,2|0,0:0|0:0,0:0:0:0:
209,22,128588,1,0,1:0:0:0:
280,92,129039,6,0,P|295:72|316:59,1,50,2|0,0:0|0:0,0:0:0:0:
362,40,129490,1,0,1:0:0:0:
411,45,129715,1,2,0:0:0:0:
460,52,129941,2,0,L|457:110,1,50,0|2,1:0|0:0,0:0:0:0:
451,151,130392,1,0,0:0:0:0:
449,201,130618,1,0,1:0:0:0:
446,250,130843,6,0,P|403:265|384:276,1,50,4|0,0:0|0:0,0:0:0:0:
351,280,131294,2,0,P|307:272|285:272,1,50,0|2,1:0|0:0,0:0:0:0:
251,269,131745,1,4,0:0:0:0:
151,261,132197,5,0,1:0:0:0:
133,307,132422,1,2,0:0:0:0:
112,352,132648,2,0,P|56:353|-2:359,2,99.9999999999999,4|4|0,0:0|0:0|1:0,0:0:0:0:
164,364,133775,1,2,0:0:0:0:
164,364,134001,2,0,P|187:355|208:342,1,50,0|2,1:0|0:0,0:0:0:0:
232,298,134452,5,4,0:0:0:0:
230,198,134903,1,0,1:0:0:0:
228,98,135354,1,4,0:0:0:0:
301,30,135806,5,8,1:0:0:0:
342,57,136031,1,0,0:0:0:0:
383,85,136257,2,0,P|390:116|387:151,1,50,8|8,1:0|1:0,0:0:0:0:
383,184,136708,2,0,P|376:215|379:250,1,50,0|0,1:0|1:0,0:0:0:0:
382,283,137159,1,8,1:0:0:0:
288,247,137610,5,0,1:0:0:0:
237,248,137836,1,2,0:0:0:0:
187,249,138061,2,0,P|161:257|134:259,1,50,4|0,0:0|0:0,0:0:0:0:
90,250,138512,2,0,P|69:267|54:290,1,50,0|2,1:0|0:0,0:0:0:0:
50,333,138963,1,4,0:0:0:0:
150,339,139415,5,0,1:0:0:0:
199,334,139640,1,2,0:0:0:0:
248,330,139866,2,0,P|317:342|362:358,2,99.9999999999999,4|4|0,0:0|0:0|1:0,0:0:0:0:
203,338,140994,1,2,0:0:0:0:
203,338,141219,2,0,P|179:340|155:347,1,50,0|2,1:0|0:0,0:0:0:0:
107,366,141670,5,4,0:0:0:0:
109,266,142121,1,0,1:0:0:0:
111,166,142572,1,4,0:0:0:0:
210,151,143024,5,8,1:0:0:0:
210,100,143250,1,0,0:0:0:0:
210,50,143475,1,4,0:0:0:0:
306,23,143926,6,0,P|337:25|371:37,1,50,8|8,1:0|1:0,0:0:0:0:
400,51,144377,1,4,1:0:0:0:
438,82,144603,1,2,0:0:0:0:
457,127,144828,2,0,L|453:195,1,50,8|8,1:0|1:0,0:0:0:0:
448,226,145279,6,0,L|377:223,1,50,4|0,0:0|0:0,0:0:0:0:
348,222,145730,1,0,1:0:0:0:
302,132,146181,1,0,1:0:0:0:
260,160,146407,1,2,0:0:0:0:
219,189,146633,2,0,P|202:213|198:240,1,50,0|2,1:0|0:0,0:0:0:0:
223,275,147084,6,0,P|240:300|243:327,1,50,0|0,1:0|1:0,0:0:0:0:
241,369,147535,1,0,1:0:0:0:
333,330,147986,1,0,1:0:0:0:
371,298,148212,1,2,0:0:0:0:
409,266,148437,2,0,L|412:207,1,50,0|2,1:0|0:0,0:0:0:0:
413,165,148888,6,0,P|413:121|406:98,1,50,4|0,0:0|0:0,0:0:0:0:
393,68,149339,1,0,1:0:0:0:
295,47,149790,1,0,1:0:0:0:
245,52,150016,1,8,1:0:0:0:
195,56,150242,2,0,L|131:52,1,50,8|4,1:0|1:2,0:0:0:0:
95,52,150693,6,0,P|87:88|89:114,1,50,4|2,0:0|0:0,0:0:0:0:
90,151,151144,2,0,L|154:155,1,50,8|2,1:0|0:0,0:0:0:0:
189,158,151595,1,0,1:0:0:0:
211,202,151821,1,2,0:0:0:0:
232,246,152046,2,0,P|240:275|237:298,1,50,8|0,1:0|1:0,0:0:0:0:
218,340,152497,5,4,0:0:0:0:
169,350,152723,1,0,0:0:0:0:
119,359,152948,1,8,1:1:0:0:
102,260,153400,1,0,1:0:0:0:
130,218,153625,1,2,0:0:0:0:
160,177,153851,2,0,L|224:181,1,50,8|2,1:0|0:0,0:0:0:0:
259,188,154302,6,0,P|283:203|298:222,1,50,0|0,1:0|1:0,0:0:0:0:
320,263,154753,1,8,1:0:0:0:
379,343,155204,1,0,1:0:0:0:
428,349,155430,1,2,0:0:0:0:
477,355,155655,2,0,L|480:286,1,50,8|0,1:0|1:0,0:0:0:0:
482,255,156106,6,0,P|476:225|476:189,1,50,0|2,1:0|0:0,0:0:0:0:
482,156,156557,1,8,1:0:0:0:
392,111,157009,1,8,1:0:0:0:
360,149,157234,1,0,1:0:0:0:
331,189,157460,1,8,1:0:0:0:
290,280,157911,6,0,L|240:283,1,50,4|2,0:0|0:0,0:0:0:0:
190,287,158362,2,0,P|191:259|200:228,1,50,8|2,1:0|0:0,0:0:0:0:
215,191,158813,1,0,1:0:0:0:
181,154,159039,1,2,0:0:0:0:
147,117,159264,2,0,L|143:51,1,50,8|0,1:0|0:0,0:0:0:0:
140,17,159715,1,8,1:0:0:0:
57,73,160166,1,4,0:0:0:0:
300,314,174151,6,0,P|249:314|191:308,1,99.9999999999999,0|4,0:0|0:0,0:0:0:0:
118,252,175054,5,0,1:0:0:0:
209,211,175505,2,0,P|242:211|262:216,1,50,0|0,0:0|0:0,0:0:0:0:
306,227,175956,2,0,P|314:195|314:174,1,50,0|0,1:0|0:0,0:0:0:0:
307,128,176407,1,0,0:0:0:0:
207,130,176858,5,0,1:0:0:0:
307,128,177309,2,0,P|339:132|371:147,1,50,0|2,0:0|0:0,0:0:0:0:
390,173,177760,1,0,1:0:0:0:
416,215,177986,1,0,0:0:0:0:
441,258,178212,1,0,0:0:0:0:
490,171,178663,5,0,1:0:0:0:
390,173,179114,2,0,P|361:189|341:195,1,50,0|2,0:0|0:0,0:0:0:0:
297,207,179565,2,0,P|305:238|315:256,1,50,0|0,1:0|0:0,0:0:0:0:
346,293,180016,6,0,P|317:309|297:315,1,50
252,327,180467,1,0,1:0:0:0:
157,358,180918,1,0,0:0:0:0:
150,308,181144,1,0,1:0:0:0:
139,259,181369,6,0,P|122:208|94:171,1,99.9999999999999,2|4,1:1|0:0,0:0:0:0:
17,106,182272,5,0,1:0:0:0:
111,73,182723,2,0,P|147:82|168:96,1,50
204,107,183174,2,0,P|223:73|241:57,1,50,0|0,1:0|0:0,0:0:0:0:
275,48,183625,2,0,P|298:42|323:44,1,50,0|0,0:0|0:0,0:0:0:0:
368,49,184076,5,0,1:0:0:0:
451,104,184527,1,0,0:0:0:0:
447,153,184753,1,0,0:0:0:0:
442,202,184978,1,0,1:0:0:0:
342,209,185430,6,0,P|311:209|277:224,1,50,2|0,0:0|0:0,0:0:0:0:
247,235,185881,1,0,1:0:0:0:
202,257,186106,1,0,0:0:0:0:
158,280,186332,2,0,L|163:344,1,50,2|0,0:0|0:0,0:0:0:0:
168,379,186783,1,0,1:0:0:0:
263,348,187234,5,2,0:0:0:0:
307,325,187460,1,2,0:0:0:0:
352,303,187685,2,0,P|366:275|372:252,1,50,0|2,1:0|0:0,0:0:0:0:
371,207,188136,2,0,P|349:184|338:163,1,50,0|2,1:0|0:0,0:0:0:0:
323,121,188587,1,0,1:0:0:0:
270,35,189039,6,0,L|205:39,1,50,0|0,1:0|1:0,0:0:0:0:
170,41,189490,2,0,L|105:38,1,50,0|0,1:0|1:0,0:0:0:0:
69,37,189941,1,8,1:0:0:0:
41,78,190166,1,8,1:0:0:0:
15,120,190392,1,8,1:0:0:0:
84,192,190843,6,0,P|131:188|153:177,1,50,8|8,1:0|1:0,0:0:0:0:
177,164,191294,1,8,1:0:0:0:
219,137,191520,1,8,1:0:0:0:
261,111,191745,6,2,P|319:180|376:276,1,200,2|4,1:0|0:0,1:0:0:0:
331,364,193099,6,0,P|365:375|394:377,1,50,0|0,1:0|0:0,0:0:0:0:
427,364,193550,2,0,P|445:347|460:327,1,50,2|0,0:0|0:0,0:0:0:0:
472,278,194001,1,0,1:0:0:0:
375,274,194452,6,0,P|340:262|311:260,1,50,4|0,0:0|0:0,0:0:0:0:
277,267,194903,2,0,P|242:278|213:280,1,50,0|0,1:0|0:0,0:0:0:0:
178,281,195354,1,2,0:0:0:0:
129,292,195580,1,0,0:0:0:0:
80,303,195805,1,0,1:0:0:0:
25,218,196257,1,4,0:0:0:0:
81,135,196708,6,0,P|115:123|144:121,1,50,0|0,1:0|0:0,0:0:0:0:
179,128,197159,2,0,P|213:139|242:141,1,50,2|0,0:0|0:0,0:0:0:0:
277,136,197610,1,0,1:0:0:0:
355,73,198061,6,0,P|366:107|368:136,1,50,4|0,0:0|0:0,0:0:0:0:
362,171,198512,2,0,P|350:205|348:234,1,50,0|0,1:0|0:0,0:0:0:0:
349,268,198963,1,2,0:0:0:0:
378,308,199189,1,2,0:0:0:0:
408,347,199414,1,0,1:0:0:0:
473,272,199866,1,4,0:0:0:0:
448,175,200317,6,0,P|415:160|391:143,1,50,0|0,1:0|0:0,0:0:0:0:
367,117,200768,2,0,P|348:85|327:65,1,50,2|0,0:0|0:0,0:0:0:0:
297,48,201219,1,0,1:0:0:0:
203,13,201670,6,0,P|166:13|138:21,1,50,4|0,0:0|0:0,0:0:0:0:
105,35,202121,2,0,P|73:53|52:74,1,50,0|0,1:0|0:0,0:0:0:0:
40,107,202572,1,2,0:0:0:0:
46,156,202798,1,0,0:0:0:0:
53,205,203024,1,0,1:0:0:0:
143,248,203475,1,4,0:0:0:0:
211,175,203926,6,0,P|246:182|273:194,1,50,0|0,1:0|0:0,0:0:0:0:
304,213,204377,2,0,P|330:237|347:261,1,50,2|0,0:0|0:0,0:0:0:0:
366,292,204829,1,0,1:0:0:0:
293,360,205279,1,4,0:0:0:0:
243,356,205505,1,0,0:0:0:0:
193,351,205730,1,0,1:0:0:0:
175,252,206181,1,4,0:0:0:0:
125,256,206407,1,2,0:0:0:0:
75,261,206633,6,0,P|45:243|26:219,1,50,0|2,1:0|0:0,0:0:0:0:
26,182,207084,2,0,L|23:131,1,50,4|0,0:0|0:0,0:0:0:0:
19,82,207535,1,0,1:0:0:0:
113,50,207986,6,0,L|164:47,1,50,2|0,0:0|0:0,0:0:0:0:
213,43,208437,2,0,L|216:94,1,50,0|2,1:0|0:0,0:0:0:0:
220,143,208888,2,0,L|169:146,1,50,4|0,0:0|0:0,0:0:0:0:
121,150,209339,1,0,1:0:0:0:
162,241,209790,5,2,0:0:0:0:
212,237,210016,1,0,0:0:0:0:
262,232,210242,2,0,L|316:234,1,50,0|2,1:0|0:0,0:0:0:0:
362,236,210693,1,4,0:0:0:0:
412,241,210918,1,0,0:0:0:0:
462,245,211144,1,0,1:0:0:0:
463,145,211595,6,0,L|461:91,1,50,2|0,0:0|0:0,0:0:0:0:
454,46,212046,2,0,L|400:49,1,50,0|2,1:0|0:0,0:0:0:0:
355,55,212497,2,0,L|358:110,1,50,4|0,0:0|0:0,0:0:0:0:
364,154,212948,1,0,1:0:0:0:
348,252,213399,5,2,0:0:0:0:
309,283,213625,1,2,0:0:0:0:
270,314,213851,2,0,L|215:312,1,50,0|4,1:0|0:0,0:0:0:0:
170,307,214302,6,0,P|138:297|106:275,1,50,4|0,0:0|0:0,0:0:0:0:
86,256,214753,1,8,1:0:0:0:
93,206,214978,1,8,1:0:0:0:
101,157,215204,2,0,P|133:148|172:152,1,50,2|2,0:0|0:0,0:0:0:0:
199,155,215655,1,8,1:0:0:0:
265,80,216106,5,4,0:0:0:0:
314,85,216331,1,0,0:0:0:0:
363,91,216557,2,0,P|378:111|389:136,1,50,8|8,1:0|1:0,0:0:0:0:
397,183,217008,1,2,0:0:0:0:
402,232,217233,1,2,0:0:0:0:
408,281,217460,1,8,1:0:0:0:
498,238,217911,6,0,P|495:213|498:186,1,50,4|0,0:0|0:0,0:0:0:0:
506,139,218362,1,8,1:0:0:0:
475,99,218587,1,8,1:0:0:0:
431,74,218813,2,0,P|406:71|379:74,1,50,2|2,0:0|0:0,0:0:0:0:
333,87,219264,1,8,1:0:0:0:
315,185,219715,6,0,P|287:187|251:179,1,50,2|8,0:0|1:0,0:0:0:0:
218,169,220166,2,0,P|193:158|165:131,1,50,2|8,0:0|1:0,0:0:0:0:
146,103,220617,1,2,0:0:0:0:
96,112,220843,1,8,1:0:0:0:
46,122,221069,2,0,P|37:148|27:224,1,99.9999999999999,8|4,1:0|1:2,0:0:0:0:
