osu file format v14

[General]
AudioFilename: audio.mp3
AudioLeadIn: 0
PreviewTime: 262825
Countdown: 0
SampleSet: Soft
StackLeniency: 0.3
Mode: 0
LetterboxInBreaks: 0
WidescreenStoryboard: 0

[Editor]
Bookmarks: 6968,20682,34396,48111,61825,75539,102968,116682,132111,159539,186968,201111,235396,249111,255968,262825,276539,290253,300539,303968
DistanceSpacing: 1.2
BeatDivisor: 4
GridSize: 32
TimelineZoom: 1.550001

[Metadata]
Title:dreamenddischarger
TitleUnicode:dreamenddischarger
Artist:zts
ArtistUnicode:zts
Creator:KeigoClear
Version:Liquidation
Source:うみねこのなく頃に
Tags:dream end dreamend discharger code label musicbox red czl Umineko no Naku Koro ni when they cry WTC marathon visual novel video game 07th Expansion ryukishi07 竜騎士07 instrumental electronic
BeatmapID:2643849
BeatmapSetID:1272349

[Difficulty]
HPDrainRate:4
CircleSize:4
OverallDifficulty:8.5
ApproachRate:8.5
SliderMultiplier:1.2
SliderTickRate:1

[Events]
//Background and Video events
0,0,"BG.jpg",0,0
//Break Periods
//Storyboard Layer 0 (Background)
//Storyboard Layer 1 (Fail)
//Storyboard Layer 2 (Pass)
//Storyboard Layer 3 (Foreground)
//Storyboard Layer 4 (Overlay)
//Storyboard Sound Samples

[TimingPoints]
111,428.571428571429,4,2,1,5,1,0
6968,-100,4,2,1,40,0,0
20682,-76.9230769230769,4,2,1,50,0,0
34396,-71.4285714285714,4,2,1,60,0,0
44682,-71.4285714285714,4,2,1,50,0,0
47682,-66.6666666666667,4,2,1,60,0,0
48111,-71.4285714285714,4,2,1,60,0,0
61396,-58.8235294117647,4,2,1,60,0,0
61825,-71.4285714285714,4,2,1,60,0,0
73825,-55.5555555555556,4,2,1,60,0,0
75539,-62.5,4,2,1,60,0,0
97825,-62.5,4,2,1,65,0,0
101253,-58.8235294117647,4,2,1,65,0,0
101682,-52.6315789473684,4,2,1,65,0,0
102753,-62.5,4,2,1,65,0,0
102968,-62.5,4,2,1,60,0,0
110682,-62.5,4,2,1,40,0,0
111111,-62.5,4,2,1,50,0,0
111539,-62.5,4,2,1,54,0,0
111968,-62.5,4,2,1,61,0,0
112396,-62.5,4,2,1,68,0,0
112825,-62.5,4,2,1,75,0,0
113253,-58.8235294117647,4,2,1,75,0,0
114968,-58.8235294117647,4,2,1,68,0,0
115396,-62.5,4,2,1,61,0,0
115825,-66.6666666666667,4,2,1,54,0,0
116253,-71.4285714285714,4,2,1,50,0,0
116325,-71.4285714285714,4,2,1,35,0,0
116682,-62.5,4,2,1,65,0,0
119253,-62.5,4,2,1,50,0,0
119468,-62.5,4,2,1,51,0,0
119575,-62.5,4,2,1,55,0,0
119682,-62.5,4,2,1,59,0,0
119789,-62.5,4,2,1,63,0,0
119896,-62.5,4,2,1,67,0,0
120003,-62.5,4,2,1,71,0,0
120111,-62.5,4,2,1,75,0,0
120325,-62.5,4,2,1,65,0,0
121396,-62.5,4,2,1,70,0,0
121825,-55.5555555555556,4,2,1,60,0,0
122253,-55.5555555555556,4,2,1,70,0,0
122682,-111.111111111111,4,2,1,60,0,0
123111,-55.5555555555556,4,2,1,70,0,0
123539,-58.8235294117647,4,2,1,65,0,0
125253,-58.8235294117647,4,2,1,55,0,0
125682,-58.8235294117647,4,2,1,60,0,0
126111,-58.8235294117647,4,2,1,65,0,0
126539,-58.8235294117647,4,2,1,70,0,0
126968,-52.6315789473684,4,2,1,65,0,0
127825,-50,4,2,1,65,0,0
128682,-47.6190476190476,4,2,1,70,0,0
129539,-45.4545454545455,4,2,1,75,0,0
130611,-40,4,2,1,65,0,0
132111,-100,4,2,1,55,0,0
152253,-83.3333333333333,4,2,1,55,0,0
152682,-90.9090909090909,4,2,1,55,0,0
157825,-90.9090909090909,4,2,1,65,0,0
158146,-90.9090909090909,4,2,1,55,0,0
158468,-90.9090909090909,4,2,1,65,0,0
159539,-83.3333333333333,4,2,1,75,0,1
165968,-83.3333333333333,4,2,2,75,0,1
166396,-83.3333333333333,4,2,1,75,0,1
172825,-83.3333333333333,4,2,2,75,0,1
173253,-83.3333333333333,4,2,1,75,0,1
179682,-83.3333333333333,4,2,2,75,0,1
180111,-76.9230769230769,4,2,1,75,0,1
183539,-100,4,2,1,65,0,0
186968,-76.9230769230769,4,2,1,75,0,1
188468,-76.9230769230769,4,2,2,75,0,1
188682,-76.9230769230769,4,2,1,75,0,1
191896,-76.9230769230769,4,2,2,75,0,1
192111,-76.9230769230769,4,2,1,75,0,1
195325,-76.9230769230769,4,2,2,75,0,1
195539,-76.9230769230769,4,2,1,75,0,1
198111,-62.5,4,2,1,75,0,1
198539,-62.5,4,2,1,75,0,1
198968,-62.5,4,2,1,85,0,1
200468,-62.5,4,2,1,75,0,1
201111,428.571428571429,4,2,1,85,1,0
201539,-100,4,2,1,65,0,0
201968,-100,4,2,1,55,0,0
202396,-100,4,2,1,45,0,0
202825,-100,4,2,1,35,0,0
203253,-100,4,2,1,25,0,0
203682,-100,4,2,1,15,0,0
204111,-100,4,2,1,5,0,0
204539,-100,4,2,1,50,0,0
219968,-100,4,2,1,45,0,0
220396,-100,4,2,1,50,0,0
220825,-100,4,2,1,55,0,0
221253,-100,4,2,1,60,0,0
221682,-100,4,2,1,65,0,0
222111,-100,4,2,1,55,0,0
223396,-100,4,2,1,45,0,0
223825,-100,4,2,1,50,0,0
224253,-100,4,2,1,55,0,0
224682,-100,4,2,1,60,0,0
225111,-100,4,2,1,65,0,0
225539,-100,4,2,1,55,0,0
228539,-86.9565217391304,4,2,1,55,0,0
231968,-86.9565217391304,4,2,1,45,0,0
232825,-86.9565217391304,4,2,1,50,0,0
233682,-86.9565217391304,4,2,1,55,0,0
234111,-86.9565217391304,4,2,1,60,0,0
234539,-142.857142857143,4,2,1,50,0,0
235396,-100,4,2,1,55,0,0
249111,-90.9090909090909,4,2,1,60,0,0
255968,-90.9090909090909,4,2,1,50,0,0
257682,-90.9090909090909,4,2,1,55,0,0
259396,-90.9090909090909,4,2,1,60,0,0
260253,-90.9090909090909,4,2,1,65,0,0
261111,-90.9090909090909,4,2,1,70,0,0
261539,-50,4,2,2,70,0,0
261968,-50,4,2,2,55,0,0
262825,-50,4,2,1,75,0,1
263039,-50,4,2,3,75,0,1
266146,-50,4,2,1,75,0,1
266253,-50,4,2,3,75,0,1
267646,-50,4,2,1,75,0,1
267968,-50,4,2,3,75,0,1
269253,-50,4,2,2,75,0,1
269361,-50,4,2,3,75,0,1
269468,-50,4,2,2,75,0,1
269575,-50,4,2,1,75,0,1
269682,-50,4,2,3,75,0,1
273003,-50,4,2,1,75,0,1
273111,-50,4,2,3,75,0,1
274503,-50,4,2,1,75,0,1
274825,-50,4,2,3,75,0,1
275896,-36.3636363636364,4,2,3,75,0,1
276111,-50,4,2,2,75,0,1
276218,-50,4,2,3,75,0,1
276325,-50,4,2,2,75,0,1
276432,-50,4,2,1,75,0,1
276539,-50,4,2,3,75,0,1
277932,-50,4,2,1,75,0,1
278253,-50,4,2,3,75,0,1
279539,-50,4,2,1,75,0,1
279646,-50,4,2,3,75,0,1
279753,-50,4,2,1,75,0,1
279968,-50,4,2,3,75,0,1
281361,-50,4,2,1,75,0,1
281682,-50,4,2,3,75,0,1
282968,-50,4,2,2,75,0,1
283075,-50,4,2,3,75,0,1
283182,-50,4,2,2,75,0,1
283289,-50,4,2,1,75,0,1
283396,-50,4,2,3,75,0,1
284789,-50,4,2,1,75,0,1
285111,-50,4,2,3,75,0,1
286396,-50,4,2,1,75,0,1
286503,-50,4,2,3,75,0,1
286611,-50,4,2,1,75,0,1
286825,-50,4,2,3,75,0,1
288218,-50,4,2,1,75,0,1
288539,-50,4,2,3,75,0,1
289611,-50,4,2,2,75,0,1
289718,-50,4,2,1,75,0,1
289825,-50,4,2,3,75,0,1
289932,-50,4,2,2,75,0,1
290039,-50,4,2,3,75,0,1
290146,-50,4,2,1,75,0,1
290253,-50,4,2,1,75,0,1
290575,-50,4,2,3,75,0,1
290682,-50,4,2,2,75,0,1
290896,-50,4,2,3,75,0,1
291539,-50,4,2,2,75,0,1
291646,-50,4,2,3,75,0,1
291861,-50,4,2,1,75,0,1
291968,-50,4,2,3,75,0,1
292396,-50,4,2,2,75,0,1
292611,-50,4,2,3,75,0,1
293253,-50,4,2,2,75,0,1
293361,-50,4,2,3,75,0,1
293575,-50,4,2,1,75,0,1
293682,-50,4,2,3,75,0,1
294968,-50,4,2,1,75,0,1
295075,-50,4,2,3,75,0,1
295289,-50,4,2,1,75,0,1
295396,-50,4,2,3,75,0,1
296253,-66.6666666666667,4,2,3,55,0,1
296361,-66.6666666666667,4,2,3,60,0,1
296468,-66.6666666666667,4,2,1,65,0,1
296575,-66.6666666666667,4,2,3,70,0,1
296682,-66.6666666666667,4,2,1,75,0,1
296789,-66.6666666666667,4,2,3,80,0,1
297003,-50,4,2,1,80,0,1
297111,-50,4,2,1,80,0,1
297432,-50,4,2,3,80,0,1
297539,-50,4,2,2,80,0,1
297753,-50,4,2,3,80,0,1
298396,-50,4,2,2,80,0,1
298503,-50,4,2,3,80,0,1
298718,-50,4,2,1,80,0,1
298825,-50,4,2,3,80,0,1
299253,-50,4,2,2,80,0,1
299468,-50,4,2,3,80,0,1
300111,-50,4,2,2,80,0,1
300218,-50,4,2,3,80,0,1
300432,-50,4,2,1,70,0,1
300539,-83.3333333333333,4,2,1,60,0,0
301396,-71.4285714285714,4,2,1,70,0,0
302253,-62.5,4,2,1,80,0,0
303111,-55.5555555555556,4,2,1,70,0,0
303539,-55.5555555555556,4,2,1,80,0,0
303968,-55.5555555555556,4,2,1,90,0,0

[Colours]
Combo1 : 156,14,17
Combo2 : 13,50,147

[HitObjects]
256,192,1396,12,0,6539,0:0:0:0:
256,354,6968,6,0,L|256:398,2,30,2|0|0,0:0|0:0|0:0,0:0:0:0:
331,288,7289,2,0,P|374:295|445:296,1,90,2|0,0:0|0:0,0:0:0:0:
429,289,8039,1,0,0:0:0:0:
501,202,8253,1,0,0:0:0:0:
501,202,8361,2,0,P|507:160|505:123,1,60,2|0,0:0|0:0,0:0:0:0:
425,62,8682,6,0,L|393:58,2,30,2|0|0,0:0|0:0|0:0,0:0:0:0:
362,146,9003,2,0,P|319:153|248:154,1,90,2|0,0:0|0:0,0:0:0:0:
264,169,9753,1,0,0:0:0:0:
171,105,9968,1,0,0:0:0:0:
171,105,10075,2,0,P|178:71|177:32,1,60,2|0,0:0|0:0,0:0:0:0:
45,2,10396,6,0,L|11:-1,2,30,2|0|0,0:0|0:0|0:0,0:0:0:0:
22,111,10718,2,0,L|-2:132,2,30,2|0|0,0:0|0:0|0:0,0:0:0:0:
103,186,11039,2,0,P|109:242|170:286,1,120,2|0,0:0|0:0,0:0:0:0:
298,202,11682,1,0,0:0:0:0:
298,202,11789,1,2,0:0:0:0:
166,291,12003,5,0,0:0:0:0:
166,291,12111,2,0,L|171:373,1,60,2|0,0:0|0:0,0:0:0:0:
204,380,12432,2,0,P|235:379|266:369,1,60,2|0,0:0|0:0,0:0:0:0:
353,384,12753,2,0,P|365:324|366:261,1,120,2|0,0:0|0:0,0:0:0:0:
290,124,13396,1,0,0:0:0:0:
290,124,13503,1,2,0:0:0:0:
450,180,13718,5,0,0:0:0:0:
450,180,13825,2,0,P|445:209|445:239,1,60,2|0,0:0|0:0,0:0:0:0:
382,306,14146,2,0,P|367:309|352:310,2,30,2|0|0,0:0|0:0|0:0,0:0:0:0:
285,255,14468,2,0,P|298:190|292:120,1,120,2|0,0:0|0:0,0:0:0:0:
145,97,15111,1,0,0:0:0:0:
145,97,15218,1,2,0:0:0:0:
204,273,15432,5,0,0:0:0:0:
204,273,15539,2,0,P|207:302|205:337,1,60,2|0,0:0|0:0,0:0:0:0:
282,384,15861,2,0,P|313:384|326:382,2,30,2|0|0,0:0|0:0|0:0,0:0:0:0:
373,328,16182,2,0,P|367:266|371:193,1,120,2|0,0:0|0:0,0:0:0:0:
221,171,16825,1,0,0:0:0:0:
221,171,16932,2,0,P|224:139|221:103,1,60,2|0,0:0|0:0,0:0:0:0:
342,50,17253,6,0,L|371:46,2,30,2|0|0,0:0|0:0|0:0,0:0:0:0:
439,138,17575,2,0,L|468:142,2,30,2|0|0,0:0|0:0|0:0,0:0:0:0:
328,205,17896,2,0,P|336:267|386:308,1,120,2|0,0:0|0:0,0:0:0:0:
512,233,18539,1,0,0:0:0:0:
512,233,18646,1,2,0:0:0:0:
412,384,18861,5,0,0:0:0:0:
412,384,18968,2,0,P|382:383|352:379,1,60,2|0,0:0|0:0,0:0:0:0:
275,311,19289,2,0,P|270:283|270:269,2,30,2|0|0,0:0|0:0|0:0,0:0:0:0:
202,384,19611,2,0,P|148:378|74:376,1,120,2|0,0:0|0:0,0:0:0:0:
0,264,20253,1,0,0:0:0:0:
0,264,20361,1,2,0:0:0:0:
219,233,20682,6,0,P|228:185|218:63,1,155.999992858887,4|8,1:0|0:0,0:0:0:0:
68,156,21325,1,2,0:0:0:0:
219,233,21539,2,0,P|269:231|303:225,1,77.9999964294435,0|2,0:0|0:0,0:0:0:0:
404,153,21968,1,0,0:0:0:0:
404,153,22075,1,2,0:0:0:0:
239,120,22289,5,0,0:0:0:0:
239,120,22396,2,0,L|250:-20,1,116.999994644165,2|0,0:0|0:0,0:0:0:0:
248,3,22825,2,0,P|287:0|329:3,1,77.9999964294435,8|2,0:0|0:0,0:0:0:0:
453,54,23253,1,0,0:0:0:0:
328,109,23468,1,2,0:0:0:0:
442,164,23682,1,0,0:0:0:0:
442,164,23789,2,0,P|447:213|446:259,1,77.9999964294435,2|0,0:0|0:0,0:0:0:0:
341,384,24111,6,0,P|348:314|346:249,1,116.999994644165,2|0,0:0|0:0,0:0:0:0:
347,267,24539,1,8,0:0:0:0:
239,328,24753,1,2,0:0:0:0:
147,241,24968,1,0,0:0:0:0:
200,128,25182,1,2,0:0:0:0:
251,221,25396,1,0,0:0:0:0:
251,221,25503,1,2,0:0:0:0:
324,144,25718,5,0,0:0:0:0:
324,144,25825,2,0,P|373:137|446:139,1,116.999994644165,2|0,0:0|0:0,0:0:0:0:
440,138,26253,2,0,P|447:188|448:219,1,77.9999964294435,8|2,0:0|0:0,0:0:0:0:
369,360,26682,1,0,0:0:0:0:
346,229,26896,1,2,0:0:0:0:
230,309,27111,1,0,0:0:0:0:
230,309,27218,2,0,P|196:303|161:290,2,38.9999982147218,2|0|2,0:0|0:0|0:0,0:0:0:0:
311,364,27539,6,0,P|333:317|336:243,1,116.999994644165,4|0,1:0|0:0,0:0:0:0:
280,198,27968,2,0,L|185:206,1,77.9999964294435,8|2,0:0|0:0,0:0:0:0:
87,312,28396,1,0,0:0:0:0:
118,138,28611,1,2,0:0:0:0:
7,217,28825,1,0,0:0:0:0:
9,236,28932,1,2,0:0:0:0:
179,262,29146,5,0,0:0:0:0:
179,262,29253,2,0,P|244:261|298:258,1,116.999994644165,2|0,0:0|0:0,0:0:0:0:
371,284,29682,2,0,P|374:335|373:368,1,77.9999964294435,8|2,0:0|0:0,0:0:0:0:
259,384,30111,1,0,0:0:0:0:
355,205,30325,1,2,0:0:0:0:
219,260,30539,1,0,0:0:0:0:
238,263,30646,1,2,0:0:0:0:
108,145,30861,5,0,0:0:0:0:
108,145,30968,2,0,P|131:138|159:135,2,38.9999982147218,2|0|0,0:0|0:0|0:0,0:0:0:0:
219,260,31289,2,0,P|196:253|168:250,2,38.9999982147218,2|8|0,0:0|0:0|0:0,0:0:0:0:
108,375,31611,2,0,P|131:368|159:365,1,38.9999982147218,2|0,0:0|0:0,0:0:0:0:
265,370,31825,1,0,0:0:0:0:
63,272,32039,1,2,0:0:0:0:
141,384,32253,1,0,0:0:0:0:
145,365,32361,1,2,0:0:0:0:
139,178,32575,5,0,0:0:0:0:
139,178,32682,2,0,P|166:174|196:164,2,38.9999982147218,2|0|0,0:0|0:0|0:0,0:0:0:0:
316,195,33003,2,0,P|326:169|332:138,2,38.9999982147218,2|8|0,0:0|0:0|0:0,0:0:0:0:
188,311,33325,2,0,P|215:307|245:297,1,38.9999982147218,2|0,0:0|0:0,0:0:0:0:
242,224,33539,1,4,1:0:0:0:
430,356,33753,5,2,0:0:0:0:
427,346,33861,1,0,0:0:0:0:
424,336,33968,1,6,1:2:0:0:
421,326,34075,1,0,0:0:0:0:
418,316,34182,1,2,0:0:0:0:
415,306,34289,1,0,0:0:0:0:
412,296,34396,6,0,P|443:251|445:179,1,125.999996154785,4|0,1:0|0:0,0:0:0:0:
445,181,34825,2,0,L|339:195,1,83.9999974365235,8|2,0:0|0:0,0:0:0:0:
150,166,35253,1,0,0:0:0:0:
292,242,35468,1,2,0:0:0:0:
256,41,35682,1,8,0:0:0:0:
256,41,35789,2,0,P|248:100|262:153,1,83.9999974365235,2|0,0:0|0:0,0:0:0:0:
309,185,36111,6,0,L|184:168,1,125.999996154785,2|2,1:0|0:0,0:0:0:0:
184,168,36539,2,0,L|78:182,1,83.9999974365235,8|2,0:0|0:0,0:0:0:0:
10,79,36968,1,0,0:0:0:0:
184,168,37182,1,2,0:0:0:0:
45,339,37396,1,8,0:0:0:0:
45,339,37503,2,0,P|34:298|37:257,1,83.9999974365235,2|0,0:0|0:0,0:0:0:0:
128,289,37825,6,0,L|254:282,1,125.999996154785,2|0,1:0|0:0,0:0:0:0:
253,282,38253,1,8,0:0:0:0:
399,244,38468,1,2,0:0:0:0:
308,189,38682,1,0,0:0:0:0:
345,337,38896,1,2,0:0:0:0:
481,203,39111,1,8,0:0:0:0:
476,182,39218,1,2,0:0:0:0:
319,80,39432,5,0,0:0:0:0:
319,80,39539,2,0,P|382:78|461:61,1,125.999996154785,2|0,1:0|0:0,0:0:0:0:
443,66,39968,1,8,0:0:0:0:
232,16,40182,1,2,0:0:0:0:
287,238,40396,1,0,1:0:0:0:
329,100,40611,1,2,0:0:0:0:
152,201,40825,1,8,0:0:0:0:
157,221,40932,1,2,0:0:0:0:
266,384,41146,5,0,0:0:0:0:
266,384,41253,2,0,P|271:316|269:252,1,125.999996154785,4|0,1:2|0:0,0:0:0:0:
269,258,41682,2,0,P|329:251|360:250,1,83.9999974365235,8|2,0:0|0:0,0:0:0:0:
387,346,42111,1,0,0:0:0:0:
157,283,42325,1,2,0:0:0:0:
253,384,42539,1,8,0:0:0:0:
256,363,42646,1,2,0:0:0:0:
77,220,42861,5,0,0:0:0:0:
77,220,42968,2,0,P|71:279|81:358,1,125.999996154785,2|0,1:0|0:0,0:0:0:0:
77,345,43396,2,0,L|167:333,1,83.9999974365235,8|2,0:0|0:0,0:0:0:0:
318,201,43825,1,0,0:0:0:0:
261,384,44039,1,2,0:0:0:0:
404,328,44253,1,8,0:0:0:0:
401,307,44361,1,2,0:0:0:0:
253,160,44575,5,0,0:0:0:0:
253,160,44682,1,2,1:0:0:0:
422,62,44896,1,0,0:0:0:0:
419,83,45003,1,2,1:0:0:0:
374,243,45218,1,0,0:0:0:0:
374,243,45325,6,0,P|382:288|373:340,1,83.9999974365235,2|0,1:0|0:0,0:0:0:0:
281,367,45646,2,0,L|161:359,1,83.9999974365235,2|0,1:0|0:0,0:0:0:0:
34,295,45968,2,0,L|118:290,1,83.9999974365235,2|0,1:0|0:0,0:0:0:0:
204,230,46289,2,0,P|215:181|202:129,1,83.9999974365235,2|0,1:0|0:0,0:0:0:0:
135,73,46611,1,2,1:0:0:0:
310,12,46825,5,2,1:0:0:0:
309,22,46932,1,0,0:0:0:0:
308,32,47039,1,2,1:0:0:0:
307,42,47146,1,0,0:0:0:0:
306,52,47253,2,0,P|361:39|438:65,1,125.999996154785,4|0,1:2|0:0,0:0:0:0:
481,147,47682,6,0,L|483:223,1,45.0000017166138,8|0,1:2|0:0,0:0:0:0:
408,333,47896,2,0,L|410:257,1,45.0000017166138,8|0,1:2|0:0,0:0:0:0:
207,263,48111,6,0,P|253:241|323:252,1,83.9999974365235,4|0,1:2|0:0,0:0:0:0:
318,266,48432,1,0,0:0:0:0:
318,266,48539,2,0,L|309:361,1,83.9999974365235,8|0,1:0|0:0,0:0:0:0:
189,384,48968,2,0,L|40:372,1,125.999996154785
63,373,49396,2,0,L|82:282,1,83.9999974365235,8|0,1:0|0:0,0:0:0:0:
13,216,49825,6,0,L|2:103,1,83.9999974365235
0,90,50146,1,0,0:0:0:0:
0,90,50253,2,0,P|32:62|84:54,1,83.9999974365235,8|0,1:0|0:0,0:0:0:0:
199,0,50682,2,0,P|218:27|221:129,1,125.999996154785
225,117,51111,2,0,L|324:108,1,83.9999974365235,8|0,1:0|0:0,0:0:0:0:
427,40,51539,5,0,0:0:0:0:
359,221,51753,1,0,0:0:0:0:
359,221,51861,1,0,0:0:0:0:
359,221,51968,1,8,1:0:0:0:
472,135,52182,1,0,0:0:0:0:
512,283,52396,2,0,P|470:298|422:304,1,83.9999974365235
431,303,52718,1,0,0:0:0:0:
431,303,52825,1,8,1:0:0:0:
247,190,53039,1,0,0:0:0:0:
294,384,53253,5,0,0:0:0:0:
340,247,53468,1,0,0:0:0:0:
340,247,53575,1,0,0:0:0:0:
340,247,53682,1,8,1:0:0:0:
220,356,53896,1,0,0:0:0:0:
60,384,54111,2,0,P|40:348|31:280,1,83.9999974365235
30,306,54432,1,0,0:0:0:0:
30,306,54539,1,8,1:0:0:0:
184,212,54753,1,8,1:0:0:0:
38,95,54968,6,0,L|46:193,1,83.9999974365235,4|0,1:0|0:0,0:0:0:0:
41,315,55396,2,0,P|93:335|132:335,1,83.9999974365235,8|0,1:0|0:0,0:0:0:0:
293,212,55825,1,0,0:0:0:0:
227,343,56039,2,0,L|236:389,2,41.9999987182618,0|0|8,0:0|0:0|1:0,0:0:0:0:
308,229,56682,5,4,1:0:0:0:
140,166,56896,1,0,0:0:0:0:
374,125,57111,2,0,P|375:73|365:34,1,83.9999974365235,8|0,1:0|0:0,0:0:0:0:
167,17,57539,1,0,0:0:0:0:
261,141,57753,2,0,L|256:201,2,41.9999987182618,0|0|8,0:0|0:0|1:0,0:0:0:0:
362,69,58182,1,8,1:0:0:0:
420,186,58396,5,4,1:0:0:0:
420,186,58825,1,8,1:0:0:0:
300,384,59253,1,4,1:0:0:0:
186,341,59468,1,0,0:0:0:0:
334,291,59682,1,8,1:0:0:0:
149,172,60111,5,4,1:0:0:0:
178,355,60325,1,8,0:1:0:0:
247,240,60539,1,4,1:0:0:0:
67,331,60753,1,8,0:1:0:0:
34,119,60968,1,4,1:0:0:0:
174,241,61182,1,8,0:1:0:0:
174,241,61289,1,0,0:0:0:0:
174,241,61396,2,0,P|192:172|267:148,1,153.000002918243,4|0,1:2|0:0,0:0:0:0:
263,147,61825,6,0,L|145:138,1,83.9999974365235,4|2,1:2|0:0,0:0:0:0:
354,58,62253,1,0,0:0:0:0:
378,225,62468,2,0,P|335:255|274:262,1,83.9999974365235,2|0,0:0|0:0,0:0:0:0:
149,207,62896,5,2,0:0:0:0:
303,134,63111,1,0,0:0:0:0:
183,19,63325,2,0,P|176:61|179:117,1,83.9999974365235,2|0,0:0|0:0,0:0:0:0:
260,196,63753,1,2,0:0:0:0:
375,145,63968,1,0,0:0:0:0:
363,20,64182,2,0,L|264:11,1,83.9999974365235,2|0,0:0|0:0,0:0:0:0:
277,184,64611,5,2,0:0:0:0:
395,140,64825,1,2,0:0:0:0:
492,220,65039,2,0,P|491:265|481:304,1,83.9999974365235,2|0,0:0|0:0,0:0:0:0:
264,287,65468,1,2,0:0:0:0:
413,353,65682,1,0,0:0:0:0:
245,384,65896,2,0,L|253:290,1,83.9999974365235,2|0,0:0|0:0,0:0:0:0:
48,163,66325,6,0,L|56:257,1,83.9999974365235,2|0,0:0|0:0,0:0:0:0:
207,160,66753,2,0,P|229:124|226:59,1,83.9999974365235,2|0,0:0|0:0,0:0:0:0:
59,20,67182,1,2,0:0:0:0:
124,180,67396,1,0,0:0:0:0:
229,68,67611,6,0,L|144:62,1,83.9999974365235,2|0,0:0|0:0,0:0:0:0:
211,231,68039,1,2,0:0:0:0:
375,153,68253,1,0,0:0:0:0:
211,231,68468,1,2,0:0:0:0:
337,384,68682,6,0,P|344:343|341:287,1,83.9999974365235,4|2,1:2|0:0,0:0:0:0:
343,300,69003,1,0,0:0:0:0:
343,300,69111,1,8,1:0:0:0:
99,330,69325,1,2,0:0:0:0:
239,384,69539,1,0,0:0:0:0:
211,237,69753,2,0,P|211:207|214:178,2,41.9999987182618,2|0|8,0:0|0:0|1:0,0:0:0:0:
306,334,70182,1,2,0:0:0:0:
432,288,70396,6,0,P|441:242|440:192,1,83.9999974365235,4|2,1:2|0:0,0:0:0:0:
441,204,70718,1,0,0:0:0:0:
441,204,70825,1,8,1:0:0:0:
252,267,71039,1,2,0:0:0:0:
233,73,71253,1,0,0:0:0:0:
349,182,71468,2,0,P|353:203|353:252,2,41.9999987182618,2|0|8,0:0|0:0|1:0,0:0:0:0:
164,249,71896,1,2,0:0:0:0:
242,86,72111,6,0,P|200:87|145:78,1,83.9999974365235,4|2,1:2|0:0,0:0:0:0:
158,81,72432,1,0,0:0:0:0:
158,81,72539,1,8,1:0:0:0:
29,182,72753,2,0,P|35:157|36:129,2,41.9999987182618,2|0|0,0:0|0:0|1:0,0:0:0:0:
185,279,73182,2,0,P|164:275|143:275,1,41.9999987182618,2|0,0:0|0:0,0:0:0:0:
73,322,73396,1,8,1:0:0:0:
322,384,73611,1,2,1:0:0:0:
322,384,73718,1,0,0:0:0:0:
322,384,73825,6,0,P|371:338|371:223,1,161.999995056153,4|2,1:2|0:0,0:0:0:0:
475,236,74253,2,0,L|490:63,1,161.999995056153,4|2,1:2|0:0,0:0:0:0:
399,8,74682,1,4,1:2:0:0:
481,251,74896,1,8,1:2:0:0:
234,193,75111,1,2,1:0:0:0:
337,99,75325,1,2,1:0:0:0:
337,99,75432,1,0,0:0:0:0:
337,99,75539,6,0,P|328:174|364:237,1,144,4|0,1:0|0:0,0:0:0:0:
359,232,75968,2,0,L|471:222,1,96,8|0,0:0|0:0,0:0:0:0:
448,380,76396,2,0,L|336:370,1,96
177,384,76825,2,0,P|218:348|230:307,1,96,8|2,0:0|0:0,0:0:0:0:
173,221,77146,1,0,0:0:0:0:
76,262,77253,6,0,P|28:235|-12:189,1,96,4|0,1:0|0:0,0:0:0:0:
166,124,77682,2,0,L|154:9,1,96,8|0,0:0|0:0,0:0:0:0:
274,268,78111,2,0,L|262:383,1,96
351,138,78539,2,0,P|388:108|441:97,1,96,8|2,0:0|0:0,0:0:0:0:
484,190,78861,1,0,0:0:0:0:
351,138,78968,6,0,P|366:68|346:0,1,144,4|0,1:0|0:0,0:0:0:0:
338,160,79396,2,0,L|243:170,1,96,8|0,0:0|0:0,0:0:0:0:
72,384,79825,2,0,P|115:360|141:298,1,96
65,75,80253,1,8,0:0:0:0:
133,305,80468,1,2,0:0:0:0:
133,305,80575,1,0,0:0:0:0:
133,305,80682,6,0,P|85:260|10:269,1,144,4|0,1:0|0:0,0:0:0:0:
11,268,81111,1,8,0:0:0:0:
282,214,81325,1,2,1:2:0:0:
282,214,81432,1,0,0:0:0:0:
282,214,81539,5,4,1:2:0:0:
247,384,81753,1,2,0:0:0:0:
377,269,81968,1,2,1:2:0:0:
408,374,82182,1,4,1:2:0:0:
485,232,82396,6,0,P|509:170|494:82,1,144,4|0,1:0|0:0,0:0:0:0:
499,94,82825,1,8,0:0:0:0:
304,154,83039,1,0,0:0:0:0:
304,154,83146,1,0,0:0:0:0:
304,154,83253,2,0,L|146:143,1,144,2|0,0:0|0:0,0:0:0:0:
160,143,83682,2,0,P|197:106|205:60,1,96,8|0,0:0|0:0,0:0:0:0:
0,0,84111,6,0,L|12:104,1,96,4|0,1:0|0:0,0:0:0:0:
117,260,84539,2,0,L|21:248,1,96,8|0,0:0|0:0,0:0:0:0:
237,382,84968,2,0,P|279:348|294:294,1,96
143,90,85396,2,0,P|101:124|86:178,1,96,8|0,0:0|0:0,0:0:0:0:
105,262,85718,1,0,0:0:0:0:
197,301,85825,6,0,P|291:288|391:285,2,192,4|8|0,1:0|0:0|0:0,0:0:0:0:
380,384,86896,1,2,0:0:0:0:
245,369,87111,1,8,0:0:0:0:
380,384,87325,1,2,1:0:0:0:
469,298,87539,6,0,P|477:231|469:151,1,144,4|0,1:0|0:0,0:0:0:0:
469,155,87968,1,8,0:0:0:0:
270,187,88182,1,2,1:0:0:0:
289,189,88289,1,0,0:0:0:0:
308,191,88396,5,4,1:2:0:0:
284,341,88611,1,8,1:2:0:0:
98,219,88825,1,2,1:0:0:0:
140,211,88932,1,0,0:0:0:0:
168,172,89039,1,2,1:0:0:0:
166,119,89146,1,0,0:0:0:0:
122,81,89253,6,0,L|265:72,1,144,4|0,1:0|0:0,0:0:0:0:
265,71,89682,2,0,L|384:78,1,96,8|0,0:0|0:0,0:0:0:0:
483,240,90111,2,0,L|364:247,1,96
181,194,90539,1,8,0:0:0:0:
262,384,90753,1,2,0:0:0:0:
159,361,90861,1,0,0:0:0:0:
262,384,90968,6,0,P|301:334|293:254,1,144,4|0,1:0|0:0,0:0:0:0:
294,257,91396,2,0,L|160:247,1,96,8|0,0:0|0:0,0:0:0:0:
122,80,91825,2,0,L|-12:90,1,96
261,124,92253,1,8,0:0:0:0:
75,204,92468,1,2,0:0:0:0:
179,222,92575,1,0,0:0:0:0:
75,204,92682,6,0,P|62:280|119:350,1,144,4|0,1:0|0:0,0:0:0:0:
94,334,93111,2,0,L|200:326,1,96,8|0,0:0|0:0,0:0:0:0:
416,286,93539,2,0,L|408:392,1,96
249,176,93968,1,8,0:0:0:0:
447,63,94182,1,2,0:0:0:0:
447,63,94289,1,0,0:0:0:0:
447,63,94396,6,0,P|375:55|304:44,1,144,4|0,1:0|0:0,0:0:0:0:
304,44,94825,1,8,0:0:0:0:
401,263,95039,1,2,0:0:0:0:
414,243,95146,1,0,0:0:0:0:
420,219,95253,5,4,1:2:0:0:
192,85,95468,1,2,0:0:0:0:
254,306,95682,1,2,1:0:0:0:
320,137,95896,1,4,1:2:0:0:
168,213,96111,6,0,P|102:210|24:201,1,144,4|0,1:0|0:0,0:0:0:0:
24,201,96539,1,8,0:0:0:0:
117,384,96753,1,0,0:0:0:0:
117,384,96861,1,0,0:0:0:0:
117,384,96968,2,0,L|105:277,1,96,2|0,0:0|0:0,0:0:0:0:
338,221,97396,2,0,L|326:328,1,96,8|0,0:0|0:0,0:0:0:0:
221,291,97718,1,0,0:0:0:0:
145,214,97825,6,0,P|136:172|134:106,1,96,4|0,1:0|0:0,0:0:0:0:
191,28,98146,1,0,0:0:0:0:
298,28,98253,2,0,P|307:70|309:136,1,96,4|0,1:2|0:0,0:0:0:0:
269,224,98575,1,0,0:0:0:0:
370,259,98682,6,0,P|417:254|464:245,1,96,4|0,1:0|0:0,0:0:0:0:
305,345,99003,1,0,0:0:0:0:
198,198,99111,2,0,P|206:246|209:294,1,96,4|0,1:2|0:0,0:0:0:0:
101,278,99432,1,0,0:0:0:0:
0,362,99539,6,0,P|7:255|20:172,2,192,4|8|0,1:0|0:0|0:0,0:0:0:0:
220,315,100611,1,0,1:0:0:0:
0,255,100825,1,8,1:2:0:0:
164,72,101039,1,0,1:0:0:0:
62,99,101146,1,0,0:0:0:0:
164,72,101253,6,0,P|189:129|156:240,1,153.000002918243,4|0,1:0|0:0,0:0:0:0:
74,370,101682,2,0,B|150:357|150:357|148:366|148:366|244:349,1,170.999995433807,4|0,1:2|0:0,0:0:0:0:
406,384,102111,2,0,P|465:366|488:250,1,170.999995433807,4|0,1:0|0:0,0:0:0:0:
331,36,102539,2,0,B|338:83|338:83|331:99|331:99|342:157,1,113.999996955872,4|2,1:2|1:0,0:0:0:0:
420,110,102861,1,0,0:0:0:0:
351,161,102968,6,0,L|255:173,1,96,4|0,1:0|0:0,0:0:0:0:
51,302,103396,2,0,L|147:314,1,96,8|0,0:0|0:0,0:0:0:0:
331,290,103825,2,0,P|331:333|319:386,1,96
107,177,104253,2,0,P|106:133|119:81,1,96,8|2,0:0|0:0,0:0:0:0:
191,5,104575,1,0,0:0:0:0:
222,107,104682,6,0,L|324:99,1,96,4|0,1:0|0:0,0:0:0:0:
437,4,105111,2,0,P|478:34|499:94,1,96,8|0,0:0|0:0,0:0:0:0:
384,225,105539,2,0,P|394:274|368:354,1,96
242,384,105968,1,8,0:0:0:0:
46,257,106182,1,2,0:0:0:0:
150,239,106289,1,0,0:0:0:0:
46,257,106396,6,0,P|65:184|43:89,1,144,4|0,1:0|0:0,0:0:0:0:
55,117,106825,1,8,0:0:0:0:
202,183,107039,1,2,0:0:0:0:
217,0,107253,1,0,0:0:0:0:
301,92,107468,1,2,0:0:0:0:
421,37,107682,2,0,P|452:31|484:31,2,64,8|2|0,1:2|0:0|1:0,0:0:0:0:
290,112,108111,6,0,P|289:182|325:256,1,144,4|0,1:2|0:0,0:0:0:0:
318,248,108539,2,0,P|369:235|433:237,1,96,8|0,0:0|1:0,0:0:0:0:
157,384,108968,2,0,P|184:343|191:295,1,96,4|0,1:2|0:0,0:0:0:0:
5,142,109396,2,0,P|27:185|64:216,1,96,8|0,0:0|1:0,0:0:0:0:
165,185,109718,1,0,0:0:0:0:
87,110,109825,6,0,P|78:191|81:301,2,192,4|8|0,1:0|0:0|1:0,0:0:0:0:
291,203,110896,1,0,0:0:0:0:
91,312,111111,1,8,0:0:0:0:
234,58,111325,5,0,0:0:0:0:
181,10,111432,1,0,0:0:0:0:
111,21,111539,1,4,1:0:0:0:
327,199,111753,5,0,0:0:0:0:
382,135,111861,1,0,0:0:0:0:
462,158,111968,1,4,1:2:0:0:
200,361,112182,5,0,0:0:0:0:
153,277,112289,1,0,0:0:0:0:
62,309,112396,1,4,1:0:0:0:
197,0,112611,5,0,0:0:0:0:
225,142,112718,1,0,0:0:0:0:
333,47,112825,1,4,1:2:0:0:
436,353,113039,5,0,0:0:0:0:
436,353,113146,1,0,0:0:0:0:
436,353,113253,2,0,P|384:307|302:309,1,153.000002918243,4|0,1:0|0:0,0:0:0:0:
201,384,113682,2,0,L|213:268,1,102.000001945496,8|0,0:0|0:0,0:0:0:0:
0,148,114111,1,0,0:0:0:0:
81,320,114325,1,0,0:0:0:0:
230,84,114539,6,0,P|173:43|93:39,1,153.000002918243,8|0,0:0|0:0,0:0:0:0:
20,87,114968,6,0,P|31:144|-11:250,1,153.000002918243,4|0,1:0|0:0,0:0:0:0:
203,200,115396,6,0,P|173:244|77:284,1,144,4|0,1:2|0:0,0:0:0:0:
146,375,115825,6,0,P|97:384|10:348,1,135.000005149841,4|0,1:0|0:0,0:0:0:0:
4,205,116253,6,0,L|-1:157,5,27.9999991455078,4|2|0|2|0|2,1:2|0:0|0:0|0:0|0:0|0:0,0:0:0:0:
4,205,116682,6,0,L|111:213,1,96,4|2,1:0|0:0,0:0:0:0:
198,75,117111,1,8,0:0:0:0:
238,329,117325,1,2,0:0:0:0:
238,329,117432,1,0,0:0:0:0:
238,329,117539,2,0,L|131:337,2,96,2|2|8,1:0|0:0|0:0,0:0:0:0:
412,202,118182,1,2,0:0:0:0:
314,173,118289,1,0,0:0:0:0:
388,103,118396,6,0,P|412:139|416:201,1,96,0|2,1:0|0:0,0:0:0:0:
281,384,118825,1,8,0:0:0:0:
94,241,119039,1,2,0:0:0:0:
100,208,119146,1,0,0:0:0:0:
106,175,119253,1,2,1:0:0:0:
317,152,119468,5,0,1:0:0:0:
291,124,119575,1,2,0:0:0:0:
283,84,119682,1,8,1:2:0:0:
290,41,119789,1,2,0:0:0:0:
321,6,119896,1,0,1:0:0:0:
370,0,120003,1,2,0:0:0:0:
418,24,120111,6,0,P|396:64|391:115,1,96,4|2,1:0|0:0,0:0:0:0:
475,284,120539,1,8,0:0:0:0:
223,384,120753,1,2,0:0:0:0:
223,384,120861,1,0,0:0:0:0:
223,384,120968,2,0,P|266:359|284:316,1,96,2|2,1:0|0:0,0:0:0:0:
17,52,121396,5,2,1:0:0:0:
240,125,121539,1,2,1:0:0:0:
82,218,121682,1,2,1:0:0:0:
172,0,121825,6,0,P|143:61|154:152,1,161.999995056153,4|0,1:0|0:0,0:0:0:0:
289,233,122253,6,0,P|332:175|439:174,1,161.999995056153,4|0,1:2|0:0,0:0:0:0:
474,304,122682,6,0,L|466:392,1,80.9999975280763,4|0,1:0|0:0,0:0:0:0:
166,384,123111,6,0,P|221:361|243:287,1,107.999996704102,4|2,1:2|0:0,0:0:0:0:
240,306,123396,1,0,0:0:0:0:
237,292,123468,1,0,0:0:0:0:
234,278,123539,6,0,L|91:284,1,102.000001945496,4|0,1:0|0:0,0:0:0:0:
132,282,123861,1,0,0:0:0:0:
132,282,123968,1,8,0:0:0:0:
2,142,124182,2,0,P|0:113|4:76,2,51.0000009727478
191,22,124611,1,0,0:0:0:0:
91,183,124825,2,0,P|84:240|109:326,1,102.000001945496,8|0,0:0|0:0,0:0:0:0:
168,368,125146,1,0,0:0:0:0:
271,315,125253,6,0,P|278:258|253:172,1,102.000001945496,4|0,1:0|0:0,0:0:0:0:
194,130,125575,1,0,0:0:0:0:
336,6,125682,2,0,P|329:63|354:149,1,102.000001945496,4|0,1:2|0:0,0:0:0:0:
440,200,126003,1,0,0:0:0:0:
335,292,126111,6,0,P|285:293|211:272,1,102.000001945496,4|0,1:0|0:0,0:0:0:0:
148,169,126432,1,0,0:0:0:0:
67,376,126539,2,0,P|54:327|58:277,1,102.000001945496,4|0,1:2|0:0,0:0:0:0:
158,176,126861,1,0,0:0:0:0:
1,0,126968,6,0,P|0:77|9:170,1,170.999995433807,4|0,1:2|0:0,0:0:0:0:
9,170,127396,2,0,L|76:179,1,56.9999984779358,8|0,1:2|0:0,0:0:0:0:
318,96,127611,5,0,0:0:0:0:
318,96,127718,1,0,0:0:0:0:
318,96,127825,2,0,P|288:45|180:58,1,180,4|0,1:2|0:0,0:0:0:0:
180,57,128253,2,0,L|185:125,1,60,8|0,1:2|0:0,1:2:0:0:
282,317,128468,5,0,0:0:0:0:
282,317,128575,1,0,0:0:0:0:
282,317,128682,2,0,P|372:301|492:296,1,188.999994232178,4|0,1:2|0:0,0:0:0:0:
469,295,129111,2,0,L|461:369,1,62.9999980773926,8|0,1:2|0:0,0:0:0:0:
296,160,129325,5,0,0:0:0:0:
296,160,129432,1,0,0:0:0:0:
296,160,129539,2,0,P|391:113|398:15,1,198.000006042481,4|0,1:2|0:0,0:0:0:0:
403,29,129968,2,0,L|318:19,1,66.0000020141602,8|0,1:2|0:0,0:0:0:0:
106,61,130182,1,8,1:0:0:0:
106,61,130289,1,0,0:0:0:0:
106,61,130396,1,4,1:2:0:0:
248,273,130611,5,0,0:0:0:0:
263,188,130718,1,2,1:0:0:0:
470,259,130932,1,0,0:0:0:0:
485,344,131039,1,2,1:0:0:0:
248,273,131253,1,0,0:0:0:0:
263,188,131361,1,2,1:0:0:0:
26,259,131575,1,0,0:0:0:0:
41,344,131682,1,2,1:0:0:0:
108,105,131896,1,4,1:2:0:0:
406,0,132111,6,0,P|408:35|406:71,1,60,4|0,1:0|0:0,0:0:0:0:
340,189,132539,1,2,0:0:0:0:
204,99,132753,1,0,0:0:0:0:
243,277,132968,1,2,0:0:0:0:
421,212,133182,2,0,P|424:193|424:175,3,20,2|0|0|2,0:0|0:0|0:0|0:0,0:0:0:0:
359,334,133611,1,2,0:0:0:0:
210,382,133825,6,0,P|171:380|135:375,1,60,2|0,1:0|0:0,0:0:0:0:
40,261,134253,1,2,0:0:0:0:
180,144,134468,1,0,0:0:0:0:
196,298,134682,1,2,0:0:0:0:
83,169,134896,2,0,P|81:145|81:131,3,20,2|0|0|2,0:0|0:0|0:0|0:0,0:0:0:0:
188,311,135325,1,2,0:0:0:0:
311,248,135539,6,0,P|316:207|315:177,1,60,2|0,1:0|0:0,0:0:0:0:
315,188,135861,1,0,0:0:0:0:
315,188,135968,1,2,0:0:0:0:
202,19,136182,2,0,L|232:23,2,30,0|2|0,0:0|0:0|0:0,0:0:0:0:
362,72,136503,2,0,L|333:76,2,30,0|2|0,0:0|0:0|0:0,0:0:0:0:
236,136,136825,1,2,0:0:0:0:
308,0,137039,1,2,0:0:0:0:
444,105,137253,6,0,P|445:143|443:173,1,60,2|0,1:0|0:0,0:0:0:0:
395,288,137575,2,0,P|367:269|323:263,1,60,2|0,0:0|0:0,0:0:0:0:
188,347,137896,2,0,P|213:322|221:284,1,60,2|2,0:0|1:0,0:0:0:0:
217,269,138218,1,0,0:0:0:0:
204,241,138325,1,2,0:0:0:0:
178,224,138432,1,0,0:0:0:0:
148,223,138539,1,2,1:0:0:0:
24,332,138753,1,2,1:0:0:0:
250,384,138968,6,0,P|256:351|256:316,1,60,4|0,1:0|0:0,0:0:0:0:
147,170,139396,1,2,0:0:0:0:
294,114,139611,1,0,0:0:0:0:
245,218,139825,1,2,0:0:0:0:
187,48,140039,2,0,P|186:33|187:18,3,20,2|0|0|2,0:0|0:0|0:0|0:0,0:0:0:0:
242,206,140468,1,2,0:0:0:0:
109,253,140682,6,0,P|66:250|22:238,1,60,2|2,1:0|0:0,0:0:0:0:
49,246,141003,1,0,0:0:0:0:
49,246,141111,2,0,L|56:330,1,60,2|2,0:0|0:0,0:0:0:0:
252,384,141539,2,0,P|266:323|264:248,1,120,2|2,0:0|0:0,0:0:0:0:
169,111,142182,1,2,0:0:0:0:
325,14,142396,6,0,L|319:92,1,60,2|0,1:0|0:0,0:0:0:0:
320,73,142718,1,0,0:0:0:0:
320,73,142825,1,2,0:0:0:0:
402,224,143039,2,0,P|387:219|372:217,2,30,0|2|0,0:0|0:0|0:0,0:0:0:0:
506,217,143361,2,0,P|503:203|497:188,2,30,0|2|0,0:0|0:0|0:0,0:0:0:0:
423,124,143682,1,2,0:0:0:0:
454,315,143896,1,2,0:0:0:0:
229,263,144111,6,0,P|232:232|230:197,1,60,2|0,1:0|0:0,0:0:0:0:
73,384,144432,2,0,P|109:371|130:344,1,60,2|0,0:0|0:0,0:0:0:0:
67,214,144753,2,0,L|21:208,2,30,2|0|2,0:0|0:0|1:0,0:0:0:0:
127,8,145182,1,2,0:0:0:0:
192,179,145396,1,2,1:0:0:0:
310,72,145611,1,2,0:0:0:0:
310,72,145718,1,0,0:0:0:0:
310,72,145825,6,0,P|307:114|310:159,1,60,4|0,1:2|0:0,0:0:0:0:
314,151,146146,1,0,0:0:0:0:
321,171,146253,2,0,P|350:170|380:173,1,60,2|0,0:0|0:0,0:0:0:0:
488,269,146682,1,2,0:0:0:0:
344,384,146896,1,2,0:0:0:0:
345,375,146968,1,0,0:0:0:0:
346,367,147039,1,0,0:0:0:0:
347,359,147111,1,2,0:0:0:0:
138,304,147325,1,2,0:0:0:0:
252,142,147539,6,0,P|250:195|253:223,1,60,2|0,1:0|0:0,0:0:0:0:
258,221,147861,1,0,0:0:0:0:
266,241,147968,2,0,P|266:270|264:300,1,60,2|2,0:0|0:0,0:0:0:0:
149,384,148396,1,2,0:0:0:0:
22,280,148611,1,2,0:0:0:0:
30,282,148682,1,0,0:0:0:0:
38,284,148753,1,0,0:0:0:0:
46,286,148825,1,2,0:0:0:0:
155,166,149039,1,2,0:0:0:0:
155,166,149146,1,0,0:0:0:0:
155,166,149253,6,0,P|158:112|154:81,1,60,2|0,1:0|0:0,0:0:0:0:
254,0,149575,2,0,P|251:54|255:85,1,60,2|0,0:0|0:0,0:0:0:0:
318,145,149896,1,2,0:0:0:0:
331,127,150003,2,0,P|366:120|405:122,1,60,2|2,0:0|0:0,0:0:0:0:
462,198,150325,1,2,0:0:0:0:
366,359,150539,1,2,0:0:0:0:
326,337,150646,1,0,0:0:0:0:
334,292,150753,1,2,0:0:0:0:
379,286,150861,1,0,0:0:0:0:
400,328,150968,5,2,1:0:0:0:
158,384,151182,1,0,0:0:0:0:
158,384,151289,2,0,P|179:349|186:306,1,60,2|0,0:0|0:0,0:0:0:0:
109,264,151611,1,0,1:0:0:0:
109,264,151718,2,0,P|72:262|30:251,1,60,2|0,0:0|0:0,0:0:0:0:
2,170,152039,2,0,P|-1:145|1:120,1,30,2|0,1:0|0:0,0:0:0:0:
57,6,152253,2,0,L|108:10,1,35.9999989013672,2|0,1:0|0:0,0:0:0:0:
162,131,152468,2,0,L|126:133,1,35.9999989013672,2|0,1:0|0:0,0:0:0:0:
248,35,152682,5,4,1:2:0:0:
338,164,152896,1,2,0:0:0:0:
338,164,153003,1,0,0:0:0:0:
338,164,153111,2,0,P|333:199|333:239,1,66.0000020141602,2|2,0:0|0:0,0:0:0:0:
438,311,153539,1,2,0:0:0:0:
268,384,153753,2,0,L|271:351,3,22.0000006713867,2|0|0|2,0:0|0:0|0:0|0:0,0:0:0:0:
55,305,154182,1,2,0:0:0:0:
221,253,154396,6,0,P|225:211|219:160,1,66.0000020141602,2|2,1:0|0:0,0:0:0:0:
217,164,154718,1,0,0:0:0:0:
206,143,154825,2,0,L|110:135,1,66.0000020141602,2|2,0:0|0:0,0:0:0:0:
0,331,155253,2,0,P|35:280|42:181,1,132.00000402832,2|2,0:0|0:0,0:0:0:0:
10,27,155896,1,2,0:0:0:0:
10,27,156003,1,0,0:0:0:0:
10,27,156111,6,0,L|96:33,1,66.0000020141602,2|0,1:2|0:0,0:0:0:0:
141,172,156432,2,0,P|173:169|205:159,1,66.0000020141602,2|0,0:0|0:0,0:0:0:0:
274,32,156753,2,0,P|275:3|274:-22,1,33.0000010070801,2|0,0:0|0:0,0:0:0:0:
433,162,156968,1,2,1:0:0:0:
401,170,157075,1,0,0:0:0:0:
381,196,157182,1,2,0:0:0:0:
376,228,157289,1,0,0:0:0:0:
387,258,157396,5,2,1:0:0:0:
145,152,157611,1,2,1:0:0:0:
256,384,157825,5,4,1:2:0:0:
0,289,158146,5,2,0:0:0:0:
235,183,158468,6,0,P|239:232|231:302,1,99.0000030212403,4|0,1:0|0:0,0:0:0:0:
156,354,158896,6,0,L|118:348,1,33.0000010070801,2|0,1:0|0:0,0:0:0:0:
9,146,159111,1,2,1:0:0:0:
50,98,159218,1,0,0:0:0:0:
93,51,159325,1,2,1:0:0:0:
113,111,159432,1,0,0:0:0:0:
131,171,159539,6,0,L|227:159,1,71.9999978027344,4|2,1:3|0:0,0:0:0:0:
435,239,159968,1,8,1:2:0:0:
475,34,160182,1,2,0:0:0:0:
292,174,160396,1,2,0:0:0:0:
450,305,160611,1,2,0:0:0:0:
446,277,160718,1,0,0:0:0:0:
443,250,160825,1,8,1:2:0:0:
309,384,161039,1,2,0:0:0:0:
48,294,161253,5,4,1:2:0:0:
214,115,161468,1,2,0:0:0:0:
224,186,161575,1,0,0:0:0:0:
234,257,161682,1,10,1:2:0:0:
0,200,161896,1,2,0:0:0:0:
9,129,162003,1,0,0:0:0:0:
19,58,162111,5,2,1:0:0:0:
75,102,162218,1,0,0:0:0:0:
141,75,162325,1,2,1:0:0:0:
207,48,162432,1,0,0:0:0:0:
264,92,162539,1,10,1:2:0:0:
457,13,162753,6,0,L|505:6,2,35.9999989013672,2|0|4,1:0|0:0|1:2,0:0:0:0:
411,271,163182,2,0,L|363:264,1,35.9999989013672,2|0,1:0|0:0,0:0:0:0:
339,189,163396,1,8,1:2:0:0:
109,384,163611,1,2,1:0:0:0:
109,384,163718,1,0,0:0:0:0:
109,384,163825,6,0,L|211:369,1,71.9999978027344,4|2,1:2|1:0,0:0:0:0:
253,339,164146,1,0,0:0:0:0:
187,292,164253,1,10,1:2:0:0:
194,211,164361,1,0,0:0:0:0:
201,130,164468,1,2,1:0:0:0:
127,164,164575,1,0,0:0:0:0:
53,198,164682,5,4,1:2:0:0:
67,36,164896,1,10,1:0:0:0:
335,224,165111,1,4,1:2:0:0:
349,62,165325,1,10,1:0:0:0:
201,130,165539,1,4,1:2:0:0:
446,216,165753,1,2,1:0:0:0:
442,188,165861,1,0,0:0:0:0:
439,161,165968,1,10,1:2:0:0:
439,161,166182,1,10,1:2:0:0:
380,340,166396,5,4,1:0:0:0:
161,267,166611,1,2,0:0:0:0:
349,186,166825,1,8,1:2:0:0:
284,384,167039,1,2,0:0:0:0:
65,311,167253,1,2,0:0:0:0:
101,136,167468,1,2,0:0:0:0:
73,128,167575,1,0,0:0:0:0:
46,121,167682,1,8,1:2:0:0:
187,0,167896,1,2,0:0:0:0:
140,235,168111,5,4,1:2:0:0:
378,101,168325,1,2,0:0:0:0:
307,89,168432,1,0,0:0:0:0:
236,77,168539,1,10,1:2:0:0:
320,325,168753,1,2,0:0:0:0:
391,313,168861,1,0,0:0:0:0:
462,301,168968,5,2,1:0:0:0:
416,245,169075,1,0,0:0:0:0:
370,189,169182,1,2,1:0:0:0:
441,177,169289,1,0,0:0:0:0:
512,165,169396,1,10,1:2:0:0:
286,35,169611,6,0,L|293:-18,2,35.9999989013672,2|0|4,1:0|0:0|1:2,0:0:0:0:
327,321,170039,2,0,L|274:314,1,35.9999989013672,2|0,1:0|0:0,0:0:0:0:
216,371,170253,1,8,1:2:0:0:
0,331,170468,1,2,1:0:0:0:
0,331,170575,1,0,0:0:0:0:
0,331,170682,6,0,L|12:233,1,71.9999978027344,4|2,1:2|1:0,0:0:0:0:
83,227,171003,1,0,0:0:0:0:
18,179,171111,1,10,1:2:0:0:
28,99,171218,1,0,0:0:0:0:
103,67,171325,1,2,1:0:0:0:
168,115,171432,1,0,0:0:0:0:
158,195,171539,5,4,1:2:0:0:
421,0,171753,1,10,1:0:0:0:
364,299,171968,1,4,1:2:0:0:
264,49,172182,1,10,1:0:0:0:
475,153,172396,1,4,1:2:0:0:
297,251,172611,2,0,L|241:244,2,35.9999989013672,2|0|10,1:0|0:0|1:2,0:0:0:0:
463,164,173039,1,4,1:2:0:0:
398,384,173253,6,0,L|403:284,1,71.9999978027344,4|2,1:0|0:0,0:0:0:0:
142,384,173682,1,8,1:2:0:0:
233,195,173896,1,2,0:0:0:0:
16,118,174111,1,2,0:0:0:0:
82,279,174325,1,2,0:0:0:0:
108,274,174432,1,0,0:0:0:0:
134,269,174539,1,8,1:2:0:0:
261,345,174753,1,2,0:0:0:0:
294,102,174968,5,4,1:2:0:0:
432,283,175182,1,2,0:0:0:0:
413,213,175289,1,0,0:0:0:0:
343,232,175396,1,10,1:2:0:0:
116,45,175611,1,2,0:0:0:0:
135,115,175718,1,0,0:0:0:0:
205,96,175825,5,2,1:0:0:0:
224,166,175932,1,0,0:0:0:0:
154,185,176039,1,2,1:0:0:0:
84,204,176146,1,0,0:0:0:0:
103,274,176253,1,10,1:2:0:0:
341,384,176468,6,0,L|396:373,2,35.9999989013672,2|0|4,0:0|0:0|1:2,0:0:0:0:
188,316,176896,2,0,L|205:262,1,35.9999989013672,2|0,1:0|0:0,0:0:0:0:
270,228,177111,1,8,1:2:0:0:
50,347,177325,1,2,1:0:0:0:
50,347,177432,1,0,0:0:0:0:
50,347,177539,6,0,L|42:245,1,71.9999978027344,4|2,1:2|1:0,0:0:0:0:
103,219,177861,1,0,0:0:0:0:
34,177,177968,1,10,1:2:0:0:
93,121,178075,1,0,0:0:0:0:
24,79,178182,1,2,1:0:0:0:
83,23,178289,1,0,0:0:0:0:
152,65,178396,5,4,1:2:0:0:
352,0,178611,1,10,1:0:0:0:
303,289,178825,1,4,1:2:0:0:
83,217,179039,1,10,1:0:0:0:
327,144,179253,1,4,1:2:0:0:
475,349,179468,2,0,L|469:409,2,35.9999989013672,2|0|10,1:0|0:0|1:2,0:0:0:0:
439,354,179789,1,0,0:0:0:0:
403,359,179896,1,10,1:2:0:0:
367,364,180003,1,0,0:0:0:0:
331,370,180111,6,0,L|234:352,1,77.9999964294435,4|2,1:0|0:0,0:0:0:0:
273,321,180432,1,0,0:0:0:0:
292,287,180539,2,0,L|283:194,1,77.9999964294435,8|2,1:2|0:0,0:0:0:0:
115,384,180968,1,2,0:0:0:0:
11,199,181182,1,2,0:0:0:0:
49,208,181289,1,0,0:0:0:0:
87,217,181396,1,8,1:2:0:0:
87,217,181611,1,2,0:0:0:0:
178,35,181825,5,4,1:2:0:0:
319,125,182039,1,2,0:0:0:0:
395,109,182146,1,0,0:0:0:0:
319,125,182253,1,12,1:2:0:0:
193,218,182468,1,2,0:0:0:0:
117,202,182575,1,0,0:0:0:0:
193,218,182682,1,4,1:0:0:0:
319,322,182896,1,2,0:0:0:0:
395,306,183003,1,0,0:0:0:0:
319,322,183111,1,12,1:2:0:0:
84,384,183325,6,0,L|74:324,2,38.9999982147218,2|0|4,1:0|0:0|1:2,0:0:0:0:
205,200,183753,2,0,L|197:244,2,30,4|0|2,1:0|0:0|0:0,0:0:0:0:
204,165,184075,1,0,0:0:0:0:
183,137,184182,1,2,0:0:0:0:
150,124,184289,1,0,0:0:0:0:
116,133,184396,1,4,1:2:0:0:
293,0,184611,6,0,L|249:8,2,30,4|0|2,1:0|0:0|0:0,0:0:0:0:
333,2,184932,1,0,0:0:0:0:
367,22,185039,1,2,0:0:0:0:
381,59,185146,1,0,0:0:0:0:
374,98,185253,1,4,1:2:0:0:
247,295,185468,2,0,L|209:291,2,30,4|0|2,1:0|0:0|0:0,0:0:0:0:
479,151,185896,1,4,1:2:0:0:
428,384,186111,5,0,1:0:0:0:
436,339,186218,1,2,0:0:0:0:
428,294,186325,1,0,1:0:0:0:
403,256,186432,1,2,0:0:0:0:
363,235,186539,1,0,1:0:0:0:
318,239,186646,1,2,0:0:0:0:
283,267,186753,1,0,1:0:0:0:
270,310,186861,1,2,1:0:0:0:
270,310,186968,6,0,L|187:302,1,77.9999964294435,4|2,1:0|0:0,0:0:0:0:
119,347,187289,1,0,0:0:0:0:
91,266,187396,2,0,L|97:187,1,77.9999964294435,8|2,1:0|0:0,0:0:0:0:
62,169,187718,1,0,0:0:0:0:
28,150,187825,2,0,L|25:110,1,38.9999982147218,2|0,1:0|0:0,0:0:0:0:
128,0,188039,1,2,0:0:0:0:
128,0,188146,1,0,0:0:0:0:
128,0,188253,1,8,1:0:0:0:
233,207,188468,1,8,1:2:0:0:
377,95,188682,6,0,P|380:48|376:13,1,77.9999964294435,4|2,1:0|0:0,0:0:0:0:
239,215,189111,1,8,1:0:0:0:
441,174,189325,1,2,1:0:0:0:
448,177,189396,1,0,0:0:0:0:
455,180,189468,1,0,0:0:0:0:
462,183,189539,1,2,1:0:0:0:
301,308,189753,2,0,L|298:262,2,38.9999982147218,2|0|8,1:0|0:0|1:0,0:0:0:0:
446,355,190182,1,4,1:2:0:0:
160,384,190396,6,0,L|168:304,1,77.9999964294435,4|2,1:0|0:0,0:0:0:0:
139,313,190718,1,0,0:0:0:0:
110,320,190825,1,8,1:0:0:0:
25,141,191039,2,0,L|0:147,3,25.9999988098145,2|0|0|2,1:0|0:0|0:0|1:0,0:0:0:0:
243,186,191468,1,2,1:0:0:0:
149,77,191682,2,0,L|153:-6,1,77.9999964294435,8|8,1:0|1:2,0:0:0:0:
372,198,192111,5,4,1:0:0:0:
420,0,192325,1,2,0:0:0:0:
213,143,192539,1,8,1:0:0:0:
441,107,192753,1,2,0:0:0:0:
441,107,192968,1,2,1:0:0:0:
283,257,193182,1,2,1:0:0:0:
284,249,193253,1,0,0:0:0:0:
285,241,193325,1,0,0:0:0:0:
286,233,193396,1,8,1:0:0:0:
477,299,193611,1,4,1:2:0:0:
350,384,193825,5,4,1:0:0:0:
97,341,194039,2,0,L|46:347,2,38.9999982147218,2|0|8,0:0|0:0|1:0,0:0:0:0:
290,259,194468,1,2,0:0:0:0:
290,259,194575,1,0,0:0:0:0:
290,259,194682,1,2,1:0:0:0:
51,210,194896,2,0,L|32:162,2,38.9999982147218,2|0|8,0:0|0:0|1:0,0:0:0:0:
105,0,195325,1,8,1:2:0:0:
158,184,195539,6,0,P|197:182|240:170,1,77.9999964294435,4|2,1:0|0:0,0:0:0:0:
301,0,195968,1,8,1:0:0:0:
444,107,196182,1,2,1:0:0:0:
443,114,196253,1,0,0:0:0:0:
442,121,196325,1,0,0:0:0:0:
442,128,196396,1,2,1:0:0:0:
316,263,196611,2,0,L|309:210,2,38.9999982147218,2|0|8,0:0|0:0|1:0,0:0:0:0:
421,384,197039,1,4,1:2:0:0:
169,335,197253,5,4,1:0:0:0:
210,206,197468,1,2,1:0:0:0:
209,197,197539,1,0,0:0:0:0:
208,189,197611,1,0,0:0:0:0:
206,181,197682,1,8,1:0:0:0:
47,232,197896,1,2,1:0:0:0:
47,232,197968,1,0,0:0:0:0:
47,232,198039,1,0,0:0:0:0:
47,232,198111,6,0,L|-15:223,1,48,8|2,1:0|0:0,0:0:0:0:
156,67,198325,2,0,L|94:76,1,48,8|2,1:0|0:0,0:0:0:0:
323,183,198539,1,4,1:0:0:0:
299,138,198646,1,2,1:0:0:0:
310,84,198753,1,8,1:0:0:0:
358,48,198861,1,2,1:0:0:0:
422,60,198968,5,4,1:2:0:0:
383,311,199182,1,10,1:2:0:0:
172,32,199396,1,4,1:2:0:0:
236,277,199611,1,10,1:2:0:0:
0,184,199825,1,4,1:2:0:0:
326,91,200039,1,10,1:2:0:0:
327,81,200111,1,0,0:0:0:0:
328,71,200182,1,0,0:0:0:0:
329,61,200253,5,4,1:2:0:0:
512,208,200468,1,10,1:0:0:0:
16,368,201111,1,4,1:3:0:0:
256,192,201218,12,2,204539,0:0:0:0:
221,208,204968,6,0,P|227:171|229:131,1,60,2|0,0:0|0:0,0:0:0:0:
141,267,205396,2,0,P|152:318|160:396,2,120,2|0|2,0:0|0:0|0:0,0:0:0:0:
13,345,206468,1,0,0:0:0:0:
74,228,206682,2,0,P|81:194|86:142,1,60,2|0,0:0|0:0,0:0:0:0:
3,56,207111,5,2,0:0:0:0:
127,16,207325,1,0,0:0:0:0:
128,8,207432,1,0,0:0:0:0:
129,0,207539,1,2,0:0:0:0:
191,85,207753,1,2,0:0:0:0:
346,42,207968,1,4,0:0:0:0:
346,42,208396,6,0,P|354:80|356:110,1,60,2|0,0:0|0:0,0:0:0:0:
406,219,208825,2,0,P|361:191|289:186,2,120,2|0|2,0:0|0:0|0:0,0:0:0:0:
364,384,209896,1,0,0:0:0:0:
474,329,210111,2,0,P|478:299|478:269,1,60,2|0,0:0|0:0,0:0:0:0:
306,213,210539,1,2,0:0:0:0:
398,152,210753,1,0,0:0:0:0:
399,144,210861,1,0,0:0:0:0:
400,136,210968,1,2,0:0:0:0:
404,262,211182,1,2,0:0:0:0:
300,103,211396,5,4,0:0:0:0:
300,103,211825,2,0,P|262:103|241:100,1,60,2|0,0:0|0:0,0:0:0:0:
106,25,212253,2,0,P|168:17|230:18,1,120,2|2,0:0|0:0,0:0:0:0:
301,125,212896,1,0,0:0:0:0:
165,178,213111,2,0,P|102:170|40:171,1,120,2|2,0:0|0:0,0:0:0:0:
95,369,213753,1,0,0:0:0:0:
191,298,213968,1,2,0:0:0:0:
193,305,214396,1,2,0:0:0:0:
350,384,214825,6,0,P|343:321|346:258,2,120,4|2|0,0:0|0:0|0:0,0:0:0:0:
448,172,216111,1,2,0:0:0:0:
413,65,216253,1,2,0:0:0:0:
378,135,216396,1,0,0:0:0:0:
483,101,216539,1,2,0:0:0:0:
483,101,216968,1,0,0:0:0:0:
230,198,217396,6,0,P|232:156|232:137,1,60,2|0,0:0|0:0,0:0:0:0:
327,47,217825,2,0,P|325:89|325:108,1,60,2|0,0:0|0:0,0:0:0:0:
222,208,218253,2,0,P|193:178|118:174,2,120,4|0|2,0:0|0:0|0:0,0:0:0:0:
222,208,219539,1,0,0:0:0:0:
313,346,219968,6,0,P|326:313|331:288,1,60,2|0,0:0|0:0,0:0:0:0:
143,132,220396,2,0,P|130:165|125:190,1,60,2|0,0:0|0:0,0:0:0:0:
305,70,220825,2,0,P|299:35|298:8,1,60,2|0,0:0|0:0,0:0:0:0:
176,325,221253,2,0,P|182:360|183:387,1,60,2|0,0:0|0:0,0:0:0:0:
295,190,221682,5,4,0:0:0:0:
305,202,222111,2,0,P|337:198|371:197,1,60,2|0,0:0|0:0,0:0:0:0:
280,289,222539,2,0,P|339:280|399:278,1,120,2|0,0:0|0:0,0:0:0:0:
512,127,223396,5,2,0:0:0:0:
471,340,223825,1,2,0:0:0:0:
230,203,224253,1,2,0:0:0:0:
445,0,224682,1,2,0:0:0:0:
397,243,224896,1,2,0:0:0:0:
397,243,225003,1,0,0:0:0:0:
397,243,225111,6,0,P|336:252|256:256,2,120,4|2|0,0:0|0:0|0:0,0:0:0:0:
157,356,226396,1,2,0:0:0:0:
166,368,226825,2,0,P|175:327|175:243,1,120,2|0,0:0|0:0,0:0:0:0:
27,224,227468,1,0,0:0:0:0:
127,113,227682,2,0,P|163:107|191:106,1,60,2|0,0:0|0:0,0:0:0:0:
258,13,228111,2,0,P|293:25|310:43,1,60,2|0,0:0|0:0,0:0:0:0:
304,63,228432,1,0,0:0:0:0:
300,85,228539,6,0,L|308:226,2,138.000002632141,4|2|2,0:0|0:0|0:0,0:0:0:0:
407,111,229611,1,0,0:0:0:0:
410,222,229825,2,0,P|455:213|481:213,1,69.0000013160706,2|0,0:0|0:0,0:0:0:0:
383,346,230253,2,0,P|277:324|217:324,2,138.000002632141,2|0|2,0:0|0:0|0:0,0:0:0:0:
177,207,231539,1,0,0:0:0:0:
93,384,231968,5,4,0:0:0:0:
97,367,232075,1,0,0:0:0:0:
101,350,232182,1,0,0:0:0:0:
105,333,232289,1,0,0:0:0:0:
110,316,232396,1,2,0:0:0:0:
115,299,232503,1,0,0:0:0:0:
120,282,232611,1,0,0:0:0:0:
125,265,232718,1,0,0:0:0:0:
130,248,232825,5,4,0:1:0:0:
130,222,232932,1,0,0:0:0:0:
121,197,233039,1,0,0:0:0:0:
105,176,233146,1,0,0:0:0:0:
82,163,233253,1,2,0:0:0:0:
55,162,233361,1,0,0:0:0:0:
30,171,233468,1,0,0:0:0:0:
14,191,233575,1,0,0:0:0:0:
7,216,233682,5,4,0:1:0:0:
12,181,233789,1,0,0:0:0:0:
17,146,233896,1,2,0:0:0:0:
22,111,234003,1,0,0:0:0:0:
27,76,234111,2,0,L|-12:66,5,23.0000004386902,4|2|0|2|0|0,0:1|0:0|0:0|0:0|0:0|0:0,0:0:0:0:
110,125,234539,6,0,B|157:140|186:118|186:118|184:127|184:127|224:103|272:117,1,167.999994873047,4|4,0:0|1:0,0:0:0:0:
377,24,235718,1,2,0:0:0:0:
333,202,236039,1,2,0:0:0:0:
333,202,236468,1,0,0:0:0:0:
462,142,236682,1,0,0:0:0:0:
458,119,236789,1,2,0:0:0:0:
427,261,237111,6,0,P|427:307|432:360,1,90,0|2,0:0|0:0,0:0:0:0:
237,384,237753,1,2,0:0:0:0:
237,384,238182,1,0,0:0:0:0:
334,255,238396,1,0,0:0:0:0:
338,278,238503,1,2,0:0:0:0:
90,298,238825,6,0,P|127:297|168:292,1,60,2|0,0:0|0:0,0:0:0:0:
149,294,239146,2,0,P|160:248|164:205,1,90,2|2,0:0|0:0,0:0:0:0:
0,82,239896,1,2,0:0:0:0:
116,23,240111,1,0,0:0:0:0:
112,0,240218,1,2,0:0:0:0:
243,79,240432,1,0,0:0:0:0:
243,79,240539,6,0,P|235:114|233:157,1,60,2|0,0:0|0:0,0:0:0:0:
312,140,240861,2,0,P|319:175|322:218,1,60,2|0,0:0|0:0,0:0:0:0:
246,213,241182,2,0,P|233:269|229:333,1,120,2|2,0:0|0:0,0:0:0:0:
96,359,241825,1,0,0:0:0:0:
92,336,241932,1,2,0:0:0:0:
344,384,242146,1,0,0:0:0:0:
344,384,242253,6,0,P|343:336|337:289,2,90,4|2|2,0:0|0:0|0:0,0:0:0:0:
411,146,243325,1,0,0:0:0:0:
469,252,243539,1,0,0:0:0:0:
446,246,243646,1,2,0:0:0:0:
199,81,243968,6,0,P|204:125|205:170,1,90,0|2,0:0|0:0,0:0:0:0:
313,9,244611,1,2,0:0:0:0:
313,9,245039,1,0,0:0:0:0:
397,116,245253,1,0,0:0:0:0:
418,110,245361,1,2,0:0:0:0:
298,199,245575,1,0,0:0:0:0:
298,199,245682,6,0,P|295:242|300:282,1,60,2|0,0:0|0:0,0:0:0:0:
296,258,246003,2,0,P|252:268|205:273,1,90,2|2,0:0|0:0,0:0:0:0:
32,168,246753,1,2,0:0:0:0:
78,326,246968,1,0,0:0:0:0:
75,348,247075,1,2,0:0:0:0:
155,204,247289,1,0,0:0:0:0:
155,204,247396,6,0,P|194:199|222:191,1,60,2|0,0:0|0:0,0:0:0:0:
146,96,247718,2,0,P|107:91|79:83,1,60,2|0,0:0|0:0,0:0:0:0:
205,9,248039,2,0,P|279:18|333:33,1,120,2|2,0:0|0:0,0:0:0:0:
392,173,248682,1,0,0:0:0:0:
388,195,248789,1,2,0:0:0:0:
460,20,249111,5,4,1:0:0:0:
460,20,249432,1,2,0:0:0:0:
460,20,249753,1,2,0:0:0:0:
319,109,249968,2,0,P|353:96|385:94,1,66.0000020141602,0|2,0:0|0:0,0:0:0:0:
468,205,250396,1,0,0:0:0:0:
472,182,250503,1,2,0:0:0:0:
336,289,250718,1,0,0:0:0:0:
336,289,250825,5,2,0:0:0:0:
336,289,251146,1,2,0:0:0:0:
336,289,251468,1,2,0:0:0:0:
232,384,251682,1,0,0:0:0:0:
267,190,251896,1,2,0:0:0:0:
163,247,252111,1,0,0:0:0:0:
140,242,252218,1,2,0:0:0:0:
46,153,252432,1,0,0:0:0:0:
46,153,252539,6,0,P|52:116|55:88,1,66.0000020141602,2|0,0:0|0:0,0:0:0:0:
140,65,252861,2,0,P|133:28|131:0,1,66.0000020141602,2|0,0:0|0:0,0:0:0:0:
228,84,253182,1,2,0:0:0:0:
314,50,253396,1,0,0:0:0:0:
369,124,253611,1,2,0:0:0:0:
451,41,253825,1,0,0:0:0:0:
453,18,253932,1,2,0:0:0:0:
507,200,254146,1,0,0:0:0:0:
507,200,254253,6,0,P|511:236|512:268,1,66.0000020141602,2|0,0:0|0:0,0:0:0:0:
447,325,254575,2,0,P|413:320|379:318,1,66.0000020141602,2|0,0:0|0:0,0:0:0:0:
324,384,254896,1,2,0:0:0:0:
128,344,255111,1,0,0:0:0:0:
271,297,255325,1,2,0:0:0:0:
181,249,255539,1,0,0:0:0:0:
184,226,255646,1,2,0:0:0:0:
32,137,255861,1,0,0:0:0:0:
32,137,255968,6,0,L|0:133,2,33.0000010070801,4|0|0,1:2|0:0|0:0,0:0:0:0:
164,70,256289,2,0,L|131:66,2,33.0000010070801,2|0|0,0:0|0:0|0:0,0:0:0:0:
296,3,256611,2,0,L|263:0,1,33.0000010070801,2|0,0:0|0:0,0:0:0:0:
400,86,256825,5,2,0:0:0:0:
400,94,256932,1,0,0:0:0:0:
401,103,257039,1,2,0:0:0:0:
402,112,257146,1,0,0:0:0:0:
403,121,257253,2,0,L|400:154,1,33.0000010070801,2|0,0:0|0:0,0:0:0:0:
512,276,257468,2,0,L|509:243,1,33.0000010070801,2|0,0:0|0:0,0:0:0:0:
372,380,257682,6,0,L|340:384,2,33.0000010070801,4|0|0,1:0|0:0|0:0,0:0:0:0:
240,313,258003,2,0,L|207:317,2,33.0000010070801,2|0|0,0:0|0:0|0:0,0:0:0:0:
108,246,258325,2,0,L|75:249,1,33.0000010070801,2|0,0:0|0:0,0:0:0:0:
0,141,258539,5,2,0:0:0:0:
0,133,258646,1,0,0:0:0:0:
1,124,258753,1,2,0:0:0:0:
2,115,258861,1,0,0:0:0:0:
3,106,258968,2,0,L|0:73,1,33.0000010070801,2|0,0:0|0:0,0:0:0:0:
170,0,259182,2,0,L|167:33,1,33.0000010070801,2|0,0:0|0:0,0:0:0:0:
233,223,259396,5,4,1:0:0:0:
233,213,259503,1,0,0:0:0:0:
233,203,259611,1,0,0:0:0:0:
233,193,259718,1,2,0:0:0:0:
233,183,259825,1,0,0:0:0:0:
233,173,259932,1,0,0:0:0:0:
233,163,260039,1,2,0:0:0:0:
233,153,260146,1,0,0:0:0:0:
334,190,260253,5,4,1:0:0:0:
334,209,260361,1,2,0:0:0:0:
334,228,260468,1,0,0:0:0:0:
334,247,260575,1,2,0:0:0:0:
334,266,260682,1,2,0:0:0:0:
334,285,260789,1,0,0:0:0:0:
334,304,260896,1,2,0:0:0:0:
334,323,261003,1,2,0:0:0:0:
256,384,261111,5,4,1:2:0:0:
256,384,261325,1,8,1:0:0:0:
74,229,261539,6,0,P|101:233|134:236,1,60,8|2,1:2|0:0,0:0:0:0:
438,155,261753,2,0,P|410:150|378:148,1,60,8|2,1:2|0:0,0:0:0:0:
256,192,261968,1,4,1:2:0:0:
256,192,262075,12,6,262825,1:3:0:0:
314,47,263039,5,0,0:0:0:0:
314,47,263146,2,0,P|367:30|433:32,1,120,2|0,1:0|0:0,0:0:0:0:
499,99,263468,2,0,P|500:128|497:167,1,60,2|0,1:0|0:0,0:0:0:0:
435,231,263682,1,0,1:0:0:0:
252,153,263896,1,2,1:0:0:0:
435,231,264111,1,0,0:0:0:0:
452,262,264218,2,0,L|445:331,1,60,2|0,1:0|0:0,0:0:0:0:
260,384,264432,1,0,0:0:0:0:
319,308,264539,6,0,P|274:268|212:268,1,120,6|0,1:0|0:0,0:0:0:0:
112,339,264861,2,0,L|129:215,1,120,2|0,1:0|0:0,0:0:0:0:
105,127,265182,2,0,L|45:135,1,60,2|0,1:0|0:0,0:0:0:0:
0,219,265396,1,0,1:0:0:0:
112,339,265611,1,2,1:0:0:0:
271,302,265825,5,0,1:0:0:0:
266,266,265932,1,2,0:0:0:0:
183,206,266039,1,0,1:0:0:0:
178,242,266146,1,2,0:0:0:0:
277,165,266253,6,0,L|396:176,1,120,6|0,1:0|0:0,0:0:0:0:
465,48,266575,2,0,L|345:59,1,120,2|0,1:0|0:0,0:0:0:0:
278,164,266896,2,0,L|284:232,1,60,2|0,1:0|0:0,0:0:0:0:
236,308,267111,1,0,1:0:0:0:
40,209,267325,1,2,1:0:0:0:
145,384,267539,1,2,0:0:0:0:
166,355,267646,2,0,L|241:348,1,60,2|0,1:0|0:0,0:0:0:0:
411,384,267861,1,2,0:0:0:0:
352,308,267968,6,0,P|349:244|363:187,1,120,6|0,1:0|0:0,0:0:0:0:
487,190,268289,2,0,P|490:130|477:71,1,120,2|0,1:0|0:0,0:0:0:0:
406,5,268611,2,0,P|369:6|333:15,1,60,2|0,1:0|0:0,0:0:0:0:
303,96,268825,1,4,1:0:0:0:
94,0,269039,1,2,1:0:0:0:
185,155,269253,5,8,1:2:0:0:
187,149,269361,1,2,1:0:0:0:
189,143,269468,1,8,1:2:0:0:
191,137,269575,1,2,1:0:0:0:
185,155,269682,5,6,1:0:0:0:
41,253,269896,1,0,0:0:0:0:
41,253,270003,2,0,P|49:312|35:379,1,120,2|0,1:0|0:0,0:0:0:0:
131,345,270325,2,0,P|160:351|212:352,1,60,2|0,1:0|0:0,0:0:0:0:
250,274,270539,1,0,1:0:0:0:
414,384,270753,1,2,1:0:0:0:
250,274,270968,1,0,0:0:0:0:
274,248,271075,2,0,L|281:172,1,60,2|0,1:0|0:0,0:0:0:0:
453,106,271289,1,0,0:0:0:0:
390,33,271396,6,0,P|324:33|262:48,1,120,6|0,1:0|0:0,0:0:0:0:
155,95,271718,2,0,P|95:96|37:84,1,120,2|0,1:0|0:0,0:0:0:0:
0,172,272039,2,0,P|-1:206|2:231,1,60,2|0,1:0|0:0,0:0:0:0:
71,298,272253,1,0,1:0:0:0:
270,149,272468,1,2,1:0:0:0:
330,371,272682,5,0,1:0:0:0:
297,352,272789,1,2,0:0:0:0:
378,290,272896,1,0,1:0:0:0:
411,271,273003,1,2,0:0:0:0:
282,250,273111,6,0,P|240:209|183:215,1,120,6|0,1:0|0:0,0:0:0:0:
308,126,273432,2,0,P|350:85|407:91,1,120,2|0,1:0|0:0,0:0:0:0:
469,164,273753,2,0,P|470:194|466:231,1,60,2|0,1:0|0:0,0:0:0:0:
399,293,273968,1,0,1:0:0:0:
182,215,274182,1,2,1:0:0:0:
391,100,274396,1,2,0:0:0:0:
374,68,274503,2,0,L|289:54,1,60,2|0,1:0|0:0,0:0:0:0:
128,0,274718,1,2,0:0:0:0:
188,74,274825,6,0,P|187:127|172:203,1,120,6|0,1:0|0:0,0:0:0:0:
287,136,275146,2,0,P|345:124|405:123,1,120,2|0,1:0|0:0,0:0:0:0:
475,189,275468,2,0,P|476:229|473:254,1,60,2|0,1:0|0:0,0:0:0:0:
425,331,275682,1,4,1:0:0:0:
169,246,275896,6,0,L|179:163,1,82.5000007867813,6|0,1:2|0:0,0:0:0:0:
272,364,276111,1,8,1:2:0:0:
272,364,276218,1,2,1:0:0:0:
272,364,276325,1,8,1:2:0:0:
272,364,276432,1,2,1:0:0:0:
272,364,276539,6,0,L|151:350,1,120,6|0,1:0|0:0,0:0:0:0:
40,290,276861,2,0,P|100:259|116:181,1,120,2|0,1:0|0:0,0:0:0:0:
55,141,277182,2,0,L|47:64,1,60,2|0,1:0|0:0,0:0:0:0:
149,69,277396,2,0,P|190:10|277:12,2,120,4|2|2,1:0|1:0|1:0,0:0:0:0:
151,114,277932,1,2,0:0:0:0:
176,151,278039,1,0,1:0:0:0:
219,161,278146,1,2,0:0:0:0:
261,147,278253,6,0,L|244:283,1,120,6|0,1:0|0:0,0:0:0:0:
298,381,278575,2,0,P|340:340|408:341,1,120,2|0,1:0|0:0,0:0:0:0:
472,276,278896,2,0,L|469:202,1,60,2|0,1:0|0:0,0:0:0:0:
402,146,279111,1,4,1:0:0:0:
402,146,279325,1,2,1:0:0:0:
175,77,279539,5,8,1:0:0:0:
324,31,279646,1,2,1:0:0:0:
230,154,279753,1,8,1:0:0:0:
233,0,279861,1,2,1:0:0:0:
322,127,279968,6,0,P|315:195|339:270,1,120,6|0,1:0|0:0,0:0:0:0:
219,166,280289,2,0,L|74:152,1,120,2|0,1:0|0:0,0:0:0:0:
15,213,280611,2,0,P|13:248|19:289,1,60,2|0,1:0|0:0,0:0:0:0:
97,334,280825,2,0,L|242:320,2,120,6|2|2,1:0|1:0|1:0,0:0:0:0:
136,311,281361,1,2,0:0:0:0:
145,267,281468,1,0,1:0:0:0:
129,224,281575,1,2,0:0:0:0:
87,205,281682,6,0,P|79:141|94:81,1,120,6|0,1:0|0:0,0:0:0:0:
216,75,282003,2,0,P|253:32|319:29,1,120,2|0,1:0|0:0,0:0:0:0:
384,92,282325,2,0,L|476:86,1,60,2|0,1:0|0:0,0:0:0:0:
496,168,282539,1,6,1:0:0:0:
496,168,282753,1,2,1:0:0:0:
356,384,282968,5,8,1:2:0:0:
328,300,283075,1,2,1:0:0:0:
386,236,283182,1,8,1:2:0:0:
328,300,283289,1,2,1:0:0:0:
243,282,283396,6,0,L|114:270,1,120,6|0,1:0|0:0,0:0:0:0:
43,172,283718,2,0,L|172:160,1,120,2|0,1:0|0:0,0:0:0:0:
225,88,284039,2,0,P|228:58|228:28,1,60,2|0,1:0|0:0,0:0:0:0:
316,65,284253,2,0,P|307:117|305:214,2,120,4|2|2,1:0|1:0|1:0,0:0:0:0:
350,35,284789,1,2,0:0:0:0:
394,33,284896,1,0,1:0:0:0:
433,55,285003,1,2,0:0:0:0:
447,98,285111,6,0,P|444:157|434:217,1,120,6|0,1:0|0:0,0:0:0:0:
310,198,285432,2,0,P|258:189|161:187,1,120,2|0,1:0|0:0,0:0:0:0:
114,243,285753,2,0,P|108:276|106:338,1,60,2|0,1:0|0:0,0:0:0:0:
157,383,285968,1,4,1:0:0:0:
157,383,286182,1,2,1:0:0:0:
421,365,286396,5,8,1:0:0:0:
345,223,286503,1,2,1:0:0:0:
312,332,286611,1,8,1:0:0:0:
454,256,286718,1,2,1:0:0:0:
312,332,286825,6,0,P|266:276|210:273,1,120,6|0,1:0|0:0,0:0:0:0:
357,215,287146,2,0,P|373:152|375:95,1,120,2|0,1:0|0:0,0:0:0:0:
305,22,287468,2,0,P|274:13|240:11,1,60,2|0,1:0|0:0,0:0:0:0:
155,55,287682,2,0,P|93:52|26:36,2,120,6|2|2,1:0|1:0|1:0,0:0:0:0:
123,88,288218,1,2,0:0:0:0:
124,132,288325,1,0,1:0:0:0:
146,170,288432,1,2,0:0:0:0:
187,187,288539,6,0,P|245:174|305:171,1,120,6|0,1:0|0:0,0:0:0:0:
414,242,288861,2,0,P|400:300|398:360,1,120,2|0,1:0|0:0,0:0:0:0:
269,357,289182,2,0,P|221:369|172:371,1,60,2|0,1:0|0:0,0:0:0:0:
85,252,289396,6,0,L|102:119,1,120,6|8,1:0|1:2,0:0:0:0:
100,132,289718,1,2,1:0:0:0:
100,132,289825,2,0,L|0:144,1,60,6|8,1:2|1:2,0:0:0:0:
255,12,290039,1,2,1:0:0:0:
255,12,290146,1,2,1:0:0:0:
255,12,290253,6,0,P|331:-1|433:18,1,180,6|2,1:3|1:0,0:0:0:0:
431,17,290682,2,0,P|418:73|411:142,1,120,8|2,1:2|1:0,0:0:0:0:
152,224,291111,1,0,1:0:0:0:
331,83,291325,1,2,1:0:0:0:
457,272,291539,1,8,1:2:0:0:
457,272,291646,2,0,P|454:312|448:340,2,60,2|0|2,1:0|1:0|1:0,0:0:0:0:
360,363,291968,6,0,P|269:348|177:342,1,180,6|2,1:0|1:0,0:0:0:0:
181,342,292396,2,0,P|196:274|201:223,1,120,8|2,1:2|1:0,0:0:0:0:
11,263,292825,1,0,1:0:0:0:
189,49,293039,1,2,1:0:0:0:
58,155,293253,1,8,1:2:0:0:
58,155,293361,2,0,P|21:150|-1:143,2,60,2|0|2,1:0|1:0|1:0,0:0:0:0:
208,29,293682,6,0,P|263:6|350:14,1,120,6|0,1:0|0:0,0:0:0:0:
369,122,294003,2,0,P|434:131|505:208,1,120,2|0,1:0|0:0,0:0:0:0:
447,253,294325,2,0,P|455:285|453:341,1,60,2|0,1:0|0:0,0:0:0:0:
394,384,294539,1,6,1:0:0:0:
394,384,294753,1,2,1:0:0:0:
92,300,294968,1,2,1:0:0:0:
113,206,295075,2,0,L|26:220,1,60,2|0,1:0|1:0,0:0:0:0:
204,234,295289,1,2,1:0:0:0:
183,140,295396,6,0,P|242:145|303:120,1,120,6|0,1:0|0:0,0:0:0:0:
404,193,295718,2,0,P|442:151|447:60,1,120,2|0,1:0|0:0,0:0:0:0:
405,7,296039,2,0,L|318:15,1,60,2|0,1:0|0:0,0:0:0:0:
171,156,296253,5,4,1:2:0:0:
187,124,296361,1,2,1:0:0:0:
172,75,296468,1,8,1:0:0:0:
109,63,296575,1,2,1:0:0:0:
69,128,296682,5,8,1:0:0:0:
220,0,296789,1,6,1:2:0:0:
183,350,297003,1,2,1:0:0:0:
183,350,297111,6,0,P|110:309|14:309,1,180,6|2,1:3|1:0,0:0:0:0:
15,308,297539,1,8,1:2:0:0:
240,168,297753,1,2,1:0:0:0:
0,45,297968,1,0,1:0:0:0:
117,278,298182,1,2,1:0:0:0:
229,8,298396,1,8,1:2:0:0:
229,8,298503,2,0,P|277:0|314:-1,2,60,2|0|2,1:0|1:0|1:0,0:0:0:0:
430,107,298825,6,0,P|430:182|413:305,1,180,6|2,1:0|1:0,0:0:0:0:
417,286,299253,1,8,1:2:0:0:
88,212,299468,1,2,1:0:0:0:
336,75,299682,1,0,1:0:0:0:
291,363,299896,1,2,1:0:0:0:
19,306,300111,1,8,1:2:0:0:
19,306,300218,1,2,1:0:0:0:
209,225,300432,1,2,1:2:0:0:
209,225,300539,6,0,L|215:169,2,35.9999989013672,4|0|0,1:2|0:0|0:0,0:0:0:0:
87,148,300861,2,0,L|81:92,2,35.9999989013672,2|0|0,1:0|0:0|0:0,0:0:0:0:
187,51,301182,2,0,L|193:-5,1,35.9999989013672,2|0,1:0|0:0,0:0:0:0:
315,29,301396,1,4,1:0:0:0:
344,12,301503,1,0,0:0:0:0:
382,10,301611,1,2,1:0:0:0:
420,28,301718,1,0,0:0:0:0:
439,70,301825,2,0,P|443:93|443:115,1,41.9999987182618,2|0,1:0|0:0,0:0:0:0:
296,263,302039,5,2,1:0:0:0:
287,203,302146,1,0,0:0:0:0:
278,143,302253,2,0,L|206:161,1,48,4|0,1:0|0:0,0:0:0:0:
477,245,302468,1,2,1:0:0:0:
477,245,302575,1,0,0:0:0:0:
477,245,302682,2,0,L|471:316,1,48,4|0,1:0|0:0,0:0:0:0:
263,384,302896,2,0,L|258:336,1,48,4|0,1:2|0:0,0:0:0:0:
35,241,303111,5,8,1:0:0:0:
56,219,303182,1,2,1:0:0:0:
83,205,303253,1,8,1:0:0:0:
112,195,303325,1,2,1:0:0:0:
142,192,303396,1,8,1:0:0:0:
172,197,303468,1,2,1:0:0:0:
197,213,303539,2,0,L|188:120,1,53.9999983520508,4|2,1:2|1:0,0:0:0:0:
389,0,303753,5,8,1:0:0:0:
348,172,303861,1,2,1:0:0:0:
219,50,303968,1,4,1:3:0:0:
