osu file format v14

[General]
AudioFilename: audio.mp3
AudioLeadIn: 0
PreviewTime: 96184
Countdown: 0
SampleSet: Soft
StackLeniency: 0.5
Mode: 0
LetterboxInBreaks: 1
WidescreenStoryboard: 0

[Editor]
Bookmarks: 24232,48232,72232,96232,120232,144232,168232,192232,216232,240232,264232,288232,312232
DistanceSpacing: 1.2
BeatDivisor: 4
GridSize: 4
TimelineZoom: 1

[Metadata]
Title:discolor
TitleUnicode:discolor
Artist:zts
ArtistUnicode:zts
Creator:semaphore
Version:Reivis' Insane
Source:うみねこのなく頃に散
Tags:la cataline lc reiji-rj Natteke desu Jounzan EvilElvis EvilElvisV2 Umineko no Naku Koro ni Chiru 07th expansion instrumental when they cry visual novel video game musicbox red code label czl
BeatmapID:3349483
BeatmapSetID:1635918

[Difficulty]
HPDrainRate:5
CircleSize:4
OverallDifficulty:7
ApproachRate:8
SliderMultiplier:1.4
SliderTickRate:1

[Events]
//Background and Video events
0,0,"hello riffster.jpg",0,0
//Break Periods
//Storyboard Layer 0 (Background)
//Storyboard Layer 1 (Fail)
//Storyboard Layer 2 (Pass)
//Storyboard Layer 3 (Foreground)
//Storyboard Layer 4 (Overlay)
//Storyboard Sound Samples

[TimingPoints]
232,375,4,2,0,20,1,0
232,-133.333333333333,4,2,1,20,0,0
3419,-166.666666666667,4,2,1,20,0,0
3982,-200,4,2,1,20,0,0
4732,-133.333333333333,4,2,1,20,0,0
4919,-133.333333333333,4,2,1,20,0,0
5107,-133.333333333333,4,2,1,20,0,0
20669,-133.333333333333,4,2,1,20,0,0
24232,-133.333333333333,4,2,1,40,0,0
30232,-133.333333333333,4,2,1,30,0,0
30325,-133.333333333333,4,2,1,40,0,0
33232,-133.333333333333,4,2,1,30,0,0
33325,-133.333333333333,4,2,1,40,0,0
36232,-133.333333333333,4,2,1,30,0,0
36325,-133.333333333333,4,2,1,40,0,0
42232,-133.333333333333,4,2,1,30,0,0
42325,-133.333333333333,4,2,1,40,0,0
44482,-133.333333333333,4,2,1,30,0,0
45325,-133.333333333333,4,2,1,40,0,0
48232,-111.111111111111,4,2,1,40,0,0
68857,-111.111111111111,4,2,1,30,0,0
68950,-111.111111111111,4,2,1,40,0,0
77669,-111.111111111111,4,2,1,25,0,0
77763,-111.111111111111,4,2,1,40,0,0
83669,-111.111111111111,4,2,1,25,0,0
83763,-111.111111111111,4,2,1,40,0,0
89669,-111.111111111111,4,2,1,25,0,0
89763,-111.111111111111,4,2,1,40,0,0
93232,-133.333333333333,4,2,1,50,0,0
96232,-100,4,2,1,70,0,1
96325,-100,4,2,1,70,0,0
101857,-100,4,2,1,60,0,0
101950,-100,4,2,1,70,0,0
110857,-100,4,2,1,60,0,0
110950,-100,4,2,1,70,0,0
113669,-100,4,2,1,50,0,0
113763,-100,4,2,1,70,0,0
119107,-100,4,2,1,50,0,0
119482,-100,4,2,1,80,0,0
119857,-100,4,2,1,40,0,0
120232,-100,4,2,1,70,0,1
120325,-100,4,2,1,70,0,0
122857,-100,4,2,1,60,0,0
122950,-100,4,2,1,70,0,0
128857,-100,4,2,1,60,0,0
128950,-100,4,2,1,70,0,0
134857,-100,4,2,1,60,0,0
134950,-100,4,2,1,70,0,0
140857,-100,4,2,1,60,0,0
140950,-100,4,2,1,70,0,0
144232,-100,4,2,1,70,0,1
144325,-100,4,2,1,70,0,0
148357,-100,4,2,1,50,0,0
148450,-100,4,2,1,70,0,0
149107,-100,4,2,1,50,0,0
149200,-100,4,2,1,70,0,0
149857,-100,4,2,1,50,0,0
150232,-100,4,2,1,70,0,0
154357,-100,4,2,1,50,0,0
154544,-100,4,2,1,70,0,0
155107,-100,4,2,1,60,0,0
155200,-100,4,2,1,70,0,0
155857,-100,4,2,1,50,0,0
156232,-100,4,2,1,70,0,0
160357,-100,4,2,1,50,0,0
160450,-100,4,2,1,70,0,0
162607,-100,4,2,1,55,0,0
162700,-100,4,2,1,70,0,0
163357,-100,4,2,1,50,0,0
163732,-100,4,2,1,50,0,0
164107,-100,4,2,1,60,0,0
164857,-100,4,2,1,50,0,0
165232,-100,4,2,1,70,0,0
168232,-133.333333333333,4,2,1,50,0,0
168419,-133.333333333333,4,2,1,30,0,0
192607,-133.333333333333,4,2,1,40,0,0
198232,-133.333333333333,4,2,1,25,0,0
198325,-133.333333333333,4,2,1,40,0,0
204232,-100,4,2,1,30,0,0
204607,-133.333333333333,4,2,1,40,0,0
210232,-100,4,2,1,30,0,0
210607,-133.333333333333,4,2,1,40,0,0
213232,-100,4,2,1,30,0,0
213794,-133.333333333333,4,2,1,30,0,0
215482,-200,4,2,1,30,0,0
216232,-111.111111111111,4,2,1,40,0,0
242857,-111.111111111111,4,2,1,15,0,0
242950,-111.111111111111,4,2,1,40,0,0
248857,-111.111111111111,4,2,1,25,0,0
248950,-111.111111111111,4,2,1,40,0,0
254857,-111.111111111111,4,2,1,25,0,0
254950,-111.111111111111,4,2,1,40,0,0
261232,-111.111111111111,4,2,1,25,0,0
263482,-111.111111111111,4,2,1,30,0,0
263862,-111.111111111111,4,2,1,40,0,0
264232,-100,4,2,1,70,0,1
264325,-100,4,2,1,70,0,0
266857,-100,4,2,1,60,0,0
266950,-100,4,2,1,70,0,0
272857,-100,4,2,1,60,0,0
272950,-100,4,2,1,70,0,0
278857,-100,4,2,1,60,0,0
278950,-100,4,2,1,70,0,0
284857,-100,4,2,1,60,0,0
284950,-100,4,2,1,70,0,0
288232,-100,4,2,1,70,0,1
288325,-100,4,2,1,70,0,0
290857,-100,4,2,1,60,0,0
290950,-100,4,2,1,70,0,0
293857,-100,4,2,1,60,0,0
293950,-100,4,2,1,70,0,0
296857,-100,4,2,1,60,0,0
296950,-100,4,2,1,70,0,0
299857,-100,4,2,1,60,0,0
299950,-100,4,2,1,70,0,0
302857,-100,4,2,1,60,0,0
302950,-100,4,2,1,70,0,0
305857,-100,4,2,1,60,0,0
305950,-100,4,2,1,70,0,0
311857,-100,4,2,1,60,0,0
311950,-100,4,2,1,70,0,0
312232,-100,4,2,1,70,0,1
312325,-100,4,2,1,70,0,0
314857,-100,4,2,1,60,0,0
314950,-100,4,2,1,70,0,0
317669,-100,4,2,1,50,0,0
317763,-100,4,2,1,70,0,0
320857,-100,4,2,1,60,0,0
320950,-100,4,2,1,70,0,0
323294,-100,4,2,1,50,0,0
323388,-100,4,2,1,70,0,0
323669,-100,4,2,1,50,0,0
323763,-100,4,2,1,70,0,0
326857,-100,4,2,1,60,0,0
326950,-100,4,2,1,70,0,0
329482,-100,4,2,1,60,0,0
329575,-100,4,2,1,70,0,0
330794,-100,4,2,1,50,0,0
330888,-100,4,2,1,70,0,0
331357,-100,4,2,1,60,0,0
331450,-100,4,2,1,70,0,0
332857,-100,4,2,1,60,0,0
332950,-100,4,2,1,70,0,0
333325,-100,4,2,1,50,0,0
336232,-100,4,2,1,5,0,0

[Colours]
Combo1 : 17,254,176
Combo2 : 173,255,95
Combo3 : 255,88,100
Combo4 : 255,94,55

[HitObjects]
3,206,232,6,0,B|104:188|60:217|168:193,1,157.500006008148,2|2,0:0|0:0,0:0:0:0:
159,194,1357,1,0,0:0:0:0:
269,213,1545,1,2,0:0:0:0:
278,224,1919,5,0,0:0:0:0:
347,253,2107,1,0,0:0:0:0:
430,257,2294,1,0,0:0:0:0:
500,207,2482,1,2,0:0:0:0:
438,95,2857,6,0,L|445:35,1,52.5000020027161,2|2,0:0|0:0,0:0:0:0:
361,151,3419,6,0,L|345:102,1,41.9999987182618,2|2,0:0|0:0,0:0:0:0:
298,230,3982,6,0,L|272:193,1,35,2|2,0:0|0:0,0:0:0:0:
256,314,4544,5,2,0:0:0:0:
246,320,4732,1,0,0:0:0:0:
171,251,4919,1,2,0:0:0:0:
163,265,5107,1,0,0:0:0:0:
71,231,5294,1,2,0:0:0:0:
71,231,5669,5,0,0:0:0:0:
19,104,5857,1,2,0:0:0:0:
175,127,6044,1,0,0:0:0:0:
91,151,6232,1,4,0:0:0:0:
96,139,6607,6,0,L|90:79,1,52.5000020027161,2|2,0:0|0:0,0:0:0:0:
99,77,7357,1,2,0:0:0:0:
31,218,7544,1,2,0:0:0:0:
23,210,7919,5,0,0:0:0:0:
44,295,8107,1,0,0:0:0:0:
60,375,8294,1,2,0:0:0:0:
68,377,8669,5,0,0:0:0:0:
148,348,8857,1,0,0:0:0:0:
230,356,9044,1,0,0:0:0:0:
309,371,9232,1,2,0:0:0:0:
387,348,9419,1,0,0:0:0:0:
469,352,9607,5,0,0:0:0:0:
505,260,9794,1,2,0:0:0:0:
512,269,10357,5,2,0:0:0:0:
434,194,10544,1,2,0:0:0:0:
444,201,10920,5,2,0:0:0:0:
364,133,11107,1,2,0:0:0:0:
434,63,11295,1,0,0:0:0:0:
507,131,11482,1,2,0:0:0:0:
437,137,11669,1,0,0:0:0:0:
361,289,11857,6,0,P|352:270|347:237,1,52.5000020027161,2|2,0:0|0:0,0:0:0:0:
512,233,12232,2,0,P|526:264|510:338,1,105.000004005432,4|0,0:0|0:0,0:0:0:0:
432,355,12794,1,2,0:0:0:0:
417,363,13357,5,0,0:0:0:0:
331,337,13544,1,2,0:0:0:0:
244,361,13732,2,0,L|189:356,1,52.5000020027161
66,299,14107,2,0,L|126:289,1,52.5000020027161,2|2,0:0|0:0,0:0:0:0:
127,279,14669,5,0,0:0:0:0:
205,251,14857,1,0,0:0:0:0:
291,231,15044,1,0,0:0:0:0:
387,216,15232,1,2,0:0:0:0:
387,216,15419,1,0,0:0:0:0:
291,231,15607,1,2,0:0:0:0:
205,251,15794,1,2,0:0:0:0:
127,279,15982,1,0,0:0:0:0:
59,320,16169,1,0,0:0:0:0:
40,233,16357,6,0,P|26:239|-5:265,1,52.5000020027161,2|0,0:0|0:0,0:0:0:0:
133,377,16732,2,0,P|146:356|151:322,1,52.5000020027161,2|2,0:0|0:0,0:0:0:0:
59,320,17107,5,0,0:0:0:0:
0,158,17294,1,2,0:0:0:0:
13,147,17669,5,0,0:0:0:0:
85,86,17857,2,0,P|67:72|26:61,1,52.5000020027161,2|2,0:0|0:0,0:0:0:0:
41,233,18232,2,0,L|211:209,1,157.500006008148,4|2,0:0|0:0,0:0:0:0:
196,210,19357,5,2,0:0:0:0:
307,244,19544,1,2,0:0:0:0:
302,229,19919,5,0,0:0:0:0:
192,225,20107,1,0,0:0:0:0:
242,312,20294,1,2,0:0:0:0:
222,331,20669,5,2,0:0:0:0:
194,193,20857,1,0,0:0:0:0:
323,242,21044,1,2,0:0:0:0:
243,257,21232,1,4,0:0:0:0:
256,192,21794,12,4,24232,0:0:0:0:
56,76,24607,5,2,0:0:0:0:
56,76,24794,2,0,P|105:69|161:66,1,105.000004005432,0|0,0:0|0:0,0:0:0:0:
260,96,25357,1,2,0:0:0:0:
260,96,25544,2,0,P|252:148|268:200,1,105.000004005432
356,208,26107,1,2,0:0:0:0:
444,220,26294,1,0,0:0:0:0:
344,336,26669,1,0,0:0:0:0:
256,324,26857,1,2,0:0:0:0:
168,312,27044,1,2,0:0:0:0:
64,356,27232,6,0,P|44:324|36:256,1,105.000004005432,0|2,0:0|0:0,0:0:0:0:
20,240,27794,2,0,L|128:228,1,105.000004005432
204,164,28357,2,0,L|192:112,1,52.5000020027161,2|2,0:0|0:0,0:0:0:0:
421,53,28919,1,0,0:0:0:0:
421,53,29107,2,0,L|413:105,1,52.5000020027161,2|0,0:0|0:0,0:0:0:0:
348,328,29669,1,0,0:0:0:0:
348,328,29857,2,0,L|336:276,1,52.5000020027161,2|2,0:0|0:0,0:0:0:0:
252,248,30232,6,0,P|200:256|152:240,1,105.000004005432,4|2,1:0|0:0,0:0:0:0:
100,152,30794,2,0,P|152:144|200:160,1,105.000004005432
308,164,31357,1,2,0:0:0:0:
308,164,31544,2,0,L|324:60,1,105.000004005432
428,96,32107,2,0,L|496:92,1,52.5000020027161,2|0,0:0|0:0,0:0:0:0:
360,280,32669,2,0,L|307:283,2,52.5000020027161,0|2|2,0:0|0:0|0:0,0:0:0:0:
376,288,33232,6,0,P|392:240|384:184,1,105.000004005432,4|2,0:0|0:0,0:0:0:0:
316,128,33794,1,2,0:0:0:0:
316,128,34169,1,0,0:0:0:0:
220,132,34357,1,2,0:0:0:0:
124,136,34544,1,0,0:0:0:0:
120,140,34919,1,0,0:0:0:0:
216,136,35107,1,2,0:0:0:0:
312,132,35294,1,2,0:0:0:0:
420,184,35482,2,0,P|440:148|448:84,2,105.000004005432,0|2|4,0:0|0:0|1:0,0:0:0:0:
256,316,36607,5,2,0:0:0:0:
256,316,36794,2,0,L|148:308,1,105.000004005432,0|0,0:0|0:0,0:0:0:0:
36,312,37357,1,2,0:0:0:0:
92,208,37544,2,0,L|196:215,1,105.000004005432
296,192,38107,2,0,P|288:160|288:136,1,52.5000020027161,2|0,0:0|0:0,0:0:0:0:
456,44,38669,1,0,0:0:0:0:
456,44,38857,2,0,P|454:70|447:95,1,52.5000020027161,2|2,0:0|0:0,0:0:0:0:
460,116,39232,6,0,L|349:110,1,105.000004005432,0|2,0:0|0:0,0:0:0:0:
296,192,39794,2,0,P|284:240|300:296,1,105.000004005432,2|0,0:0|0:0,0:0:0:0:
192,320,40357,1,2,0:0:0:0:
72,300,40544,1,0,0:0:0:0:
192,320,40732,1,2,0:0:0:0:
72,300,40919,2,0,L|64:240,1,52.5000020027161,0|2,0:0|0:0,0:0:0:0:
80,144,41294,2,0,P|133:139|188:136,1,105.000004005432,2|0,0:0|0:0,0:0:0:0:
284,188,41857,1,0,0:0:0:0:
308,192,42044,1,2,0:0:0:0:
332,196,42232,6,0,P|348:140|340:88,1,105.000004005432,4|2,1:0|0:0,0:0:0:0:
416,36,42794,1,0,0:0:0:0:
416,36,43169,1,0,0:0:0:0:
508,56,43357,1,2,0:0:0:0:
488,148,43544,1,0,0:0:0:0:
396,128,43732,2,0,L|344:124,1,52.5000020027161,0|0,0:0|0:0,0:0:0:0:
244,48,44107,2,0,L|296:44,1,52.5000020027161,2|0,0:0|0:0,0:0:0:0:
248,164,44482,2,0,B|108:184|176:148|40:164,1,210.000008010865,4|4,0:0|1:0,0:0:0:0:
72,284,45419,6,0,P|66:312|64:344,2,52.5000020027161,0|2|0,0:0|0:0|0:0,0:0:0:0:
264,248,46169,2,0,L|260:192,2,52.5000020027161,0|2|0,0:0|0:0|0:0,0:0:0:0:
452,284,46919,2,0,P|452:304|445:343,2,52.5000020027161,0|2|2,0:0|0:0|0:0,0:0:0:0:
364,228,47482,6,0,P|336:164|340:52,1,183.750007009506,2|0,0:0|0:0,0:0:0:0:
335,42,48232,6,0,L|411:29,1,62.9999980773926,4|0,1:0|0:0,0:0:0:0:
243,80,48607,2,0,L|110:68,1,125.999996154785,2|2,0:0|0:0,0:0:0:0:
97,79,49357,1,2,0:0:0:0:
97,79,49732,6,0,P|83:100|91:157,1,62.9999980773926,2|0,0:0|0:0,0:0:0:0:
208,265,50107,2,0,P|225:230|198:140,1,125.999996154785,2|0,0:0|0:0,0:0:0:0:
38,272,50857,6,0,P|31:306|45:345,2,62.9999980773926,2|2|0,0:0|0:0|0:0,0:0:0:0:
45,254,51607,5,2,0:0:0:0:
143,134,51794,1,2,0:0:0:0:
131,290,51982,1,0,0:0:0:0:
44,157,52169,1,2,0:0:0:0:
195,222,52357,1,2,0:0:0:0:
112,211,52544,5,0,0:0:0:0:
44,157,52732,2,0,P|32:135|20:98,1,62.9999980773926,0|2,0:0|0:0,0:0:0:0:
160,20,53107,2,0,P|173:47|179:96,1,62.9999980773926,2|2,0:0|0:0,0:0:0:0:
92,79,53482,1,0,0:0:0:0:
99,71,53857,5,2,0:0:0:0:
249,107,54044,1,2,0:0:0:0:
390,140,54232,1,4,1:0:0:0:
390,140,54607,6,0,L|459:122,2,62.9999980773926,2|2|0,0:0|0:0|0:0,0:0:0:0:
376,160,55357,5,2,0:0:0:0:
326,233,55544,1,0,0:0:0:0:
361,314,55732,1,2,0:0:0:0:
447,329,55919,1,0,0:0:0:0:
503,261,56107,1,2,0:0:0:0:
469,179,56294,1,0,0:0:0:0:
410,244,56482,5,2,0:0:0:0:
421,262,56669,1,0,0:0:0:0:
254,262,56857,5,2,0:0:0:0:
270,271,57044,1,2,0:0:0:0:
160,353,57232,5,2,0:0:0:0:
171,345,57607,2,0,L|97:336,1,62.9999980773926,2|2,0:0|0:0,0:0:0:0:
5,281,57982,2,0,P|34:290|138:258,1,125.999996154785,2|2,0:0|0:0,0:0:0:0:
181,201,58544,1,2,0:0:0:0:
183,194,58732,1,2,0:0:0:0:
176,199,58919,1,2,0:0:0:0:
180,207,59107,1,2,0:0:0:0:
188,205,59294,1,2,0:0:0:0:
256,124,59482,6,0,P|241:113|189:96,1,62.9999980773926,2|2,0:0|0:0,0:0:0:0:
263,304,59857,2,0,L|276:218,1,62.9999980773926,2|2,0:0|0:0,0:0:0:0:
180,207,60232,2,0,B|100:197|143:226|36:204,1,125.999996154785,4|2,0:0|0:0,0:0:0:0:
37,289,60794,5,2,0:0:0:0:
105,133,60982,2,0,P|107:114|94:57,1,62.9999980773926,2|0,0:0|0:0,0:0:0:0:
0,34,61357,2,0,P|-2:53|11:110,1,62.9999980773926,2|0,0:0|0:0,0:0:0:0:
246,145,61732,6,0,L|266:11,2,125.999996154785,0|2|2,0:0|0:0|0:0,0:0:0:0:
246,145,62857,1,2,0:0:0:0:
266,230,63044,1,2,0:0:0:0:
266,230,63232,1,2,0:0:0:0:
362,286,63607,5,2,0:0:0:0:
268,232,63794,1,2,0:0:0:0:
268,232,63982,1,2,0:0:0:0:
192,341,64357,5,2,0:0:0:0:
264,233,64544,1,2,0:0:0:0:
264,233,64732,1,2,0:0:0:0:
182,174,65107,5,0,0:0:0:0:
261,229,65294,1,2,0:0:0:0:
323,148,65482,5,2,0:0:0:0:
268,229,65669,1,0,0:0:0:0:
358,289,65857,5,0,0:0:0:0:
271,234,66044,1,2,0:0:0:0:
217,318,66232,5,4,0:0:0:0:
206,329,66607,2,0,L|139:335,1,62.9999980773926,0|2,0:0|0:0,0:0:0:0:
321,360,66982,2,0,L|388:354,1,62.9999980773926,2|2,0:0|0:0,0:0:0:0:
490,290,67357,1,0,0:0:0:0:
427,244,67544,1,2,0:0:0:0:
350,244,67732,1,2,0:0:0:0:
270,284,67919,1,2,0:0:0:0:
193,313,68107,1,0,0:0:0:0:
113,311,68294,1,0,0:0:0:0:
42,268,68482,1,2,0:0:0:0:
34,255,68857,6,0,L|17:187,1,62.9999980773926,6|0,0:0|0:0,0:0:0:0:
14,357,69232,1,4,0:0:0:0:
37,177,69607,6,0,L|26:113,1,62.9999980773926,2|2,0:0|0:0,0:0:0:0:
9,337,69982,1,0,0:0:0:0:
98,359,70169,1,0,0:0:0:0:
183,332,70357,1,2,0:0:0:0:
270,357,70544,5,0,0:0:0:0:
359,330,70732,1,2,0:0:0:0:
389,242,70919,1,0,0:0:0:0:
330,175,71107,6,0,P|308:209|301:255,1,62.9999980773926,2|0,0:0|0:0,0:0:0:0:
471,211,71482,2,0,P|458:186|429:155,1,62.9999980773926
359,330,71857,2,0,P|391:333|442:315,1,62.9999980773926,2|0,0:0|0:0,0:0:0:0:
389,242,72232,6,0,L|264:228,1,125.999996154785,4|2,1:0|0:0,0:0:0:0:
168,224,72794,1,2,0:0:0:0:
72,212,72982,1,0,0:0:0:0:
72,212,73357,2,0,P|60:176|60:148,1,62.9999980773926,2|2,0:0|0:0,0:0:0:0:
140,60,73732,2,0,P|150:89|152:120,1,62.9999980773926,0|2,0:0|0:0,0:0:0:0:
240,176,74107,2,0,L|368:172,1,125.999996154785,2|2,0:0|0:0,0:0:0:0:
460,156,74669,1,0,0:0:0:0:
480,248,74857,1,4,0:0:0:0:
388,264,75044,1,2,0:0:0:0:
368,172,75232,5,2,0:0:0:0:
372,176,75607,1,2,0:0:0:0:
276,152,75794,1,0,0:0:0:0:
180,128,75982,2,0,L|116:132,1,62.9999980773926,0|2,0:0|0:0,0:0:0:0:
64,244,76357,2,0,L|126:240,1,62.9999980773926,2|0,0:0|0:0,0:0:0:0:
224,324,76732,2,0,P|244:292|248:204,1,125.999996154785,2|0,0:0|0:0,0:0:0:0:
312,124,77294,1,0,0:0:0:0:
224,48,77482,2,0,L|156:52,1,62.9999980773926,0|4,0:0|0:0,0:0:0:0:
312,124,77857,2,0,P|372:136|436:132,2,125.999996154785,2|4|2,0:0|1:0|0:0,0:0:0:0:
212,108,78794,5,0,0:0:0:0:
112,124,78982,1,2,0:0:0:0:
40,288,79357,1,2,0:0:0:0:
52,300,79544,1,0,0:0:0:0:
148,316,79732,1,0,0:0:0:0:
160,328,79919,1,2,0:0:0:0:
260,288,80107,2,0,P|316:272|384:276,1,125.999996154785,2|2,0:0|0:0,0:0:0:0:
384,276,80669,1,0,0:0:0:0:
476,320,80857,1,4,0:0:0:0:
476,320,81232,6,0,P|492:256|496:188,1,125.999996154785,2|2,0:0|0:0,0:0:0:0:
388,132,81794,1,0,0:0:0:0:
388,132,81982,2,0,P|372:196|368:264,1,125.999996154785,2|2,0:0|0:0,0:0:0:0:
288,316,82544,1,2,0:0:0:0:
192,284,82732,1,0,0:0:0:0:
192,284,83107,2,0,L|124:288,1,62.9999980773926,0|2,0:0|0:0,0:0:0:0:
80,180,83482,2,0,L|142:176,1,62.9999980773926,0|4,0:0|0:0,0:0:0:0:
256,200,83857,1,2,0:0:0:0:
256,200,84232,6,0,P|240:136|256:76,1,125.999996154785,4|2,1:0|0:0,0:0:0:0:
344,28,84794,1,0,0:0:0:0:
432,80,84982,2,0,P|448:144|432:204,1,125.999996154785,2|2,0:0|0:0,0:0:0:0:
344,280,85544,2,0,L|280:272,2,62.9999980773926,0|2|0,0:0|0:0|0:0,0:0:0:0:
436,340,86107,1,2,0:0:0:0:
440,344,86482,1,2,0:0:0:0:
444,348,86857,2,0,L|508:336,1,62.9999980773926,4|0,0:0|0:0,0:0:0:0:
344,280,87232,6,0,L|216:264,1,125.999996154785,2|2,0:0|0:0,0:0:0:0:
84,288,87794,1,0,0:0:0:0:
216,268,87982,1,2,0:0:0:0:
216,268,88357,1,2,0:0:0:0:
136,200,88544,2,0,P|128:176|124:136,1,62.9999980773926,0|2,0:0|0:0,0:0:0:0:
256,88,88919,1,2,0:0:0:0:
256,88,89107,2,0,P|256:119|248:152,1,62.9999980773926,2|0,0:0|0:0,0:0:0:0:
216,268,89482,5,2,0:0:0:0:
300,224,89669,1,4,0:0:0:0:
396,216,89857,1,0,0:0:0:0:
484,248,90044,1,2,0:0:0:0:
408,308,90232,6,0,P|384:248|396:176,1,125.999996154785,4|2,1:0|0:0,0:0:0:0:
420,92,90794,1,0,0:0:0:0:
420,92,90982,2,0,L|292:84,1,125.999996154785,2|2,0:0|0:0,0:0:0:0:
192,44,91544,1,0,0:0:0:0:
92,96,91732,2,0,L|28:104,1,62.9999980773926,0|2,0:0|0:0,0:0:0:0:
80,208,92107,2,0,L|142:200,1,62.9999980773926,2|0,0:0|0:0,0:0:0:0:
252,240,92482,2,0,P|272:188|264:120,1,125.999996154785,2|4,0:0|0:0,0:0:0:0:
264,120,93232,6,2,B|404:136|332:104|472:120,1,210.000008010865,2|0,0:0|0:0,0:0:0:0:
256,192,94075,12,0,96044,0:0:0:0:
132,256,96232,6,0,P|134:288|124:337,1,70,4|0,1:0|0:0,0:0:0:0:
213,188,96607,2,0,P|242:198|352:175,2,140,0|8|2,1:0|1:0|0:0,0:0:0:0:
174,89,97544,1,2,0:0:0:0:
262,40,97732,6,0,P|269:57|273:118,1,70,0|0,1:0|0:0,0:0:0:0:
80,203,98107,2,0,L|85:63,1,140,0|8,1:0|1:0,0:0:0:0:
95,51,98857,5,2,0:0:0:0:
167,162,99044,1,2,0:0:0:0:
61,281,99232,1,0,1:0:0:0:
3,144,99419,1,0,0:0:0:0:
95,51,99607,2,0,P|129:34|240:58,1,140,0|8,1:0|1:0,0:0:0:0:
226,47,100357,6,0,L|233:147,1,70,2|2,0:0|0:0,0:0:0:0:
245,199,100732,1,0,1:0:0:0:
241,208,100919,1,2,0:0:0:0:
242,295,101107,1,0,1:0:0:0:
246,304,101294,1,0,1:0:0:0:
338,338,101482,2,0,P|348:309|334:263,1,70,8|2,1:0|0:0,0:0:0:0:
178,363,101857,1,4,0:0:0:0:
178,363,102232,6,0,L|103:355,1,70,0|0,1:0|0:0,0:0:0:0:
8,274,102607,2,0,B|101:256|55:290|157:275,1,140,0|8,1:0|1:0,0:0:0:0:
114,186,103169,1,0,0:0:0:0:
145,95,103357,2,0,P|112:89|72:93,1,70,2|2,0:0|0:0,0:0:0:0:
114,186,103732,2,0,L|270:173,2,140,0|0|8,1:0|1:0|1:0,0:0:0:0:
484,174,104857,6,0,P|496:145|492:100,1,70,2|2,0:0|0:0,0:0:0:0:
367,41,105232,2,0,P|347:84|374:184,2,140,0|0|8,1:0|1:0|1:0,0:0:0:0:
367,40,106357,6,0,L|445:33,1,70,0|2,1:0|0:0,0:0:0:0:
266,29,106732,2,0,L|188:36,1,70,0|2,1:0|0:0,0:0:0:0:
37,66,107107,2,0,L|115:59,1,70,0|0,1:0|1:0,0:0:0:0:
19,161,107482,5,8,1:0:0:0:
79,306,107669,1,0,1:0:0:0:
87,217,107857,1,2,0:0:0:0:
2,342,108044,1,2,0:0:0:0:
5,254,108232,6,0,P|53:237|148:264,2,140,4|0|8,1:0|1:0|1:0,0:0:0:0:
5,255,109357,6,0,P|3:223|-7:178,1,70,2|0,0:0|0:0,0:0:0:0:
185,336,109732,2,0,P|216:328|336:339,2,140,0|0|8,1:0|1:0|1:0,0:0:0:0:
185,337,110857,6,0,P|192:299|181:254,1,70,4|2,0:0|0:0,0:0:0:0:
87,188,111232,1,0,1:0:0:0:
87,187,111607,6,0,P|80:225|91:270,1,70,0|2,1:0|0:0,0:0:0:0:
194,135,111982,2,0,P|199:95|190:68,1,70,8|0,1:0|0:0,0:0:0:0:
118,17,112357,1,0,1:0:0:0:
112,25,112544,1,2,0:0:0:0:
30,65,112732,1,0,1:0:0:0:
25,73,112919,1,2,0:0:0:0:
97,150,113107,5,0,1:0:0:0:
92,158,113294,1,0,1:0:0:0:
7,185,113482,1,8,1:0:0:0:
2,193,113669,1,4,0:0:0:0:
136,244,113857,5,2,0:0:0:0:
242,233,114044,1,2,0:0:0:0:
336,220,114232,2,0,B|423:198|375:234|489:206,2,140,4|0|8,1:0|1:0|1:0,0:0:0:0:
328,228,115357,6,0,L|326:300,1,70,2|2,0:0|0:0,0:0:0:0:
204,337,115732,2,0,L|56:349,2,140,0|0|8,1:0|1:0|1:0,0:0:0:0:
216,342,116857,6,0,P|223:308|209:267,1,70,2|2,0:0|0:0,0:0:0:0:
86,183,117232,2,0,L|82:265,1,70,4|0,0:0|0:0,0:0:0:0:
82,252,117607,5,0,1:0:0:0:
45,113,117794,1,2,0:0:0:0:
12,195,117982,1,8,1:0:0:0:
133,123,118169,1,2,0:0:0:0:
45,113,118357,1,2,0:0:0:0:
156,210,118544,1,0,0:0:0:0:
133,123,118732,1,0,1:0:0:0:
82,252,118919,1,0,1:0:0:0:
156,210,119107,1,4,0:0:0:0:
12,195,119294,1,2,0:0:0:0:
85,178,119482,5,8,1:0:0:0:
195,155,119669,1,2,0:0:0:0:
295,162,119857,1,4,0:0:0:0:
386,193,120044,1,2,0:0:0:0:
484,164,120232,6,0,P|493:128|489:92,1,70,4|0,1:0|0:0,0:0:0:0:
386,193,120607,2,0,P|377:229|381:265,1,70,0|0,1:0|1:0,0:0:0:0:
380,261,120982,2,0,P|304:256|240:252,1,140,8|2,1:0|0:0,0:0:0:0:
60,272,121544,1,2,0:0:0:0:
164,192,121732,6,0,P|168:152|160:120,1,70,0|0,1:0|0:0,0:0:0:0:
52,88,122107,2,0,P|48:128|56:160,1,70,0|0,1:0|0:0,0:0:0:0:
76,288,122482,2,0,L|216:280,1,140,8|4,1:0|0:0,0:0:0:0:
400,220,123232,5,0,1:0:0:0:
496,240,123419,1,0,0:0:0:0:
476,336,123607,1,0,1:0:0:0:
380,316,123794,1,0,0:0:0:0:
300,244,123982,2,0,P|280:184|280:108,1,140,8|2,1:0|0:0,0:0:0:0:
380,56,124544,1,2,0:0:0:0:
380,56,124732,6,0,L|449:52,1,70,0|2,1:0|0:0,0:0:0:0:
384,152,125107,1,0,1:0:0:0:
280,108,125294,1,2,0:0:0:0:
188,48,125482,2,0,L|116:44,1,70,8|0,1:0|0:0,0:0:0:0:
56,164,125857,2,0,L|128:160,1,70,2|2,0:0|0:0,0:0:0:0:
384,152,126232,6,0,P|384:216|372:304,1,140,0|0,1:0|1:0,0:0:0:0:
192,340,126982,2,0,P|192:276|204:188,1,140,8|2,1:0|0:0,0:0:0:0:
168,92,127544,1,2,0:0:0:0:
76,152,127732,6,0,L|68:224,1,70,0|0,1:0|0:0,0:0:0:0:
24,312,128107,2,0,P|60:320|92:316,1,70,0|0,1:0|0:0,0:0:0:0:
196,224,128482,2,0,P|264:212|336:224,1,140,8|4,1:0|0:0,0:0:0:0:
448,332,129232,6,0,P|380:344|308:332,2,140,0|0|8,1:0|1:0|1:0,0:0:0:0:
504,252,130169,1,2,0:0:0:0:
412,220,130357,1,2,0:0:0:0:
472,144,130544,1,0,1:0:0:0:
380,108,130732,6,0,L|308:112,1,70,0|0,1:0|1:0,0:0:0:0:
200,144,131107,2,0,P|188:108|188:64,1,70,0|2,1:0|0:0,0:0:0:0:
296,200,131482,2,0,P|296:260|272:340,1,140,8|2,1:0|0:0,0:0:0:0:
84,268,132044,1,2,0:0:0:0:
84,268,132138,1,0,0:0:0:0:
84,268,132232,6,0,P|63:201|61:131,1,140,4|0,1:0|1:0,0:0:0:0:
160,56,132794,1,0,0:0:0:0:
160,56,132982,2,0,L|300:64,1,140,8|2,1:0|0:0,0:0:0:0:
434,48,133544,1,2,0:0:0:0:
489,129,133732,5,0,1:0:0:0:
432,208,133919,1,0,0:0:0:0:
340,176,134107,1,0,1:0:0:0:
340,80,134294,1,0,0:0:0:0:
408,128,134482,2,0,P|416:192|396:268,1,140,8|4,1:0|0:0,0:0:0:0:
180,272,135232,6,0,L|168:204,1,70,0|0,1:0|0:0,0:0:0:0:
56,260,135607,2,0,L|68:328,1,70,0|0,1:0|0:0,0:0:0:0:
252,336,135982,2,0,P|318:334|392:340,1,140,8|2,1:0|0:0,0:0:0:0:
480,236,136544,1,2,0:0:0:0:
480,236,136732,6,0,L|400:240,1,70,0|2,1:0|0:0,0:0:0:0:
316,236,137107,2,0,P|304:196|304:164,1,70,0|2,1:0|0:0,0:0:0:0:
392,88,137482,1,8,1:0:0:0:
304,168,137669,1,0,0:0:0:0:
192,128,137857,1,2,0:0:0:0:
284,52,138044,1,0,0:0:0:0:
192,128,138232,6,0,L|52:120,1,140,0|0,1:0|1:0,0:0:0:0:
140,324,138982,2,0,L|280:332,1,140,8|2,1:0|0:0,0:0:0:0:
468,308,139544,1,2,0:0:0:0:
376,228,139732,6,0,L|304:224,1,70,0|0,1:0|0:0,0:0:0:0:
348,112,140107,2,0,L|417:115,1,70,0|0,1:0|0:0,0:0:0:0:
248,160,140482,2,0,P|220:100|224:24,1,140,8|4,1:0|0:0,0:0:0:0:
444,196,141232,6,0,P|447:265|418:328,2,140,0|0|8,1:0|1:0|1:0,0:0:0:0:
352,156,142169,1,2,0:0:0:0:
204,180,142357,1,2,0:0:0:0:
356,152,142544,1,0,0:0:0:0:
200,184,142732,6,0,P|128:176|60:172,1,140,0|0,1:0|1:0,0:0:0:0:
152,320,143482,2,0,P|224:328|292:332,1,140,8|2,1:0|0:0,0:0:0:0:
388,320,144044,1,0,0:0:0:0:
484,304,144232,5,4,1:0:0:0:
489,302,144607,1,0,1:0:0:0:
495,300,144982,1,8,1:0:0:0:
502,298,145357,5,2,0:0:0:0:
390,297,145544,1,2,0:0:0:0:
277,292,145732,2,0,P|228:287|125:289,2,140,0|0|8,1:0|1:0|1:0,0:0:0:0:
40,269,146669,1,2,0:0:0:0:
97,195,146857,2,0,L|86:118,1,70,2|2,0:0|0:0,0:0:0:0:
3,31,147232,6,0,L|-13:103,1,70,0|0,1:0|0:0,0:0:0:0:
207,264,147607,2,0,L|191:192,1,70,0|0,1:0|1:0,0:0:0:0:
45,364,147982,1,8,1:0:0:0:
54,359,148357,1,8,1:0:0:0:
135,337,148544,1,0,1:0:0:0:
221,348,148732,5,0,1:0:0:0:
307,370,148919,1,2,0:0:0:0:
259,202,149107,5,8,1:0:0:0:
283,285,149294,1,2,0:0:0:0:
371,138,149482,5,8,1:0:0:0:
349,224,149669,1,2,0:0:0:0:
491,147,149857,5,4,0:0:0:0:
432,200,150044,1,0,1:0:0:0:
481,38,150232,5,4,1:0:0:0:
491,147,150607,1,0,1:0:0:0:
496,266,150982,1,8,1:0:0:0:
489,275,151357,6,0,L|411:282,1,70,2|2,0:0|0:0,0:0:0:0:
256,177,151732,2,0,P|288:166|398:179,2,140,0|0|8,1:0|1:0|1:0,0:0:0:0:
183,249,152669,1,2,0:0:0:0:
225,345,152857,6,0,P|245:328|270:287,1,70,2|2,0:0|0:0,0:0:0:0:
126,168,153232,2,0,P|103:191|86:244,1,70,0|0,1:0|0:0,0:0:0:0:
269,291,153607,2,0,L|349:283,1,70,0|0,1:0|1:0,0:0:0:0:
481,195,153982,2,0,B|410:173|412:211|336:187,1,140,8|8,1:0|1:0,0:0:0:0:
271,97,154544,5,0,0:0:0:0:
368,37,154732,2,0,L|381:120,1,70,0|0,1:0|1:0,0:0:0:0:
195,221,155107,2,0,L|182:138,1,70,8|0,1:0|0:0,0:0:0:0:
332,251,155482,1,8,1:0:0:0:
336,292,155669,1,2,0:0:0:0:
340,333,155857,1,4,0:0:0:0:
345,374,156044,1,0,1:0:0:0:
332,251,156232,6,0,L|486:229,2,140,4|0|8,1:0|1:0|1:0,0:0:0:0:
332,251,157357,1,0,1:0:0:0:
238,222,157544,1,0,0:0:0:0:
94,253,157732,6,0,P|78:226|68:177,1,70,2|0,0:0|1:0,0:0:0:0:
266,75,158107,2,0,P|277:106|281:154,1,70,0|0,1:0|0:0,0:0:0:0:
166,153,158482,2,0,L|178:0,1,140,8|2,1:0|0:0,0:0:0:0:
176,13,159044,5,0,0:0:0:0:
81,81,159232,2,0,P|66:88|-5:70,1,70,0|0,1:0|0:0,0:0:0:0:
259,147,159607,2,0,P|282:145|338:165,1,70,0|0,1:0|1:0,0:0:0:0:
396,206,159982,1,8,1:0:0:0:
452,276,160169,1,2,0:0:0:0:
476,364,160357,1,4,0:0:0:0:
392,340,160544,5,2,0:0:0:0:
500,208,160732,2,0,L|513:138,1,70,0|0,1:0|1:0,0:0:0:0:
370,345,161107,2,0,L|289:355,1,70,0|0,1:0|0:0,0:0:0:0:
232,272,161482,2,0,P|194:283|89:258,1,140,12|2,1:0|0:0,0:0:0:0:
40,189,162044,1,2,0:0:0:0:
80,98,162232,6,0,P|99:112|133:159,1,70,4|0,1:0|0:0,0:0:0:0:
15,338,162607,2,0,L|-2:265,1,70,4|0,0:0|1:0,0:0:0:0:
166,356,162982,2,0,B|254:329|208:377|313:346,1,140,8|8,1:0|1:0,0:0:0:0:
507,245,163544,1,4,0:0:0:0:
413,274,163732,1,0,1:0:0:0:
314,272,163919,1,0,1:0:0:0:
216,258,164107,1,4,0:0:0:0:
137,199,164294,1,0,0:0:0:0:
92,111,164482,6,0,L|96:26,1,70,12|0,1:0|0:0,0:0:0:0:
318,133,164857,2,0,L|314:218,1,70,8|0,1:0|0:0,0:0:0:0:
161,324,165232,1,4,1:0:0:0:
256,192,165325,12,2,168232,0:0:0:0:
52,284,168794,5,0,0:0:0:0:
56,288,169357,1,0,0:0:0:0:
148,320,169544,1,2,0:0:0:0:
152,324,169919,5,0,0:0:0:0:
224,280,170107,1,0,0:0:0:0:
308,268,170294,1,0,0:0:0:0:
392,284,170482,1,2,0:0:0:0:
396,288,170857,5,0,0:0:0:0:
468,328,171044,2,0,P|484:292|488:224,1,105.000004005432,2|0,0:0|0:0,0:0:0:0:
500,132,171607,1,2,0:0:0:0:
412,164,171794,1,0,0:0:0:0:
488,228,171982,1,0,0:0:0:0:
500,132,172169,1,2,0:0:0:0:
412,164,172357,1,0,0:0:0:0:
324,200,172544,6,0,P|308:160|308:96,1,105.000004005432,0|0,0:0|0:0,0:0:0:0:
307,98,173107,1,2,0:0:0:0:
376,32,173294,1,0,0:0:0:0:
376,32,173669,5,0,0:0:0:0:
284,44,173857,1,2,0:0:0:0:
192,60,174044,1,0,0:0:0:0:
48,160,174232,6,0,B|152:144|104:176|208:160,1,157.500006008148,4|0,0:0|0:0,0:0:0:0:
456,208,175357,1,0,0:0:0:0:
368,236,175544,1,2,0:0:0:0:
368,236,175919,2,0,P|360:208|360:176,1,52.5000020027161,0|0,0:0|0:0,0:0:0:0:
284,128,176294,1,2,0:0:0:0:
284,128,176669,6,0,L|224:124,1,52.5000020027161,0|2,0:0|0:0,0:0:0:0:
112,220,177044,2,0,L|164:216,1,52.5000020027161
256,232,177419,1,0,0:0:0:0:
240,324,177607,1,2,0:0:0:0:
148,308,177794,1,0,0:0:0:0:
152,312,178169,5,0,0:0:0:0:
240,324,178357,1,2,0:0:0:0:
332,340,178544,1,0,0:0:0:0:
456,252,178919,1,0,0:0:0:0:
368,240,179107,1,0,0:0:0:0:
276,224,179294,1,2,0:0:0:0:
280,228,179669,5,0,0:0:0:0:
188,180,179857,1,2,0:0:0:0:
84,192,180044,1,0,0:0:0:0:
84,192,180232,6,0,P|64:148|60:40,1,157.500006008148,4|0,0:0|0:0,0:0:0:0:
337,77,181169,1,0,0:0:0:0:
404,136,181357,1,2,0:0:0:0:
320,163,181544,1,0,0:0:0:0:
172,220,181919,1,0,0:0:0:0:
98,269,182107,1,2,0:0:0:0:
179,307,182294,1,0,0:0:0:0:
376,316,182669,5,0,0:0:0:0:
420,244,182857,1,2,0:0:0:0:
440,164,183044,1,0,0:0:0:0:
440,80,183232,1,0,0:0:0:0:
440,164,183419,1,2,0:0:0:0:
420,244,183607,1,0,0:0:0:0:
376,316,183794,2,0,L|320:312,1,52.5000020027161,0|2,0:0|0:0,0:0:0:0:
264,212,184169,2,0,L|320:220,1,52.5000020027161
224,308,184544,1,2,0:0:0:0:
228,312,184919,5,0,0:0:0:0:
160,248,185107,1,0,0:0:0:0:
68,260,185294,1,2,0:0:0:0:
72,264,185669,5,0,0:0:0:0:
160,248,185857,1,2,0:0:0:0:
188,156,186044,1,0,0:0:0:0:
188,156,186232,6,0,P|264:156|340:124,1,157.500006008148,4|0,0:0|0:0,0:0:0:0:
460,80,187169,2,0,L|516:84,2,52.5000020027161,0|0|2,0:0|0:0|0:0,0:0:0:0:
336,192,187919,2,0,L|272:188,2,52.5000020027161,0|2|0,0:0|0:0|0:0,0:0:0:0:
408,328,188669,1,2,0:0:0:0:
500,312,188857,1,0,0:0:0:0:
408,328,189044,1,0,0:0:0:0:
316,348,189232,6,0,P|280:292|272:152,1,210.000008010865,4|0,0:0|0:0,0:0:0:0:
256,192,190075,12,4,192232,0:0:0:0:
43,178,192607,5,2,0:0:0:0:
52,184,192794,2,0,B|175:169,1,105.000004005432,2|0,0:0|0:0,0:0:0:0:
238,218,193357,1,2,0:0:0:0:
247,224,193544,6,0,B|370:209,1,105.000004005432,2|0,0:0|0:0,0:0:0:0:
449,223,194107,2,0,P|461:195|453:150,1,52.5000020027161,2|2,0:0|0:0,0:0:0:0:
371,128,194482,1,2,0:0:0:0:
377,136,194857,5,2,0:0:0:0:
510,289,195044,1,2,0:0:0:0:
505,296,195419,5,0,0:0:0:0:
418,317,195607,1,2,0:0:0:0:
333,344,195794,1,2,0:0:0:0:
422,330,195982,1,2,0:0:0:0:
335,334,196169,1,0,0:0:0:0:
245,330,196357,1,2,0:0:0:0:
237,337,196544,6,0,L|118:344,1,105.000004005432,2|0,0:0|0:0,0:0:0:0:
42,341,197107,1,2,0:0:0:0:
11,257,197294,2,0,P|-6:226|4:156,1,105.000004005432,2|0,0:0|0:0,0:0:0:0:
146,152,197857,2,0,P|156:190|152:217,1,52.5000020027161,2|2,0:0|0:0,0:0:0:0:
72,192,198232,6,0,L|64:75,1,105.000004005432,4|2,2:0|0:0,0:0:0:0:
0,28,198794,1,2,0:0:0:0:
4,36,199357,5,2,0:0:0:0:
135,60,199544,2,0,L|246:49,1,105.000004005432,2|0,0:0|0:0,0:0:0:0:
60,91,200107,5,2,0:0:0:0:
280,109,200294,2,0,L|408:96,1,105.000004005432,2|0,0:0|0:0,0:0:0:0:
384,98,200857,6,0,P|388:60|370:38,1,52.5000020027161,2|2,0:0|0:0,0:0:0:0:
313,188,201232,2,0,P|309:226|327:248,1,52.5000020027161,4|2,0:0|0:0,0:0:0:0:
379,300,201607,1,2,0:0:0:0:
393,305,201794,2,0,L|503:286,1,105.000004005432,2|0,0:0|0:0,0:0:0:0:
495,197,202357,6,0,L|432:209,1,52.5000020027161,2|2,0:0|0:0,0:0:0:0:
255,344,202732,2,0,L|318:332,1,52.5000020027161,2|0,0:0|0:0,0:0:0:0:
359,182,203107,6,0,L|308:192,1,52.5000020027161,2|2,0:0|0:0,0:0:0:0:
386,349,203482,2,0,L|502:333,1,105.000004005432,2|2,0:0|0:0,0:0:0:0:
280,336,204044,1,2,0:0:0:0:
177,314,204232,6,0,P|156:274|174:179,1,140,4|2,1:0|0:0,0:0:0:0:
320,141,204794,1,2,0:0:0:0:
320,141,205357,1,2,0:0:0:0:
330,229,205544,1,2,0:0:0:0:
184,359,205919,5,2,0:0:0:0:
174,271,206106,1,2,0:0:0:0:
157,182,206294,1,2,0:0:0:0:
159,184,206669,5,0,0:0:0:0:
330,235,206857,1,2,0:0:0:0:
177,269,207044,1,2,0:0:0:0:
305,148,207232,1,4,0:0:0:0:
246,218,207419,1,0,0:0:0:0:
219,121,207607,5,2,0:0:0:0:
246,218,207794,1,2,0:0:0:0:
159,182,207982,5,2,0:0:0:0:
246,218,208169,1,0,0:0:0:0:
174,272,208357,5,2,0:0:0:0:
246,218,208544,1,2,0:0:0:0:
264,294,208732,5,0,0:0:0:0:
246,218,208919,1,2,0:0:0:0:
324,233,209107,5,2,0:0:0:0:
246,218,209294,1,2,0:0:0:0:
241,224,209669,1,2,0:0:0:0:
333,373,209857,2,0,P|339:362|339:321,1,52.5000020027161,2|2,0:0|0:0,0:0:0:0:
235,361,210232,6,0,B|143:346|179:382|83:362,1,140,4|2,0:0|0:0,0:0:0:0:
34,288,210794,1,2,0:0:0:0:
34,288,211357,1,2,0:0:0:0:
112,259,211544,1,2,0:0:0:0:
196,264,211732,1,2,0:0:0:0:
30,293,212107,5,2,0:0:0:0:
108,262,212294,1,2,0:0:0:0:
192,268,212482,1,2,0:0:0:0:
268,297,212669,1,0,0:0:0:0:
352,303,212857,1,2,0:0:0:0:
430,272,213044,1,2,0:0:0:0:
478,163,213232,6,0,L|502:6,1,140,4|2,0:0|0:0,0:0:0:0:
417,80,213794,1,2,0:0:0:0:
413,85,214357,1,2,0:0:0:0:
478,162,214544,1,2,0:0:0:0:
472,164,214919,5,2,0:0:0:0:
396,225,215107,1,2,0:0:0:0:
460,297,215294,1,2,0:0:0:0:
388,362,215482,6,0,L|265:377,1,122.5,6|0,0:0|0:0,0:0:0:0:
266,376,216232,6,0,P|248:328|252:252,1,125.999996154785,4|2,1:0|0:0,0:0:0:0:
204,180,216794,1,0,0:0:0:0:
204,180,216982,2,0,L|76:176,1,125.999996154785,0|0,0:0|0:0,0:0:0:0:
192,60,217732,2,0,L|258:61,1,62.9999980773926,2|0,0:0|0:0,0:0:0:0:
336,112,218107,2,0,P|324:168|336:236,1,125.999996154785,0|0,0:0|0:0,0:0:0:0:
335,235,218857,1,2,0:0:0:0:
448,220,219044,1,2,0:0:0:0:
335,235,219232,6,0,L|208:228,1,125.999996154785
28,288,219982,1,2,0:0:0:0:
112,268,220169,1,0,0:0:0:0:
88,184,220357,1,2,0:0:0:0:
4,204,220544,1,2,0:0:0:0:
172,204,220732,2,0,P|192:144|188:80,1,125.999996154785,2|0,0:0|0:0,0:0:0:0:
272,44,221294,2,0,L|336:40,2,62.9999980773926,0|2|2,0:0|0:0|0:0,0:0:0:0:
188,84,221857,1,0,0:0:0:0:
328,144,222232,6,0,B|404:128|384:152|456:136,1,125.999996154785,4|2,0:0|0:0,0:0:0:0:
484,228,222794,1,0,0:0:0:0:
484,228,222982,2,0,P|492:288|472:352,1,125.999996154785
284,336,223732,1,2,0:0:0:0:
380,344,223919,1,0,0:0:0:0:
280,340,224107,2,0,P|261:280|269:218,1,125.999996154785
172,140,224669,2,0,L|180:208,1,62.9999980773926,0|2,0:0|0:0,0:0:0:0:
128,292,225044,1,2,0:0:0:0:
64,216,225232,6,0,P|52:144|52:76,1,125.999996154785,0|0,0:0|0:0,0:0:0:0:
124,28,225794,1,0,0:0:0:0:
196,88,225982,2,0,L|260:84,1,62.9999980773926,2|0,0:0|0:0,0:0:0:0:
224,172,226357,2,0,L|161:175,1,62.9999980773926,2|2,0:0|0:0,0:0:0:0:
320,164,226732,2,0,P|336:220|320:284,1,125.999996154785,0|0,0:0|0:0,0:0:0:0:
408,296,227294,1,2,0:0:0:0:
496,308,227482,1,0,0:0:0:0:
500,312,227857,1,4,0:0:0:0:
504,316,228232,6,0,P|436:319|376:324,1,125.999996154785,4|2,1:0|0:0,0:0:0:0:
284,312,228794,1,0,0:0:0:0:
284,312,228982,2,0,P|272:256|276:188,1,125.999996154785
276,188,229732,2,0,P|244:188|208:184,1,62.9999980773926,2|2,0:0|0:0,0:0:0:0:
136,128,230107,2,0,P|129:88|128:64,1,62.9999980773926,0|0,0:0|0:0,0:0:0:0:
44,144,230482,2,0,P|52:200|52:272,1,125.999996154785,0|2,0:0|0:0,0:0:0:0:
116,336,231044,1,0,0:0:0:0:
116,336,231232,6,0,L|244:328,1,125.999996154785,2|0,0:0|0:0,0:0:0:0:
328,320,231794,1,0,0:0:0:0:
408,260,231982,1,2,0:0:0:0:
504,288,232169,1,0,0:0:0:0:
424,352,232357,1,2,0:0:0:0:
244,292,232732,6,0,P|224:232|232:168,1,125.999996154785,0|2,0:0|0:0,0:0:0:0:
172,104,233294,1,0,0:0:0:0:
120,32,233482,1,2,0:0:0:0:
36,52,233669,1,4,0:0:0:0:
28,140,233857,1,0,0:0:0:0:
112,172,234044,1,2,0:0:0:0:
272,188,234232,6,0,P|328:168|392:176,1,125.999996154785,4|2,0:0|0:0,0:0:0:0:
460,264,234794,1,0,0:0:0:0:
460,264,234982,2,0,P|404:284|340:276,1,125.999996154785
136,320,235732,6,0,P|127:247|124:192,1,125.999996154785,2|2,0:0|0:0,0:0:0:0:
224,96,236294,1,0,0:0:0:0:
224,96,236482,2,0,P|233:169|236:224,2,125.999996154785,0|4|0,0:0|0:0|0:0,0:0:0:0:
440,144,237607,5,2,0:0:0:0:
364,200,237794,1,0,0:0:0:0:
448,244,237982,1,0,0:0:0:0:
364,200,238169,1,0,0:0:0:0:
272,172,238357,1,2,0:0:0:0:
176,168,238544,1,0,0:0:0:0:
84,180,238732,5,0,0:0:0:0:
80,184,239107,1,2,0:0:0:0:
76,188,239482,1,0,0:0:0:0:
24,276,239669,1,0,0:0:0:0:
100,344,239857,1,2,0:0:0:0:
192,300,240044,1,0,0:0:0:0:
172,200,240232,5,4,1:0:0:0:
172,200,240607,1,2,0:0:0:0:
102,263,240794,1,2,0:0:0:0:
192,300,240982,1,2,0:0:0:0:
186,289,241169,1,0,0:0:0:0:
101,345,241357,6,0,P|119:362|166:377,1,62.9999980773926,2|2,0:0|0:0,0:0:0:0:
228,251,241732,2,0,L|87:264,2,125.999996154785,2|2|2,0:0|0:0|0:0,0:0:0:0:
228,251,242857,1,4,0:0:0:0:
308,265,243044,1,2,0:0:0:0:
388,280,243232,1,2,0:0:0:0:
391,275,243607,5,2,0:0:0:0:
357,196,243794,1,2,0:0:0:0:
446,225,243982,5,2,0:0:0:0:
350,192,244169,1,0,0:0:0:0:
441,153,244357,5,2,0:0:0:0:
338,189,244544,1,2,0:0:0:0:
390,108,244732,5,2,0:0:0:0:
326,189,244919,1,2,0:0:0:0:
323,100,245107,5,2,0:0:0:0:
315,193,245294,1,2,0:0:0:0:
258,126,245482,5,4,0:0:0:0:
305,203,245669,1,2,0:0:0:0:
474,296,245857,1,2,0:0:0:0:
497,207,246044,1,2,0:0:0:0:
418,228,246232,6,0,L|434:375,1,125.999996154785,4|2,1:1|0:0,0:0:0:0:
431,353,246794,1,2,0:0:0:0:
512,318,246982,1,2,0:0:0:0:
512,318,247357,5,2,0:0:0:0:
392,313,247544,1,2,0:0:0:0:
272,305,247732,2,0,P|271:329|286:372,1,62.9999980773926,2|0,0:0|0:0,0:0:0:0:
392,313,248107,2,0,P|402:269|376:172,1,125.999996154785,2|2,0:0|0:0,0:0:0:0:
322,140,248669,1,2,0:0:0:0:
241,124,248857,1,4,0:0:0:0:
163,149,249044,1,0,0:0:0:0:
127,223,249232,1,4,2:0:0:0:
127,223,249607,5,2,0:0:0:0:
208,224,249794,1,2,0:0:0:0:
247,152,249982,1,2,0:0:0:0:
206,81,250169,1,0,0:0:0:0:
124,76,250357,1,2,0:0:0:0:
85,147,250544,1,2,0:0:0:0:
163,149,250732,5,0,0:0:0:0:
283,80,250919,1,2,0:0:0:0:
221,21,251107,5,2,0:0:0:0:
211,95,251294,1,2,0:0:0:0:
241,164,251482,1,6,0:0:0:0:
274,231,251669,1,0,0:0:0:0:
279,306,251857,2,0,P|277:333|262:380,1,62.9999980773926,2|2,0:0|0:0,0:0:0:0:
267,367,252232,6,0,L|128:377,1,125.999996154785,4|2,1:0|0:0,0:0:0:0:
76,337,252794,1,2,0:0:0:0:
13,293,252982,1,2,0:0:0:0:
13,293,253357,6,0,P|0:268|-2:231,1,62.9999980773926,2|2,0:0|0:0,0:0:0:0:
162,169,253732,2,0,P|175:194|177:231,1,62.9999980773926,2|2,0:0|0:0,0:0:0:0:
102,277,254107,6,0,P|90:251|93:218,1,62.9999980773926,2|0,0:0|0:0,0:0:0:0:
263,189,254482,2,0,P|279:235|265:326,1,125.999996154785,2|4,0:0|0:0,0:0:0:0:
184,257,255044,1,2,0:0:0:0:
192,245,255232,6,0,L|342:232,1,125.999996154785,4|2,2:0|0:0,0:0:0:0:
402,228,255794,1,2,0:0:0:0:
489,218,255982,2,0,P|493:204|472:147,1,62.9999980773926,2|0,0:0|0:0,0:0:0:0:
402,228,256357,2,0,P|398:242|419:299,1,62.9999980773926,2|2,0:0|0:0,0:0:0:0:
492,305,256732,5,2,0:0:0:0:
486,297,256919,1,0,0:0:0:0:
376,361,257107,1,2,0:0:0:0:
299,316,257294,1,2,0:0:0:0:
214,349,257482,1,6,0:0:0:0:
299,316,257669,1,2,0:0:0:0:
376,361,257857,1,2,0:0:0:0:
492,305,258044,1,0,0:0:0:0:
486,297,258232,6,0,L|499:155,1,125.999996154785,4|2,1:0|0:0,0:0:0:0:
466,88,258794,1,2,0:0:0:0:
412,17,258982,2,0,P|397:35|382:80,1,62.9999980773926,2|0,0:0|0:0,0:0:0:0:
466,88,259357,5,2,0:0:0:0:
483,82,259544,1,2,0:0:0:0:
301,62,259732,1,2,0:0:0:0:
220,78,259919,1,2,0:0:0:0:
242,156,260107,1,2,0:0:0:0:
322,140,260294,1,0,0:0:0:0:
139,122,260482,2,0,P|109:115|0:135,2,125.999996154785,2|4|4,0:0|0:0|1:0,0:0:0:0:
148,133,261982,5,2,0:0:0:0:
154,144,262732,1,2,0:0:0:0:
160,156,263482,1,2,0:0:0:0:
160,156,263857,1,6,0:0:0:0:
160,156,264232,6,0,P|227:152|304:152,1,140,4|0,1:0|1:0,0:0:0:0:
420,276,264982,2,0,P|352:279|276:280,1,140,8|2,1:0|0:0,0:0:0:0:
184,300,265544,1,2,0:0:0:0:
88,272,265732,2,0,P|80:236|80:200,1,70,0|0,1:0|0:0,0:0:0:0:
160,156,266107,2,0,L|232:160,1,70,0|0,1:0|0:0,0:0:0:0:
320,212,266482,2,0,P|336:152|328:76,1,140,8|4,1:0|0:0,0:0:0:0:
332,80,267232,6,0,L|404:76,1,70,0|0,1:0|0:0,0:0:0:0:
256,36,267607,2,0,L|112:28,1,140,0|8,1:0|1:0,0:0:0:0:
4,52,268169,1,0,0:0:0:0:
116,28,268357,1,2,0:0:0:0:
4,52,268544,1,0,0:0:0:0:
40,152,268732,6,0,P|32:216|60:284,1,140,0|0,1:0|1:0,0:0:0:0:
120,356,269294,1,2,0:0:0:0:
192,312,269482,1,8,1:0:0:0:
276,296,269669,1,2,0:0:0:0:
360,304,269857,1,2,0:0:0:0:
440,328,270044,1,0,0:0:0:0:
360,304,270232,6,0,P|352:236|352:164,1,140,0|0,1:0|1:0,0:0:0:0:
224,56,270982,2,0,P|232:124|232:196,1,140,8|2,1:0|0:0,0:0:0:0:
276,296,271544,1,2,0:0:0:0:
192,312,271732,2,0,L|52:304,1,140,0|0,1:0|1:0,0:0:0:0:
20,224,272294,1,0,0:0:0:0:
20,224,272482,2,0,P|8:188|12:148,1,70,8|0,1:0|0:0,0:0:0:0:
108,88,272857,2,0,P|120:124|116:164,1,70,4|0,0:0|0:0,0:0:0:0:
208,224,273232,6,0,L|352:216,2,140,0|0|8,1:0|1:0|1:0,0:0:0:0:
172,132,274169,1,0,0:0:0:0:
264,104,274357,2,0,L|340:100,1,70,2|0,0:0|0:0,0:0:0:0:
420,148,274732,2,0,P|440:214|420:280,1,140,0|0,1:0|1:0,0:0:0:0:
340,336,275294,1,2,0:0:0:0:
340,336,275482,2,0,L|200:332,1,140,8|2,1:0|0:0,0:0:0:0:
44,212,276232,6,0,L|184:216,2,140,4|0|8,1:0|1:0|1:0,0:0:0:0:
208,104,277357,1,2,0:0:0:0:
304,108,277544,1,2,0:0:0:0:
400,120,277732,2,0,P|400:149|396:192,1,70,0|0,1:0|0:0,0:0:0:0:
272,272,278107,2,0,P|271:242|276:200,1,70,0|0,1:0|0:0,0:0:0:0:
208,104,278482,2,0,L|132:100,1,70,8|0,1:0|0:0,0:0:0:0:
48,136,278857,2,0,P|40:188|56:240,1,105,4|0,0:0|0:0,0:0:0:0:
44,252,279232,6,0,L|185:242,1,140,0|0,1:0|1:0,0:0:0:0:
424,304,279982,2,0,P|436:236|432:160,1,140,8|2,1:0|0:0,0:0:0:0:
360,72,280544,1,2,0:0:0:0:
360,72,280732,2,0,L|268:68,1,70,0|0,1:0|0:0,0:0:0:0:
244,156,281107,2,0,L|336:160,1,70,0|2,1:0|0:0,0:0:0:0:
332,256,281482,2,0,P|336:288|328:328,1,70,8|2,1:0|0:0,0:0:0:0:
232,348,281857,1,2,0:0:0:0:
148,340,282044,1,0,0:0:0:0:
64,332,282232,6,0,P|48:276|48:192,1,140,0|0,1:0|1:0,0:0:0:0:
164,72,282982,1,8,1:0:0:0:
248,88,283169,1,0,0:0:0:0:
232,172,283357,1,2,0:0:0:0:
148,156,283544,1,2,0:0:0:0:
332,104,283732,5,0,1:0:0:0:
336,108,284107,1,0,1:0:0:0:
340,112,284482,2,0,P|412:108|480:108,2,140,8|4|0,1:0|0:0|1:0,0:0:0:0:
272,184,285419,5,0,0:0:0:0:
180,152,285607,2,0,P|104:148|40:148,1,140,0|8,1:0|1:0,0:0:0:0:
48,244,286169,1,0,0:0:0:0:
148,252,286357,1,2,0:0:0:0:
244,256,286544,1,0,0:0:0:0:
148,252,286732,6,0,P|142:284|144:324,1,70,0|0,1:0|0:0,0:0:0:0:
328,288,287107,2,0,P|333:255|332:216,1,70,0|0,1:0|0:0,0:0:0:0:
284,132,287482,5,8,1:0:0:0:
352,64,287669,1,0,0:0:0:0:
440,104,287857,1,2,0:0:0:0:
432,200,288044,1,2,0:0:0:0:
332,218,288232,5,4,1:0:0:0:
337,211,288607,1,0,1:0:0:0:
347,202,288982,1,8,1:0:0:0:
433,155,289169,1,0,0:0:0:0:
485,238,289357,1,2,0:0:0:0:
399,285,289544,1,2,0:0:0:0:
408,216,289732,5,0,1:0:0:0:
411,220,290107,1,0,1:0:0:0:
414,225,290482,1,8,1:0:0:0:
364,304,290669,1,2,0:0:0:0:
292,362,290857,2,0,L|163:371,1,105,4|0,0:0|0:0,0:0:0:0:
175,375,291232,6,0,P|161:346|170:299,1,70,0|0,1:0|0:0,0:0:0:0:
333,187,291607,2,0,P|347:216|338:263,1,70,0|2,1:0|0:0,0:0:0:0:
260,233,291982,2,0,B|167:214|200:258|99:232,1,140,8|8,1:0|1:0,0:0:0:0:
40,183,292544,1,2,0:0:0:0:
79,92,292732,2,0,P|108:114|125:155,1,70,0|2,1:0|0:0,0:0:0:0:
40,183,293107,2,0,L|21:24,1,140,8|8,1:0|1:0,0:0:0:0:
23,43,293669,1,2,0:0:0:0:
8,263,293857,1,6,0:0:0:0:
8,263,294232,6,0,P|68:270|120:206,1,140,4|0,1:0|1:0,0:0:0:0:
41,183,294794,1,0,0:0:0:0:
38,196,294982,2,0,L|52:346,1,140,8|2,1:0|0:0,0:0:0:0:
51,335,295544,5,2,0:0:0:0:
107,256,295732,1,0,1:0:0:0:
41,183,295919,1,0,0:0:0:0:
0,265,296107,1,0,1:0:0:0:
70,328,296294,1,0,0:0:0:0:
105,243,296482,1,8,1:0:0:0:
31,194,296669,1,0,0:0:0:0:
0,276,296857,1,4,0:0:0:0:
176,331,297044,1,0,0:0:0:0:
263,362,297232,6,0,P|299:355|416:357,1,140,0|0,1:0|1:0,0:0:0:0:
473,317,297794,1,0,1:0:0:0:
263,361,297982,2,0,P|229:366|189:361,1,70,8|0,1:0|0:0,0:0:0:0:
367,342,298357,1,8,1:0:0:0:
473,317,298544,1,2,0:0:0:0:
447,206,298732,1,0,1:0:0:0:
341,229,298919,1,0,1:0:0:0:
504,254,299107,5,8,1:0:0:0:
431,271,299294,1,0,0:0:0:0:
383,223,299482,1,8,1:0:0:0:
400,158,299669,1,2,0:0:0:0:
467,142,299857,1,4,0:0:0:0:
512,189,300044,1,2,0:0:0:0:
447,206,300232,6,0,P|398:226|294:200,1,140,4|0,1:0|1:0,0:0:0:0:
371,146,300794,1,0,0:0:0:0:
402,301,300982,2,0,L|399:382,1,70,8|0,1:0|0:0,0:0:0:0:
371,146,301357,2,0,L|378:57,1,70,8|0,1:0|0:0,0:0:0:0:
356,7,301732,6,0,L|372:157,1,140,0|0,1:0|1:0,0:0:0:0:
379,156,302482,1,8,1:0:0:0:
485,375,302857,2,0,P|495:345|493:304,1,70,4|0,0:0|0:0,0:0:0:0:
475,236,303232,2,0,L|486:383,1,140,0|0,1:0|1:0,0:0:0:0:
398,299,303794,5,0,0:0:0:0:
387,215,303982,1,8,1:0:0:0:
460,56,304169,5,0,0:0:0:0:
477,139,304357,1,0,1:0:0:0:
397,111,304544,1,0,1:0:0:0:
469,55,304732,1,2,0:0:0:0:
468,147,304919,1,0,1:0:0:0:
401,102,305107,1,0,1:0:0:0:
512,229,305294,5,0,0:0:0:0:
434,260,305482,1,8,1:0:0:0:
265,227,305669,1,2,0:0:0:0:
343,196,305857,1,4,0:0:0:0:
235,324,306044,1,0,0:0:0:0:
157,354,306232,6,0,P|128:312|143:222,2,140,4|0|8,1:0|1:0|1:0,0:0:0:0:
235,324,307169,1,2,0:0:0:0:
310,369,307357,2,0,P|317:334|310:295,1,70,2|2,0:0|0:0,0:0:0:0:
193,200,307732,5,0,1:0:0:0:
323,218,307919,1,0,0:0:0:0:
229,134,308107,1,0,1:0:0:0:
252,251,308294,1,0,0:0:0:0:
306,143,308482,1,8,1:0:0:0:
256,192,308669,5,0,0:0:0:0:
342,229,308857,1,2,0:0:0:0:
430,223,309044,1,2,0:0:0:0:
500,144,309232,2,0,L|513:294,2,140,0|0|8,1:0|1:0|1:0,0:0:0:0:
442,61,310169,1,0,0:0:0:0:
364,11,310357,2,0,P|351:37|361:89,1,70,8|0,1:0|0:0,0:0:0:0:
442,61,310732,5,0,1:0:0:0:
505,8,310919,1,0,1:0:0:0:
414,181,311107,5,8,1:0:0:0:
512,96,311294,1,0,0:0:0:0:
465,299,311482,5,8,1:0:0:0:
500,180,311669,1,2,0:0:0:0:
465,299,311857,2,0,P|466:338|479:371,1,70,4|2,0:0|0:0,0:0:0:0:
500,180,312232,6,0,L|512:17,1,140,4|0,1:0|1:0,0:0:0:0:
400,88,312794,1,0,0:0:0:0:
400,88,312982,2,0,L|388:251,1,140,8|2,1:0|0:0,0:0:0:0:
364,324,313544,1,2,0:0:0:0:
364,324,313732,2,0,P|332:324|292:320,1,70,0|0,1:0|0:0,0:0:0:0:
196,316,314107,2,0,P|196:276|200:240,1,70,0|0,1:0|0:0,0:0:0:0:
180,152,314482,1,8,1:0:0:0:
176,152,314857,1,4,0:0:0:0:
172,152,315232,6,0,L|312:148,2,140,0|0|8,1:0|1:0|1:0,0:0:0:0:
96,204,316169,1,0,0:0:0:0:
92,112,316357,1,2,0:0:0:0:
176,156,316544,1,0,0:0:0:0:
96,204,316732,6,0,L|24:200,1,70,0|0,1:0|0:0,0:0:0:0:
116,304,317107,2,0,L|188:308,1,70,0|2,1:0|0:0,0:0:0:0:
264,352,317482,1,8,1:0:0:0:
308,280,317669,1,4,0:0:0:0:
316,196,317857,1,0,0:0:0:0:
316,196,318232,6,0,P|288:136|296:64,1,140,4|0,1:0|1:0,0:0:0:0:
412,48,318794,1,0,0:0:0:0:
412,48,318982,2,0,P|440:108|432:180,1,140,8|2,1:0|0:0,0:0:0:0:
416,292,319544,1,2,0:0:0:0:
320,316,319732,5,0,1:0:0:0:
252,248,319919,1,0,0:0:0:0:
348,224,320107,1,0,1:0:0:0:
320,316,320294,1,0,0:0:0:0:
224,340,320482,6,0,P|156:332|84:332,1,140,8|4,1:0|0:0,0:0:0:0:
16,232,321044,1,0,0:0:0:0:
16,232,321232,2,0,P|84:228|156:232,1,140,0|0,1:0|1:0,0:0:0:0:
252,248,321794,1,0,0:0:0:0:
348,224,321982,2,0,P|356:184|348:156,1,70,8|0,1:0|0:0,0:0:0:0:
172,64,322357,2,0,P|164:104|172:132,1,70,2|0,0:0|0:0,0:0:0:0:
252,248,322732,6,0,L|263:108,1,140,0|0,1:0|1:0,0:0:0:0:
172,64,323294,1,8,1:0:0:0:
172,64,323482,2,0,P|136:60|99:57,2,70,8|4|0,1:0|0:0|0:0,0:0:0:0:
264,112,324044,1,0,0:0:0:0:
280,112,324138,1,0,0:0:0:0:
296,112,324232,6,0,P|360:104|436:104,1,140,4|0,1:0|1:0,0:0:0:0:
332,280,324982,2,0,P|268:288|192:288,1,140,8|2,1:0|0:0,0:0:0:0:
92,312,325544,1,2,0:0:0:0:
32,216,325732,2,0,P|68:212|108:212,1,70,0|0,1:0|0:0,0:0:0:0:
200,192,326107,2,0,P|196:156|200:120,1,70,0|0,1:0|0:0,0:0:0:0:
268,52,326482,1,8,1:0:0:0:
272,52,326857,1,4,0:0:0:0:
276,52,327232,6,0,L|420:56,1,140,0|0,1:0|1:0,0:0:0:0:
472,136,327794,1,0,0:0:0:0:
472,136,327982,2,0,P|484:196|464:272,1,140,8|2,1:0|0:0,0:0:0:0:
348,324,328544,1,0,0:0:0:0:
260,340,328732,1,0,1:0:0:0:
240,252,328919,1,0,0:0:0:0:
328,236,329107,1,0,1:0:0:0:
240,344,329294,1,2,0:0:0:0:
152,296,329482,2,0,P|132:224|140:152,2,140,12|0|4,1:0|0:0|1:0,0:0:0:0:
324,328,330607,5,0,1:0:0:0:
408,320,330794,1,8,1:0:0:0:
492,308,330982,1,8,1:0:0:0:
400,168,331357,5,4,0:0:0:0:
316,176,331544,1,0,0:0:0:0:
232,188,331732,2,0,L|160:184,1,70,0|0,1:0|1:0,0:0:0:0:
324,328,332107,2,0,L|396:332,1,70,0|0,1:0|0:0,0:0:0:0:
232,188,332482,6,0,P|161:182|88:180,2,140,8|4|4,1:0|0:0|1:0,0:0:0:0:
256,192,333325,12,0,336232,0:0:0:0:
