osu file format v14

[General]
AudioFilename: audio.mp3
AudioLeadIn: 0
PreviewTime: 96184
Countdown: 0
SampleSet: Soft
StackLeniency: 0.4
Mode: 0
LetterboxInBreaks: 1
WidescreenStoryboard: 0

[Editor]
DistanceSpacing: 1.3
BeatDivisor: 4
GridSize: 8
TimelineZoom: 2.699999

[Metadata]
Title:discolor
TitleUnicode:discolor
Artist:zts
ArtistUnicode:zts
Creator:semaphore
Version:Collab Hard
Source:うみねこのなく頃に散
Tags:la cataline lc reiji-rj Natteke desu Jounzan EvilElvis EvilElvisV2 Umineko no Naku Koro ni Chiru 07th expansion instrumental when they cry visual novel video game musicbox red code label czl
BeatmapID:3349502
BeatmapSetID:1635918

[Difficulty]
HPDrainRate:5
CircleSize:4
OverallDifficulty:6
ApproachRate:8
SliderMultiplier:1.1
SliderTickRate:0.5

[Events]
//Background and Video events
0,0,"thank u for the bgs.jpg",0,0
//Break Periods
2,168432,179482
//Storyboard Layer 0 (Background)
//Storyboard Layer 1 (Fail)
//Storyboard Layer 2 (Pass)
//Storyboard Layer 3 (Foreground)
//Storyboard Layer 4 (Overlay)
//Storyboard Sound Samples

[TimingPoints]
232,375,4,1,2,20,1,0
325,-100,4,2,2,20,0,0
6138,-100,4,1,2,20,0,0
6242,-100,4,2,2,20,0,0
12138,-100,4,1,2,20,0,0
12242,-100,4,2,2,20,0,0
18138,-100,4,1,2,20,0,0
18242,-100,4,2,2,20,0,0
21138,-100,4,1,2,20,0,0
21242,-100,4,2,2,20,0,0
22732,-200,4,2,2,20,0,0
24232,-100,4,1,2,30,0,0
24325,-100,4,2,2,30,0,0
30232,-100,4,1,2,20,0,0
30325,-100,4,2,2,30,0,0
33138,-100,4,1,2,20,0,0
33325,-100,4,2,2,30,0,0
36138,-100,4,1,2,20,0,0
36607,-100,4,2,2,30,0,0
38763,-100,4,2,0,20,0,0
38950,-100,4,2,2,30,0,0
42138,-100,4,1,2,20,0,0
42607,-100,4,2,2,30,0,0
44388,-100,4,1,2,20,0,0
44857,-100,4,2,2,30,0,0
45138,-100,4,1,2,20,0,0
45419,-100,4,2,2,30,0,0
48138,-100,4,1,2,35,0,0
48607,-100,4,2,2,35,0,0
54138,-100,4,1,2,35,0,0
54607,-100,4,2,2,35,0,0
59763,-100,4,2,0,35,0,0
60232,-100,4,1,2,35,0,0
60607,-100,4,2,2,30,0,0
65575,-100,4,2,0,30,0,0
65763,-100,4,2,2,30,0,0
66138,-100,4,1,2,35,0,0
66607,-100,4,2,2,35,0,0
68857,-100,4,2,0,30,0,0
68950,-100,4,2,2,30,0,0
72138,-100,4,1,2,40,0,0
72607,-100,4,2,2,30,0,0
74763,-100,4,2,0,30,0,0
75044,-100,4,2,2,30,0,0
77575,-100,4,2,0,30,0,0
78138,-100,4,1,2,40,0,0
78607,-100,4,2,2,30,0,0
80763,-100,4,2,0,30,0,0
81982,-100,4,2,2,30,0,0
83575,-100,4,2,0,30,0,0
83763,-100,4,2,2,30,0,0
84138,-100,4,2,2,20,0,0
84232,-100,4,1,2,40,0,0
84607,-100,4,2,2,30,0,0
86857,-100,4,2,0,30,0,0
86950,-100,4,2,2,30,0,0
89575,-100,4,2,0,30,0,0
89763,-100,4,2,2,30,0,0
90232,-100,4,1,2,40,0,0
90607,-100,4,2,2,30,0,0
92763,-100,4,2,0,30,0,0
93044,-100,4,2,2,30,0,0
94638,-133.333333333333,4,2,2,30,0,0
96232,-66.6666666666667,4,1,2,59,0,1
96325,-66.6666666666667,4,2,2,50,0,0
96982,-133.333333333333,4,2,2,50,0,1
97732,-66.6666666666667,4,2,2,50,0,0
119763,-66.6666666666667,4,2,0,50,0,0
120232,-66.6666666666667,4,1,2,67,0,1
120419,-66.6666666666667,4,2,2,67,0,0
125200,-66.6666666666667,4,2,2,45,0,0
125388,-66.6666666666667,4,2,2,67,0,0
134763,-66.6666666666667,4,2,0,57,0,0
135232,-66.6666666666667,4,2,2,67,0,0
143763,-133.333333333333,4,2,2,67,0,0
144232,-66.6666666666667,4,1,2,67,0,1
144325,-66.6666666666667,4,2,2,67,0,1
145263,-66.6666666666667,4,2,0,47,0,1
145732,-66.6666666666667,4,2,2,67,0,1
146763,-66.6666666666667,4,2,0,47,0,1
146950,-66.6666666666667,4,2,2,67,0,1
149669,-66.6666666666667,4,1,2,47,0,1
149763,-66.6666666666667,4,2,2,67,0,1
151357,-66.6666666666667,4,2,0,47,0,1
151450,-66.6666666666667,4,2,2,67,0,1
152763,-66.6666666666667,4,2,0,47,0,1
153044,-66.6666666666667,4,2,2,67,0,1
155763,-66.6666666666667,4,2,0,47,0,1
156232,-66.6666666666667,4,2,2,67,0,1
157263,-66.6666666666667,4,2,0,47,0,1
157732,-66.6666666666667,4,2,2,67,0,1
158763,-66.6666666666667,4,2,0,47,0,1
158950,-66.6666666666667,4,2,2,67,0,1
161857,-66.6666666666667,4,2,0,67,0,1
162232,-66.6666666666667,4,2,2,67,0,1
163357,-66.6666666666667,4,2,0,57,0,1
163450,-66.6666666666667,4,2,2,67,0,1
164763,-66.6666666666667,4,2,0,67,0,1
165232,-66.6666666666667,4,1,2,67,0,0
165794,-100,4,2,2,5,0,0
168232,-100,4,2,2,5,0,1
168325,-100,4,2,2,5,0,0
180138,-100,4,1,2,20,0,0
180325,-100,4,2,2,20,0,0
186138,-100,4,1,2,20,0,0
186325,-100,4,2,2,20,0,0
189138,-100,4,1,2,20,0,0
189325,-100,4,2,2,20,0,0
189888,-133.333333333333,4,2,2,20,0,0
190638,-100,4,2,2,20,0,0
191388,-200,4,2,2,20,0,0
192232,-100,4,1,2,30,0,0
192325,-100,4,2,2,30,0,0
198138,-100,4,1,2,20,0,0
198325,-100,4,2,2,30,0,0
201138,-100,4,1,2,20,0,0
201325,-100,4,2,2,30,0,0
204138,-100,4,1,2,20,0,0
204325,-100,4,2,2,30,0,0
210138,-100,4,1,2,20,0,0
210325,-100,4,2,2,30,0,0
212388,-100,4,1,2,30,0,0
212857,-100,4,2,2,30,0,0
213138,-100,4,1,2,20,0,0
213325,-100,4,2,2,30,0,0
216138,-100,4,1,2,35,0,0
216607,-100,4,2,2,35,0,0
222138,-100,4,1,2,35,0,0
222607,-100,4,2,2,35,0,0
227857,-100,4,2,0,30,0,0
228232,-100,4,1,2,35,0,0
228607,-100,4,2,2,30,0,0
233669,-100,4,2,0,30,0,0
234232,-100,4,1,2,35,0,0
234607,-100,4,2,2,30,0,0
236857,-100,4,2,0,30,0,0
237232,-100,4,2,2,30,0,0
240138,-100,4,1,2,40,0,0
240607,-100,4,2,2,30,0,0
242763,-100,4,2,0,30,0,0
243232,-100,4,2,2,30,0,0
245575,-100,4,2,0,30,0,0
246138,-100,4,1,2,40,0,0
246607,-100,4,2,2,30,0,0
248857,-100,4,2,0,30,0,0
249232,-100,4,2,2,30,0,0
251575,-100,4,2,0,30,0,0
252044,-100,4,2,2,30,0,0
252138,-100,4,1,2,40,0,0
252607,-100,4,2,2,30,0,0
254763,-100,4,2,0,30,0,0
255044,-100,4,2,2,30,0,0
257669,-100,4,2,0,30,0,0
258232,-100,4,1,2,40,0,0
258607,-100,4,2,2,30,0,0
260763,-100,4,2,0,30,0,0
261232,-100,4,2,2,30,0,0
262638,-133.333333333333,4,2,2,30,0,0
264232,-66.6666666666667,4,1,2,59,0,1
264325,-66.6666666666667,4,2,2,50,0,0
264982,-133.333333333333,4,2,2,50,0,1
265732,-66.6666666666667,4,2,2,50,0,0
288232,-66.6666666666667,4,1,2,67,0,1
288419,-66.6666666666667,4,2,2,67,0,0
302763,-66.6666666666667,4,2,0,67,0,0
303232,-66.6666666666667,4,2,2,67,0,0
311857,-66.6666666666667,4,2,0,67,0,0
312232,-66.6666666666667,4,1,2,67,0,1
312325,-66.6666666666667,4,2,2,67,0,1
313357,-66.6666666666667,4,2,0,47,0,1
313732,-66.6666666666667,4,2,2,67,0,1
314857,-66.6666666666667,4,2,0,47,0,1
315044,-66.6666666666667,4,2,2,67,0,1
317763,-66.6666666666667,4,2,0,47,0,1
318232,-66.6666666666667,4,2,2,67,0,1
319263,-66.6666666666667,4,2,0,47,0,1
319544,-66.6666666666667,4,2,2,67,0,1
320857,-66.6666666666667,4,2,0,47,0,1
321232,-66.6666666666667,4,2,2,67,0,1
323763,-66.6666666666667,4,2,0,47,0,1
324138,-66.6666666666667,4,2,2,67,0,1
325263,-66.6666666666667,4,2,0,47,0,1
325544,-66.6666666666667,4,2,2,67,0,1
326857,-66.6666666666667,4,2,0,47,0,1
327044,-66.6666666666667,4,2,2,67,0,1
329669,-66.6666666666667,4,2,0,47,0,1
329857,-66.6666666666667,4,2,2,67,0,1
331263,-66.6666666666667,4,2,0,47,0,1
331544,-66.6666666666667,4,2,2,67,0,1
332857,-66.6666666666667,4,2,0,47,0,1
333138,-66.6666666666667,4,2,2,67,0,1
333232,-66.6666666666667,4,1,2,67,0,0
336232,-66.6666666666667,4,2,2,5,0,0

[Colours]
Combo1 : 17,254,176
Combo2 : 173,255,95
Combo3 : 255,88,100
Combo4 : 255,94,55

[HitObjects]
32,320,232,6,0,B|112:272|192:312,1,165,0|2,0:0|0:0,0:0:0:0:
189,310,1169,1,0,0:0:0:0:
272,272,1357,1,2,0:0:0:0:
200,208,1544,2,0,B|200:144|240:88,1,110,0|0,0:0|0:0,0:0:0:0:
328,80,2107,2,0,B|304:144,1,55
368,192,2482,2,0,B|387:140,2,55,2|0|0,0:0|0:0|0:0,0:0:0:0:
368,192,3044,6,0,B|448:232|432:344,1,165,2|0,0:0|0:0,0:0:0:0:
344,328,3794,2,0,B|288:312|216:328,1,110,2|0,0:0|0:0,0:0:0:0:
144,304,4357,1,0,0:0:0:0:
136,216,4544,1,2,0:0:0:0:
136,216,4919,2,0,B|144:152,1,55
152,72,5294,2,0,B|208:88|280:72,1,110,2|0,0:0|0:0,0:0:0:0:
344,32,5857,1,2,0:0:0:0:
376,120,6044,1,2,0:0:0:0:
288,160,6232,6,0,B|208:200|224:312,1,165,0|2,0:0|0:0,0:0:0:0:
222,299,7169,1,0,0:0:0:0:
136,336,7357,1,0,0:0:0:0:
144,248,7544,2,0,B|136:184|80:160,1,110,2|0,0:0|0:0,0:0:0:0:
48,248,8107,2,0,B|24:240|8:208,1,55,0|2,0:0|0:0,0:0:0:0:
8,120,8482,2,0,B|24:88|56:72,2,55
136,72,9044,6,0,B|176:152|288:136,1,165,2|0,0:0|0:0,0:0:0:0:
352,80,9794,2,0,B|408:64|480:80,1,110,2|0,0:0|0:0,0:0:0:0:
496,160,10357,1,2,0:0:0:0:
448,232,10544,1,0,0:0:0:0:
448,232,10919,2,0,B|440:296,1,55
352,256,11294,2,0,B|296:240|224:256,1,110,2|0,0:0|0:0,0:0:0:0:
160,320,11857,1,0,0:0:0:0:
136,216,12044,1,2,0:0:0:0:
224,144,12232,6,0,B|264:104|272:40,1,110,0|0,0:0|0:0,0:0:0:0:
304,158,12794,2,0,B|312:216|352:256,1,110,2|0,0:0|0:0,0:0:0:0:
351,255,13357,1,0,0:0:0:0:
256,264,13544,2,0,B|192:264|136:304,1,110,2|0,0:0|0:0,0:0:0:0:
72,336,14107,2,0,B|56:312|48:272,1,55,0|2,0:0|0:0,0:0:0:0:
88,168,14482,2,0,B|104:192|107:219,2,55,0|0|2,0:0|0:0|0:0,0:0:0:0:
120,64,15044,6,0,B|160:144|272:128,1,165,0|0,0:0|0:0,0:0:0:0:
376,152,15794,2,0,B|384:80|328:40,1,110,2|0,0:0|0:0,0:0:0:0:
259,129,16357,1,0,0:0:0:0:
304,224,16544,1,2,0:0:0:0:
304,224,16919,2,0,B|312:288,1,55
328,368,17294,2,0,B|274:380|218:364,1,110,2|0,0:0|0:0,0:0:0:0:
152,312,17857,1,2,0:0:0:0:
128,232,18044,1,2,0:0:0:0:
176,160,18232,6,0,B|183:102|223:62,1,110
312,80,18794,2,0,B|432:112,1,110,2|0,0:0|0:0,0:0:0:0:
480,64,19357,1,0,0:0:0:0:
448,184,19544,2,0,B|432:241|392:281,1,110,2|0,0:0|0:0,0:0:0:0:
312,288,20107,2,0,B|240:296,1,55,0|2,0:0|0:0,0:0:0:0:
176,208,20482,2,0,B|230:201,1,55
80,248,20857,1,0,0:0:0:0:
40,136,21044,1,2,0:0:0:0:
142,95,21232,6,0,B|252:55|372:167|312:288,1,330,0|2,0:0|0:0,0:0:0:0:
216,328,22544,2,0,B|208:304|224:256,2,55,0|2|0,0:0|0:0|0:0,0:0:0:0:
208,384,23107,2,2,B|248:304|232:216,1,165,0|4,0:0|0:0,0:0:0:0:
88,104,24607,6,0,B|80:128|72:168,2,55,0|2|0,0:0|0:0|0:0,0:0:0:0:
160,248,25357,2,0,B|168:272|184:304,2,55,0|2|0,0:0|0:0|0:0,0:0:0:0:
288,136,26107,2,0,B|280:160|264:192,2,55,0|2|0,0:0|0:0|0:0,0:0:0:0:
360,280,26857,2,0,B|368:304|384:336,2,55,0|2|0,0:0|0:0|0:0,0:0:0:0:
464,224,27607,6,0,B|485:173,2,55,0|2|0,0:0|0:0|0:0,0:0:0:0:
384,176,28169,1,0,0:0:0:0:
368,88,28357,1,2,0:0:0:0:
288,48,28544,2,0,B|266:91|274:155,1,110
184,176,29107,5,0,0:0:0:0:
264,240,29294,2,0,B|248:312,1,55,2|0,0:0|0:0,0:0:0:0:
104,96,29857,5,0,0:0:0:0:
24,160,30044,2,0,B|40:232,1,55,2|4,0:0|0:0,0:0:0:0:
264,240,30607,5,0,0:0:0:0:
184,304,30794,2,0,B|64:312,1,110,2|0,0:0|0:0,0:0:0:0:
74,311,31357,1,0,0:0:0:0:
104,224,31544,2,0,B|136:176|128:104,1,110,2|0,0:0|0:0,0:0:0:0:
56,56,32107,1,0,0:0:0:0:
208,144,32294,2,0,B|265:150|313:118,1,110,2|0,0:0|0:0,0:0:0:0:
368,64,32857,2,0,B|440:72,1,55,0|2,0:0|0:0,0:0:0:0:
504,80,33232,5,0,0:0:0:0:
344,248,33607,2,0,B|272:256,1,55,0|2,0:0|0:0,0:0:0:0:
208,264,33982,1,0,0:0:0:0:
256,336,34169,1,0,0:0:0:0:
344,344,34357,1,0,0:0:0:0:
416,296,34544,1,0,0:0:0:0:
344,248,34732,2,0,B|336:192|344:120,2,110,2|0|2,0:0|0:0|0:0,0:0:0:0:
344,248,35857,1,0,0:0:0:0:
416,184,36044,1,2,0:0:0:0:
264,104,36232,6,0,B|216:112|136:112,1,110,4|0,0:0|0:0,0:0:0:0:
72,144,36794,2,0,B|64:96|64:16,1,110,2|0,0:0|0:0,0:0:0:0:
154,111,37357,2,0,B|160:192,1,55,0|2,0:0|0:0,0:0:0:0:
128,304,37732,2,0,B|115:228,2,55
216,288,38294,2,0,B|264:280|344:280,1,110,2|0,0:0|0:0,0:0:0:0:
408,240,38857,1,4,0:0:0:0:
400,336,39044,1,0,0:0:0:0:
328,200,39232,5,0,0:0:0:0:
320,104,39419,1,0,0:0:0:0:
400,144,39607,1,0,0:0:0:0:
484,185,39794,2,0,B|496:128|488:64,1,110,2|0,0:0|0:0,0:0:0:0:
407,185,40357,2,0,B|400:208|408:240,1,55,0|2,0:0|0:0,0:0:0:0:
487,334,40732,6,0,B|495:302|488:280,1,55
320,264,41107,2,0,B|312:286|320:318,1,55,0|2,0:0|0:0,0:0:0:0:
232,320,41482,2,0,B|176:288|112:328,1,110
48,280,42044,1,2,0:0:0:0:
56,192,42232,6,0,B|88:136|48:72,1,110,4|0,0:0|0:0,0:0:0:0:
256,128,42794,2,0,B|200:160|136:120,1,110,2|0,0:0|0:0,0:0:0:0:
192,288,43357,2,0,B|200:256|184:216,1,55,0|2,0:0|0:0,0:0:0:0:
344,216,43732,2,0,B|312:224|272:208,1,55
408,176,44107,1,0,0:0:0:0:
464,232,44294,1,2,0:0:0:0:
400,288,44482,6,0,B|350:319|296:288,1,110,0|2,0:0|0:0,0:0:0:0:
344,216,45044,1,0,0:0:0:0:
480,152,45232,2,0,B|495:99,1,55
416,64,45607,2,0,B|369:25|314:45,2,110,2|2|2,0:0|0:0|0:0,0:0:0:0:
416,64,46544,1,0,0:0:0:0:
352,128,46732,6,2,B|296:148|249:109,1,110
249,109,47294,1,2,0:0:0:0:
280,264,47482,2,0,B|248:265|227:250,1,55,0|0,0:0|0:0,0:0:0:0:
112,208,47857,1,2,0:0:0:0:
184,160,48044,1,2,0:0:0:0:
152,296,48232,6,0,B|96:304|24:296,1,110,4|0,0:0|0:0,0:0:0:0:
112,208,48794,2,0,B|104:128,1,55,0|2,0:0|0:0,0:0:0:0:
320,104,49357,2,0,B|328:32,1,55,2|0,0:0|0:0,0:0:0:0:
400,128,49732,2,0,B|400:184,1,55,0|0,0:0|0:0,0:0:0:0:
480,104,50107,1,4,0:0:0:0:
272,336,50482,5,4,0:0:0:0:
197,315,50669,1,2,0:0:0:0:
198,237,50857,1,0,0:0:0:0:
272,208,51044,1,0,0:0:0:0:
312,272,51232,1,2,0:0:0:0:
24,176,51607,6,0,B|16:144|16:112,1,55,2|0,0:0|0:0,0:0:0:0:
88,136,51982,2,0,B|96:168|96:200,1,55,0|0,0:0|0:0,0:0:0:0:
168,128,52357,1,2,0:0:0:0:
248,112,52544,1,0,0:0:0:0:
304,56,52732,1,2,0:0:0:0:
88,280,53107,1,2,0:0:0:0:
168,264,53294,1,0,0:0:0:0:
224,208,53482,1,2,0:0:0:0:
248,288,53669,1,0,0:0:0:0:
304,224,53857,2,0,B|336:216|368:216,1,55,0|2,0:0|0:0,0:0:0:0:
424,288,54232,6,0,B|440:240|448:160,1,110,4|2,0:0|0:0,0:0:0:0:
376,144,54794,2,0,B|376:112|392:72,1,55,0|2,0:0|0:0,0:0:0:0:
248,288,55357,6,0,B|240:344,1,55,2|0,0:0|0:0,0:0:0:0:
168,264,55732,2,0,B|160:209,1,55,0|0,0:0|0:0,0:0:0:0:
104,312,56107,1,4,0:0:0:0:
48,80,56482,1,4,0:0:0:0:
128,96,56669,1,2,0:0:0:0:
208,72,56857,1,0,0:0:0:0:
288,64,57044,1,0,0:0:0:0:
368,88,57232,1,2,0:0:0:0:
368,88,57607,6,0,B|360:112|364:142,1,55,2|0,0:0|0:0,0:0:0:0:
384,223,57982,2,0,B|406:212|424:187,1,55,0|0,0:0|0:0,0:0:0:0:
406,306,58357,2,0,B|376:312|352:304,1,55,2|0,0:0|0:0,0:0:0:0:
464,256,58732,5,0,0:0:0:0:
384,224,58919,1,0,0:0:0:0:
304,240,59107,1,2,0:0:0:0:
240,288,59294,2,0,B|168:296|120:272,1,110,0|0,0:0|0:0,0:0:0:0:
8,176,59857,2,0,B|40:168|96:184,1,82.5,4|0,0:0|0:0,0:0:0:0:
80,208,60232,6,0,B|40:248|56:328,1,110,4|2,0:0|0:0,0:0:0:0:
184,216,60794,2,0,B|196:187|200:160,1,55,0|2,0:0|0:0,0:0:0:0:
496,80,61357,2,0,B|432:64,1,55,2|0,0:0|0:0,0:0:0:0:
384,128,61732,2,0,B|437:141,1,55
448,216,62107,1,4,0:0:0:0:
232,328,62482,6,0,B|232:296|240:264,1,55,4|2,0:0|0:0,0:0:0:0:
320,272,62857,2,0,B|320:240|312:208,1,55
176,224,63232,1,2,0:0:0:0:
56,32,63607,6,0,B|40:96,1,55,2|0,0:0|0:0,0:0:0:0:
104,144,63982,2,0,B|117:90,1,55
184,128,64357,1,2,0:0:0:0:
248,88,64544,1,0,0:0:0:0:
184,224,64732,5,0,0:0:0:0:
264,208,64919,1,0,0:0:0:0:
344,224,65107,1,6,0:0:0:0:
400,280,65294,1,0,0:0:0:0:
320,304,65482,5,4,0:0:0:0:
264,208,65669,1,4,0:0:0:0:
248,88,65857,1,0,0:0:0:0:
248,88,66232,6,0,B|304:64|368:80,1,110,4|0,0:0|0:0,0:0:0:0:
432,112,66794,2,0,B|464:120|488:104,1,55,0|2,0:0|0:0,0:0:0:0:
424,24,67169,1,0,0:0:0:0:
368,160,67357,2,0,B|354:211|378:267,1,110,2|0,0:0|0:0,0:0:0:0:
456,240,67919,5,0,0:0:0:0:
360,352,68107,2,0,B|390:352|414:344,1,55,4|0,0:0|0:0,0:0:0:0:
272,320,68482,2,0,B|295:264|282:212,1,110,4|4,0:0|0:0,0:0:0:0:
256,120,69044,1,0,0:0:0:0:
160,144,69232,6,0,B|104:144|40:184,1,110,2|0,0:0|0:0,0:0:0:0:
16,240,69794,1,2,0:0:0:0:
88,272,69982,1,0,0:0:0:0:
160,232,70169,1,0,0:0:0:0:
160,144,70357,2,0,B|184:120|184:88,1,55,2|0,0:0|0:0,0:0:0:0:
264,248,70732,6,0,B|240:224|240:192,1,55,0|0,0:0|0:0,0:0:0:0:
176,352,71107,2,0,B|200:328|200:296,1,55,4|0,0:0|0:0,0:0:0:0:
160,144,71482,1,4,0:0:0:0:
80,128,71669,1,2,0:0:0:0:
64,208,71857,1,0,0:0:0:0:
144,224,72044,1,2,0:0:0:0:
264,248,72232,6,0,B|296:208|296:128,1,110,4|0,0:0|0:0,0:0:0:0:
272,56,72794,1,0,0:0:0:0:
352,32,72982,2,0,B|360:62|356:86,1,55,2|0,0:0|0:0,0:0:0:0:
376,168,73357,1,6,0:0:0:0:
264,248,73732,6,0,B|256:304,1,55,2|0,0:0|0:0,0:0:0:0:
184,336,74107,2,0,B|177:281,1,55,6|0,0:0|0:0,0:0:0:0:
96,240,74482,2,0,B|102:294,1,55,6|0,0:0|0:0,0:0:0:0:
16,344,74857,2,0,B|23:287,1,55,4|0,0:0|0:0,0:0:0:0:
176,200,75232,6,0,B|208:152|184:72,2,110,2|2|4,0:0|0:0|0:0,0:0:0:0:
120,136,76169,1,2,0:0:0:0:
112,56,76357,1,2,0:0:0:0:
184,16,76544,1,0,0:0:0:0:
256,56,76732,6,0,B|314:74|368:40,1,110,2|4,0:0|0:0,0:0:0:0:
448,24,77294,1,2,0:0:0:0:
464,104,77482,1,4,0:0:0:0:
384,128,77669,1,4,0:0:0:0:
320,184,77857,1,0,0:0:0:0:
304,264,78044,1,0,0:0:0:0:
352,336,78232,6,0,B|384:296|384:216,1,110,4|2,0:0|0:0,0:0:0:0:
240,216,78794,1,0,0:0:0:0:
315,129,78982,2,0,B|323:160|320:184,1,55,2|0,0:0|0:0,0:0:0:0:
304,264,79357,1,6,0:0:0:0:
248,56,79732,6,0,B|240:80|240:112,1,55,2|0,0:0|0:0,0:0:0:0:
144,128,80107,2,0,B|89:134,1,55,6|0,0:0|0:0,0:0:0:0:
16,232,80482,2,0,B|70:225,1,55,6|0,0:0|0:0,0:0:0:0:
152,256,80857,2,0,B|152:286|144:310,1,55,6|0,0:0|0:0,0:0:0:0:
226,321,81232,6,0,B|258:274|240:216,2,110,2|2|4,0:0|0:0|0:0,0:0:0:0:
226,321,82169,1,2,0:0:0:0:
312,336,82357,1,2,0:0:0:0:
360,256,82544,1,0,0:0:0:0:
312,184,82732,6,0,B|293:125|328:72,1,110,2|4,0:0|0:0,0:0:0:0:
416,56,83294,1,2,0:0:0:0:
392,152,83482,1,4,0:0:0:0:
312,184,83669,1,4,0:0:0:0:
224,168,83857,2,0,B|184:152|128:160,1,82.5,2|0,0:0|0:0,0:0:0:0:
142,158,84232,6,0,B|118:204|134:268,1,110,4|2,0:0|0:0,0:0:0:0:
133,265,84794,1,0,0:0:0:0:
208,360,84982,2,0,B|231:313|215:249,1,110,2|2,0:0|0:0,0:0:0:0:
217,253,85544,1,0,0:0:0:0:
305,256,85732,6,0,B|329:260|360:264,1,55,2|0,0:0|0:0,0:0:0:0:
406,177,86107,2,0,B|376:184|352:184,1,55,6|0,0:0|0:0,0:0:0:0:
376,96,86482,2,0,B|436:80|483:104,1,110,4|4,0:0|0:0,0:0:0:0:
240,304,87232,6,0,B|221:245|253:198,2,110,2|2|4,0:0|0:0|0:0,0:0:0:0:
312,136,88169,1,2,0:0:0:0:
280,64,88357,1,2,0:0:0:0:
200,80,88544,1,0,0:0:0:0:
192,160,88732,2,0,B|163:213|104:224,1,110,2|4,0:0|0:0,0:0:0:0:
24,296,89294,1,2,0:0:0:0:
128,336,89482,1,4,0:0:0:0:
106,223,89669,1,4,0:0:0:0:
56,96,89857,6,0,B|96:64|176:64,2,110,2|4|2,0:0|0:0|0:0,0:0:0:0:
352,112,90982,2,0,B|360:143|357:167,1,55,2|0,0:0|0:0,0:0:0:0:
352,248,91357,1,6,0:0:0:0:
128,336,91732,2,0,B|120:305|123:281,1,55,2|0,0:0|0:0,0:0:0:0:
120,200,92107,1,4,0:0:0:0:
352,112,92482,6,0,B|360:143|357:167,1,55,4|0,0:0|0:0,0:0:0:0:
352,248,92857,2,0,B|322:248|298:240,1,55,4|0,0:0|0:0,0:0:0:0:
256,168,93232,2,0,B|237:109|264:48,2,110,2|2|4,0:0|0:0|0:0,0:0:0:0:
256,168,94357,1,2,0:0:0:0:
240,264,94544,1,0,0:0:0:0:
336,288,94732,2,0,B|360:216|336:120,2,164.999995082617,6|2|4,0:0|0:0|0:0,0:0:0:0:
96,160,96607,6,0,B|80:200|96:248,1,82.4999975413085,6|0,0:0|0:0,0:0:0:0:
136,312,96982,2,0,B|208:344|288:320,1,144.37499569729,12|0,0:0|0:0,0:0:0:0:
280,312,97732,6,0,B|297:272|283:229,1,82.5,4|0,0:0|0:0,0:0:0:0:
368,168,98107,2,0,B|407:183|451:169,1,82.5,6|0,0:0|0:0,0:0:0:0:
272,112,98482,2,0,B|328:32|427:59,1,165,14|2,0:0|0:0,0:0:0:0:
424,272,99044,1,0,0:0:0:0:
368,168,99232,6,0,B|368:208|336:248,1,82.4999975413085,6|0,0:0|0:0,0:0:0:0:
208,272,99607,1,6,0:0:0:0:
208,272,99982,2,0,B|248:296|296:288,1,82.4999975413085,12|0,0:0|0:0,0:0:0:0:
240,192,100357,1,2,0:0:0:0:
160,200,100544,1,2,0:0:0:0:
59,308,100732,6,0,B|160:339|208:272,1,165,4|6,0:0|0:0,0:0:0:0:
192,112,101294,1,0,0:0:0:0:
64,208,101482,1,12,0:0:0:0:
208,272,101669,1,0,0:0:0:0:
240,192,101857,5,2,0:0:0:0:
160,200,102044,1,2,0:0:0:0:
208,272,102232,1,4,0:0:0:0:
456,128,102607,5,6,0:0:0:0:
504,64,102794,1,0,0:0:0:0:
456,128,102982,2,0,B|393:206|438:280,1,164.999995082617,12|2,0:0|0:0,0:0:0:0:
488,344,103544,1,0,0:0:0:0:
408,352,103732,2,0,B|368:344|320:360,1,82.4999975413085,4|0,0:0|0:0,0:0:0:0:
208,272,104107,2,0,B|248:288|296:280,1,82.4999975413085,6|0,0:0|0:0,0:0:0:0:
256,200,104482,2,0,B|192:144|88:168,1,164.999995082617,12|2,0:0|0:0,0:0:0:0:
100,165,105044,1,2,0:0:0:0:
208,32,105232,6,0,B|248:112,1,82.4999975413085,6|0,0:0|0:0,0:0:0:0:
402,69,105607,2,0,B|344:128,1,82.4999975413085,6|0,0:0|0:0,0:0:0:0:
344,232,105982,2,0,B|512:264,1,164.999995082617,12|2,0:0|0:0,0:0:0:0:
288,336,106732,6,0,B|176:328,1,82.4999975413085,4|0,0:0|0:0,0:0:0:0:
32,344,107107,2,0,B|144:352,1,82.4999975413085,6|0,0:0|0:0,0:0:0:0:
152,272,107482,1,12,0:0:0:0:
192,184,107669,1,0,0:0:0:0:
232,96,107857,1,2,0:0:0:0:
232,96,108232,6,0,B|281:107|302:168,1,82.4999975413085,4|0,0:0|0:0,0:0:0:0:
432,249,108607,2,0,B|392:256|360:216,1,82.4999975413085,6|0,0:0|0:0,0:0:0:0:
392,144,108982,5,12,0:0:0:0:
272,240,109169,1,0,0:0:0:0:
128,176,109357,1,2,0:0:0:0:
128,176,109732,6,0,B|116:225|55:246,1,82.4999975413085,4|0,0:0|0:0,0:0:0:0:
88,336,110107,2,0,B|56:297|16:303,1,82.4999975413085,6|0,0:0|0:0,0:0:0:0:
168,288,110482,2,0,B|263:265|319:329,1,164.999995082617,12|2,0:0|0:0,0:0:0:0:
400,296,111044,1,0,0:0:0:0:
400,216,111232,6,0,B|383:174|391:134,1,82.4999975413085,4|0,0:0|0:0,0:0:0:0:
328,64,111607,2,0,B|304:144,1,82.4999975413085,6|0,0:0|0:0,0:0:0:0:
208,144,111982,2,0,B|184:64,1,82.4999975413085,12|0,0:0|0:0,0:0:0:0:
120,136,112357,2,0,B|136:208|96:264,1,123.749996311963,2|0,0:0|0:0,0:0:0:0:
96,280,112732,6,0,B|56:272|15:267,1,82.4999975413085,4|0,0:0|0:0,0:0:0:0:
232,272,113107,2,0,B|312:288,1,82.4999975413085,6|0,0:0|0:0,0:0:0:0:
160,240,113482,1,12,0:0:0:0:
168,320,113670,1,0,0:0:0:0:
232,272,113857,5,2,0:0:0:0:
88,208,114044,1,0,0:0:0:0:
104,368,114232,1,4,0:0:0:0:
328,136,114607,5,6,0:0:0:0:
384,208,114794,1,0,0:0:0:0:
328,136,114982,2,0,B|240:176|168:120,1,164.999995082617,12|2,0:0|0:0,0:0:0:0:
88,80,115544,1,0,0:0:0:0:
96,176,115732,2,0,B|32:248,1,82.4999975413085,4|0,0:0|0:0,0:0:0:0:
200,336,116107,2,0,B|152:248,1,82.4999975413085,6|0,0:0|0:0,0:0:0:0:
264,256,116482,2,0,B|336:320|424:288,1,164.999995082617,4|2,0:0|0:0,0:0:0:0:
496,264,117044,1,0,0:0:0:0:
432,208,117232,6,0,B|432:168|440:120,1,82.4999975413085,4|0,0:0|0:0,0:0:0:0:
344,80,117607,2,0,B|344:120|351:162,1,82.4999975413085,6|0,0:0|0:0,0:0:0:0:
248,184,117982,2,0,B|256:136|256:96,1,82.4999975413085,12|0,0:0|0:0,0:0:0:0:
160,56,118357,1,2,0:0:0:0:
160,56,118732,6,0,B|168:128|160:227,1,164.999995082617,4|4,0:0|0:0,0:0:0:0:
88,240,119294,1,2,0:0:0:0:
136,296,119482,1,4,0:0:0:0:
208,288,119669,5,0,0:0:0:0:
64,320,119857,1,4,0:0:0:0:
416,328,120232,5,4,0:0:0:0:
416,328,120607,2,0,B|440:296|432:240,1,82.5,6|2,0:0|0:0,0:0:0:0:
400,88,120982,2,0,B|376:120|384:176,1,82.5,12|0,0:0|0:0,0:0:0:0:
416,56,121357,2,0,B|240:48,1,164.999995082617,2|4,0:0|0:0,0:0:0:0:
104,72,121919,2,0,B|80:104|88:160,1,82.5,2|4,0:0|0:0,0:0:0:0:
184,112,122294,1,0,0:0:0:0:
24,264,122482,2,0,B|116:293|172:221,1,164.999995082617,12|2,0:0|0:0,0:0:0:0:
248,216,123044,1,0,0:0:0:0:
192,312,123232,6,0,B|240:312|280:328,1,82.4999975413085,4|0,0:0|0:0,0:0:0:0:
336,192,123607,2,0,B|328:232|336:288,1,82.4999975413085,6|0,0:0|0:0,0:0:0:0:
248,216,123982,1,12,0:0:0:0:
280,136,124169,1,0,0:0:0:0:
352,104,124357,1,2,0:0:0:0:
368,288,124732,1,4,0:0:0:0:
432,248,124919,5,4,0:0:0:0:
368,208,125107,1,2,0:0:0:0:
304,248,125294,1,8,0:0:0:0:
432,328,125482,5,12,0:0:0:0:
440,176,125669,1,0,0:0:0:0:
304,248,125857,2,0,B|288:288|304:336,1,82.4999975413085,2|0,0:0|0:0,0:0:0:0:
216,304,126232,6,4,B|128:280|48:344,1,164.999995082617,4|6,0:0|0:0,0:0:0:0:
48,240,126794,1,0,0:0:0:0:
144,208,126982,2,0,B|144:112,1,82.4999975413085,12|0,0:0|0:0,0:0:0:0:
240,32,127357,2,2,B|256:208,1,164.999995082617,2|4,0:0|0:0,0:0:0:0:
352,232,127919,2,0,B|344:144,1,82.4999975413085,0|6,0:0|0:0,0:0:0:0:
432,56,128294,2,0,B|432:176,1,82.4999975413085,0|12,0:0|0:0,0:0:0:0:
472,264,128669,1,0,0:0:0:0:
432,138,128857,1,2,0:0:0:0:
352,232,129044,1,0,0:0:0:0:
304,120,129232,6,0,B|272:128|208:128,1,82.4999975413085,4|0,0:0|0:0,0:0:0:0:
208,280,129607,2,0,B|200:240|184:184,1,82.4999975413085,6|0,0:0|0:0,0:0:0:0:
136,128,129982,1,12,0:0:0:0:
64,88,130169,1,0,0:0:0:0:
0,40,130357,1,2,0:0:0:0:
304,120,130732,5,4,0:0:0:0:
344,192,130919,1,4,0:0:0:0:
384,120,131107,2,0,B|432:136|480:104,1,82.4999975413085,2|0,0:0|0:0,0:0:0:0:
512,48,131482,2,0,B|456:112|488:208,1,164.999995082617,12|2,0:0|0:0,0:0:0:0:
486,203,132044,1,0,0:0:0:0:
408,264,132232,6,0,B|392:296|376:368,1,82.4999975413085,4|0,0:0|0:0,0:0:0:0:
312,256,132607,2,0,B|296:216|287:177,1,82.4999975413085,6|0,0:0|0:0,0:0:0:0:
224,56,132982,2,0,B|200:90|192:160,1,82.4999975413085,4|0,0:0|0:0,0:0:0:0:
168,216,133357,2,2,B|80:184|-8:232,1,164.999995082617,2|4,0:0|0:0,0:0:0:0:
24,125,133919,2,0,B|24:80|48:48,1,82.4999975413085,0|6,0:0|0:0,0:0:0:0:
240,232,134294,2,2,B|240:277|216:309,1,82.4999975413085,0|4,0:0|0:0,0:0:0:0:
136,336,134669,1,0,0:0:0:0:
288,328,134857,6,2,B|361:292|449:316,1,164.999995082617,4|4,0:0|0:0,0:0:0:0:
480,160,135419,2,0,B|496:192|488:256,1,82.4999975413085,0|6,0:0|0:0,0:0:0:0:
392,208,135794,2,0,B|376:176|384:112,1,82.4999975413085,0|12,0:0|0:0,0:0:0:0:
382,127,136169,1,0,0:0:0:0:
240,232,136357,6,0,B|166:267|78:243,1,164.999995082617,2|4,0:0|0:0,0:0:0:0:
0,208,136919,2,0,B|-16:174|0:126,1,82.4999975413085,4|2,0:0|0:0,0:0:0:0:
96,160,137294,1,0,0:0:0:0:
104,48,137482,2,0,B|137:32|185:48,1,82.4999975413085,12|0,0:0|0:0,0:0:0:0:
328,128,137857,2,0,B|294:143|246:127,1,82.4999975413085,2|0,0:0|0:0,0:0:0:0:
288,48,138232,6,0,B|368:16|456:56,1,164.999995082617,4|6,0:0|0:0,0:0:0:0:
424,152,138794,1,0,0:0:0:0:
432,248,138982,2,0,B|384:248|336:208,1,82.4999975413085,12|0,0:0|0:0,0:0:0:0:
128,200,139357,2,0,B|200:136|296:184,1,164.999995082617,2|4,0:0|0:0,0:0:0:0:
208,256,139919,2,0,B|208:303|182:332,1,82.4999975413085,0|6,0:0|0:0,0:0:0:0:
56,160,140294,2,0,B|55:112|80:80,1,82.4999975413085,0|12,0:0|0:0,0:0:0:0:
32,16,140669,1,0,0:0:0:0:
224,16,140857,2,0,B|224:63|198:92,1,82.4999975413085,2|0,0:0|0:0,0:0:0:0:
387,60,141232,5,6,0:0:0:0:
451,116,141419,1,0,0:0:0:0:
403,180,141607,1,6,0:0:0:0:
339,124,141794,1,0,0:0:0:0:
267,84,141982,5,12,0:0:0:0:
272,168,142169,1,0,0:0:0:0:
192,176,142357,1,2,0:0:0:0:
184,88,142544,1,2,0:0:0:0:
272,168,142732,5,4,0:0:0:0:
336,216,142919,1,4,0:0:0:0:
288,280,143107,1,2,0:0:0:0:
224,232,143294,1,0,0:0:0:0:
368,288,143482,5,12,0:0:0:0:
216,312,143669,1,0,0:0:0:0:
24,280,143857,2,2,B|8:208,1,61.8749981559814,2|0,0:0|0:0,0:0:0:0:
8,200,144232,5,0,0:0:0:0:
80,136,144419,2,2,B|104:216|112:304,1,164.999995082617,0|2,0:0|0:0,0:0:0:0:
184,144,144982,2,0,B|168:96|160:48,1,82.4999975413085,4|0,0:0|0:0,0:0:0:0:
264,64,145357,2,0,B|340:76|456:72,1,164.999995082617,4|4,0:0|0:0,0:0:0:0:
504,168,145919,5,0,0:0:0:0:
451,241,146107,1,4,0:0:0:0:
376,176,146294,1,2,0:0:0:0:
440,104,146482,1,12,0:0:0:0:
344,296,146857,1,4,0:0:0:0:
256,312,147044,1,0,0:0:0:0:
168,328,147232,6,0,B|160:272|160:240,1,82.4999975413085,4|0,0:0|0:0,0:0:0:0:
256,200,147607,2,0,B|256:173|248:117,1,82.4999975413085,4|2,0:0|0:0,0:0:0:0:
56,304,147982,2,0,B|40:216|32:112,1,164.999995082617,12|2,0:0|0:0,0:0:0:0:
152,176,148544,1,0,0:0:0:0:
256,200,148732,5,6,0:0:0:0:
352,168,148919,1,4,0:0:0:0:
431,221,149107,2,0,B|423:277|424:304,1,82.4999975413085,2|0,0:0|0:0,0:0:0:0:
280,120,149482,2,0,B|287:64|287:37,1,82.4999975413085,12|0,0:0|0:0,0:0:0:0:
352,168,149857,2,2,B|346:243|330:331,1,164.999995082617,2|6,0:0|0:0,0:0:0:0:
224,312,150419,5,0,0:0:0:0:
128,288,150607,1,4,0:0:0:0:
152,176,150794,1,0,0:0:0:0:
352,168,150982,2,0,B|346:243|330:331,1,164.999995082617,12|6,0:0|0:0,0:0:0:0:
256,200,151544,1,0,0:0:0:0:
448,160,151732,6,0,B|440:200|432:256,1,82.4999975413085,4|0,0:0|0:0,0:0:0:0:
256,112,152107,2,0,B|264:72|272:24,1,82.4999975413085,6|0,0:0|0:0,0:0:0:0:
365,86,152482,2,0,B|357:126|352:168,1,82.4999975413085,12|0,0:0|0:0,0:0:0:0:
152,176,152857,2,0,B|160:136|168:88,1,82.4999975413085,6|0,0:0|0:0,0:0:0:0:
448,160,153232,6,0,B|424:336,1,164.999995082617,4|4,0:0|0:0,0:0:0:0:
425,323,153794,1,0,0:0:0:0:
352,288,153982,2,0,B|224:288,1,123.749996311963,12|0,0:0|0:0,0:0:0:0:
216,320,154357,1,2,0:0:0:0:
112,296,154544,1,0,0:0:0:0:
144,192,154732,1,4,0:0:0:0:
240,216,154919,1,2,0:0:0:0:
112,296,155107,6,0,B|24:304,1,82.4999975413085,0|4,0:0|0:0,0:0:0:0:
61,199,155482,2,0,B|144:192,1,82.4999975413085,12|0,0:0|0:0,0:0:0:0:
240,216,155857,2,2,B|424:208,1,164.999995082617,6|4,0:0|0:0,0:0:0:0:
464,136,156419,5,0,0:0:0:0:
496,224,156607,1,2,0:0:0:0:
432,296,156794,1,0,0:0:0:0:
336,272,156982,2,0,B|320:224|312:176,1,82.4999975413085,4|0,0:0|0:0,0:0:0:0:
368,48,157357,2,0,B|393:129|401:209,1,164.999995082617,4|6,0:0|0:0,0:0:0:0:
256,304,157919,5,0,0:0:0:0:
152,280,158107,1,6,0:0:0:0:
176,176,158294,1,0,0:0:0:0:
280,200,158482,1,12,0:0:0:0:
216,240,158669,5,0,0:0:0:0:
120,136,158857,1,4,0:0:0:0:
256,104,159044,1,0,0:0:0:0:
256,104,159138,1,0,0:0:0:0:
256,104,159232,6,0,B|312:96|344:96,1,82.4999975413085,6|0,0:0|0:0,0:0:0:0:
474,168,159607,2,0,B|419:176|392:176,1,82.4999975413085,6|0,0:0|0:0,0:0:0:0:
376,272,159982,1,12,0:0:0:0:
288,328,160169,1,2,0:0:0:0:
216,240,160357,1,2,0:0:0:0:
304,176,160544,1,0,0:0:0:0:
296,256,160732,5,6,0:0:0:0:
128,216,160919,1,4,0:0:0:0:
223,157,161107,2,0,B|224:184|216:240,1,82.4999975413085,2|0,0:0|0:0,0:0:0:0:
24,328,161482,2,0,B|24:264|40:192,1,123.749996311963,12|0,0:0|0:0,0:0:0:0:
128,216,161857,2,2,B|144:127|150:52,1,164.999995082617,6|6,0:0|0:0,0:0:0:0:
150,52,162607,5,4,0:0:0:0:
240,56,162794,1,0,0:0:0:0:
224,160,162982,2,0,B|207:248|201:323,1,164.999995082617,12|4,0:0|0:0,0:0:0:0:
112,328,163544,1,0,0:0:0:0:
296,288,163732,6,0,B|336:296|392:304,1,82.4999975413085,4|0,0:0|0:0,0:0:0:0:
416,128,164107,2,0,B|408:168|400:216,1,82.4999975413085,4|2,0:0|0:0,0:0:0:0:
240,56,164482,2,0,B|281:60|321:68,1,82.4999975413085,12|0,0:0|0:0,0:0:0:0:
208,240,164857,2,0,B|215:199|223:159,1,82.4999975413085,4|0,0:0|0:0,0:0:0:0:
144,88,165232,6,0,B|32:184|120:320,1,247.499992623925,0|0,0:0|0:0,0:0:0:0:
256,192,165888,12,4,168232,0:0:0:0:
472,272,180232,6,0,B|464:224|456:160|456:160,1,110
480,80,180794,1,2,0:0:0:0:
480,80,181357,2,0,L|408:80,1,55,0|2,0:0|0:0,0:0:0:0:
376,152,181732,2,0,B|368:192|360:224|360:224,1,55
288,120,182107,2,0,B|296:80|312:0|312:0,2,110,0|2|0,0:0|0:0|0:0,0:0:0:0:
224,184,183044,6,0,B|136:144|64:208|64:208,1,165,2|0,0:0|0:0,0:0:0:0:
32,296,183794,2,0,B|64:304|96:288|96:288,1,55,2|0,0:0|0:0,0:0:0:0:
168,256,184169,2,0,B|184:288|184:320|184:320,1,55
272,360,184544,2,0,B|328:344|400:352|400:352,1,110,2|0,0:0|0:0,0:0:0:0:
448,288,185107,1,0,0:0:0:0:
368,240,185294,2,0,B|344:192|344:128|344:128,1,110,2|0,0:0|0:0,0:0:0:0:
424,64,185857,2,0,B|440:88|440:128|440:128,1,55,0|2,0:0|0:0,0:0:0:0:
336,208,186232,6,0,B|280:200|224:232|224:232,1,110
240,128,186794,2,0,B|216:80|208:24|208:24,1,110,2|0,0:0|0:0,0:0:0:0:
304,24,187357,1,0,0:0:0:0:
304,24,187732,2,0,L|368:24,1,55,2|0,0:0|0:0,0:0:0:0:
344,128,188107,1,0,0:0:0:0:
240,128,188294,2,0,B|144:88|80:160|80:160,1,165,2|0,0:0|0:0,0:0:0:0:
16,80,189044,1,2,0:0:0:0:
88,160,189232,6,0,B|80:224|80:280|80:280,1,110
40,352,189794,1,2,0:0:0:0:
152,384,189982,2,0,B|200:328|168:256|168:256,1,123.750004720688,0|2,0:0|0:0,0:0:0:0:
80,288,190732,6,0,L|16:296,1,55
152,384,191107,2,0,L|216:376,1,55,0|2,0:0|0:0,0:0:0:0:
264,240,191482,2,0,B|248:184|256:128|256:128,1,110,0|4,0:0|0:0,0:0:0:0:
456,72,192607,6,0,L|440:128,1,55,0|2,0:0|0:0,0:0:0:0:
416,200,192982,1,0,0:0:0:0:
304,360,193357,6,0,L|288:304,1,55,0|2,0:0|0:0,0:0:0:0:
264,232,193732,1,0,0:0:0:0:
136,8,194107,6,0,L|120:64,1,55,0|2,0:0|0:0,0:0:0:0:
96,136,194482,2,0,B|152:120|200:160|200:160,2,110,0|0|2,0:0|0:0|0:0,0:0:0:0:
24,192,195419,1,0,0:0:0:0:
32,280,195607,2,0,B|40:312|40:344|40:344,1,55,0|2,0:0|0:0,0:0:0:0:
128,288,195982,2,0,L|240:296,1,110
200,200,196544,2,0,L|192:136,1,55,2|0,0:0|0:0,0:0:0:0:
408,48,197107,6,0,L|400:112,1,55,0|2,0:0|0:0,0:0:0:0:
384,192,197482,2,0,B|312:128|224:176|224:176,1,165,0|2,0:0|0:0,0:0:0:0:
296,264,198232,6,0,L|360:272,1,55,4|0,0:0|0:0,0:0:0:0:
456,248,198607,1,0,0:0:0:0:
456,248,198982,2,0,B|416:296|448:360|448:360,1,110
352,368,199544,2,0,B|304:344|240:360|240:360,1,110,2|0,0:0|0:0,0:0:0:0:
232,272,200107,2,0,B|240:240|248:208|248:208,1,55,0|2,0:0|0:0,0:0:0:0:
144,272,200482,2,0,B|152:320|160:384|160:384,1,110
232,272,201044,1,2,0:0:0:0:
176,176,201232,6,0,B|168:136|176:64|176:64,1,110,4|0,0:0|0:0,0:0:0:0:
88,24,201794,1,2,0:0:0:0:
80,112,201982,1,0,0:0:0:0:
80,112,202357,2,0,L|16:120,1,55,0|2,0:0|0:0,0:0:0:0:
144,184,202732,2,0,B|216:264|312:200|312:200,1,165
344,128,203482,2,0,L|336:64,1,55
256,128,203857,1,0,0:0:0:0:
294,209,204044,1,2,0:0:0:0:
512,248,204232,6,0,B|464:216|400:240|400:240,1,110,4|0,0:0|0:0,0:0:0:0:
456,152,204794,2,0,B|480:104|472:40|472:40,1,110,2|0,0:0|0:0,0:0:0:0:
384,0,205357,2,0,B|376:24|376:56|376:56,1,55,0|2,0:0|0:0,0:0:0:0:
360,144,205732,1,0,0:0:0:0:
360,144,206107,2,0,L|296:152,1,55,0|2,0:0|0:0,0:0:0:0:
264,240,206482,2,0,L|336:248,1,55
416,256,206857,1,0,0:0:0:0:
392,352,207044,1,2,0:0:0:0:
264,240,207232,5,0,0:0:0:0:
280,144,207419,1,0,0:0:0:0:
192,176,207607,1,0,0:0:0:0:
176,272,207794,2,0,B|168:328|168:392|168:392,1,110
256,320,208357,2,0,B|256:304|264:240|264:240,1,55
192,176,208732,2,0,L|128:184,1,55
24,272,209107,2,0,L|88:264,1,55
40,176,209482,2,0,B|88:88|32:8|32:8,1,165
144,56,210232,6,0,B|192:96|256:88|256:88,1,110,4|0,0:0|0:0,0:0:0:0:
216,280,210794,2,0,B|192:224|208:168|208:168,1,110,2|0,0:0|0:0,0:0:0:0:
320,48,211357,2,0,B|336:80|328:112|328:112,1,55,0|2,0:0|0:0,0:0:0:0:
296,192,211732,2,0,L|352:200,1,55
432,200,212107,1,0,0:0:0:0:
496,144,212294,1,2,0:0:0:0:
504,56,212482,2,0,B|440:48|416:112|416:112,1,110
432,200,213044,1,2,0:0:0:0:
500,248,213232,6,0,B|496:256|536:200|496:144,1,110,4|0,0:0|0:0,0:0:0:0:
432,200,213794,2,0,L|312:208,1,110,2|0,0:0|0:0,0:0:0:0:
384,304,214357,1,2,0:0:0:0:
384,304,214732,2,0,L|448:312,1,55
280,280,215107,2,0,L|264:392,2,110,2|2|0,0:0|0:0|0:0,0:0:0:0:
256,192,216044,1,2,0:0:0:0:
232,104,216232,6,0,B|184:120|120:112|120:112,1,110,4|0,0:0|0:0,0:0:0:0:
80,16,216794,2,0,B|104:16|136:24|136:24,1,55,2|0,0:0|0:0,0:0:0:0:
184,232,217357,2,0,B|160:232|128:240|128:240,1,55,0|2,0:0|0:0,0:0:0:0:
24,312,217732,2,0,B|22:311|54:319|78:319,1,55
144,384,218107,1,6,0:0:0:0:
360,288,218482,6,0,L|352:232,1,55,4|0,0:0|0:0,0:0:0:0:
264,320,218857,2,0,L|256:376,1,55,2|0,0:0|0:0,0:0:0:0:
440,360,219232,1,2,0:0:0:0:
440,360,219607,6,0,B|448:320|456:296|456:296,1,55,2|0,0:0|0:0,0:0:0:0:
392,240,219982,2,0,B|384:280|376:304|376:304,1,55,2|0,0:0|0:0,0:0:0:0:
308,318,220357,1,0,0:0:0:0:
240,296,220544,1,2,0:0:0:0:
200,232,220732,2,0,B|224:216|256:224|256:224,1,55,2|0,0:0|0:0,0:0:0:0:
176,344,221107,2,2,B|152:360|120:352|120:352,1,55
48,248,221482,2,2,B|32:200|40:136|40:136,1,110
352,40,222232,6,0,B|299:58|235:42|235:42,1,110,4|0,0:0|0:0,0:0:0:0:
152,16,222794,2,0,L|160:80,1,55,2|0,0:0|0:0,0:0:0:0:
288,272,223357,6,0,L|296:208,1,55,0|2,0:0|0:0,0:0:0:0:
376,144,223732,2,0,L|384:208,1,55
456,248,224107,1,6,0:0:0:0:
176,264,224482,1,6,0:0:0:0:
104,240,224669,1,0,0:0:0:0:
64,304,224857,1,2,0:0:0:0:
112,368,225044,1,0,0:0:0:0:
176,336,225232,1,2,0:0:0:0:
176,336,225607,6,0,B|200:352|240:352|240:352,1,55,0|2,0:0|0:0,0:0:0:0:
352,384,225982,2,0,B|320:368|296:344|296:344,1,55
280,224,226357,2,0,B|272:264|256:288|256:288,1,55,2|2,0:0|0:0,0:0:0:0:
200,232,226732,1,2,0:0:0:0:
184,160,226919,1,0,0:0:0:0:
200,88,227107,1,0,0:0:0:0:
256,32,227294,2,0,B|296:80|368:64|368:64,1,110,2|0,0:0|0:0,0:0:0:0:
488,56,227857,2,0,B|472:96|472:144|472:144,1,82.5,2|0,0:0|0:0,0:0:0:0:
488,160,228232,6,0,B|424:144|376:168|376:168,1,110,4|0,0:0|0:0,0:0:0:0:
440,240,228794,2,0,L|496:248,1,55,2|0,0:0|0:0,0:0:0:0:
288,336,229357,2,0,L|224:344,1,55,0|2,0:0|0:0,0:0:0:0:
176,256,229732,2,0,L|240:264,1,55
304,216,230107,1,6,0:0:0:0:
160,120,230482,5,4,0:0:0:0:
80,136,230669,1,0,0:0:0:0:
64,56,230857,1,2,0:0:0:0:
144,40,231044,1,2,0:0:0:0:
160,120,231232,1,0,0:0:0:0:
160,120,231607,6,0,B|160:152|136:184|136:184,1,55,0|2,0:0|0:0,0:0:0:0:
24,152,231982,2,0,B|56:152|80:128|80:128,1,55
32,64,232357,2,0,B|8:40|0:0|0:0,1,55,2|0,0:0|0:0,0:0:0:0:
128,16,232732,2,0,B|184:0|240:32|240:32,1,110,0|2,0:0|0:0,0:0:0:0:
288,88,233294,1,0,0:0:0:0:
296,168,233482,1,2,0:0:0:0:
240,232,233669,2,0,B|192:176|224:120|224:120,1,110,4|0,0:0|0:0,0:0:0:0:
402,157,234232,6,0,B|346:189|290:165|290:165,1,110,4|0,0:0|0:0,0:0:0:0:
219,129,234794,1,2,0:0:0:0:
288,88,234982,1,0,0:0:0:0:
488,328,235357,5,2,0:0:0:0:
408,320,235544,1,0,0:0:0:0:
328,328,235732,1,2,0:0:0:0:
248,344,235919,1,0,0:0:0:0:
168,336,236107,1,6,0:0:0:0:
168,336,236482,2,0,B|160:368|176:392|176:392,1,55,4|0,0:0|0:0,0:0:0:0:
248,344,236857,2,0,B|259:322|259:290|259:290,1,55,4|0,0:0|0:0,0:0:0:0:
96,224,237232,6,0,B|64:280|88:336|88:336,1,110,2|0,0:0|0:0,0:0:0:0:
168,336,237794,1,2,0:0:0:0:
176,256,237982,2,0,B|184:224|184:184|184:184,1,55
40,104,238357,2,0,B|32:136|32:176|32:176,1,55,2|0,0:0|0:0,0:0:0:0:
104,216,238732,2,0,B|112:152|120:96|120:96,1,110,2|0,0:0|0:0,0:0:0:0:
200,96,239294,1,2,0:0:0:0:
280,112,239482,1,0,0:0:0:0:
296,32,239669,1,0,0:0:0:0:
216,16,239857,2,0,B|208:80|200:136|200:136,1,110,2|4,0:0|0:0,0:0:0:0:
312,240,240607,6,0,B|344:232|376:232|376:232,1,55,0|2,0:0|0:0,0:0:0:0:
464,144,240982,2,0,B|432:152|400:152|400:152,1,55
328,136,241357,1,6,0:0:0:0:
440,280,241732,6,0,B|472:280|512:288|512:288,1,55,0|2,0:0|0:0,0:0:0:0:
448,368,242107,2,0,B|424:376|384:376|384:376,1,55,6|0,0:0|0:0,0:0:0:0:
328,296,242482,2,0,B|328:328|312:360|312:360,1,55,6|0,0:0|0:0,0:0:0:0:
224,384,242857,2,0,B|216:336|240:296|240:296,1,82.5,4|0,0:0|0:0,0:0:0:0:
240,288,243232,6,0,B|184:304|128:272|128:272,1,110,2|0,0:0|0:0,0:0:0:0:
112,192,243794,1,2,0:0:0:0:
56,256,243982,1,4,0:0:0:0:
56,256,244357,2,0,B|32:240|32:200|32:200,1,55,2|0,0:0|0:0,0:0:0:0:
128,136,244732,2,0,B|128:176|112:192|112:192,1,55
48,128,245107,1,4,0:0:0:0:
168,56,245294,1,0,0:0:0:0:
192,192,245482,1,2,0:0:0:0:
192,192,245669,2,0,B|240:232|304:208|304:208,1,110,4|0,0:0|0:0,0:0:0:0:
368,152,246232,6,0,B|392:96|376:32|376:32,1,110,4|0,0:0|0:0,0:0:0:0:
456,0,246794,2,0,B|456:40|464:64|464:64,1,55,2|4,0:0|0:0,0:0:0:0:
304,80,247169,1,2,0:0:0:0:
304,80,247544,2,0,L|232:88,1,55,2|0,0:0|0:0,0:0:0:0:
368,152,247919,2,0,L|440:144,1,55,0|4,0:0|0:0,0:0:0:0:
512,24,248294,1,0,0:0:0:0:
472,88,248482,2,0,B|456:144|488:200|488:200,1,110,4|4,0:0|0:0,0:0:0:0:
512,344,249232,6,0,B|456:320|400:352|400:352,1,110,2|0,0:0|0:0,0:0:0:0:
336,384,249794,1,2,0:0:0:0:
272,344,249982,2,0,B|256:320|264:288|264:288,1,55
296,216,250357,1,2,0:0:0:0:
344,280,250544,1,0,0:0:0:0:
184,296,250732,2,0,B|176:240|200:184|200:184,2,110,2|4|6,0:0|0:0|0:0,0:0:0:0:
296,216,251669,2,0,B|320:160|304:96|304:96,1,110,4|0,0:0|0:0,0:0:0:0:
200,40,252232,6,0,B|144:64|88:32|88:32,1,110,4|0,0:0|0:0,0:0:0:0:
0,24,252794,1,2,0:0:0:0:
0,120,252982,2,0,B|32:120|64:128|64:128,1,55,4|0,0:0|0:0,0:0:0:0:
136,136,253357,1,2,0:0:0:0:
136,136,253732,5,0,0:0:0:0:
200,184,253919,1,2,0:0:0:0:
208,264,254107,1,4,0:0:0:0:
184,336,254294,1,0,0:0:0:0:
72,368,254482,2,0,B|56:344|56:312|56:312,1,55,4|0,0:0|0:0,0:0:0:0:
112,224,254857,2,0,B|128:248|128:280|128:280,1,55,4|0,0:0|0:0,0:0:0:0:
184,336,255232,6,0,B|232:368|296:352|296:352,1,110,2|0,0:0|0:0,0:0:0:0:
352,296,255794,1,2,0:0:0:0:
272,272,255982,1,4,0:0:0:0:
290,353,256169,1,0,0:0:0:0:
352,296,256357,2,0,B|368:264|360:224|360:224,1,55,2|0,0:0|0:0,0:0:0:0:
424,328,256732,2,0,B|424:368|440:400|440:400,1,55,0|2,0:0|0:0,0:0:0:0:
480,264,257107,2,0,B|480:232|472:200|472:200,1,55,4|0,0:0|0:0,0:0:0:0:
496,128,257482,1,4,0:0:0:0:
416,136,257669,2,0,B|384:192|400:248|400:248,1,110,4|0,0:0|0:0,0:0:0:0:
398,242,258232,6,0,B|344:224|288:240|288:240,1,110,4|0,0:0|0:0,0:0:0:0:
216,256,258794,1,2,0:0:0:0:
168,192,258982,1,4,0:0:0:0:
224,136,259169,1,0,0:0:0:0:
296,160,259357,2,0,B|328:160|360:152|360:152,1,55,2|0,0:0|0:0,0:0:0:0:
216,256,259732,6,0,B|184:256|152:264|152:264,1,55,2|0,0:0|0:0,0:0:0:0:
88,224,260107,1,4,0:0:0:0:
216,88,260482,2,0,B|240:80|296:88|296:88,1,55,6|0,0:0|0:0,0:0:0:0:
192,168,260857,2,0,B|160:176|112:168|112:168,1,55,4|0,0:0|0:0,0:0:0:0:
152,8,261232,6,0,B|208:0|264:16|264:16,2,110,2|2|4,0:0|0:0|0:0,0:0:0:0:
152,8,262357,1,2,0:0:0:0:
48,8,262544,1,0,0:0:0:0:
48,112,262732,2,0,B|128:152|208:128|208:128,2,165.000006294251,4|0|4,0:0|0:0|0:0,0:0:0:0:
416,208,264607,6,0,L|498:214,1,82.5000031471254,4|0,0:0|0:0,0:0:0:0:
288,176,264982,2,0,B|376:240|280:296|280:296,1,144.375005507469,12|0,0:0|0:0,0:0:0:0:
280,304,265732,6,0,B|240:288|184:312|184:312,1,82.5000031471254,4|0,0:0|0:0,0:0:0:0:
376,360,266107,2,0,B|416:376|464:368|464:368,1,82.5000031471254,6|0,0:0|0:0,0:0:0:0:
496,208,266482,2,0,B|520:144|488:88|488:88,1,123.750004720688,14|0,0:0|0:0,0:0:0:0:
408,168,266857,2,0,B|392:216|400:256|400:256,1,82.5000031471254,2|0,0:0|0:0,0:0:0:0:
304,128,267232,5,4,0:0:0:0:
304,128,267607,2,0,L|216:136,1,82.5000031471254,6|0,0:0|0:0,0:0:0:0:
152,48,267982,2,0,L|240:40,1,82.5000031471254,12|0,0:0|0:0,0:0:0:0:
312,48,268357,1,2,0:0:0:0:
384,80,268544,1,2,0:0:0:0:
152,48,268732,6,0,L|240:40,1,82.5000031471254,4|0,0:0|0:0,0:0:0:0:
312,48,269107,1,6,0:0:0:0:
384,80,269294,1,2,0:0:0:0:
464,176,269482,5,14,0:0:0:0:
384,176,269669,1,2,0:0:0:0:
312,208,269857,1,2,0:0:0:0:
264,272,270044,1,2,0:0:0:0:
176,192,270232,5,4,0:0:0:0:
176,192,270607,2,0,L|184:104,1,82.5000031471254,4|0,0:0|0:0,0:0:0:0:
88,144,270982,2,0,L|72:336,1,165.000006294251,12|0,0:0|0:0,0:0:0:0:
0,216,271544,1,2,0:0:0:0:
176,192,271732,2,0,L|184:104,1,82.5000031471254,4|2,0:0|0:0,0:0:0:0:
32,8,272107,2,0,L|24:96,1,82.5000031471254,4|0,0:0|0:0,0:0:0:0:
74,308,272482,2,0,L|82:220,1,82.5000031471254,12|0,0:0|0:0,0:0:0:0:
327,218,272857,2,0,B|335:214|239:262|175:190,1,165.000006294251,2|4,0:0|0:0,0:0:0:0:
175,190,273607,5,4,0:0:0:0:
440,256,273982,2,0,B|400:160|480:88|480:88,1,165.000006294251,12|2,0:0|0:0,0:0:0:0:
496,8,274544,1,2,0:0:0:0:
464,104,274732,2,0,B|424:136|368:120|368:120,1,82.5000031471254,4|0,0:0|0:0,0:0:0:0:
320,0,275107,2,0,B|368:-8|400:40|400:40,1,82.5000031471254,4|0,0:0|0:0,0:0:0:0:
464,104,275482,1,12,0:0:0:0:
440,256,275669,1,2,0:0:0:0:
304,152,275857,1,2,0:0:0:0:
304,152,276232,6,0,L|328:232,1,82.5000031471254,4|0,0:0|0:0,0:0:0:0:
216,328,276607,2,0,L|240:248,1,82.5000031471254,4|0,0:0|0:0,0:0:0:0:
160,200,276982,2,0,L|-8:232,1,165.000006294251,12|2,0:0|0:0,0:0:0:0:
360,88,277732,6,0,L|256:64,1,82.5000031471254,4|0,0:0|0:0,0:0:0:0:
72,32,278107,2,0,L|176:8,1,82.5000031471254,6|0,0:0|0:0,0:0:0:0:
280,72,278482,1,12,0:0:0:0:
224,184,278669,1,2,0:0:0:0:
112,136,278857,1,2,0:0:0:0:
112,136,279232,6,0,B|136:176|120:224|120:224,1,82.5000031471254,4|0,0:0|0:0,0:0:0:0:
40,272,279607,2,0,B|16:232|32:192|32:192,1,82.5000031471254,4|0,0:0|0:0,0:0:0:0:
269,150,279982,2,0,B|181:190|109:134|109:134,1,165.000006294251,12|0,0:0|0:0,0:0:0:0:
111,135,280544,1,2,0:0:0:0:
88,40,280732,6,0,B|136:24|176:64|176:64,1,82.5000031471254,4|0,0:0|0:0,0:0:0:0:
272,0,281107,2,0,L|248:112,1,82.5000031471254,4|0,0:0|0:0,0:0:0:0:
280,168,281482,1,12,0:0:0:0:
336,104,281669,1,2,0:0:0:0:
192,144,281857,5,0,0:0:0:0:
360,192,282044,1,2,0:0:0:0:
312,24,282232,1,4,0:0:0:0:
312,280,282607,5,4,0:0:0:0:
368,352,282794,1,0,0:0:0:0:
312,280,282982,2,0,B|240:232|152:264|152:264,1,165.000006294251,12|2,0:0|0:0,0:0:0:0:
153,263,283544,1,2,0:0:0:0:
88,336,283732,2,0,B|120:368|168:360|168:360,1,82.5000031471254,4|0,0:0|0:0,0:0:0:0:
153,263,284107,2,0,B|185:223|177:175|177:175,1,82.5000031471254,4|0,0:0|0:0,0:0:0:0:
232,304,284482,2,0,B|312:368|408:328|408:328,1,165.000006294251,12|2,0:0|0:0,0:0:0:0:
128,200,285232,6,0,B|72:200|16:208|16:208,1,82.5000031471254,4|0,0:0|0:0,0:0:0:0:
144,88,285607,2,0,B|200:88|256:80|256:80,1,82.5000031471254,6|0,0:0|0:0,0:0:0:0:
368,240,285982,2,0,B|312:240|256:248|256:248,1,82.5000031471254,14|0,0:0|0:0,0:0:0:0:
224,184,286357,1,2,0:0:0:0:
224,184,286732,6,0,B|232:256|240:360|240:360,1,165.000006294251,4|6,0:0|0:0,0:0:0:0:
312,384,287294,1,2,0:0:0:0:
320,304,287482,1,14,0:0:0:0:
152,232,287669,5,2,0:0:0:0:
312,200,287857,1,2,0:0:0:0:
56,40,288232,5,4,0:0:0:0:
56,40,288607,2,0,B|40:80|56:120|56:120,1,82.5000031471254,4|0,0:0|0:0,0:0:0:0:
152,232,288982,2,0,B|168:192|152:152|152:152,1,82.5000031471254,4|0,0:0|0:0,0:0:0:0:
232,96,289357,2,0,L|432:80,1,165.000006294251,2|4,0:0|0:0,0:0:0:0:
496,184,289919,2,0,L|384:192,1,82.5000031471254,0|4,0:0|0:0,0:0:0:0:
320,136,290294,1,0,0:0:0:0:
416,112,290482,2,0,B|480:184|424:264|424:264,1,165.000006294251,12|2,0:0|0:0,0:0:0:0:
240,352,291232,6,0,L|128:360,1,82.5000031471254,4|0,0:0|0:0,0:0:0:0:
24,280,291607,2,0,L|136:272,1,82.5000031471254,4|0,0:0|0:0,0:0:0:0:
216,256,291982,2,0,L|208:80,1,165.000006294251,12|2,0:0|0:0,0:0:0:0:
128,32,292544,1,0,0:0:0:0:
120,128,292732,1,4,0:0:0:0:
416,256,293107,1,4,0:0:0:0:
408,160,293295,1,0,0:0:0:0:
327,219,293482,2,0,L|320:384,1,165.000006294251,12|2,0:0|0:0,0:0:0:0:
408,360,294044,6,0,B|448:336|496:352|496:352,1,82.5000031471254,0|4,0:0|0:0,0:0:0:0:
416,256,294419,2,0,B|408:208|400:152|400:152,2,82.5000031471254,2|4|0,0:0|0:0|0:0,0:0:0:0:
328,304,294982,2,0,B|248:272|168:320|168:320,1,165.000006294251,12|0,0:0|0:0,0:0:0:0:
56,296,295544,1,2,0:0:0:0:
136,216,295732,2,0,B|152:176|144:128|144:128,1,82.5000031471254,4|0,0:0|0:0,0:0:0:0:
232,112,296107,2,0,B|224:152|240:200|240:200,1,82.5000031471254,6|0,0:0|0:0,0:0:0:0:
328,240,296482,2,0,B|320:200|328:152|328:152,1,82.5000031471254,12|0,0:0|0:0,0:0:0:0:
416,144,296857,2,0,B|416:200|424:320|424:320,1,165.000006294251,0|4,0:0|0:0,0:0:0:0:
56,296,297607,5,4,0:0:0:0:
424,312,297982,2,0,L|328:320,1,82.5000031471254,12|0,0:0|0:0,0:0:0:0:
248,304,298357,1,2,0:0:0:0:
152,320,298544,1,2,0:0:0:0:
56,296,298732,2,0,L|32:208,1,82.5000031471254,4|0,0:0|0:0,0:0:0:0:
152,96,299107,2,0,L|128:184,1,82.5000031471254,4|0,0:0|0:0,0:0:0:0:
224,216,299482,2,0,L|312:208,1,82.5000031471254,12|0,0:0|0:0,0:0:0:0:
440,136,299857,1,2,0:0:0:0:
440,136,300232,6,0,L|352:144,1,82.5000031471254,4|0,0:0|0:0,0:0:0:0:
272,296,300607,2,0,L|360:288,1,82.5000031471254,4|0,0:0|0:0,0:0:0:0:
480,216,300982,2,0,B|424:120|488:40|488:40,1,165.000006294251,12|0,0:0|0:0,0:0:0:0:
384,24,301544,2,0,B|344:40|296:32|296:32,1,82.5000031471254,0|4,0:0|0:0,0:0:0:0:
312,152,301919,2,0,B|256:144|224:112|224:112,1,82.5000031471254,0|4,0:0|0:0,0:0:0:0:
264,240,302294,1,0,0:0:0:0:
168,216,302482,2,0,B|112:144|112:56|112:56,2,165.000006294251,12|2|4,0:0|0:0|0:0,0:0:0:0:
264,240,303419,5,2,0:0:0:0:
296,144,303607,1,4,0:0:0:0:
200,120,303794,1,0,0:0:0:0:
168,216,303982,2,0,B|152:264|160:304|160:304,1,82.5000031471254,12|0,0:0|0:0,0:0:0:0:
264,240,304357,2,0,L|360:232,1,82.5000031471254,2|0,0:0|0:0,0:0:0:0:
200,120,304732,2,0,L|104:128,1,82.5000031471254,4|0,0:0|0:0,0:0:0:0:
296,144,305107,2,0,B|384:176|456:120|456:120,2,165.000006294251,4|12|2,0:0|0:0|0:0,0:0:0:0:
224,48,306044,1,0,0:0:0:0:
328,32,306232,5,4,0:0:0:0:
328,32,306607,2,0,L|304:120,1,82.5000031471254,4|0,0:0|0:0,0:0:0:0:
416,256,306982,2,0,L|392:168,1,82.5000031471254,12|0,0:0|0:0,0:0:0:0:
496,104,307357,1,2,0:0:0:0:
256,240,307732,2,0,L|232:328,1,82.5000031471254,4|0,0:0|0:0,0:0:0:0:
136,384,308107,2,0,L|112:296,1,82.5000031471254,6|0,0:0|0:0,0:0:0:0:
352,320,308482,2,0,B|424:384|512:344|512:344,1,165.000006294251,12|2,0:0|0:0,0:0:0:0:
408,248,309044,1,0,0:0:0:0:
320,232,309232,5,4,0:0:0:0:
352,320,309419,1,0,0:0:0:0:
408,248,309607,2,0,B|440:208|424:152|424:152,1,82.5000031471254,4|0,0:0|0:0,0:0:0:0:
320,48,309982,2,0,B|288:88|304:144|304:144,1,82.5000031471254,12|0,0:0|0:0,0:0:0:0:
320,232,310357,2,0,L|216:240,1,82.5000031471254,2|0,0:0|0:0,0:0:0:0:
184,296,310732,5,4,0:0:0:0:
125,241,310919,1,0,0:0:0:0:
104,160,311107,1,4,0:0:0:0:
120,80,311294,1,0,0:0:0:0:
184,136,311482,5,12,0:0:0:0:
40,104,311669,1,0,0:0:0:0:
200,56,311857,1,4,0:0:0:0:
168,216,312044,1,0,0:0:0:0:
80,232,312232,6,0,L|-16:248,1,82.5000031471254,4|0,0:0|0:0,0:0:0:0:
168,216,312607,2,0,L|208:304,1,82.5000031471254,4|0,0:0|0:0,0:0:0:0:
264,224,312982,2,0,L|432:208,2,165.000006294251,12|4|4,0:0|0:0|0:0,0:0:0:0:
80,232,313919,6,0,L|-16:248,1,82.5000031471254,0|4,0:0|0:0,0:0:0:0:
56,328,314294,2,0,L|152:312,1,82.5000031471254,0|4,0:0|0:0,0:0:0:0:
104,136,314669,2,0,L|8:152,1,82.5000031471254,0|4,0:0|0:0,0:0:0:0:
80,232,315044,1,0,0:0:0:0:
161,218,315232,6,0,B|168:280|168:312|168:312,1,82.5000031471254,4|0,0:0|0:0,0:0:0:0:
264,384,315607,2,0,B|257:322|257:290|257:290,1,82.5000031471254,4|0,0:0|0:0,0:0:0:0:
328,112,315982,2,0,B|336:176|336:256|336:256,1,123.750004720688,12|0,0:0|0:0,0:0:0:0:
328,256,316357,2,0,L|424:248,1,82.5000031471254,2|0,0:0|0:0,0:0:0:0:
512,216,316732,5,4,0:0:0:0:
512,112,316919,1,0,0:0:0:0:
408,144,317107,2,0,L|416:248,1,82.5000031471254,4|0,0:0|0:0,0:0:0:0:
264,384,317482,2,0,L|256:280,1,82.5000031471254,4|2,0:0|0:0,0:0:0:0:
280,184,317857,2,0,B|281:182|225:254|129:214,1,165.000006294251,4|4,0:0|0:0,0:0:0:0:
56,136,318419,6,0,B|91:105|133:114|133:114,1,82.5000031471254,0|4,0:0|0:0,0:0:0:0:
296,80,318794,2,0,B|256:96|208:64|208:64,1,82.5000031471254,0|12,0:0|0:0,0:0:0:0:
136,24,319169,1,2,0:0:0:0:
344,8,319357,2,0,B|384:-8|432:0|432:0,1,82.5000031471254,4|0,0:0|0:0,0:0:0:0:
384,112,319732,6,0,L|376:200,1,82.5000031471254,4|0,0:0|0:0,0:0:0:0:
280,264,320107,2,0,L|288:176,1,82.5000031471254,4|0,0:0|0:0,0:0:0:0:
464,160,320482,2,0,B|504:248|448:320|448:320,2,165.000006294251,12|4|4,0:0|0:0|0:0,0:0:0:0:
384,112,321419,5,2,0:0:0:0:
376,194,321607,1,0,0:0:0:0:
464,160,321794,1,4,0:0:0:0:
472,72,321982,2,0,B|448:32|392:32|392:32,1,82.5000031471254,12|0,0:0|0:0,0:0:0:0:
310,140,322357,2,0,B|360:147|388:105|388:105,1,82.5000031471254,2|0,0:0|0:0,0:0:0:0:
352,224,322732,2,0,B|320:264|336:312|336:312,1,82.5000031471254,4|0,0:0|0:0,0:0:0:0:
456,360,323107,2,0,B|456:314|416:290,1,82.5000031471254,4|0,0:0|0:0,0:0:0:0:
352,224,323482,1,12,0:0:0:0:
376,376,323669,1,2,0:0:0:0:
504,272,323857,1,4,0:0:0:0:
333,301,324232,6,0,B|272:368|176:328|176:328,1,165.000006294251,4|4,0:0|0:0,0:0:0:0:
112,280,324794,1,2,0:0:0:0:
88,200,324982,2,0,B|75:144|71:105|71:105,1,82.5000031471254,12|0,0:0|0:0,0:0:0:0:
11,238,325357,2,0,B|23:293|27:332|27:332,1,82.5000031471254,4|0,0:0|0:0,0:0:0:0:
272,168,325732,5,4,0:0:0:0:
232,88,325919,1,2,0:0:0:0:
180,159,326107,2,0,B|185:196|194:240|194:240,1,82.5000031471254,4|0,0:0|0:0,0:0:0:0:
272,168,326482,2,0,L|408:168,1,123.750004720688,12|0,0:0|0:0,0:0:0:0:
416,152,326857,1,4,0:0:0:0:
336,72,327044,1,0,0:0:0:0:
336,72,327138,1,0,0:0:0:0:
336,72,327232,6,0,L|424:64,1,82.5000031471254,4|0,0:0|0:0,0:0:0:0:
472,256,327607,2,0,L|384:264,1,82.5000031471254,4|0,0:0|0:0,0:0:0:0:
272,168,327982,1,14,0:0:0:0:
160,152,328169,1,2,0:0:0:0:
144,264,328357,1,2,0:0:0:0:
256,280,328544,1,2,0:0:0:0:
208,216,328732,5,4,0:0:0:0:
64,240,328919,1,2,0:0:0:0:
152,344,329107,2,0,B|150:302|144:248|144:248,1,82.5000031471254,6|0,0:0|0:0,0:0:0:0:
200,120,329482,2,0,B|202:162|208:216|208:216,1,82.5000031471254,12|4,0:0|0:0,0:0:0:0:
256,280,329857,1,2,0:0:0:0:
288,200,330044,1,0,0:0:0:0:
344,272,330232,6,0,B|424:224|504:272|504:272,1,165.000006294251,4|4,0:0|0:0,0:0:0:0:
512,80,330794,1,0,0:0:0:0:
432,128,330982,2,0,B|384:144|352:136|352:136,1,82.5000031471254,12|0,0:0|0:0,0:0:0:0:
184,192,331357,2,0,B|232:184|272:208|272:208,1,82.5000031471254,4|0,0:0|0:0,0:0:0:0:
208,288,331732,2,0,B|168:304|120:296|120:296,1,82.5000031471254,4|0,0:0|0:0,0:0:0:0:
304,352,332107,2,0,B|368:344|432:368|432:368,1,123.750004720688,4|0,0:0|0:0,0:0:0:0:
480,296,332482,2,0,B|536:216|496:136|496:136,1,165.000006294251,12|4,0:0|0:0,0:0:0:0:
256,192,333232,5,4,0:0:0:0:
256,192,333325,12,0,336232,0:0:0:0:
