osu file format v14

[General]
AudioFilename: audio.mp3
AudioLeadIn: 0
PreviewTime: 1599846
Countdown: 0
SampleSet: Soft
StackLeniency: 0.7
Mode: 0
LetterboxInBreaks: 0
EpilepsyWarning: 1
WidescreenStoryboard: 1

[Editor]
Bookmarks: 15589,43827,72066,100305,128544,171343,217231,245470,273709,303504,331971,374004,402033,430062,458091,486120,513970,555709,598888,626514,654140,694193,722704,763555,804418,858893,886127,913372,938905,969546,996782,1037636,1078490,1107428,1148707,1209995,1250848,1278084,1305320,1346175,1387889,1415126,1450877,1505365,1559833,1614313,1668790,1713046,1767522
DistanceSpacing: 1.6
BeatDivisor: 4
GridSize: 32
TimelineZoom: 2.299999

[Metadata]
Title:Umineko no Naku Koro ni Compilation
TitleUnicode:うみねこのなく頃に Compilation
Artist:zts
ArtistUnicode:zts
Creator:Leader
Version:When They Cry
Source:うみねこのなく頃に
Tags:rue nemis -kevincela- okoratu okorin mirash tokiko marathon video game instrumental ryushiki07 chiru 07th expansion when they cry visual novel ushiromiya battler eva maria ange beatrice furudo erika goldenslaughterer the executioner liberatedliberator resurrectedreplayer death from stupefaction dreamenddischarger worldenddominator lastendconductor
BeatmapID:2089071
BeatmapSetID:998836

[Difficulty]
HPDrainRate:5
CircleSize:4
OverallDifficulty:8
ApproachRate:9
SliderMultiplier:1.6
SliderTickRate:1

[Events]
//Background and Video events
0,0,"bg.jpg",0,0
//Break Periods
2,157424,170130
2,275467,279957
2,486320,489011
2,490247,492501
2,722904,735151
2,934650,938305
2,1148907,1160873
2,1182959,1188968
2,1332754,1344898
2,1464694,1474108
2,1587284,1596696
//Storyboard Layer 0 (Background)
//Storyboard Layer 1 (Fail)
//Storyboard Layer 2 (Pass)
//Storyboard Layer 3 (Foreground)
//Storyboard Layer 4 (Overlay)
//Storyboard Sound Samples

[TimingPoints]
15589,441.231624541303,4,2,1,40,1,0
21104,-200,4,2,1,40,0,0
22428,-100,4,2,1,25,0,0
22501,-100,4,2,1,30,0,0
22575,-100,4,2,1,35,0,0
43827,-100,4,2,1,40,0,0
47357,-100,4,2,1,30,0,0
47798,-100,4,2,1,20,0,0
48240,-100,4,2,1,30,0,0
49122,-100,4,2,1,40,0,0
54637,-100,4,2,1,20,0,0
54858,-100,4,2,1,30,0,0
55299,-100,4,2,1,40,0,0
55961,-100,4,2,1,30,0,0
57947,-100,4,2,1,40,0,0
72066,-100,4,2,1,50,0,0
98540,-100,4,2,1,40,0,0
100305,-100,4,2,1,30,0,0
104276,-1000,4,2,1,35,0,0
104386,-100,4,2,1,35,0,0
106923,-100,4,2,1,20,0,0
107365,-100,4,2,1,35,0,0
111336,-285.714285714284,4,2,1,35,0,0
114424,-100,4,2,1,50,0,0
124793,-100,4,2,1,20,0,0
125896,-100,4,2,1,30,0,0
126779,-100,4,2,1,40,0,0
127661,-76.9230769230769,4,2,1,50,0,0
128544,-100,4,2,1,50,0,1
140898,-83.3333333333333,4,2,1,70,0,0
142222,-100,4,2,1,70,0,0
142663,-83.3333333333333,4,2,1,70,0,1
155018,-100,4,2,1,70,0,0
157224,441.231624541303,4,2,1,70,1,0
170791,-100,4,2,1,40,0,0
171343,-100,4,2,1,50,0,0
188110,-66.6666666666667,4,2,1,70,0,0
188551,-50,4,2,1,70,0,0
188992,-90.9090909090909,4,2,1,70,0,1
202670,-90.9090909090909,4,2,1,70,0,0
203112,-90.9090909090909,4,2,1,70,0,1
209730,-90.9090909090909,4,2,1,70,0,0
210171,-90.9090909090909,4,2,1,70,0,1
217231,-100,4,2,1,70,0,0
246794,-83.3333333333333,4,2,1,70,0,0
247124,-100,4,2,1,70,0,0
271944,-125,4,2,1,70,0,0
273267,-66.6666666666667,4,2,1,70,0,0
273709,439.56043956044,4,2,1,70,1,0
280631,-100,4,2,1,20,0,0
280741,437.956204379562,4,2,1,70,1,0
280741,-200,4,2,1,20,0,0
287091,-200,4,2,1,40,0,0
287748,-100,4,2,1,70,0,0
288185,-66.6666666666667,4,2,1,70,0,0
295631,-33.3333333333333,4,2,1,70,0,0
296507,-66.6666666666667,4,2,1,70,0,0
297383,-33.3333333333333,4,2,1,70,0,0
298258,-66.6666666666667,4,2,1,70,0,0
298696,-33.3333333333333,4,2,1,70,0,0
299134,-66.6666666666667,4,2,1,70,0,0
299572,-33.3333333333333,4,2,1,70,0,0
301324,-100,4,2,1,70,0,0
301762,435.57168784029,4,2,1,70,1,0
303504,437.956204379562,4,2,1,70,1,0
303504,-100,4,2,1,70,0,1
317080,-200,4,2,1,70,0,1
317518,-100,4,2,1,70,0,1
317956,-133.333333333333,4,2,1,70,0,1
318394,-100,4,2,1,70,0,1
329781,-50,4,2,1,70,0,1
330219,-66.6666666666667,4,2,1,70,0,1
330657,-100,4,2,1,70,0,1
331095,-133.333333333333,4,2,1,70,0,1
331533,-50,4,2,1,70,0,1
331971,437.956204379562,4,2,1,70,1,0
331971,-100,4,2,1,70,0,0
335255,-100,4,2,1,30,0,0
335474,-100,4,2,1,70,0,0
337883,-100,4,2,1,30,0,0
338102,-100,4,2,1,70,0,0
342481,-133.333333333333,4,2,1,70,0,0
342919,-100,4,2,1,70,0,0
343357,-100,4,2,1,45,0,0
343795,-100,4,2,1,50,0,0
344233,-100,4,2,1,55,0,0
344671,-100,4,2,1,60,0,0
345109,-100,4,2,1,65,0,0
345547,-66.6666666666667,4,2,1,70,0,0
345985,-500,4,2,1,70,0,0
347737,-500,4,2,1,60,0,0
349489,-500,4,2,1,50,0,0
351241,-100,4,2,1,40,0,0
352992,-100,4,2,1,50,0,0
355620,-100,4,2,1,30,0,0
355730,-100,4,2,1,50,0,0
356496,-100,4,2,1,30,0,0
356606,-100,4,2,1,50,0,0
359124,-100,4,2,1,30,0,0
359233,-100,4,2,1,50,0,0
360000,-100,4,2,1,40,0,0
360109,-100,4,2,1,70,0,0
361752,-100,4,2,1,50,0,0
361861,-100,4,2,1,60,0,0
372262,435.57168784029,4,2,1,70,1,0
374004,437.956204379562,4,2,1,70,1,0
374004,-71.4285714285714,4,2,1,70,0,0
394697,-62.5,4,2,1,70,0,0
395025,-71.4285714285714,4,2,1,70,0,0
399186,-133.333333333333,4,2,1,70,0,0
402033,-66.6666666666667,4,2,1,70,0,0
409040,-58.8235294117647,4,2,1,70,0,0
410792,-66.6666666666667,4,2,1,70,0,0
416047,-62.5,4,2,1,70,0,0
421303,-71.4285714285714,4,2,1,70,0,0
426558,-90.9090909090909,4,2,1,70,0,0
429186,-62.5,4,2,1,70,0,0
429624,-90.9090909090909,4,2,1,70,0,0
430062,-100,4,2,1,70,0,0
458091,-83.3333333333333,4,2,1,70,0,0
486120,436.363636363636,4,2,1,70,1,0
493101,434.782608695652,4,2,1,60,1,0
493101,-133.333333333333,4,2,1,50,0,0
500057,-100,4,2,1,60,0,0
513970,-83.3333333333333,4,2,1,70,0,1
555709,437.158469945355,4,2,1,70,1,0
557457,431.654676258993,4,2,1,60,1,0
583356,430.10752688172,4,2,1,60,1,0
585076,431.654676258993,4,2,1,60,1,0
624788,-142.857142857143,4,2,1,70,0,0
625219,-83.3333333333333,4,2,1,70,0,0
625651,-66.6666666666667,4,2,1,70,0,0
626299,-100,4,2,1,70,0,0
654140,-100,4,2,1,70,0,0
680040,-76.9230769230769,4,2,1,70,0,0
681766,-76.9230769230769,4,2,1,70,0,0
682414,-76.9230769230769,4,2,1,40,0,0
683493,-76.9230769230769,4,2,1,70,0,0
684572,-76.9230769230769,4,2,1,40,0,0
685219,427.960057061341,4,2,1,40,1,0
686930,-100,4,2,1,70,0,0
688000,-100,4,2,1,40,0,0
688642,-100,4,2,1,70,0,0
688749,-100,4,2,1,30,0,0
690354,-100,4,2,1,50,0,0
691424,-100,4,2,1,30,0,0
692066,425.531914893617,4,2,1,70,1,0
692278,-100,4,2,1,40,0,0
692704,-142.857142857143,4,2,1,30,0,0
693342,-142.857142857143,4,2,1,20,0,0
693768,-142.857142857143,4,2,1,15,0,0
694193,-142.857142857143,4,2,1,60,0,0
695470,-142.857142857143,4,2,1,50,0,0
698236,-142.857142857143,4,2,1,40,0,0
701640,-142.857142857143,4,2,1,30,0,0
714087,-166.666666666667,4,2,1,20,0,0
715683,-200,4,2,1,10,0,0
717278,-250,4,2,1,10,0,0
719087,-333.333333333333,4,2,1,10,0,0
721427,-66.6666666666667,4,2,1,70,0,0
722704,-200,4,2,1,70,0,0
735895,-50,4,2,1,70,0,0
736321,-100,4,2,1,70,0,0
742704,-50,4,2,1,70,0,0
743129,-100,4,2,1,70,0,0
748661,-50,4,2,1,70,0,0
749725,-100,4,2,1,70,0,0
763555,-100,4,2,1,70,0,1
775895,-90.9090909090909,4,2,1,70,0,1
776214,-66.6666666666667,4,2,1,70,0,1
777172,-83.3333333333333,4,2,1,70,0,1
783555,-66.6666666666667,4,2,1,70,0,1
783980,-83.3333333333333,4,2,1,70,0,1
802704,428.571428571429,4,2,1,70,1,0
804418,425.531914893617,4,2,1,70,1,0
804418,-100,4,2,1,70,0,0
807396,-50,4,2,1,70,0,0
807822,-100,4,2,1,70,0,0
808247,-66.6666666666667,4,2,1,70,0,0
808673,-100,4,2,1,70,0,0
817609,-66.6666666666667,4,2,1,70,0,0
818035,-100,4,2,1,70,0,0
831226,-50,4,2,1,70,0,0
831652,-100,4,2,1,70,0,0
843566,428.571428571429,4,2,1,70,1,0
843566,-66.6666666666667,4,2,1,70,0,0
843994,-52.6315789473684,4,2,1,70,0,0
844423,-40,4,2,1,70,0,0
844851,-100,4,2,1,70,0,0
845280,425.531914893617,4,2,1,70,1,0
845705,-100,4,2,1,30,0,0
855067,-100,4,2,1,40,0,0
857194,424.778761061947,4,2,1,50,1,0
858893,425.531914893617,4,2,1,50,1,0
858893,-100,4,2,1,50,0,0
863786,-125,4,2,1,30,0,0
864637,-100,4,2,1,50,0,0
867190,-125,4,2,1,30,0,0
868041,-100,4,2,1,50,0,0
870595,-125,4,2,1,30,0,0
871658,-55.5555555555556,4,2,1,50,0,0
872510,-100,4,2,1,50,0,0
877403,-125,4,2,1,30,0,0
878254,-100,4,2,1,70,0,0
885275,-55.5555555555556,4,2,1,70,0,0
886127,-100,4,2,1,70,0,0
895488,-125,4,2,1,70,0,0
896339,-100,4,2,1,70,0,0
898680,-55.5555555555556,4,2,1,70,0,0
899744,-100,4,2,1,70,0,0
911658,428.571428571429,4,2,1,70,1,0
912515,-55.5555555555556,4,2,1,70,0,0
913372,425.562096602596,4,2,1,70,1,0
913372,-333.333333333333,4,2,1,35,0,0
930820,-333.333333333333,4,2,1,15,0,0
931245,-500,4,2,1,30,0,0
932096,-666.666666666667,4,2,1,25,0,0
932947,-1000,4,2,1,20,0,0
933798,-1000,4,2,1,15,0,0
941459,-66.6666666666667,4,2,1,70,0,0
942310,-100,4,2,1,70,0,0
969546,-66.6666666666667,4,2,1,70,0,0
993803,-58.8235294117647,4,2,1,70,0,0
994228,-54.054054054054,4,2,1,70,0,0
994654,-50,4,2,1,70,0,0
995079,-66.6666666666667,4,2,1,30,0,0
995505,-66.6666666666667,4,2,1,40,0,0
995931,-66.6666666666667,4,2,1,50,0,0
996356,-66.6666666666667,4,2,1,60,0,0
996782,-100,4,2,1,60,0,0
1075936,-83.3333333333333,4,2,1,70,0,0
1076787,-71.4285714285714,4,2,1,70,0,0
1077638,-62.5,4,2,1,70,0,0
1078490,-142.857142857143,4,2,1,60,0,0
1080192,-142.857142857143,4,2,1,50,0,0
1100619,-111.111111111111,4,2,1,60,0,0
1107428,-83.3333333333333,4,2,1,70,0,1
1120407,-34.4827586206897,4,2,1,70,0,1
1120620,-133.333333333333,4,2,1,70,0,1
1120833,-399.999999999997,4,2,1,70,0,1
1121046,-83.3333333333333,4,2,1,70,0,1
1127855,-71.4285714285714,4,2,1,70,0,1
1134664,-100,4,2,1,70,0,0
1146580,-71.4285714285714,4,2,1,70,0,0
1147005,-47.6190476190476,4,2,1,70,0,0
1148707,425.562096602596,4,2,1,70,1,0
1161473,-285.714285714284,4,2,1,30,0,0
1181049,427.807486631016,4,2,1,70,1,0
1181476,-285.714285714286,4,2,1,30,0,0
1182760,425.556059918293,4,2,1,70,1,0
1189568,-200,4,2,1,30,0,0
1206165,-200,4,2,1,35,0,0
1206591,-200,4,2,1,40,0,0
1207016,-200,4,2,1,45,0,0
1207442,-200,4,2,1,50,0,0
1207867,-200,4,2,1,55,0,0
1208293,-200,4,2,1,60,0,0
1209995,-71.4285714285714,4,2,1,70,0,1
1222975,-50,4,2,1,70,0,1
1223187,-100,4,2,1,70,0,1
1223613,-71.4285714285714,4,2,1,70,0,1
1236380,-100,4,2,1,70,0,0
1236592,-25,4,2,1,70,0,0
1236805,-50,4,2,1,70,0,0
1237018,-100,4,2,1,70,0,0
1237231,-71.4285714285714,4,2,1,70,0,1
1249146,-100,4,2,1,70,0,1
1250210,-50,4,2,1,70,0,1
1250423,-100,4,2,1,70,0,1
1250636,-200,4,2,1,70,0,1
1250848,-100,4,2,1,70,0,0
1253827,-71.4285714285714,4,2,1,70,0,0
1254253,-100,4,2,1,70,0,0
1260636,-71.4285714285714,4,2,1,70,0,0
1261062,-100,4,2,1,70,0,0
1263190,-58.8235294117647,4,2,1,70,0,0
1264466,-83.3333333333333,4,2,1,70,0,0
1267445,-71.4285714285714,4,2,1,70,0,0
1267871,-83.3333333333333,4,2,1,70,0,0
1274254,-71.4285714285714,4,2,1,70,0,0
1274680,-83.3333333333333,4,2,1,70,0,0
1277446,-58.8235294117647,4,2,1,70,0,0
1278084,-100,4,2,1,70,0,0
1284467,-76.9230769230769,4,2,1,70,0,0
1284893,-100,4,2,1,70,0,0
1305320,-100,4,2,1,70,0,0
1309894,-100,4,2,1,5,0,0
1310001,-100,4,2,1,70,0,0
1310320,-100,4,2,1,5,0,0
1310426,-100,4,2,1,70,0,0
1323512,-100,4,2,1,5,0,0
1323619,-100,4,2,1,70,0,0
1323938,-100,4,2,1,5,0,0
1324044,-100,4,2,1,70,0,0
1332555,425.652866264633,4,2,1,70,1,0
1346175,-133.333333333333,4,2,1,70,0,0
1359158,-50,4,2,1,70,0,0
1359796,-90.9090909090909,4,2,1,70,0,1
1372992,-90.9090909090909,4,2,1,70,0,0
1373417,-90.9090909090909,4,2,1,70,0,1
1387038,-66.6666666666667,4,2,1,70,0,0
1387889,425.74392476934,4,2,1,70,1,0
1387889,-79.9999999999999,4,2,1,70,0,0
1388101,-79.9999999999999,4,2,1,30,0,0
1413433,423.280423280423,4,2,1,70,1,0
1413433,-100,4,2,1,30,0,0
1413856,-100,4,2,1,40,0,0
1414279,-100,4,2,1,50,0,0
1415126,425.531914893617,4,2,1,60,1,0
1440657,428.571428571429,4,2,1,70,1,0
1444069,425.531914893617,4,2,1,70,1,0
1449388,-50,4,2,1,70,0,0
1450877,-100,4,2,1,70,0,0
1462792,-222.222222222222,4,2,1,70,0,0
1464494,-100,4,2,1,70,0,0
1474708,426.287744227353,4,2,1,70,1,0
1477052,-76.9230769230769,4,2,1,70,0,0
1478133,425.531914893617,4,2,1,70,1,0
1490047,424.028268551237,4,2,1,70,1,0
1490683,-76.9230769230769,4,2,1,70,0,0
1491743,425.531914893617,4,2,1,70,1,0
1501955,426.287744227353,4,2,1,70,1,0
1504086,-66.6666666666667,4,2,1,70,0,0
1504725,-50,4,2,1,70,0,0
1505365,425.531914893617,4,2,1,70,1,0
1505365,-100,4,2,1,70,0,0
1531322,-83.3333333333333,4,2,1,70,0,0
1531747,-69.4444444444444,4,2,1,70,0,0
1532386,-58.8235294117647,4,2,1,70,0,0
1532599,-100,4,2,1,70,0,0
1559833,428.571428571429,4,2,1,70,1,0
1559833,-133.333333333333,4,2,1,45,0,0
1563261,425.531914893617,4,2,1,70,1,0
1563261,-133.333333333333,4,2,1,45,0,0
1570069,424.778761061947,4,2,1,70,1,0
1570069,-133.333333333333,4,2,1,45,0,0
1572617,-133.333333333333,4,2,1,70,0,0
1573467,425.531914893617,4,2,1,70,1,0
1573467,-66.6666666666667,4,2,1,70,0,0
1598998,424.028268551237,4,2,1,70,1,0
1599846,-100,4,2,1,70,0,0
1600694,425.601914893617,4,2,1,70,1,0
1627081,-76.9230769230769,4,2,1,70,0,0
1627506,-66.6666666666667,4,2,1,70,0,0
1627932,-100,4,2,1,70,0,0
1640913,-66.6666666666667,4,2,1,70,0,0
1641338,-100,4,2,1,60,0,0
1655383,-100,4,2,1,50,0,0
1655809,-100,4,2,1,40,0,0
1656235,-100,4,2,1,30,0,0
1656660,-100,4,2,1,20,0,0
1657086,-100,4,2,1,15,0,0
1657511,-100,4,2,1,60,0,0
1657937,-100,4,2,1,50,0,0
1658363,-100,4,2,1,40,0,0
1658788,-100,4,2,1,30,0,0
1659214,-100,4,2,1,20,0,0
1659639,-100,4,2,1,60,0,0
1660065,-100,4,2,1,40,0,0
1660491,-100,4,2,1,50,0,0
1660916,-100,4,2,1,30,0,0
1661342,-100,4,2,1,40,0,0
1661767,-100,4,2,1,20,0,0
1662193,-100,4,2,1,60,0,0
1662619,-100,4,2,1,50,0,0
1663044,-100,4,2,1,40,0,0
1663470,-100,4,2,1,30,0,0
1663895,-100,4,2,1,20,0,0
1664321,-100,4,2,1,60,0,0
1664747,-100,4,2,1,50,0,0
1665172,-100,4,2,1,40,0,0
1665598,-100,4,2,1,30,0,0
1666023,-100,4,2,1,20,0,0
1666449,-100,4,2,1,60,0,0
1666875,-100,4,2,1,50,0,0
1667300,-100,4,2,1,40,0,0
1667726,-100,4,2,1,30,0,0
1668151,-100,4,2,1,40,0,0
1668364,-200,4,2,1,50,0,0
1668577,-200,4,2,1,20,0,0
1668790,-100,4,2,1,30,0,0
1672195,-100,4,2,1,35,0,0
1675599,-100,4,2,1,40,0,0
1679004,-100,4,2,1,45,0,0
1682409,-100,4,2,1,50,0,0
1696028,-100,4,2,1,55,0,0
1711350,424.193149280639,4,2,1,60,1,0
1713046,425.601339225547,4,2,1,60,1,0
1713046,-71.4285714285714,4,2,1,70,0,1
1726452,-71.4285714285714,4,2,1,70,0,0
1726665,-71.4285714285714,4,2,1,70,0,1
1738794,-50,4,2,1,70,0,1
1740284,-100,4,2,1,70,0,0
1764330,-200,4,2,1,70,0,0
1765820,-100,4,2,1,70,0,0
1767522,-100,4,2,1,85,0,0
1767948,-100,4,2,1,80,0,0
1768374,-100,4,2,1,75,0,0
1768799,-100,4,2,1,70,0,0
1769225,-100,4,2,1,65,0,0
1769650,-100,4,2,1,60,0,0
1770076,-100,4,2,1,55,0,0
1770502,-100,4,2,1,50,0,0
1770927,-100,4,2,1,45,0,0
1771353,-100,4,2,1,40,0,0
1771778,-100,4,2,1,35,0,0
1772204,-100,4,2,1,30,0,0
1772630,-100,4,2,1,25,0,0
1773055,-100,4,2,1,20,0,0
1773481,-100,4,2,1,15,0,0
1773906,-100,4,2,1,10,0,0
1774332,-100,4,2,1,5,0,0

[Colours]
Combo1 : 17,254,176
Combo2 : 173,255,95
Combo3 : 255,88,100
Combo4 : 255,94,55

[HitObjects]
173,313,15589,6,0,L|255:309,1,80,2|2,0:0|0:0,0:0:0:0:
234,160,16030,2,0,L|152:164,1,80,0|0,1:0|0:0,0:0:0:0:
303,232,16471,2,0,P|322:154|292:76,1,160,0|2,1:0|0:3,0:0:0:0:
154,163,17133,1,0,1:0:0:0:
253,310,17353,6,0,P|307:318|352:328,1,80,2|0,0:3|1:0,0:0:0:0:
472,356,17795,1,0,1:0:0:0:
426,253,18015,1,0,0:0:0:0:
342,333,18236,1,0,1:0:0:0:
342,333,18457,1,0,1:0:0:0:
313,220,18677,1,2,0:3:0:0:
395,151,18898,1,0,0:0:0:0:
233,320,19118,6,0,P|190:324|132:335,1,80,4|0,0:0|0:0,0:0:0:0:
32,227,19560,2,0,P|71:233|111:237,1,80,2|0,0:0|0:0,0:0:0:0:
244,65,20001,1,2,0:3:0:0:
208,159,20221,1,0,0:0:0:0:
130,94,20442,1,2,0:0:0:0:
309,137,20663,1,0,0:0:0:0:
170,5,20883,1,4,0:0:0:0:
114,187,21104,6,0,B|114:192|114:192|116:195|116:195|113:198|113:198|115:201|115:201|112:203|112:203|114:206|114:206|111:209|111:209|113:212|113:212|110:214|110:214|112:218|112:218|109:220|109:220|111:223|111:223|108:225|108:225|110:229|110:229|107:231|107:231|109:234|109:234|106:237|106:237|108:240|108:240|105:242|105:242|107:245|107:245|104:248|104:248|106:251,1,80,0|4,0:0|0:0,0:0:0:0:
93,337,21655,1,0,0:0:0:0:
93,337,21766,2,0,B|98:337|98:337|101:335|101:335|104:338|104:338|107:336|107:336|109:339|109:339|112:337|112:337|115:340|115:340|118:338|118:338|120:341|120:341|124:339|124:339|126:342|126:342|129:340|129:340|131:343|131:343|135:341|135:341|137:344|137:344|140:342|140:342|143:345|143:345|146:343|146:343|148:346|148:346|151:344|151:344|154:347|154:347|157:345,1,80,0|0,0:0|0:0,0:0:0:0:
266,352,22428,1,0,1:0:0:0:
266,352,22483,1,0,1:0:0:0:
266,352,22538,1,0,0:0:0:0:
266,352,22593,1,0,1:0:0:0:
266,352,22648,6,0,L|349:357,1,80,4|0,1:1|0:0,0:0:0:0:
382,242,23089,2,0,L|302:237,1,80,0|0,1:0|0:0,0:0:0:0:
467,310,23531,2,0,P|483:246|475:186,1,120,0|0,1:0|0:0,0:0:0:0:
478,192,23972,1,0,1:0:0:0:
360,135,24193,1,0,0:0:0:0:
254,339,24413,6,0,L|169:347,1,80,0|8,1:0|0:0,0:0:0:0:
39,217,24854,2,0,L|174:203,1,120,4|0,0:0|0:0,0:0:0:0:
159,204,25296,2,0,P|163:156|151:103,1,80,0|0,1:0|0:0,0:0:0:0:
39,217,25737,1,2,0:0:0:0:
159,124,25957,1,0,1:0:0:0:
187,334,26178,6,0,P|229:332|273:323,1,80,0|0,1:0|0:0,0:0:0:0:
405,178,26619,2,0,L|398:259,1,80,0|0,1:0|0:0,0:0:0:0:
310,93,27061,1,0,1:0:0:0:
310,93,27502,1,2,0:0:0:0:
405,178,27722,1,0,1:0:0:0:
300,339,27943,6,0,L|202:351,1,80,0|0,0:0|1:0,0:0:0:0:
66,247,28384,2,0,P|48:193|67:111,1,120,0|0,1:0|0:0,0:0:0:0:
56,131,28825,2,0,L|146:123,1,80,0|0,1:0|1:0,0:0:0:0:
234,159,29267,1,2,1:2:0:0:
280,56,29487,1,0,1:0:0:0:
326,227,29708,6,0,B|405:246|405:246|486:200,2,160,4|0|0,1:0|1:0|1:0,0:0:0:0:
326,227,31032,1,0,0:3:0:0:
232,210,31252,1,0,1:0:0:0:
216,303,31473,1,2,3:0:0:0:
311,322,31693,1,8,0:0:0:0:
76,346,31914,2,0,P|61:286|63:180,2,160,4|0|0,0:0|1:0|0:0,0:0:0:0:
203,252,33017,1,0,1:0:0:0:
203,252,33238,6,0,L|293:246,1,80,0|0,1:0|0:0,0:0:0:0:
168,348,33679,2,0,L|78:354,1,80,0|0,1:0|0:0,0:0:0:0:
89,354,34120,6,0,B|102:302|77:259|77:259|105:234|105:234|72:188|92:131,1,240,0|0,1:0|1:0,0:0:0:0:
131,50,35003,1,0,0:0:0:0:
254,166,35223,6,0,P|289:180|340:191,2,80,0|0|0,1:0|1:0|0:0,0:0:0:0:
131,50,35885,2,0,L|140:141,1,80,0|0,1:0|0:0,0:0:0:0:
111,329,36326,1,0,1:0:0:0:
111,329,36437,1,0,0:0:0:0:
111,329,36547,1,0,0:0:0:0:
111,329,36657,1,0,0:0:0:0:
111,329,36768,6,0,P|170:326|241:353,1,120,4|0,1:0|0:0,0:0:0:0:
227,344,37209,1,0,1:0:0:0:
374,301,37429,1,0,0:0:0:0:
246,231,37650,2,0,P|239:190|248:139,1,80,0|0,1:0|0:0,0:0:0:0:
461,230,38091,1,0,1:0:0:0:
461,230,38202,1,0,0:0:0:0:
461,230,38312,1,0,0:0:0:0:
318,192,38533,5,0,1:0:0:0:
400,145,38753,1,8,0:0:0:0:
334,347,38974,2,0,L|227:359,1,80,4|0,0:0|0:0,0:0:0:0:
174,257,39415,2,0,L|281:245,1,80,0|0,1:0|0:0,0:0:0:0:
98,342,39856,1,2,0:0:0:0:
98,342,39967,1,0,0:0:0:0:
98,342,40077,1,0,1:0:0:0:
98,342,40297,6,0,P|75:275|101:155,1,160,0|0,1:0|1:0,0:0:0:0:
84,187,40959,1,0,0:0:0:0:
343,262,41180,6,0,B|424:279|424:279|498:237,2,160,0|4|0,1:0|0:0|0:0,0:0:0:0:
407,176,42283,1,0,1:0:0:0:
293,354,42504,2,0,L|212:363,1,80,0|0,0:0|0:0,0:0:0:0:
308,128,42945,5,0,1:0:0:0:
160,255,43165,2,0,P|123:242|83:211,2,80,0|2|0,1:0|1:2|1:0,0:0:0:0:
164,80,43827,6,0,L|168:184,1,80,4|0,1:3|0:0,0:0:0:0:
165,260,44269,1,4,0:0:0:0:
165,260,44379,1,0,0:0:0:0:
284,132,44599,1,0,0:0:0:0:
284,132,44710,2,0,P|280:216|280:304,1,160,0|2,1:0|0:0,0:0:0:0:
279,291,45592,6,0,L|383:279,1,80,8|0,0:0|0:0,0:0:0:0:
424,168,46033,1,0,1:0:0:0:
308,132,46254,1,2,0:0:0:0:
192,212,46475,2,0,L|100:224,1,80,0|0,1:0|0:0,0:0:0:0:
16,192,46916,1,2,0:0:0:0:
116,96,47137,1,0,1:0:0:0:
192,212,47357,6,0,P|232:240|288:232,1,80,4|0,1:0|0:0,0:0:0:0:
352,136,47798,2,0,B|352:141|352:141|350:144|350:144|353:147|353:147|351:150|351:150|354:152|354:152|352:155|352:155|355:158|355:158|353:161|353:161|356:163|356:163|354:167|354:167|357:169|357:169|355:172|355:172|358:174|358:174|356:178|356:178|359:180|359:180|357:183|357:183|360:186|360:186|358:189|358:189|361:191|361:191|359:194|359:194|362:197|362:197|360:200,1,80,4|0,0:2|0:0,0:0:0:0:
428,340,48240,2,0,L|440:144,1,160,0|2,1:0|0:2,0:0:0:0:
460,80,48901,1,0,1:0:0:0:
460,80,49012,1,0,1:0:0:0:
460,80,49122,6,0,P|412:96|360:84,1,80,0|0,1:0|1:2,0:0:0:0:
264,32,49563,1,0,1:0:0:0:
252,148,49784,1,2,0:0:0:0:
147,32,50005,2,0,L|163:180,1,120,0|0,1:0|0:0,0:0:0:0:
164,156,50446,2,0,L|156:260,1,80,2|0,1:2|1:0,0:0:0:0:
40,360,50887,6,0,B|52:336|100:312|152:348,1,120,4|0,1:0|0:0,0:0:0:0:
168,320,51328,2,0,L|268:324,1,80,4|0,0:0|0:0,0:0:0:0:
400,344,51769,2,0,P|364:320|372:200,1,160,0|2,1:0|0:0,0:0:0:0:
420,128,52431,6,0,L|316:132,1,80,0|4,1:0|0:0,0:0:0:0:
200,0,52873,1,0,0:0:0:0:
257,80,53093,1,0,1:0:0:0:
355,53,53314,1,2,0:0:0:0:
229,167,53534,1,0,1:0:0:0:
229,167,53645,1,0,0:0:0:0:
284,2,53865,1,2,0:3:0:0:
284,2,53976,1,2,0:0:0:0:
322,141,54196,1,0,1:0:0:0:
160,56,54417,6,0,P|120:48|60:60,1,80,4|2,1:0|1:2,0:0:0:0:
260,64,54858,2,0,B|260:69|260:69|262:72|262:72|259:75|259:75|261:78|261:78|258:80|258:80|260:83|260:83|257:86|257:86|259:89|259:89|256:91|256:91|258:95|258:95|255:97|255:97|257:100|257:100|254:102|254:102|256:106|256:106|253:108|253:108|255:111|255:111|252:114|252:114|254:117|254:117|251:119|251:119|253:122|253:122|250:125|250:125|252:128,1,80,4|0,0:2|0:0,0:0:0:0:
228,320,55299,1,0,1:0:0:0:
228,320,55410,2,0,L|208:172,1,120,0|2,0:0|0:0,0:0:0:0:
228,104,55961,1,0,1:0:0:0:
228,104,56182,6,0,L|132:120,1,80,4|2,1:2|1:2,0:0:0:0:
328,52,56623,2,0,L|412:36,1,80,0|2,1:0|0:0,0:0:0:0:
420,176,57064,1,4,1:0:0:0:
420,176,57175,1,0,0:0:0:0:
236,28,57395,1,0,1:0:0:0:
236,28,57506,1,0,1:0:0:0:
97,204,57726,1,0,1:0:0:0:
152,128,57947,6,0,P|108:112|40:124,1,80,0|0,1:0|0:0,0:0:0:0:
256,56,58388,1,0,1:0:0:0:
260,60,58829,2,0,L|252:156,1,80,0|2,1:0|0:3,0:0:0:0:
240,332,59270,1,0,1:0:0:0:
356,252,59491,1,0,0:0:0:0:
356,252,59601,1,0,0:0:0:0:
356,252,59712,6,0,L|256:244,1,80,0|0,1:0|0:0,0:0:0:0:
72,158,60153,1,0,1:0:0:0:
80,168,60594,1,2,0:0:0:0:
80,168,60704,1,0,1:0:0:0:
216,68,60925,1,0,0:0:0:0:
216,68,61035,2,0,L|200:168,1,80,0|0,1:0|0:0,0:0:0:0:
252,268,61477,6,0,L|268:156,1,80,0|0,1:0|0:0,0:0:0:0:
464,120,61918,1,0,1:0:0:0:
472,128,62359,1,0,1:0:0:0:
472,128,62469,2,0,P|420:120|376:144,1,80,0|0,1:0|0:0,0:0:0:0:
364,140,62800,2,0,L|376:236,1,80,0|2,1:0|0:0,0:0:0:0:
204,76,63242,6,0,P|264:76|304:108,1,80,0|2,1:0|0:0,0:0:0:0:
64,216,63683,1,0,1:0:0:0:
64,216,64124,6,0,B|79:211|77:203|77:203|79:211|99:222|99:222|114:218|112:210|112:210|114:218|134:229|134:229|149:224|147:217|147:217|149:224|169:235|169:235|184:231|182:223|182:223|184:231|204:242|204:242|220:237|217:230|217:230|220:237|239:248|239:248|255:244,1,240,0|0,1:0|1:0,0:0:0:0:
440,184,65006,6,0,P|400:184|360:204,1,80,4|0,0:0|0:0,0:0:0:0:
472,344,65448,1,0,1:0:0:0:
476,348,65889,2,0,L|484:252,1,80,0|2,1:0|0:3,0:0:0:0:
424,52,66330,1,0,1:0:0:0:
356,136,66551,1,0,0:0:0:0:
356,136,66661,1,0,0:0:0:0:
356,136,66771,6,0,L|440:132,1,80,0|0,1:0|0:0,0:0:0:0:
224,36,67213,1,0,1:0:0:0:
232,44,67654,1,0,1:0:0:0:
232,44,67764,1,0,1:0:0:0:
152,152,67985,1,0,0:0:0:0:
152,152,68095,2,0,L|136:44,1,80,0|0,1:0|0:0,0:0:0:0:
68,244,68536,6,0,L|168:232,1,80,0|0,1:0|0:0,0:0:0:0:
312,352,68978,1,0,1:0:0:0:
320,360,69419,1,0,0:0:0:0:
320,360,69529,2,0,P|312:320|332:264,1,80,0|0,1:0|0:0,0:0:0:0:
284,240,69860,6,0,P|344:256|424:188,1,160,0|4,1:0|1:0,0:0:0:0:
448,88,70522,1,0,0:0:0:0:
448,88,70742,2,0,L|360:112,1,80,0|0,1:0|1:0,0:0:0:0:
264,32,71184,2,0,L|280:128,1,80,0|4,1:0|0:0,0:0:0:0:
40,232,71625,1,0,1:0:0:0:
112,120,71846,1,0,1:0:0:0:
112,120,71956,1,0,1:0:0:0:
112,120,72066,5,4,1:2:0:0:
200,184,72287,1,2,2:0:0:0:
277,110,72507,2,0,L|273:22,1,80,0|2,1:0|2:0,0:0:0:0:
104,208,72949,5,0,1:0:0:0:
196,100,73169,1,0,0:0:0:0:
296,200,73390,2,0,L|292:288,1,80,0|0,1:0|2:0,0:0:0:0:
408,384,73831,5,0,1:0:0:0:
292,279,74052,1,2,2:0:0:0:
384,132,74272,2,0,P|400:168|403:208,1,80,0|2,1:0|2:0,0:0:0:0:
264,140,74714,5,0,1:0:0:0:
264,140,74824,2,0,P|267:100|283:63,1,80,0|0,1:0|0:0,0:0:0:0:
200,204,75155,2,0,L|88:196,1,80,0|0,1:0|0:0,0:0:0:0:
36,192,75486,1,0,1:0:0:0:
36,192,75596,5,0,1:0:0:0:
112,312,75817,1,2,2:0:0:0:
200,204,76037,2,0,L|188:104,1,80,0|0,1:0|0:0,0:0:0:0:
340,52,76478,5,0,1:0:0:0:
340,52,76589,2,0,L|330:131,1,80,0|0,1:0|0:0,0:0:0:0:
400,224,76920,2,0,L|320:214,1,80,0|0,1:0|0:0,0:0:0:0:
236,208,77251,1,0,1:0:0:0:
236,208,77361,5,0,1:0:0:0:
308,324,77582,1,2,2:0:0:0:
400,224,77802,2,0,L|404:128,1,80,0|2,1:0|2:0,0:0:0:0:
292,32,78243,5,0,1:0:0:0:
292,32,78354,1,0,1:0:0:0:
292,32,78464,1,2,2:0:0:0:
160,168,78685,2,0,P|199:172|239:166,1,80,0|0,1:0|1:0,0:0:0:0:
239,166,79016,1,0,1:0:0:0:
239,166,79126,5,4,1:2:0:0:
156,76,79346,1,2,2:0:0:0:
68,172,79567,2,0,L|80:264,1,80,0|2,1:0|2:0,0:0:0:0:
172,356,80008,5,0,1:0:0:0:
248,248,80229,1,0,0:0:0:0:
147,165,80450,2,0,L|55:173,1,80,0|2,1:0|2:0,0:0:0:0:
276,348,80891,5,0,1:0:0:0:
136,264,81111,1,2,2:0:0:0:
248,144,81332,2,0,L|327:137,1,80,0|2,1:0|2:0,0:0:0:0:
456,268,81773,5,0,1:0:0:0:
456,268,81884,2,0,P|416:268|376:261,1,80,0|0,1:0|0:0,0:0:0:0:
276,348,82214,2,0,P|320:340|355:341,1,80,0|0,1:0|0:0,0:0:0:0:
216,280,82545,1,2,1:2:0:0:
216,280,82656,5,0,1:0:0:0:
108,368,82876,1,2,2:0:0:0:
20,260,83097,2,0,L|28:172,1,80,0|0,1:0|0:0,0:0:0:0:
192,60,83538,5,0,1:0:0:0:
192,60,83648,2,0,L|199:139,1,80,0|0,1:0|0:0,0:0:0:0:
276,244,83979,2,0,L|283:164,1,80,0|0,1:0|0:0,0:0:0:0:
352,108,84310,1,0,1:0:0:0:
352,108,84421,5,0,1:0:0:0:
188,224,84641,1,2,2:0:0:0:
336,356,84862,2,0,P|380:356|424:340,1,80,0|0,1:0|2:0,0:0:0:0:
212,132,85303,5,0,1:0:0:0:
212,132,85413,1,0,1:0:0:0:
212,132,85524,1,2,2:0:0:0:
128,316,85744,1,0,1:0:0:0:
8,152,85965,1,0,1:2:0:0:
8,152,86076,1,0,1:2:0:0:
8,152,86186,5,4,1:2:0:0:
120,220,86406,1,2,2:0:0:0:
212,132,86627,2,0,P|224:84|220:24,1,80,0|2,1:0|2:0,0:0:0:0:
12,244,87068,5,0,1:0:0:0:
108,116,87289,1,0,0:0:0:0:
224,236,87509,2,0,P|236:284|232:344,1,80,0|0,1:0|2:0,0:0:0:0:
48,336,87950,5,0,1:0:0:0:
148,192,88171,1,2,2:0:0:0:
316,319,88392,2,0,L|207:312,1,80,0|2,1:0|2:0,0:0:0:0:
68,197,88833,6,0,L|177:190,1,80,0|2,1:0|2:0,0:0:0:0:
296,92,89274,1,0,1:0:0:0:
128,16,89495,1,0,1:0:0:0:
128,16,89605,1,0,1:0:0:0:
128,16,89715,6,0,L|140:116,1,80,0|2,1:0|2:0,0:0:0:0:
286,171,90157,2,0,L|295:91,1,80,0|0,1:0|0:0,0:0:0:0:
76,168,90598,2,0,P|104:180|164:184,1,80,0|2,1:0|2:0,0:0:0:0:
316,4,91039,2,0,P|276:6|239:21,1,80,0|0,1:0|0:0,0:0:0:0:
152,184,91480,5,0,1:0:0:0:
295,91,91701,1,2,2:0:0:0:
268,272,91922,2,0,L|252:176,1,80,0|0,1:0|0:0,0:0:0:0:
416,56,92363,6,0,L|402:134,1,80,0|4,1:0|2:0,0:0:0:0:
268,272,92804,1,0,1:0:0:0:
120,148,93025,1,0,1:2:0:0:
120,148,93135,1,0,1:2:0:0:
120,148,93245,5,4,1:2:0:0:
256,52,93466,1,2,2:0:0:0:
402,134,93686,2,0,P|440:136|496:120,1,80,0|2,1:0|2:0,0:0:0:0:
334,208,94128,2,0,P|294:207|256:216,1,80,0|0,1:0|0:0,0:0:0:0:
420,308,94569,2,0,L|432:204,1,80,0|2,1:0|2:0,0:0:0:0:
320,32,95010,6,0,L|308:136,1,80,0|2,1:0|2:0,0:0:0:0:
240,288,95451,2,0,P|208:280|144:280,1,80,0|2,1:0|2:0,0:0:0:0:
0,160,95893,2,0,P|39:158|78:149,1,80,0|0,1:0|0:0,0:0:0:0:
224,68,96334,1,0,1:0:0:0:
352,236,96555,5,2,2:0:0:0:
352,236,96665,1,0,1:0:0:0:
352,236,96775,2,0,L|344:344,1,80,0|2,1:0|2:0,0:0:0:0:
468,208,97216,2,0,L|478:71,1,120,0|0,1:0|0:0,0:0:0:0:
482,8,97658,5,0,1:0:0:0:
336,112,97878,1,2,2:0:0:0:
196,4,98099,2,0,L|104:20,1,80,0|0,1:0|0:0,0:0:0:0:
0,176,98540,6,0,L|92:192,1,80,4|0,1:2|0:0,0:0:0:0:
148,252,98871,1,0,2:0:0:0:
148,252,98981,2,0,L|226:238,1,80,4|0,1:2|0:0,0:0:0:0:
504,200,99423,6,0,L|354:173,1,120,4|0,1:2|0:0,0:0:0:0:
300,168,99864,1,4,1:2:0:0:
376,364,100084,1,0,1:2:0:0:
376,364,100195,1,0,1:2:0:0:
376,364,100305,5,4,1:2:0:0:
432,344,100526,1,2,0:0:0:0:
368,312,100746,5,0,0:0:0:0:
320,304,100967,1,2,0:0:0:0:
400,256,101187,5,2,0:0:0:0:
448,248,101408,2,2,P|461:245|479:242,3,26.6666666666667,2|2|0|2,0:0|0:0|0:0|0:0,0:0:0:0:
408,224,101849,5,2,0:0:0:0:
400,280,102070,1,0,0:0:0:0:
464,264,102291,1,2,0:0:0:0:
472,176,102511,1,2,0:0:0:0:
352,232,102732,1,0,0:0:0:0:
344,328,102952,1,2,0:0:0:0:
464,264,103173,2,2,P|467:251|470:238,3,26.6666666666667,2|2|0|2,0:0|0:0|0:0|0:0,0:0:0:0:
464,264,103835,5,4,0:0:0:0:
464,264,104276,2,0,B|400:288|432:248|368:272|368:272,1,96,4|0,0:0|1:0,0:0:0:0:
370,271,107365,5,4,0:0:0:0:
376,304,107585,1,2,0:0:0:0:
304,288,107806,5,0,0:0:0:0:
312,240,108027,1,2,0:0:0:0:
432,232,108247,5,2,0:0:0:0:
440,280,108468,2,2,L|448:328,3,26.6666666666667,2|2|0|2,0:0|0:0|0:0|0:0,0:0:0:0:
360,264,108909,5,2,0:0:0:0:
424,216,109130,1,2,0:0:0:0:
504,224,109350,1,0,0:0:0:0:
360,264,109571,5,2,0:0:0:0:
262,311,109791,1,0,0:0:0:0:
163,297,110012,1,4,0:0:0:0:
163,297,110895,5,4,0:0:0:0:
163,297,111336,2,0,B|119:280|92:298|63:298|63:298|214:125|70:68|48:176,1,391.99998803711,4|4,0:0|1:0,0:0:0:0:
48,172,114645,5,2,0:0:0:0:
32,24,114866,2,0,P|32:56|40:128,1,80,8|0,1:2|0:0,0:0:0:0:
136,184,115197,2,0,P|136:152|128:80,1,80,0|0,1:2|0:0,0:0:0:0:
216,72,115527,1,0,1:0:0:0:
48,200,115748,1,8,1:2:0:0:
240,272,115969,5,2,0:0:0:0:
240,272,116079,1,2,0:0:0:0:
240,272,116189,2,0,P|240:304|248:376,1,80,0|2,1:2|0:0,0:0:0:0:
244,351,116631,2,0,L|156:383,1,80,8|0,1:2|0:0,0:0:0:0:
320,272,116961,2,0,L|416:312,1,80,0|0,1:2|0:2,1:1:0:0:
448,144,117292,1,0,1:0:0:0:
288,192,117513,2,0,P|249:200|209:201,1,80,8|0,1:2|1:0,0:0:0:0:
200,192,117844,1,2,0:0:0:0:
192,184,117954,6,0,L|200:280,1,80,4|0,1:0|0:0,0:0:0:0:
224,16,118395,2,0,L|232:120,1,80,8|0,1:2|0:0,0:0:0:0:
72,72,118726,1,0,1:0:0:0:
80,164,118946,1,0,1:0:0:0:
80,164,119057,1,2,0:0:0:0:
152,112,119278,1,8,1:2:0:0:
160,204,119499,1,0,1:0:0:0:
80,164,119719,5,4,1:0:0:0:
88,256,119940,1,2,0:0:0:0:
160,204,120160,1,8,1:2:0:0:
8,216,120381,1,0,1:0:0:0:
8,216,120491,1,2,0:0:0:0:
160,204,120712,1,2,0:0:0:0:
160,204,120822,1,0,1:0:0:0:
72,128,121043,2,0,L|80:200,4,40,0|2|4|0|4,1:0|0:0|0:0|0:0|1:0,0:0:0:0:
160,40,121705,5,2,0:0:0:0:
8,80,121925,2,0,P|80:112|112:120,1,80,8|0,1:2|0:0,0:0:0:0:
312,144,122256,2,0,P|240:112|208:104,1,80,0|0,1:2|0:0,0:0:0:0:
160,88,122587,1,2,1:2:0:0:
368,224,122808,2,0,P|440:256|472:264,1,80,8|2,1:2|0:0,0:0:0:0:
440,256,123139,1,0,0:0:0:0:
440,256,123249,1,4,1:0:0:0:
432,176,123470,5,2,0:0:0:0:
416,96,123690,1,8,1:2:0:0:
400,16,123911,1,2,0:0:0:0:
400,16,124021,2,0,P|328:16|296:24,1,80,0|0,1:0|0:0,0:0:0:0:
336,136,124352,2,0,P|344:96|336:80,1,40,0|0,1:0|0:0,0:0:0:0:
258,126,124573,6,0,P|253:154|252:178,1,40,8|0,1:2|0:0,0:0:0:0:
253,186,124793,1,0,0:0:0:0:
256,208,124904,1,0,1:0:0:0:
261,226,125014,1,0,1:0:0:0:
264,243,125124,1,0,1:0:0:0:
262,258,125235,1,0,1:0:0:0:
258,278,125345,1,0,1:0:0:0:
248,295,125455,1,0,1:0:0:0:
235,308,125565,1,0,1:0:0:0:
217,316,125676,1,0,1:0:0:0:
193,322,125786,1,0,1:0:0:0:
170,321,125896,5,0,1:0:0:0:
142,315,126007,1,0,1:0:0:0:
114,304,126117,1,0,1:0:0:0:
97,288,126227,1,0,1:0:0:0:
80,266,126338,1,0,1:0:0:0:
72,240,126448,1,0,1:0:0:0:
72,212,126558,1,0,1:0:0:0:
77,187,126669,1,0,1:0:0:0:
88,158,126779,5,0,1:0:0:0:
109,125,126889,1,0,1:0:0:0:
137,97,126999,1,0,1:0:0:0:
173,75,127110,1,0,1:0:0:0:
212,64,127220,5,0,1:0:0:0:
216,96,127330,1,0,1:0:0:0:
223,135,127441,1,0,1:0:0:0:
229,173,127551,1,0,1:0:0:0:
233,205,127661,5,0,1:0:0:0:
255,181,127772,1,0,1:0:0:0:
273,152,127882,1,0,1:0:0:0:
283,117,127992,1,0,1:0:0:0:
288,80,128103,6,0,B|288:40|328:0|328:0|339:53|319:86,1,155.999992858887,4|4,1:0|1:0,0:0:0:0:
396,70,128544,6,2,L|262:90,1,120,6|0,1:0|0:0,1:1:0:0:
251,76,128985,2,0,L|243:172,1,80,2|2,1:0|0:1,0:0:0:0:
182,230,129426,2,0,P|232:240|266:295,1,120,2|2,1:0|0:1,0:0:0:0:
252,320,129867,1,2,1:1:0:0:
129,364,130088,1,2,1:0:0:0:
61,253,130309,6,0,P|65:184|65:142,1,80,2|0,1:0|0:0,0:0:0:0:
56,150,130640,1,2,0:0:0:0:
37,129,130750,2,0,P|106:133|148:133,1,80,8|0,1:0|0:0,0:0:0:0:
140,117,131081,1,2,0:0:0:0:
161,99,131191,1,8,0:2:0:0:
282,171,131412,5,8,0:2:0:0:
282,171,131522,1,2,0:0:0:0:
282,171,131632,2,0,P|351:167|393:167,1,80,2|2,1:0|0:1,0:0:0:0:
508,50,132074,2,0,P|466:36|400:83,1,120,6|0,1:0|0:0,0:0:0:0:
377,78,132515,2,0,P|378:117|381:157,1,80,2|0,1:0|0:0,0:0:0:0:
476,282,132956,2,0,P|412:281|301:278,1,160,2|2,1:0|1:0,0:0:0:0:
282,255,133508,1,0,0:0:0:0:
232,278,133618,1,2,1:0:0:0:
196,256,133728,1,0,0:1:0:0:
161,273,133839,5,2,1:0:0:0:
66,235,134059,1,2,1:0:0:0:
13,330,134280,1,6,0:0:0:0:
116,376,134500,1,0,0:0:0:0:
116,376,134611,1,4,0:0:0:0:
116,376,134721,1,0,1:0:0:0:
16,187,134942,5,2,0:0:0:0:
16,187,135052,1,0,0:0:0:0:
16,187,135162,2,0,P|18:132|18:90,1,80,4|4,0:0|0:0,0:0:0:0:
33,83,135493,1,0,0:0:0:0:
53,63,135604,2,0,P|108:65|150:65,1,80,6|2,1:0|0:0,0:0:0:0:
242,159,136045,2,0,P|290:151|331:111,1,80,8|2,1:0|0:0,0:0:0:0:
314,133,136376,1,0,0:0:0:0:
314,133,136486,2,0,P|306:192|300:259,1,120,2|2,1:0|0:2,0:0:0:0:
272,255,136927,2,0,P|278:294|283:334,1,80,8|2,1:0|0:0,0:0:0:0:
408,207,137368,6,0,P|421:155|425:105,1,80,4|2,1:2|0:0,0:0:0:0:
424,128,137699,1,0,0:0:0:0:
424,128,137810,1,8,1:0:0:0:
270,21,138030,1,2,0:0:0:0:
270,21,138141,1,0,0:0:0:0:
270,21,138251,1,4,0:0:0:0:
140,161,138472,1,6,0:0:0:0:
140,161,138582,1,0,0:0:0:0:
140,161,138692,2,0,L|51:152,1,80,8|6,1:0|0:0,0:0:0:0:
175,80,139133,6,0,P|215:90|252:161,1,120,2|0,1:0|0:0,0:0:0:0:
276,170,139575,2,0,P|265:226|266:269,1,80,8|2,1:0|0:0,0:0:0:0:
415,196,140016,2,0,P|409:243|316:310,1,160,2|10,1:0|1:0,0:0:0:0:
296,350,140567,1,4,0:0:0:0:
248,327,140678,1,2,1:0:0:0:
203,350,140788,1,0,1:0:0:0:
164,338,140898,6,0,P|181:278|171:157,1,143.999995605469,4|2,1:0|0:0,0:0:0:0:
146,193,141340,1,8,1:0:0:0:
187,68,141560,1,10,1:2:0:0:
406,127,141781,5,4,1:2:0:0:
395,158,141891,1,8,1:2:0:0:
404,189,142001,1,8,1:0:0:0:
397,222,142112,1,0,1:0:0:0:
397,222,142222,2,0,L|409:312,1,80,4|4,1:0|1:2,0:0:0:0:
196,344,142663,6,0,P|138:336|71:333,1,95.9999970703126,6|0,1:0|0:0,0:0:0:0:
71,350,142994,1,2,1:0:0:0:
45,328,143104,1,8,1:0:0:0:
11,200,143325,1,2,1:0:0:0:
40,214,143435,1,0,1:0:0:0:
73,208,143546,1,2,1:0:0:0:
102,191,143656,1,0,0:0:0:0:
115,160,143766,1,2,1:0:0:0:
113,126,143877,1,0,0:0:0:0:
97,96,143987,2,0,P|110:47|186:17,1,95.9999970703126,10|4,1:0|0:0,0:0:0:0:
312,22,144428,6,0,P|289:93|281:140,2,95.9999970703126,6|2|10,1:0|1:0|1:0,0:0:0:0:
199,157,145090,1,0,1:0:0:0:
204,164,145164,1,2,1:0:0:0:
208,172,145237,1,0,1:0:0:0:
212,180,145311,1,2,1:0:0:0:
353,321,145531,5,4,0:0:0:0:
353,321,145642,1,0,1:0:0:0:
353,321,145752,2,0,P|351:269|342:207,1,95.9999970703126,10|2,1:0|0:0,0:0:0:0:
89,284,146193,5,6,1:0:0:0:
166,353,146414,1,0,1:0:0:0:
166,353,146524,1,2,0:1:0:0:
166,353,146634,1,8,1:0:0:0:
235,291,146855,1,2,1:0:0:0:
235,291,146965,1,0,1:0:0:0:
235,291,147076,1,4,1:2:0:0:
164,213,147296,1,8,1:2:0:0:
87,294,147517,1,10,1:0:0:0:
173,370,147737,1,4,1:2:0:0:
167,289,147958,5,6,1:0:0:0:
176,177,148179,1,2,1:0:0:0:
185,65,148399,1,8,1:0:0:0:
71,119,148620,1,8,1:2:0:0:
289,126,148840,1,6,1:0:0:0:
348,69,149061,5,2,1:0:0:0:
356,64,149135,1,4,1:2:0:0:
364,60,149208,1,2,1:1:0:0:
373,56,149282,1,4,1:2:0:0:
455,250,149502,5,4,1:2:0:0:
455,250,149613,1,0,1:0:0:0:
455,250,149723,1,4,1:0:0:0:
359,199,149944,1,0,1:0:0:0:
308,295,150164,1,8,1:0:0:0:
404,346,150385,1,0,1:0:0:0:
239,245,150605,5,0,1:0:0:0:
248,168,150826,1,8,1:0:0:0:
257,91,151047,1,8,1:0:0:0:
266,15,151267,1,4,1:2:0:0:
29,193,151488,5,4,1:0:0:0:
149,169,151708,1,0,1:0:0:0:
51,173,151929,1,8,1:0:0:0:
154,271,152150,5,0,1:0:0:0:
162,267,152223,1,2,1:0:0:0:
171,263,152297,1,0,1:0:0:0:
180,260,152370,1,2,1:0:0:0:
338,189,152591,5,8,1:2:0:0:
360,198,152701,1,0,0:0:0:0:
382,206,152812,1,8,1:0:0:0:
507,193,153032,1,4,1:2:0:0:
507,193,153253,5,4,1:0:0:0:
472,206,153363,1,0,1:0:0:0:
446,232,153473,1,0,1:0:0:0:
439,268,153584,1,0,1:0:0:0:
431,304,153694,1,8,1:0:0:0:
403,328,153804,1,0,1:0:0:0:
366,335,153915,1,0,1:0:0:0:
329,325,154025,1,0,1:0:0:0:
288,299,154135,5,6,1:0:0:0:
239,296,154246,1,0,1:0:0:0:
191,303,154356,1,8,1:0:0:0:
143,302,154466,1,2,1:0:0:0:
95,308,154576,1,8,1:0:0:0:
51,286,154687,1,0,1:0:0:0:
42,238,154797,1,2,1:0:0:0:
65,196,154907,1,0,1:0:0:0:
111,181,155018,6,0,L|194:201,1,80,6|2,1:0|0:0,0:0:0:0:
399,74,155459,2,0,L|316:94,1,80,10|0,1:0|0:0,0:0:0:0:
277,65,155790,1,8,1:0:0:0:
242,100,155900,2,0,L|262:183,1,80,8|0,1:2|1:0,0:0:0:0:
267,186,156194,1,4,1:2:0:0:
274,193,156268,1,0,1:0:0:0:
280,201,156341,1,4,1:2:0:0:
146,302,156562,6,0,L|157:347,1,40,4|8,1:2|3:0,0:0:0:0:
60,221,156893,6,0,L|15:208,1,40,4|0,3:0|0:0,0:0:0:0:
178,187,157114,1,4,3:0:0:0:
178,187,157224,1,4,1:0:0:0:
6,101,170791,6,0,B|10:97|10:97|13:105|13:105|18:97|18:97|21:105|21:105|26:97|26:97|29:105|29:105|34:97|34:97|37:106|37:106|42:98|42:98|45:106|45:106|50:98|50:98|53:106|53:106|58:98|58:98|61:106|61:106|66:99|66:99|73:107|73:107|74:99|74:99|73:103|73:103|81:103,1,160,0|0,0:0|0:0,0:0:0:0:
80,104,171343,6,0,P|93:86|126:20,1,80,4|0,0:0|0:0,0:0:0:0:
143,170,171784,2,0,P|160:218|196:286,1,120,8|0,0:0|0:0,0:0:0:0:
191,279,172225,2,0,P|161:274|103:265,1,80,0|0,0:0|0:0,0:0:0:0:
276,230,172667,2,0,P|315:236|355:243,1,80,8|0,0:0|0:0,0:0:0:0:
355,243,172998,1,0,0:0:0:0:
355,243,173108,5,0,0:0:0:0:
448,224,173328,1,0,0:0:0:0:
467,318,173549,1,8,0:0:0:0:
304,161,173770,5,0,0:0:0:0:
304,161,173880,1,0,0:0:0:0:
211,142,174101,1,8,0:0:0:0:
211,142,174211,1,0,0:0:0:0:
230,48,174432,1,8,0:0:0:0:
206,53,174542,1,0,0:0:0:0:
182,56,174652,1,0,0:0:0:0:
158,60,174762,1,0,0:0:0:0:
134,64,174873,6,0,P|101:46|54:13,1,80,0|0,0:0|0:0,0:0:0:0:
211,142,175314,2,0,P|243:215|257:287,1,120,8|0,0:0|0:0,0:0:0:0:
261,231,175756,1,0,0:0:0:0:
271,208,175866,1,8,0:0:0:0:
280,186,175976,1,0,0:0:0:0:
148,265,176196,2,0,L|117:338,1,80,8|0,0:0|0:0,0:0:0:0:
117,338,176527,1,0,0:0:0:0:
117,338,176638,5,0,0:0:0:0:
23,335,176858,1,0,0:0:0:0:
113,236,177079,1,8,0:0:0:0:
242,268,177300,2,0,L|282:268,3,40,0|0|0|0,0:0|0:0|0:0|0:0,0:0:0:0:
306,265,177741,1,0,0:0:0:0:
328,257,177851,1,0,0:0:0:0:
348,244,177961,1,8,0:0:0:0:
363,225,178072,1,0,0:0:0:0:
371,202,178182,1,0,0:0:0:0:
372,178,178292,1,0,0:0:0:0:
366,154,178403,6,0,P|355:116|344:58,1,80,0|0,0:0|0:0,0:0:0:0:
460,191,178844,2,0,P|476:256|480:333,1,120,8|0,0:0|0:0,0:0:0:0:
480,308,179285,2,0,P|436:302|394:295,1,80,0|0,0:0|0:0,0:0:0:0:
218,195,179726,2,0,P|284:203|303:207,1,80,8|0,0:0|0:0,0:0:0:0:
297,206,180057,1,0,0:0:0:0:
297,206,180168,5,0,0:0:0:0:
278,112,180389,1,0,0:0:0:0:
184,131,180609,1,8,0:0:0:0:
95,331,180830,5,0,0:0:0:0:
95,331,180940,1,0,0:0:0:0:
1,312,181161,1,8,0:0:0:0:
1,312,181271,1,0,0:0:0:0:
20,218,181492,1,8,0:0:0:0:
43,222,181602,1,0,0:0:0:0:
65,229,181712,1,0,0:0:0:0:
88,233,181822,1,0,0:0:0:0:
111,239,181932,6,0,P|105:194|96:154,1,80,0|0,0:0|0:0,0:0:0:0:
200,265,182374,2,0,P|264:295|329:315,1,120,8|0,0:0|0:0,0:0:0:0:
482,296,182815,1,0,0:0:0:0:
458,300,182925,1,8,0:0:0:0:
435,309,183036,1,0,0:0:0:0:
414,321,183146,1,0,0:0:0:0:
397,338,183256,2,0,L|381:388,3,40,8|0|0|0,0:0|0:0|0:0|0:0,0:0:0:0:
348,360,183697,5,0,3:0:0:0:
318,349,183808,1,0,3:0:0:0:
289,341,183918,1,0,3:0:0:0:
259,337,184028,1,0,3:0:0:0:
228,336,184139,1,8,3:0:0:0:
198,336,184249,1,0,3:0:0:0:
168,338,184359,1,0,3:0:0:0:
138,344,184470,1,0,3:0:0:0:
110,353,184580,5,0,3:0:0:0:
132,325,184690,1,8,3:0:0:0:
152,295,184800,1,0,3:0:0:0:
166,261,184911,1,0,3:0:0:0:
175,226,185021,1,8,3:0:0:0:
178,190,185131,1,0,3:0:0:0:
177,153,185242,1,0,3:0:0:0:
167,118,185352,1,0,3:0:0:0:
157,83,185462,5,0,3:0:0:0:
164,84,185573,1,0,3:0:0:0:
171,85,185683,1,0,3:0:0:0:
178,86,185793,1,0,3:0:0:0:
186,86,185904,1,8,3:0:0:0:
193,87,186014,1,0,3:0:0:0:
200,88,186124,1,0,3:0:0:0:
207,89,186234,1,0,3:0:0:0:
215,90,186345,1,0,3:0:0:0:
222,90,186455,1,8,3:0:0:0:
228,91,186565,1,0,3:0:0:0:
236,92,186676,1,0,3:0:0:0:
243,93,186786,1,8,3:0:0:0:
250,93,186896,1,0,3:0:0:0:
258,94,187007,1,0,3:0:0:0:
265,95,187117,1,0,3:0:0:0:
272,95,187227,6,0,L|311:99,11,26.6666666666667,0|0|0|0|0|0|8|0|0|0|0|0,3:0|3:0|3:0|3:0|3:0|3:0|3:0|3:0|3:0|3:0|3:0|3:0,3:0:0:0:
298,97,188110,6,0,B|392:165|324:256|324:256,1,180.000006866455,0|0,0:0|0:0,0:0:0:0:
285,237,188551,6,0,B|191:380|74:273|74:273,1,240,0|0,0:0|0:0,0:0:0:0:
66,249,188992,6,0,P|57:194|22:91,1,132.00000402832,4|0,1:0|0:0,0:0:0:0:
151,218,189433,2,0,P|180:238|233:263,1,88.000002685547,0|0,1:0|0:0,0:0:0:0:
227,260,189764,1,0,0:0:0:0:
227,260,189875,2,0,P|219:307|213:346,1,88.000002685547,2|0,1:0|0:0,0:0:0:0:
123,138,190206,2,0,P|131:91|136:51,1,88.000002685547,2|0,0:0|0:0,0:0:0:0:
244,171,190536,2,0,L|303:170,1,44.0000013427735,2|0,0:0|0:0,0:0:0:0:
357,212,190757,6,0,P|398:181|458:112,1,132.00000402832,0|0,1:0|0:0,0:0:0:0:
391,289,191198,1,0,1:0:0:0:
228,261,191419,2,0,L|184:261,1,44.0000013427735,0|0,0:0|0:0,0:0:0:0:
26,216,191640,2,0,P|69:210|113:202,1,88.000002685547,2|2,1:0|0:0,0:0:0:0:
240,272,191970,2,0,P|283:277|327:285,1,88.000002685547,0|2,0:0|0:0,0:0:0:0:
327,285,192301,1,0,0:0:0:0:
327,285,192412,1,0,0:0:0:0:
327,285,192522,6,0,P|314:221|306:136,1,132.00000402832,0|0,1:0|0:0,0:0:0:0:
141,277,192963,2,0,P|100:309|51:335,1,88.000002685547,0|0,1:0|0:0,0:0:0:0:
68,326,193294,1,0,0:0:0:0:
68,326,193404,2,0,P|127:338|169:348,1,88.000002685547,2|0,1:0|0:0,0:0:0:0:
87,196,193735,2,0,P|28:184|-13:174,1,88.000002685547,2|0,0:0|0:0,0:0:0:0:
176,91,194066,2,0,L|229:92,1,44.0000013427735,2|0,0:0|0:0,0:0:0:0:
296,143,194287,6,0,P|361:119|420:60,1,132.00000402832,0|0,1:0|0:0,0:0:0:0:
347,216,194728,2,0,P|333:261|326:317,1,88.000002685547,0|0,1:0|0:0,0:0:0:0:
326,301,195059,1,0,0:0:0:0:
326,301,195169,2,0,P|279:308|231:318,1,88.000002685547,2|0,1:0|0:0,0:0:0:0:
418,250,195500,2,0,P|464:241|506:230,1,88.000002685547,2|0,0:0|0:0,0:0:0:0:
291,169,195831,1,2,0:0:0:0:
291,169,195942,1,0,0:0:0:0:
291,169,196052,6,0,P|227:166|117:161,1,132.00000402832,0|0,1:0|0:0,0:0:0:0:
27,249,196493,2,0,P|88:245|127:241,1,88.000002685547,0|0,1:0|0:0,0:0:0:0:
288,316,196934,2,0,P|353:312|419:309,2,132.00000402832,2|2|2,1:0|0:0|0:0,0:0:0:0:
288,316,197707,1,0,0:0:0:0:
288,316,197817,1,0,1:0:0:0:
408,128,198148,5,0,0:0:0:0:
408,128,198258,1,0,1:0:0:0:
312,96,198479,1,0,0:0:0:0:
279,191,198699,2,0,P|228:168|154:104,1,132.00000402832,2|0,1:0|0:0,0:0:0:0:
108,63,199141,1,0,1:0:0:0:
108,63,199251,1,0,0:0:0:0:
108,63,199361,1,2,0:0:0:0:
108,63,199471,1,0,0:0:0:0:
109,64,199582,6,0,P|85:140|22:205,1,132.00000402832,0|0,1:0|0:0,0:0:0:0:
250,135,200023,2,0,P|298:117|350:109,1,88.000002685547,0|0,1:0|0:0,0:0:0:0:
333,110,200354,1,0,0:0:0:0:
333,110,200464,2,0,P|324:66|316:15,1,88.000002685547,2|0,1:0|0:0,0:0:0:0:
429,140,200795,2,0,P|438:184|446:235,1,88.000002685547,2|0,1:0|0:0,0:0:0:0:
452,329,201126,2,0,L|385:345,1,44.0000013427735,2|0,0:0|0:0,0:0:0:0:
313,348,201347,6,0,P|262:319|180:281,1,132.00000402832,0|0,1:0|0:0,0:0:0:0:
28,278,201788,2,0,P|69:264|110:247,1,88.000002685547,0|0,1:0|0:0,0:0:0:0:
110,247,202119,1,0,0:0:0:0:
110,247,202229,2,0,L|41:233,3,44.0000013427735,2|0|0|0,1:0|0:0|0:0|0:0,0:0:0:0:
54,235,202670,1,0,1:0:0:0:
40,232,202781,1,0,0:0:0:0:
27,229,202891,1,2,0:0:0:0:
13,225,203001,1,0,0:0:0:0:
13,225,203112,6,0,P|9:149|4:54,1,132.00000402832,4|0,0:0|0:0,0:0:0:0:
6,93,203553,1,0,1:0:0:0:
191,122,203773,1,0,0:0:0:0:
191,122,203994,2,0,L|317:139,1,88.000002685547,2|0,0:0|0:0,0:0:0:0:
428,89,204435,1,0,1:0:0:0:
378,254,204656,1,0,0:0:0:0:
278,133,204877,5,2,0:0:0:0:
378,254,205097,1,0,0:0:0:0:
217,283,205318,2,0,L|124:301,1,88.000002685547,0|0,1:0|0:0,0:0:0:0:
1,189,205759,2,0,P|82:195|172:202,1,132.00000402832,2|0,0:0|0:0,0:0:0:0:
278,133,206200,2,0,L|371:124,1,88.000002685547,0|0,1:0|0:0,0:0:0:0:
365,124,206531,1,0,0:0:0:0:
365,124,206641,5,2,0:0:0:0:
365,124,206862,1,0,0:0:0:0:
199,101,207083,1,0,1:0:0:0:
199,101,207304,1,0,0:0:0:0:
177,267,207524,1,2,0:0:0:0:
344,291,207745,1,0,0:0:0:0:
177,267,207966,1,0,1:0:0:0:
356,304,208186,1,0,0:0:0:0:
356,304,208296,1,0,0:0:0:0:
356,304,208406,6,0,P|403:282|509:239,1,132.00000402832,2|0,0:0|0:0,0:0:0:0:
298,208,208848,2,0,P|243:202|180:194,2,88.000002685547,0|0|2,1:0|0:0|0:0,0:0:0:0:
421,105,209509,1,0,0:0:0:0:
421,105,209620,1,0,0:0:0:0:
421,105,209730,1,0,1:0:0:0:
421,105,209840,1,0,0:0:0:0:
421,105,209951,1,0,0:0:0:0:
421,105,210061,1,0,0:0:0:0:
421,105,210171,5,2,0:0:0:0:
291,51,210392,1,0,0:0:0:0:
238,185,210613,1,2,1:2:0:0:
238,185,210723,1,0,0:0:0:0:
368,239,210943,1,0,0:0:0:0:
368,239,211054,2,0,P|419:224|468:208,1,88.000002685547,2|0,0:0|0:0,0:0:0:0:
325,320,211385,2,0,P|274:335|225:351,1,88.000002685547
151,318,211716,2,0,L|94:317,1,44.0000013427735,0|0,0:0|0:0,0:0:0:0:
18,281,211936,5,2,0:0:0:0:
33,136,212157,1,0,0:0:0:0:
18,281,212377,1,2,1:2:0:0:
18,281,212488,1,0,0:0:0:0:
166,237,212708,1,0,0:0:0:0:
166,237,212819,2,0,P|161:185|153:119,1,88.000002685547,2|0,0:0|0:0,0:0:0:0:
344,122,213150,2,0,P|349:70|357:4,1,88.000002685547,0|0,0:0|0:0,0:0:0:0:
215,88,213481,2,0,L|265:91,1,44.0000013427735,0|0,0:0|0:0,0:0:0:0:
438,117,213701,5,2,1:2:0:0:
450,252,213922,1,0,0:0:0:0:
315,264,214142,1,2,1:2:0:0:
175,354,214363,5,0,0:0:0:0:
187,219,214584,1,2,1:2:0:0:
52,207,214804,1,0,0:0:0:0:
187,219,215025,1,2,1:2:0:0:
52,207,215245,1,0,0:0:0:0:
52,207,215356,1,0,0:0:0:0:
52,207,215466,5,2,1:2:0:0:
34,242,215576,1,0,3:0:0:0:
42,281,215687,1,0,3:0:0:0:
68,309,215797,1,0,3:0:0:0:
105,321,215907,1,2,1:2:0:0:
143,311,216018,1,0,3:0:0:0:
170,283,216128,1,0,3:0:0:0:
181,245,216238,1,0,3:0:0:0:
170,206,216349,1,6,1:2:0:0:
147,173,216459,1,0,3:0:0:0:
138,134,216569,5,0,3:0:0:0:
145,95,216679,1,0,3:0:0:0:
167,62,216790,2,0,P|219:60|275:59,2,58.6666684570313,2|0|0,1:2|3:0|3:0,0:0:0:0:
303,0,217231,6,0,P|326:57|305:114,1,120,4|0,0:3|0:0,0:0:0:0:
308,110,217672,2,0,L|301:213,1,80,0|0,1:0|0:0,0:0:0:0:
119,295,218113,1,2,0:0:0:0:
119,295,218555,6,0,P|168:261|235:295,1,120,2|0,0:0|0:0,0:0:0:0:
221,277,218996,2,0,L|210:177,1,80,0|0,1:0|0:0,0:0:0:0:
340,176,219437,1,2,0:0:0:0:
331,295,219658,1,0,0:0:0:0:
222,278,219878,1,2,0:0:0:0:
222,278,219989,1,2,0:0:0:0:
231,159,220209,1,0,0:0:0:0:
231,159,220320,1,2,0:0:0:0:
340,176,220540,1,0,0:0:0:0:
297,74,220761,6,0,L|160:77,1,120,2|0,0:0|0:0,0:0:0:0:
99,34,221202,2,0,L|107:140,1,80,0|0,1:0|0:0,0:0:0:0:
191,241,221643,2,0,B|86:228|87:228,1,80,2|0,0:0|0:0,0:0:0:0:
292,194,222085,2,0,L|409:210,1,80,2|0,0:0|0:0,0:0:0:0:
449,348,222526,6,0,P|429:306|449:220,1,120,2|0,0:0|0:0,0:0:0:0:
347,271,222967,2,0,L|254:278,1,80,0|0,1:0|0:0,0:0:0:0:
387,126,223408,2,0,L|485:136,1,80,2|0,0:0|0:0,0:0:0:0:
299,27,223849,1,2,0:0:0:0:
308,142,224070,1,0,0:0:0:0:
308,142,224180,1,0,0:0:0:0:
308,142,224291,6,0,L|169:130,1,120,4|0,0:3|0:0,0:0:0:0:
188,131,224732,2,0,L|200:218,1,80,0|0,1:0|0:0,0:0:0:0:
83,301,225173,2,0,P|75:254|130:200,1,120,2|0,0:0|0:0,0:0:0:0:
119,202,225614,2,0,L|204:210,1,80,2|0,0:0|0:0,0:0:0:0:
326,242,226056,5,2,0:0:0:0:
305,138,226276,1,8,0:0:0:0:
437,50,226497,1,0,0:0:0:0:
419,154,226717,1,8,0:0:0:0:
321,31,226938,1,2,0:0:0:0:
321,31,227048,1,2,0:0:0:0:
441,54,227269,1,0,0:0:0:0:
441,54,227379,1,2,0:0:0:0:
419,154,227600,1,2,0:0:0:0:
305,132,227821,6,0,P|242:100|165:114,1,120,4|0,0:3|0:0,0:0:0:0:
119,141,228262,2,0,L|125:227,1,80,0|0,1:0|0:0,0:0:0:0:
353,316,228703,1,2,0:0:0:0:
353,316,228813,1,2,0:0:0:0:
166,312,229034,1,0,0:0:0:0:
166,312,229144,1,2,0:0:0:0:
256,228,229365,1,2,0:0:0:0:
83,127,229585,5,2,0:0:0:0:
197,159,229806,1,8,0:0:0:0:
243,54,230027,1,8,0:0:0:0:
127,22,230247,1,2,0:0:0:0:
149,231,230468,6,0,P|206:209|274:219,1,120,2|0,0:0|0:0,0:0:0:0:
331,293,230909,2,0,L|326:326,6,20,2|0|0|0|0|0|0,0:0|0:0|0:0|0:0|0:0|0:0|0:0,0:0:0:0:
331,293,231350,6,0,L|425:303,1,80,4|0,0:3|0:0,0:0:0:0:
412,107,231792,2,0,L|415:197,1,80,0|0,1:0|0:0,0:0:0:0:
414,186,232123,1,0,0:0:0:0:
414,186,232233,2,0,L|327:177,1,80,2|0,0:0|0:0,0:0:0:0:
187,105,232674,1,2,0:0:0:0:
287,67,232895,1,0,0:0:0:0:
245,221,233115,6,0,L|227:305,1,80,2|0,0:0|0:0,0:0:0:0:
123,161,233557,2,0,L|82:235,1,80,0|0,1:0|0:0,0:0:0:0:
121,31,233998,1,2,0:0:0:0:
121,31,234108,1,2,0:0:0:0:
251,95,234329,1,0,0:0:0:0:
251,95,234439,1,2,0:0:0:0:
384,35,234660,1,0,0:0:0:0:
384,35,234770,1,0,0:0:0:0:
384,35,234880,6,0,P|436:77|438:111,1,80,2|0,0:0|0:0,0:0:0:0:
363,241,235321,2,0,P|376:182|368:138,1,80,0|0,1:0|0:0,0:0:0:0:
374,163,235652,1,0,0:0:0:0:
374,163,235763,2,0,L|279:174,1,80,2|0,0:0|0:0,0:0:0:0:
134,133,236204,2,0,L|147:243,1,80,2|0,0:0|0:0,0:0:0:0:
52,360,236645,5,2,0:0:0:0:
166,291,236866,1,2,0:0:0:0:
326,341,237086,1,8,0:0:0:0:
369,183,237307,1,2,0:0:0:0:
265,241,237528,6,0,P|252:198|255:134,1,80,2|0,0:0|0:0,0:0:0:0:
460,47,237969,2,0,P|436:83|384:98,1,80,0|0,1:0|0:0,0:0:0:0:
404,98,238300,1,0,0:0:0:0:
404,98,238410,5,4,0:3:0:0:
287,68,238631,1,0,0:0:0:0:
322,196,238851,1,0,1:0:0:0:
322,196,238962,2,0,P|332:245|333:343,1,120,2|2,0:0|0:0,0:0:0:0:
336,315,239734,2,0,L|239:307,1,80,2|0,0:0|0:0,0:0:0:0:
54,272,240175,5,2,0:0:0:0:
150,217,240396,1,0,0:0:0:0:
95,95,240616,2,0,L|1:102,1,80,0|0,1:0|0:0,0:0:0:0:
269,114,241058,1,2,0:0:0:0:
269,114,241168,1,2,0:0:0:0:
150,217,241388,1,0,0:0:0:0:
150,217,241499,1,2,0:0:0:0:
323,265,241719,1,0,0:0:0:0:
222,176,241940,6,0,P|182:217|175:332,1,160,2|0,0:0|0:0,0:0:0:0:
342,256,242602,1,0,0:0:0:0:
203,162,242822,2,0,P|163:203|156:318,1,160,2|0,0:0|0:0,0:0:0:0:
361,247,243484,1,0,0:0:0:0:
258,31,243705,5,4,0:3:0:0:
154,87,243926,1,2,0:0:0:0:
161,95,244036,1,0,0:0:0:0:
168,103,244146,1,2,0:0:0:0:
340,141,244367,1,2,0:0:0:0:
333,149,244477,1,0,0:0:0:0:
326,157,244587,1,2,0:0:0:0:
250,351,244808,5,2,0:0:0:0:
108,224,245029,1,2,0:0:0:0:
108,224,245139,1,2,0:0:0:0:
253,250,245360,1,0,0:0:0:0:
253,250,245470,6,0,L|345:247,1,80,4|0,0:3|0:0,0:0:0:0:
451,88,245911,2,0,P|403:94|313:78,1,120,0|0,1:0|0:0,0:0:0:0:
248,48,246352,5,2,0:0:0:0:
336,168,246573,1,2,0:0:0:0:
160,252,246794,2,0,P|193:247|256:259,1,95.9999970703126,8|0,0:0|0:0,0:0:0:0:
254,258,247124,1,0,0:0:0:0:
254,258,247235,5,2,0:0:0:0:
68,180,247455,1,0,0:0:0:0:
152,368,247676,2,0,P|192:380|268:372,1,120,0|0,1:0|0:0,0:0:0:0:
352,316,248117,5,2,0:0:0:0:
272,128,248338,1,2,0:0:0:0:
464,212,248558,2,0,L|368:204,1,80,8|0,0:0|0:0,0:0:0:0:
384,205,248889,1,0,0:0:0:0:
384,205,249000,6,0,L|392:109,1,80,2|0,0:0|0:0,0:0:0:0:
200,228,249441,2,0,L|210:348,1,120,0|0,1:0|0:0,0:0:0:0:
296,312,249882,5,2,0:0:0:0:
92,260,250103,1,2,0:0:0:0:
272,156,250323,2,0,P|240:136|180:128,1,80,8|0,0:0|0:0,0:0:0:0:
92,260,250765,5,2,0:0:0:0:
204,220,250985,1,2,0:0:0:0:
116,80,251206,2,0,L|104:168,1,80,0|0,1:0|0:0,0:0:0:0:
72,360,251647,5,2,0:0:0:0:
272,276,251868,2,0,L|304:284,2,20
204,220,252088,5,2,0:0:0:0:
204,196,252199,1,0,0:0:0:0:
208,172,252309,1,2,0:0:0:0:
216,148,252419,1,0,0:0:0:0:
228,128,252530,6,0,L|312:120,1,80,4|0,0:3|0:0,0:0:0:0:
404,184,252971,1,0,1:0:0:0:
488,108,253191,1,0,0:0:0:0:
308,224,253412,6,0,P|304:280|308:384,1,160,2|8,0:0|0:0,0:0:0:0:
408,336,254074,1,0,0:0:0:0:
200,212,254294,6,0,L|104:204,1,80,2|0,0:0|0:0,0:0:0:0:
36,292,254736,1,0,1:0:0:0:
116,384,254956,1,0,0:0:0:0:
308,224,255177,6,0,P|312:168|308:64,1,160,2|8,0:0|0:0,0:0:0:0:
136,88,255839,1,0,0:0:0:0:
136,88,255949,1,0,0:0:0:0:
136,88,256059,6,0,P|176:100|236:112,1,80,2|0,0:0|0:0,0:0:0:0:
484,176,256501,2,0,P|444:184|406:196,1,80,0|0,1:0|0:0,0:0:0:0:
136,288,256942,6,0,P|208:304|312:312,1,160,2|8,0:0|0:0,0:0:0:0:
400,296,257604,1,0,0:0:0:0:
308,132,257824,6,0,P|300:180|300:220,1,80,2|0,0:0|0:0,0:0:0:0:
408,384,258266,1,0,1:0:0:0:
512,172,258486,1,2,0:0:0:0:
482,176,258596,1,0,0:0:0:0:
452,180,258706,1,2,0:0:0:0:
422,185,258816,1,0,0:0:0:0:
393,189,258927,1,0,0:0:0:0:
496,64,259148,5,8,0:0:0:0:
496,64,259258,1,0,0:0:0:0:
424,300,259479,1,2,0:0:0:0:
424,300,259589,5,4,0:3:0:0:
373,115,259810,1,0,3:0:0:0:
189,164,260031,1,0,3:0:0:0:
239,349,260251,1,0,3:0:0:0:
317,234,260472,5,8,3:0:0:0:
317,234,260913,1,8,3:0:0:0:
317,234,261354,5,0,3:0:0:0:
261,34,261575,1,0,3:0:0:0:
63,86,261796,1,0,3:0:0:0:
117,286,262016,1,0,3:0:0:0:
189,160,262237,6,0,P|133:180|21:192,1,160,8|8,3:0|3:0,0:0:0:0:
221,268,262898,1,0,3:0:0:0:
221,268,263009,1,0,3:0:0:0:
221,268,263119,5,0,3:0:0:0:
433,192,263340,1,0,3:0:0:0:
189,160,263560,1,0,3:0:0:0:
477,300,263781,1,0,3:0:0:0:
297,78,264002,5,8,3:0:0:0:
297,78,264443,1,8,3:0:0:0:
297,78,264884,5,0,3:0:0:0:
263,343,265105,1,0,3:0:0:0:
48,180,265325,2,0,L|60:84,1,80,0|0,3:0|3:0,3:0:0:0:
116,320,265766,1,0,3:0:0:0:
192,136,265987,2,0,L|188:104,2,20
248,212,266208,5,2,0:0:0:0:
276,221,266318,1,0,0:0:0:0:
304,226,266428,1,0,0:0:0:0:
332,226,266539,1,0,0:0:0:0:
361,221,266649,5,0,3:0:0:0:
168,20,266870,1,0,3:0:0:0:
144,296,267090,1,0,3:0:0:0:
308,100,267311,1,0,3:0:0:0:
32,68,267531,6,0,P|24:140|36:232,1,160,8|8,3:0|3:0,3:0:0:0:
104,384,268193,1,0,3:0:0:0:
256,168,268414,5,0,3:0:0:0:
32,68,268634,1,0,3:0:0:0:
144,296,268855,2,0,L|224:288,1,80,8|0,3:0|3:0,3:0:0:0:
296,240,269186,1,0,3:0:0:0:
328,234,269296,1,0,3:0:0:0:
361,236,269406,1,0,3:0:0:0:
393,245,269516,1,0,3:0:0:0:
208,384,269738,1,8,3:0:0:0:
100,184,269958,1,0,0:0:0:0:
100,184,270068,1,0,0:0:0:0:
100,184,270179,6,0,L|88:80,1,80,2|0,0:0|0:0,0:0:0:0:
280,0,270620,2,0,P|288:56|276:140,1,120,0|0,1:0|0:0,0:0:0:0:
252,208,271061,1,8,0:0:0:0:
184,64,271282,1,0,0:0:0:0:
396,40,271502,2,0,L|488:56,1,80,2|0,0:0|0:0,0:0:0:0:
252,208,271944,6,0,P|208:220|144:216,1,95.9999970703126,4|0,0:0|0:0,0:0:0:0:
36,324,272385,2,0,P|83:322|130:335,1,95.9999970703126,4|0,0:0|0:0,0:0:0:0:
368,384,272826,5,8,0:0:0:0:
363,348,272936,1,0,0:0:0:0:
358,312,273046,1,0,0:0:0:0:
353,277,273156,1,8,0:0:0:0:
348,241,273267,6,0,B|340:180|340:180|352:132|352:132|340:52,1,180.000006866455,4|0,0:0|0:0,0:0:0:0:
435,192,273709,5,4,0:3:0:0:
373,137,280632,5,0,1:0:0:0:
373,137,280741,2,0,P|320:147|281:156,1,80,0|0,1:2|0:0,0:0:0:0:
376,232,281507,5,0,1:0:0:0:
376,232,281616,2,0,P|429:222|468:213,1,80,4|0,1:2|0:0,0:0:0:0:
280,248,282383,5,0,1:0:0:0:
280,248,282492,2,0,P|230:269|194:287,1,80,0|0,1:2|0:0,0:0:0:0:
352,320,283259,5,0,1:0:0:0:
352,320,283368,2,0,P|401:341|437:359,1,80,0|0,1:2|0:0,0:0:0:0:
256,328,284135,5,0,1:0:0:0:
256,328,284244,2,0,P|273:291|288:255,1,80,0|0,1:2|0:0,0:0:0:0:
184,128,285011,5,0,1:0:0:0:
184,128,285120,2,0,P|193:166|204:205,1,80,0|0,1:2|0:0,0:0:0:0:
296,152,285886,5,0,1:0:0:0:
296,152,285996,2,0,P|308:113|318:71,1,80,0|0,1:2|0:0,0:0:0:0:
192,24,286762,5,0,1:0:0:0:
192,24,286871,2,0,P|197:38|198:58,1,20,0|0,1:2|0:0,0:0:0:0:
216,96,287091,1,4,1:0:0:0:
272,32,287310,1,4,1:0:0:0:
160,152,287529,1,4,0:0:0:0:
64,24,287748,6,0,P|72:64|72:96,1,40,4|0,1:0|0:0,0:0:0:0:
144,112,287966,2,0,P|152:88|152:64,1,40,0|0,1:0|0:0,0:0:0:0:
48,144,288186,2,0,P|56:224|64:280,1,120.000004577637,8|0,1:2|0:0,0:0:0:0:
144,336,288514,2,0,P|152:248|152:208,1,120.000004577637,0|0,1:0|0:0,0:0:0:0:
240,272,288842,2,0,L|256:344,1,60.0000022888184,0|0,1:0|0:0,0:0:0:0:
328,280,289062,2,0,P|336:216|336:120,1,120.000004577637,8|2,1:2|0:0,0:0:0:0:
336,136,289390,1,2,0:0:0:0:
328,112,289499,6,0,P|320:80|304:48,1,60.0000022888184,4|0,1:0|0:0,0:0:0:0:
408,80,289718,2,0,L|488:96,1,60.0000022888184,0|0,1:0|0:0,0:0:0:0:
248,144,289938,2,0,P|160:128|88:104,1,120.000004577637,8|0,1:2|0:0,0:0:0:0:
32,96,290266,1,0,1:0:0:0:
368,176,290594,1,0,1:0:0:0:
216,56,290813,2,0,P|224:136|224:216,1,120.000004577637,8|0,1:2|0:0,0:0:0:0:
224,208,291142,1,2,0:0:0:0:
224,248,291251,1,4,1:0:0:0:
72,184,291470,6,0,L|144:160,1,60.0000022888184,0|0,1:0|0:0,0:0:0:0:
112,256,291689,2,0,P|88:328|80:392,1,120.000004577637,8|0,1:2|0:0,0:0:0:0:
32,256,292018,2,0,L|24:112,1,120.000004577637,0|0,1:0|0:0,0:0:0:0:
16,40,292346,1,0,1:0:0:0:
112,176,292565,2,0,L|120:320,1,120.000004577637,8|4,1:2|0:0,0:0:0:0:
118,295,292893,1,2,0:0:0:0:
118,295,293003,6,0,L|224:336,1,60.0000022888184,4|0,1:0|0:0,0:0:0:0:
288,216,293222,2,0,L|256:288,1,60.0000022888184,0|0,1:0|0:0,0:0:0:0:
368,280,293441,2,0,L|479:324,1,120.000004577637,8|2,1:2|0:0,0:0:0:0:
406,195,293770,2,0,L|270:219,1,120.000004577637,0|0,1:0|0:0,0:0:0:0:
440,120,294098,2,0,L|544:160,1,60.0000022888184,0|0,1:0|0:0,0:0:0:0:
304,128,294317,2,0,P|264:112|240:96,1,60.0000022888184,4|0,1:2|0:0,0:0:0:0:
368,40,294536,5,0,1:0:0:0:
368,40,294609,1,0,1:0:0:0:
368,40,294682,1,0,1:0:0:0:
368,40,294755,2,0,L|372:107,1,60.0000022888184,4|0,1:0|0:0,0:0:0:0:
416,216,294974,2,0,L|424:128,1,60.0000022888184,0|0,1:0|0:0,0:0:0:0:
328,200,295193,2,0,P|344:288|352:336,1,120.000004577637,8|0,1:2|0:0,0:0:0:0:
352,328,295521,1,0,1:0:0:0:
352,336,295631,6,2,P|408:256|376:112,1,240.000009155274,6|0,1:0|0:0,0:0:0:0:
160,48,296069,2,0,P|104:128|136:272,1,240.000009155274,2|2,1:0|2:0,1:1:0:0:
136,272,296397,1,0,0:0:0:0:
144,280,296507,6,0,L|248:296,1,60.0000022888184,4|0,1:0|0:0,0:0:0:0:
16,360,296726,2,0,L|32:264,1,60.0000022888184,0|0,1:0|0:0,0:0:0:0:
64,168,296945,2,0,P|147:181|216:192,1,120.000004577637,8|2,1:2|0:0,0:0:0:0:
216,192,297273,1,0,1:0:0:0:
248,200,297383,6,2,P|232:280|72:288,1,240.000009155274,6|0,1:0|0:0,1:1:0:0:
152,136,297820,2,2,P|168:72|272:48,1,120.000004577637,6|0,1:0|0:0,1:1:0:0:
296,32,298039,2,2,P|360:48|384:152,1,120.000004577637,6|0,1:0|0:0,1:1:0:0:
400,176,298258,6,0,P|384:232|352:264,1,60.0000022888184,4|0,1:0|0:0,0:0:0:0:
494,278,298477,2,0,P|478:253|472:224,1,60.0000022888184,0|0,1:0|0:0,0:0:0:0:
408,320,298696,6,2,P|152:312|16:160,1,360.000013732911,6|0,1:0|0:0,1:1:0:0:
72,240,299134,6,0,P|80:208|80:176,1,60.0000022888184,4|0,1:0|0:0,0:0:0:0:
24,40,299353,2,0,P|32:96|48:128,1,60.0000022888184,0|0,1:0|0:0,0:0:0:0:
128,96,299572,6,2,P|224:56|352:248,1,360.000013732911,6|0,1:0|0:0,1:1:0:0:
488,64,300010,6,2,P|321:42|257:197,1,360.000013732911,6|0,1:0|0:0,1:1:0:0:
136,176,300448,6,2,P|232:136|360:328,1,360.000013732911,6|0,1:0|0:0,1:1:0:0:
504,144,300886,6,2,P|337:122|273:277,1,360.000013732911,6|0,1:0|0:0,1:1:0:0:
272,275,301324,1,6,0:0:0:0:
256,192,301434,12,4,303068,0:0:0:0:
323,251,303504,5,4,1:0:0:0:
381,183,303722,1,2,0:0:0:0:
409,274,303941,1,0,1:0:0:0:
297,154,304160,5,2,0:0:0:0:
342,343,304379,1,0,1:0:0:0:
472,210,304598,1,2,0:0:0:0:
352,353,304817,1,0,1:0:0:0:
352,353,304927,1,0,0:0:0:0:
352,353,305036,1,2,0:0:0:0:
258,282,305255,6,0,L|165:291,1,80,0|0,1:0|0:0,0:0:0:0:
32,109,305693,1,0,1:0:0:0:
120,97,305912,1,2,0:0:0:0:
133,189,306131,1,0,1:0:0:0:
43,204,306350,1,2,0:0:0:0:
220,44,306569,2,0,P|232:85|224:150,1,80,0|2,1:0|0:0,0:0:0:0:
229,148,306898,1,0,0:0:0:0:
223,179,307007,6,0,L|321:194,1,80,0|2,1:0|0:0,0:0:0:0:
329,197,307336,1,0,0:0:0:0:
329,197,307445,1,0,1:0:0:0:
321,94,307664,1,2,0:0:0:0:
393,267,307883,6,0,P|391:304|381:346,1,80,0|2,1:0|0:0,0:0:0:0:
376,369,308212,1,0,0:0:0:0:
376,369,308321,1,0,1:0:0:0:
285,290,308540,1,2,0:0:0:0:
61,348,308759,5,0,1:0:0:0:
199,234,308978,1,2,0:0:0:0:
199,234,309087,1,0,0:0:0:0:
199,234,309197,1,0,1:0:0:0:
100,251,309416,1,2,0:0:0:0:
172,325,309635,1,0,1:0:0:0:
137,158,309854,1,2,0:0:0:0:
301,305,310073,5,0,1:0:0:0:
301,305,310182,1,0,0:0:0:0:
301,305,310292,1,2,0:0:0:0:
301,305,310401,1,0,0:0:0:0:
301,305,310511,2,0,L|392:315,1,80,0|2,1:0|0:0,0:0:0:0:
486,217,310949,1,0,1:0:0:0:
404,171,311168,1,2,0:0:0:0:
213,357,311387,2,0,P|202:314|202:259,1,80,0|2,1:0|0:0,0:0:0:0:
374,49,311825,6,0,P|348:41|322:37,1,40,0|0,1:0|0:0,0:0:0:0:
285,101,312044,2,0,P|258:107|233:116,1,40,2|0,0:0|0:0,0:0:0:0:
208,177,312263,6,0,L|111:194,1,80,0|2,1:0|0:0,0:0:0:0:
24,133,312701,1,0,1:0:0:0:
91,282,312920,1,2,0:0:0:0:
133,79,313139,5,0,1:0:0:0:
5,233,313358,1,2,0:0:0:0:
186,267,313576,2,0,P|237:274|290:286,1,80,0|2,1:0|0:0,0:0:0:0:
472,352,314014,6,0,L|388:361,1,80,0|2,1:0|0:0,0:0:0:0:
370,363,314343,1,0,0:0:0:0:
370,362,314452,1,0,1:0:0:0:
397,266,314671,1,2,0:0:0:0:
337,180,314890,6,0,L|327:83,1,80,0|2,1:0|0:0,0:0:0:0:
328,82,315219,1,0,0:0:0:0:
328,82,315328,1,0,1:0:0:0:
402,272,315547,5,2,0:0:0:0:
402,272,315657,1,0,0:0:0:0:
402,272,315766,2,0,L|310:289,1,80,0|2,1:0|0:0,0:0:0:0:
156,160,316204,2,0,L|248:143,1,80,0|2,1:0|0:0,0:0:0:0:
215,336,316642,2,0,L|69:360,1,120,0|0,1:0|0:0,0:0:0:0:
29,283,317080,6,0,L|94:273,1,60,4|0,0:0|0:0,0:0:0:0:
252,173,317518,6,0,B|198:151|198:151|147:189,1,120,4|0,1:2|0:0,0:0:0:0:
29,283,317956,6,0,L|128:301,1,90.0000034332277,2|0,1:2|0:0,0:0:0:0:
280,236,318394,6,0,P|298:181|277:105,1,120,0|0,1:0|0:0,0:0:0:0:
286,121,318832,2,0,L|199:105,1,80,0|2,1:0|0:0,0:0:0:0:
168,324,319270,6,0,L|264:344,1,80,0|2,1:0|0:0,0:0:0:0:
246,340,319598,1,0,0:0:0:0:
246,340,319708,1,0,1:0:0:0:
339,236,319927,1,2,0:0:0:0:
456,316,320146,1,0,1:0:0:0:
355,336,320365,1,2,0:0:0:0:
435,214,320584,2,0,L|438:115,1,80,0|2,1:0|0:0,0:0:0:0:
414,40,321022,5,0,1:0:0:0:
334,195,321241,1,2,0:0:0:0:
334,195,321350,1,0,0:0:0:0:
334,195,321460,1,0,1:0:0:0:
212,76,321679,1,2,0:0:0:0:
439,173,321898,5,0,1:0:0:0:
306,17,322117,1,2,0:0:0:0:
234,208,322336,1,0,1:0:0:0:
370,344,322555,5,2,0:0:0:0:
370,344,322664,1,0,0:0:0:0:
370,344,322774,2,0,P|323:353|270:371,1,80,0|2,1:0|0:0,0:0:0:0:
141,260,323212,1,0,1:0:0:0:
234,208,323431,1,2,0:0:0:0:
465,355,323649,6,0,L|473:260,1,80,0|2,1:0|0:0,0:0:0:0:
474,249,323978,1,0,0:0:0:0:
474,249,324087,1,0,1:0:0:0:
479,153,324306,1,2,0:0:0:0:
340,298,324525,6,0,P|304:302|257:315,1,80,4|0,0:0|0:0,0:0:0:0:
76,254,324963,1,0,1:0:0:0:
165,335,325182,1,2,0:0:0:0:
201,219,325401,1,0,1:0:0:0:
48,365,325620,1,2,0:0:0:0:
118,152,325839,6,0,L|115:64,1,80,0|2,1:0|0:0,0:0:0:0:
203,111,326277,1,0,1:0:0:0:
37,208,326496,1,2,0:0:0:0:
209,195,326715,1,0,1:0:0:0:
35,125,326934,1,2,0:0:0:0:
129,263,327153,1,0,1:0:0:0:
38,209,327372,1,2,0:0:0:0:
48,352,327591,6,0,L|162:366,1,80,0|2,1:0|0:0,0:0:0:0:
342,279,328029,1,0,1:0:0:0:
160,267,328248,1,2,0:0:0:0:
160,267,328358,1,0,0:0:0:0:
160,267,328467,1,0,1:0:0:0:
251,229,328686,1,2,0:0:0:0:
127,361,328905,5,0,1:0:0:0:
184,167,329124,1,2,0:0:0:0:
247,336,329343,2,0,L|348:348,1,80,0|2,1:0|0:0,0:0:0:0:
501,301,329781,6,0,L|411:295,1,80,2|0,1:0|0:0,0:0:0:0:
330,262,330000,2,0,L|420:268,1,80,2|0,1:0|0:0,0:0:0:0:
483,218,330219,6,0,L|405:214,1,60.0000022888184,2|0,1:0|0:0,0:0:0:0:
343,180,330438,2,0,L|402:183,1,60.0000022888184,2|0,1:0|0:0,0:0:0:0:
473,145,330657,6,0,L|418:142,1,40,2|0,1:0|0:0,0:0:0:0:
365,99,330876,2,0,L|420:102,1,40,2|0,1:0|0:0,0:0:0:0:
453,65,331095,6,0,L|415:62,1,30.0000011444092,2|0,1:0|0:0,0:0:0:0:
386,33,331314,2,0,L|424:36,1,30.0000011444092,2|0,1:0|0:0,0:0:0:0:
449,252,331533,6,0,P|371:265|217:195,1,240,4|0,0:0|0:0,0:0:0:0:
113,103,331971,5,4,0:0:0:0:
113,103,332189,2,0,P|103:146|99:205,1,80,2|0,0:0|0:0,0:0:0:0:
175,313,332627,2,0,P|184:274|189:235,1,80,2|0,0:0|0:0,0:0:0:0:
79,275,333065,1,2,0:0:0:0:
175,313,333284,1,0,0:0:0:0:
274,281,333503,1,2,0:0:0:0:
328,192,333722,6,0,P|288:187|248:182,1,80,0|2,0:0|0:0,0:0:0:0:
412,131,334160,2,0,P|451:135|491:140,1,80,0|2,0:0|0:0,0:0:0:0:
458,239,334598,2,0,P|463:289|442:359,1,120,0|0,0:0|0:0,0:0:0:0:
417,350,335036,1,0,0:0:0:0:
309,324,335255,1,2,0:0:0:0:
309,324,335365,1,0,0:0:0:0:
309,324,335474,1,0,0:0:0:0:
240,239,335693,6,0,P|245:183|247:141,1,80,2|0,0:0|0:0,0:0:0:0:
185,74,336131,1,2,0:0:0:0:
81,85,336350,2,0,P|76:141|74:183,1,80,0|2,0:0|0:0,0:0:0:0:
161,222,336788,1,0,0:0:0:0:
258,186,337007,1,2,0:0:0:0:
311,96,337226,6,0,P|391:79|475:85,1,160
487,186,337883,1,2,0:0:0:0:
387,216,338102,2,0,P|387:278|412:333,1,120
432,325,338540,2,0,P|471:328|516:332,1,80,0|2,0:0|0:0,0:0:0:0:
304,277,338978,5,0,0:0:0:0:
304,277,339197,2,0,P|264:280|224:283,1,80,2|0,0:0|0:0,0:0:0:0:
67,221,339635,2,0,P|106:224|146:227,1,80,2|0,0:0|0:0,0:0:0:0:
225,158,340073,1,2,0:0:0:0:
325,185,340292,2,0,P|325:141|315:98,1,80,0|2,0:0|0:0,0:0:0:0:
153,226,340730,6,0,P|154:286|200:393,1,160,0|0,0:0|0:0,0:0:0:0:
287,341,341387,1,2,0:0:0:0:
390,353,341606,1,0,0:0:0:0:
480,186,341825,1,2,0:0:0:0:
372,201,342043,1,0,0:0:0:0:
321,194,342153,1,0,0:0:0:0:
277,165,342262,1,2,0:0:0:0:
248,118,342372,1,0,0:0:0:0:
249,65,342481,6,0,P|194:64|103:63,1,120.000004577637,0|0,0:0|0:0,0:0:0:0:
129,63,343138,1,2,3:0:0:0:
141,88,343248,1,0,3:0:0:0:
149,114,343357,1,0,3:0:0:0:
153,141,343467,1,0,3:0:0:0:
153,168,343576,1,2,3:0:0:0:
148,195,343686,1,0,3:0:0:0:
139,221,343795,1,0,3:0:0:0:
126,246,343905,1,0,3:0:0:0:
110,269,344014,1,2,3:0:0:0:
90,289,344124,1,0,3:0:0:0:
69,307,344233,5,0,3:0:0:0:
101,330,344343,1,0,3:0:0:0:
138,342,344452,1,2,3:0:0:0:
178,343,344562,1,0,3:0:0:0:
215,331,344671,1,0,3:0:0:0:
249,309,344781,1,0,3:0:0:0:
269,275,344890,1,0,3:0:0:0:
274,235,345000,1,0,3:0:0:0:
260,197,345109,1,0,3:0:0:0:
256,156,345219,1,0,3:0:0:0:
269,118,345328,1,0,3:0:0:0:
296,89,345438,1,0,3:0:0:0:
316,54,345547,6,0,B|441:93|369:212|369:212,1,180.000006866455,4|0,0:0|0:0,0:0:0:0:
319,243,345985,6,0,P|267:241|189:238,3,128,4|0|0|0,2:1|0:0|0:0|0:0,0:0:0:0:
256,192,351350,12,0,352554,0:0:0:0:
141,156,352992,5,0,0:0:0:0:
141,156,353102,1,2,0:0:0:0:
235,175,353321,2,0,P|246:130|244:51,1,120,2|2,0:0|0:0,0:0:0:0:
153,27,353868,1,0,0:0:0:0:
66,69,354087,2,0,P|42:139|66:249,1,160,2|2,0:0|0:0,0:0:0:0:
116,295,354744,5,0,0:0:0:0:
116,295,354854,1,2,0:0:0:0:
212,293,355073,2,0,P|267:289|354:286,1,120,2|2,0:0|0:0,0:0:0:0:
420,322,355620,2,0,P|434:260|444:156,1,160,4|0,0:0|0:0,0:0:0:0:
387,86,356277,1,2,0:0:0:0:
291,84,356496,5,4,0:0:0:0:
291,84,356606,1,2,0:0:0:0:
222,151,356825,1,2,0:0:0:0:
222,151,357153,2,0,P|180:140|118:124,1,80,2|0,0:0|0:0,0:0:0:0:
2,177,357591,2,0,P|95:203|193:230,1,160,2|2,0:0|0:0,0:0:0:0:
248,248,358248,6,0,P|250:296|232:375,2,120,0|2|2,0:0|0:0|0:0,0:0:0:0:
319,182,359124,1,4,0:0:0:0:
414,193,359343,1,2,0:0:0:0:
423,97,359562,1,0,0:0:0:0:
328,86,359781,1,2,0:0:0:0:
358,261,360000,5,4,0:0:0:0:
358,261,360109,1,2,0:0:0:0:
285,323,360328,1,2,0:0:0:0:
285,323,360657,1,2,0:0:0:0:
199,279,360876,2,0,P|201:239|204:199,1,80,0|2,0:0|0:0,0:0:0:0:
102,283,361314,2,0,P|99:322|96:362,1,80,0|2,0:0|0:0,0:0:0:0:
55,213,361752,6,0,P|50:153|45:79,1,120,4|2,0:0|0:0,0:0:0:0:
45,93,362189,1,0,0:0:0:0:
140,75,362408,1,2,0:0:0:0:
212,138,362627,2,0,P|257:155|314:163,1,80,0|2,0:0|0:0,0:0:0:0:
453,117,363065,2,0,P|404:112|370:112,1,80,4|2,0:0|0:0,0:0:0:0:
403,234,363503,5,4,0:0:0:0:
350,314,363722,1,0,0:0:0:0:
260,348,363941,1,0,0:0:0:0:
164,342,364160,1,2,0:0:0:0:
82,291,364379,2,0,P|78:236|74:179,1,80,0|2,0:0|0:0,0:0:0:0:
167,83,364817,2,0,P|163:138|159:195,1,80,0|0,0:0|0:0,0:0:0:0:
259,243,365255,6,0,P|263:169|268:55,1,160,4|0,0:0|0:0,0:0:0:0:
266,83,365912,1,2,0:0:0:0:
389,188,366131,1,4,0:0:0:0:
370,95,366350,1,2,0:0:0:0:
370,95,366460,1,0,0:0:0:0:
370,95,366569,2,0,L|365:53,3,26.6666666666667,4|0|0|0,0:0|0:0|0:0|0:0,0:0:0:0:
334,273,367007,5,4,0:0:0:0:
299,264,367116,1,0,3:0:0:0:
262,262,367226,1,0,3:0:0:0:
227,271,367335,1,0,3:0:0:0:
197,291,367445,1,0,3:0:0:0:
172,317,367554,1,0,3:0:0:0:
142,337,367664,1,0,3:0:0:0:
106,337,367773,1,0,3:0:0:0:
77,315,367883,1,4,0:0:0:0:
65,280,367992,1,0,3:0:0:0:
75,245,368102,1,0,3:0:0:0:
102,221,368211,1,0,3:0:0:0:
134,204,368321,1,0,3:0:0:0:
161,181,368430,1,0,3:0:0:0:
180,150,368540,1,0,3:0:0:0:
187,115,368649,1,0,3:0:0:0:
178,79,368759,5,4,0:0:0:0:
210,93,368868,1,0,3:0:0:0:
245,99,368978,1,0,3:0:0:0:
280,98,369087,1,0,3:0:0:0:
315,90,369197,2,0,L|400:81,1,80,0|0,3:0|3:0,3:0:0:0:
428,94,369525,1,0,3:0:0:0:
448,123,369635,1,4,0:0:0:0:
457,157,369744,1,0,3:0:0:0:
453,192,369854,1,0,3:0:0:0:
433,221,369963,1,0,3:0:0:0:
414,252,370073,1,4,3:0:0:0:
415,287,370182,1,0,3:0:0:0:
432,318,370292,1,0,3:0:0:0:
462,337,370401,1,0,3:0:0:0:
497,345,370511,6,0,L|505:284,7,40,4|0|0|0|0|0|0|0,0:0|3:0|3:0|3:0|3:0|3:0|3:0|3:0,3:0:0:0:
486,263,371387,1,4,0:0:0:0:
455,231,371496,1,0,3:0:0:0:
413,216,371606,1,0,3:0:0:0:
369,216,371715,1,0,3:0:0:0:
327,232,371825,2,0,L|286:243,6,26.6666666666667,0|0|0|0|0|0|0,3:0|3:0|3:0|3:0|3:0|3:0|3:0,3:0:0:0:
256,192,372370,12,0,373568,0:0:0:0:
322,103,374004,5,0,1:0:0:0:
322,103,374113,1,0,0:0:0:0:
185,55,374332,1,0,1:0:0:0:
185,55,374441,1,4,0:1:0:0:
331,21,374660,5,2,0:0:0:0:
198,128,374879,1,0,1:0:0:0:
276,134,375098,1,2,0:0:0:0:
256,22,375317,1,0,1:0:0:0:
276,134,375536,1,0,1:0:0:0:
467,89,375755,5,0,1:0:0:0:
467,89,375865,1,0,0:0:0:0:
398,235,376084,1,0,1:0:0:0:
398,235,376193,1,0,0:0:0:0:
502,190,376412,5,2,0:0:0:0:
358,124,376631,1,0,1:0:0:0:
482,152,376850,1,2,0:0:0:0:
301,210,377069,2,0,L|314:334,1,111.999996582031,0|0,1:0|1:0,0:0:0:0:
140,195,377507,5,0,1:0:0:0:
140,195,377617,1,0,0:0:0:0:
257,110,377836,1,0,1:0:0:0:
257,110,377945,1,0,0:0:0:0:
98,102,378164,5,2,0:0:0:0:
5,144,378383,1,0,1:0:0:0:
47,237,378602,1,2,0:0:0:0:
212,260,378821,5,0,1:0:0:0:
254,353,379040,1,2,1:2:0:0:
411,242,379259,5,0,1:0:0:0:
411,242,379368,1,0,0:0:0:0:
254,182,379587,1,0,1:0:0:0:
254,182,379697,1,0,0:0:0:0:
391,83,379916,5,0,0:0:0:0:
391,83,380025,1,0,1:0:0:0:
391,83,380135,1,2,0:0:0:0:
467,141,380354,1,0,1:0:0:0:
393,335,380573,1,10,0:0:0:0:
317,277,380792,1,4,1:2:0:0:
234,303,381011,5,4,1:0:0:0:
234,303,381120,1,2,0:0:0:0:
72,352,381339,1,0,1:0:0:0:
72,352,381449,1,8,0:1:0:0:
157,218,381668,5,2,0:0:0:0:
134,302,381887,1,0,1:0:0:0:
196,367,382106,1,2,0:0:0:0:
225,279,382325,1,8,1:0:0:0:
282,348,382544,1,2,1:2:0:0:
450,372,382763,5,0,1:0:0:0:
450,372,382872,1,2,0:0:0:0:
362,226,383091,1,0,1:0:0:0:
362,226,383201,1,8,0:1:0:0:
493,136,383420,5,2,0:0:0:0:
493,136,383529,1,0,1:0:0:0:
493,136,383639,1,2,0:0:0:0:
512,261,383858,1,0,1:0:0:0:
512,261,383967,1,0,0:0:0:0:
512,261,384076,1,8,1:0:0:0:
366,111,384295,1,2,1:2:0:0:
289,156,384514,5,0,1:0:0:0:
289,156,384624,1,2,0:0:0:0:
157,95,384843,1,0,1:0:0:0:
157,95,384952,1,8,0:1:0:0:
261,38,385171,5,2,0:0:0:0:
261,38,385281,1,0,1:0:0:0:
261,38,385390,2,0,L|255:113,1,55.9999982910157,2|0,0:0|0:0,0:0:0:0:
228,162,385609,2,0,L|222:237,1,55.9999982910157,2|0,1:0|0:0,0:0:0:0:
195,286,385828,2,0,L|189:361,1,55.9999982910157,2|0,1:0|0:0,0:0:0:0:
104,378,386047,5,0,1:0:0:0:
104,378,386157,1,2,0:0:0:0:
104,378,386266,1,2,1:0:0:0:
104,378,386376,2,0,P|36:354|22:283,1,111.999996582031,2|0,0:0|1:0,0:0:0:0:
32,303,386704,2,0,P|28:237|42:171,1,111.999996582031,2|4,0:0|0:0,0:0:0:0:
45,74,387142,5,0,1:0:0:0:
160,143,387361,1,6,0:0:0:0:
221,25,387580,1,0,1:0:0:0:
221,25,387690,1,4,1:0:0:0:
269,230,387909,5,4,0:0:0:0:
269,230,388018,1,4,1:0:0:0:
269,230,388128,2,0,P|324:226|392:216,1,111.999996582031,8|0,0:0|0:0,0:0:0:0:
454,267,388456,2,0,P|456:309|403:361,1,111.999996582031,8|4,1:0|0:0,0:0:0:0:
166,332,388894,2,0,P|173:271|181:219,1,111.999996582031,0|4,1:0|0:0,0:0:0:0:
323,32,389332,2,0,P|331:87|337:143,1,111.999996582031,8|4,1:0|0:0,0:0:0:0:
114,123,389770,5,0,1:0:0:0:
114,123,389879,2,0,P|190:130|254:138,1,111.999996582031,8|0,0:0|0:0,0:0:0:0:
258,202,390208,2,0,P|317:196|363:146,1,111.999996582031,8|4,1:0|0:0,0:0:0:0:
429,56,390646,6,0,L|444:187,1,111.999996582031,0|4,1:0|0:0,0:0:0:0:
401,367,391084,1,8,1:0:0:0:
401,367,391193,2,0,L|410:302,1,55.9999982910157,8|0,0:0|0:0,0:0:0:0:
397,239,391412,1,4,0:0:0:0:
397,239,391522,1,4,1:0:0:0:
397,239,391631,2,0,P|334:241|286:245,1,111.999996582031,8|0,0:0|1:0,0:0:0:0:
226,299,391960,2,0,P|172:285|146:220,1,111.999996582031,8|4,1:0|0:0,0:0:0:0:
20,98,392398,2,0,P|87:95|159:107,1,111.999996582031,0|4,1:0|0:0,0:0:0:0:
213,18,392836,1,8,1:0:0:0:
310,76,393055,1,4,0:0:0:0:
236,152,393274,5,0,1:0:0:0:
261,171,393383,2,0,L|382:154,1,111.999996582031,8|0,0:0|0:0,0:0:0:0:
371,135,393712,2,0,L|496:154,1,111.999996582031,10|0,1:0|0:0,0:0:0:0:
503,198,394040,5,2,1:0:0:0:
476,243,394149,2,0,B|447:237|447:237|417:245,1,55.9999982910157,0|0,0:0|0:0,0:0:0:0:
379,302,394368,2,0,B|350:308|350:308|320:300,1,55.9999982910157,2|0,1:0|0:0,0:0:0:0:
265,259,394587,1,2,1:0:0:0:
220,292,394697,2,0,L|230:131,1,128,2|0,1:0|0:0,0:0:0:0:
161,122,395025,5,4,1:0:0:0:
161,122,395135,2,0,P|105:127|62:178,1,111.999996582031,8|0,0:0|0:0,0:0:0:0:
57,203,395463,2,0,P|44:130|42:89,1,111.999996582031,8|4,1:0|0:0,0:0:0:0:
254,0,395901,2,0,P|249:55|239:110,1,111.999996582031,0|4,1:0|0:0,0:0:0:0:
153,270,396339,1,8,1:0:0:0:
153,270,396449,2,0,L|283:256,1,111.999996582031,8|0,0:0|0:0,0:0:0:0:
294,232,396777,5,0,1:0:0:0:
334,256,396887,2,0,P|372:229|379:153,1,111.999996582031,8|0,0:0|1:0,0:0:0:0:
384,167,397215,2,0,P|400:232|428:292,1,111.999996582031,8|4,1:0|0:0,0:0:0:0:
234,361,397653,1,0,1:0:0:0:
154,320,397872,1,4,0:0:0:0:
154,320,397982,1,0,0:0:0:0:
154,320,398091,1,4,1:2:0:0:
154,320,398201,1,8,0:0:0:0:
101,135,398420,5,4,0:0:0:0:
101,135,398529,1,4,1:0:0:0:
101,135,398639,1,8,0:0:0:0:
180,179,398858,1,8,0:0:0:0:
180,179,398967,1,2,0:0:0:0:
244,119,399186,2,0,L|235:73,2,30.0000011444092,2|0|2,0:0|0:0|0:0,0:0:0:0:
323,153,399624,2,0,L|317:182,2,30.0000011444092,0|8|2,1:0|0:0|0:0,0:0:0:0:
417,98,400062,5,8,0:0:0:0:
417,98,400171,1,2,0:0:0:0:
417,98,400281,1,0,1:0:0:0:
472,192,400500,1,0,1:0:0:0:
378,247,400719,1,8,0:0:0:0:
323,153,400938,1,4,1:2:0:0:
417,98,401157,1,0,1:0:0:0:
269,240,401376,5,4,0:0:0:0:
269,240,401485,1,0,1:0:0:0:
269,240,401595,2,0,L|265:284,1,30.0000011444092,2|0,1:0|0:0,0:0:0:0:
266,340,401814,2,0,L|262:384,1,30.0000011444092,2|0,1:0|0:0,0:0:0:0:
182,370,402033,6,0,P|190:313|193:242,1,120.000004577637,4|0,0:0|0:0,0:0:0:0:
34,94,402471,2,0,P|31:147|41:227,1,120.000004577637,8|0,0:0|0:0,0:0:0:0:
51,256,402799,1,0,0:0:0:0:
51,256,402909,1,2,0:0:0:0:
233,72,403128,1,0,0:0:0:0:
303,170,403347,2,0,L|177:178,1,120.000004577637,8|0,0:0|0:0,0:0:0:0:
385,88,403785,5,2,0:0:0:0:
325,251,404004,1,0,0:0:0:0:
325,251,404113,1,0,0:0:0:0:
325,251,404222,1,8,0:0:0:0:
479,214,404441,1,0,0:0:0:0:
463,66,404660,1,2,0:0:0:0:
463,66,404770,1,0,0:0:0:0:
403,303,404989,1,0,0:0:0:0:
403,303,405098,1,8,0:0:0:0:
378,120,405317,1,2,0:0:0:0:
259,297,405536,6,0,P|212:283|134:283,1,120.000004577637,2|0,0:0|0:0,0:0:0:0:
108,316,405865,1,0,0:0:0:0:
108,316,405974,1,8,0:0:0:0:
169,150,406193,1,0,0:0:0:0:
412,221,406412,1,2,0:0:0:0:
388,100,406631,1,0,0:0:0:0:
388,100,406741,1,0,0:0:0:0:
388,100,406850,1,8,0:0:0:0:
278,208,407069,1,0,0:0:0:0:
229,18,407288,6,0,P|230:86|241:172,1,120.000004577637,2|0,0:0|0:0,0:0:0:0:
197,213,407617,1,0,0:0:0:0:
197,213,407726,2,0,P|128:203|28:193,1,120.000004577637,8|0,0:0|0:0,0:0:0:0:
328,110,408164,2,0,P|381:119|465:127,1,120.000004577637,2|0,0:0|0:0,0:0:0:0:
290,18,408602,1,8,0:0:0:0:
403,234,408821,1,0,0:0:0:0:
188,40,409040,6,0,B|178:78|178:78|199:108|194:187,1,136.000002593994,4|0,0:0|0:0,0:0:0:0:
348,38,409478,2,0,P|285:37|268:97,1,136.000002593994,8|0,0:0|0:0,0:0:0:0:
39,292,409916,1,2,0:0:0:0:
165,227,410135,1,0,0:0:0:0:
165,227,410244,1,0,0:0:0:0:
165,227,410354,1,8,0:0:0:0:
221,350,410573,1,0,0:0:0:0:
361,189,410792,5,2,0:0:0:0:
264,174,411011,1,0,0:0:0:0:
264,174,411120,1,0,0:0:0:0:
264,174,411230,1,8,0:0:0:0:
241,270,411449,1,0,0:0:0:0:
158,46,411668,5,2,0:0:0:0:
243,67,411887,1,0,0:0:0:0:
243,67,411996,1,0,0:0:0:0:
243,67,412106,1,8,0:0:0:0:
222,147,412325,1,0,0:0:0:0:
367,34,412544,6,0,L|489:28,1,120.000004577637,2|0,0:0|0:0,0:0:0:0:
389,137,412982,2,0,P|389:203|406:286,1,120.000004577637,8|0,0:0|0:0,0:0:0:0:
249,351,413420,2,0,P|248:287|230:214,1,120.000004577637,2|0,0:0|0:0,0:0:0:0:
162,178,413748,1,0,0:0:0:0:
162,178,413858,2,0,L|34:190,1,120.000004577637,8|0,0:0|0:0,0:0:0:0:
315,208,414295,5,2,0:0:0:0:
366,135,414514,1,0,0:0:0:0:
167,85,414733,5,8,0:0:0:0:
202,284,414952,1,0,0:0:0:0:
202,284,415062,1,0,0:0:0:0:
202,284,415171,1,2,0:0:0:0:
300,155,415390,1,0,0:0:0:0:
300,155,415609,6,0,L|311:235,1,60.0000022888184,8|0,0:0|0:0,0:0:0:0:
277,290,415828,2,0,L|287:374,1,60.0000022888184,8|0,0:0|0:0,0:0:0:0:
201,364,416047,6,0,L|186:208,1,128,4|0,0:0|0:0,0:0:0:0:
209,153,416376,1,0,0:0:0:0:
209,153,416485,2,0,P|154:117|49:136,1,128,8|0,0:0|0:0,0:0:0:0:
9,251,416923,2,0,P|71:231|138:174,1,128,2|0,0:0|0:0,0:0:0:0:
97,120,417252,1,0,0:0:0:0:
97,120,417361,2,0,P|88:66|137:-21,1,128,8|0,0:0|0:0,0:0:0:0:
261,206,417799,6,0,P|269:270|264:334,1,128,2|0,0:0|0:0,0:0:0:0:
372,14,418237,2,0,P|374:97|389:162,1,128,8|0,0:0|0:0,0:0:0:0:
407,303,418675,1,2,0:0:0:0:
485,147,418894,1,0,0:0:0:0:
485,147,419004,1,0,0:0:0:0:
485,147,419113,1,8,0:0:0:0:
302,201,419332,1,0,0:0:0:0:
302,201,419441,1,0,0:0:0:0:
302,201,419551,6,0,P|363:216|453:213,1,128,2|0,0:0|0:0,0:0:0:0:
375,53,419989,2,0,L|228:61,1,128,8|0,0:0|0:0,0:0:0:0:
99,347,420427,2,0,L|121:198,1,128,2|0,0:0|0:0,0:0:0:0:
189,187,420755,1,0,0:0:0:0:
189,187,420865,2,0,P|253:210|321:202,1,128,8|0,0:0|0:0,0:0:0:0:
182,48,421303,6,0,P|99:53|69:157,1,167.999994873047,2|0,0:0|0:0,0:0:0:0:
49,164,421741,2,0,L|66:298,1,111.999996582031,8|0,0:0|0:0,0:0:0:0:
211,127,422179,2,0,P|261:107|387:111,1,167.999994873047,2|0,0:0|0:0,0:0:0:0:
409,176,422617,1,8,0:0:0:0:
469,38,422836,1,0,0:0:0:0:
411,281,423055,6,0,P|335:266|289:297,1,111.999996582031,2|0,0:0|0:0,0:0:0:0:
88,232,423493,2,0,L|214:220,1,111.999996582031,8|0,0:0|0:0,0:0:0:0:
276,195,423821,1,0,0:0:0:0:
276,195,423931,2,0,L|263:317,1,111.999996582031,2|0,0:0|0:0,0:0:0:0:
379,139,424368,2,0,L|364:21,1,111.999996582031,8|0,0:0|0:0,0:0:0:0:
262,45,424697,1,0,0:0:0:0:
262,45,424806,6,0,P|177:52|130:33,1,111.999996582031,0|0,1:0|0:0,0:0:0:0:
85,218,425244,2,0,P|88:279|57:355,1,111.999996582031,0|0,1:0|0:0,0:0:0:0:
35,123,425682,2,0,P|106:120|191:180,1,167.999994873047,0|0,1:0|0:0,0:0:0:0:
164,251,426120,2,0,L|174:368,1,111.999996582031,0|0,1:0|0:0,0:0:0:0:
37,37,426558,5,4,0:0:0:0:
128,79,426777,1,2,0:0:0:0:
128,79,426887,2,0,L|243:45,1,88.000002685547,2|0,0:0|0:0,0:0:0:0:
58,161,427215,1,2,0:0:0:0:
58,161,427325,2,0,L|68:269,1,88.000002685547,2|0,0:0|0:0,0:0:0:0:
146,319,427653,2,0,L|154:242,2,44.0000013427735,2|0|0,0:0|0:0|0:0,0:0:0:0:
279,284,428091,2,0,L|288:343,2,44.0000013427735,2|0|0,0:0|0:0|0:0,0:0:0:0:
259,60,428529,5,2,0:0:0:0:
259,60,428639,1,0,0:0:0:0:
335,237,428858,1,8,0:0:0:0:
335,237,428967,1,8,0:0:0:0:
335,237,429076,1,0,0:0:0:0:
335,237,429186,2,0,P|422:246|503:176,1,192,0|0,0:0|0:0,0:0:0:0:
474,103,429624,1,0,0:0:0:0:
290,164,429843,1,0,0:0:0:0:
67,99,430062,6,0,L|128:92,1,40,4|0,1:0|0:0,0:0:0:0:
184,82,430281,1,2,0:0:0:0:
156,171,430500,2,0,P|136:229|154:292,1,120,0|0,1:0|0:0,0:0:0:0:
242,308,430938,2,0,P|233:264|217:242,1,40,0|0,1:0|0:0,0:0:0:0:
64,333,431157,1,2,0:0:0:0:
163,365,431376,1,0,1:0:0:0:
65,235,431595,1,2,0:0:0:0:
155,207,431814,5,0,1:0:0:0:
64,333,432033,2,2,L|98:314,3,26.6666666666667,2|0|2|0,0:0|0:0|0:0|1:0,0:0:0:0:
64,333,432471,1,0,0:0:0:0:
163,365,432690,1,0,1:0:0:0:
65,235,432909,1,2,0:0:0:0:
155,207,433128,1,0,1:0:0:0:
206,288,433347,5,2,0:0:0:0:
206,288,433456,1,0,0:0:0:0:
206,288,433566,2,0,P|242:303|276:311,1,40,4|0,1:0|0:0,0:0:0:0:
337,313,433785,1,2,0:0:0:0:
337,313,434004,2,0,P|332:258|329:179,1,120,0|0,1:0|0:0,0:0:0:0:
416,151,434441,2,0,P|419:201|422:224,1,40,0|0,1:0|0:0,0:0:0:0:
435,290,434660,1,2,0:0:0:0:
505,115,434879,2,0,P|510:60|512:45,1,40,0|0,1:0|0:0,0:0:0:0:
509,76,435098,6,2,L|514:37,3,26.6666666666667,2|0|2|4,0:0|0:0|0:0|1:0,0:0:0:0:
325,166,435536,2,2,L|328:192,3,26.6666666666667,2|0|2|0,0:0|0:0|0:0|1:0,0:0:0:0:
409,111,435974,2,0,P|412:75|412:55,1,40,2|0,0:0|0:0,0:0:0:0:
234,208,436193,2,2,P|227:263|225:309,1,80,0|2,1:0|0:0,0:0:0:0:
226,313,436485,1,0,0:0:0:0:
226,340,436558,1,2,0:0:0:0:
229,366,436631,1,0,1:0:0:0:
306,255,436850,1,0,1:0:0:0:
363,327,437069,6,0,P|405:340|435:339,1,40,4|0,1:0|0:0,0:0:0:0:
491,347,437288,1,2,0:0:0:0:
411,234,437507,2,0,P|441:194|509:196,1,120,8|0,1:0|1:0,0:0:0:0:
506,194,437945,2,0,P|502:245|505:253,1,40,0|0,1:0|0:0,0:0:0:0:
504,99,438164,1,4,0:0:0:0:
411,234,438383,1,8,1:0:0:0:
491,347,438602,1,4,0:0:0:0:
486,181,438821,6,0,P|436:190|432:190,1,40,4|0,1:0|0:0,0:0:0:0:
411,234,439040,2,0,L|408:260,3,26.6666666666667,2|0|2|8,0:0|0:0|0:0|1:0,0:0:0:0:
421,160,439478,1,0,0:0:0:0:
402,331,439697,1,0,1:0:0:0:
357,122,439916,1,0,0:0:0:0:
338,293,440135,1,8,1:0:0:0:
421,160,440354,2,0,P|467:174|476:176,1,40,0|0,1:0|1:0,1:1:0:0:
448,80,440573,6,0,P|446:53|451:25,1,40,4|0,1:0|0:0,0:0:0:0:
363,37,440792,2,0,L|314:42,1,40,2|0,0:0|0:0,0:0:0:0:
320,121,441011,2,0,L|280:125,1,40,8|0,1:0|0:0,0:0:0:0:
273,205,441230,2,0,L|233:209,1,40,2|0,0:0|0:0,0:0:0:0:
234,291,441449,2,0,L|194:295,1,40,0|0,1:0|0:0,0:0:0:0:
155,298,441668,2,0,P|151:275|151:252,3,26.6666666666667,2|0|2|8,0:0|0:0|0:0|1:0,0:0:0:0:
234,291,442106,6,0,P|238:336|237:358,1,40,2|0,0:0|0:0,0:0:0:0:
233,209,442325,2,0,P|282:219|294:220,1,40,4|0,1:0|0:0,0:0:0:0:
331,168,442544,2,0,L|328:131,3,26.6666666666667,0|0|0|8,0:0|0:0|0:0|1:0,0:0:0:0:
378,238,442982,1,2,0:0:0:0:
457,250,443201,1,0,1:0:0:0:
330,141,443420,1,4,0:0:0:0:
247,145,443639,1,0,1:0:0:0:
415,133,443858,5,4,0:0:0:0:
415,133,443967,1,2,0:0:0:0:
415,133,444076,2,0,P|455:118|485:73,1,80,4|2,1:0|0:0,0:0:0:0:
285,69,444514,2,0,L|161:85,1,120,8|0,1:0|0:0,0:0:0:0:
165,84,444952,1,0,1:0:0:0:
190,173,445171,1,2,0:0:0:0:
80,105,445390,2,0,P|63:61|57:12,1,80,8|4,1:0|0:0,0:0:0:0:
107,190,445828,6,0,P|116:256|117:306,1,80,4|2,1:0|0:0,0:0:0:0:
107,290,446120,1,0,0:0:0:0:
88,300,446193,1,2,0:0:0:0:
69,297,446266,1,8,1:0:0:0:
80,105,446485,2,0,P|118:111|146:104,1,40,2|0,0:0|0:0,0:0:0:0:
190,90,446704,1,0,1:0:0:0:
211,193,446923,2,0,P|259:214|275:214,1,40,2|0,0:0|0:0,0:0:0:0:
319,232,447142,1,0,1:0:0:0:
315,51,447361,6,0,P|338:46|366:44,1,40,0|0,1:0|1:0,1:1:0:0:
394,42,447580,2,0,L|405:159,1,80,4|2,1:0|0:0,0:0:0:0:
245,211,448018,2,0,P|203:251|201:325,1,120,8|0,1:0|0:0,0:0:0:0:
196,310,448456,2,0,L|264:298,1,40,0|0,1:0|0:0,0:0:0:0:
110,236,448675,2,0,L|61:243,1,40,4|0,0:0|0:0,0:0:0:0:
245,211,448894,2,0,P|282:173|287:116,1,80,8|0,1:0|0:0,0:0:0:0:
288,126,449186,6,0,L|284:78,2,26.6666666666667,2|0|4,0:0|0:0|1:0,0:0:0:0:
367,129,449551,2,0,P|403:133|411:133,3,26.6666666666667,2|0|2|8,0:0|0:0|0:0|1:0,0:0:0:0:
468,138,449989,1,2,0:0:0:0:
383,65,450208,1,0,1:0:0:0:
299,136,450427,1,2,0:0:0:0:
299,136,450500,1,0,0:0:0:0:
299,136,450573,1,2,0:0:0:0:
299,136,450646,1,8,1:0:0:0:
212,62,450865,1,0,1:0:0:0:
129,148,451084,6,0,P|141:199|145:220,1,40,4|0,1:0|0:0,0:0:0:0:
34,109,451303,1,2,0:0:0:0:
212,62,451522,2,0,P|237:110|311:129,1,120,8|0,1:0|1:0,0:0:0:0:
296,131,451960,2,0,L|343:91,1,40,0|0,1:0|0:0,0:0:0:0:
399,45,452179,1,4,0:0:0:0:
296,131,452398,2,0,L|205:203,1,80,8|4,1:0|0:0,0:0:0:0:
144,234,452836,5,4,1:0:0:0:
178,113,453055,2,0,P|190:95|194:74,3,26.6666666666667,2|0|2|8,0:0|0:0|0:0|1:0,0:0:0:0:
117,58,453493,1,2,0:0:0:0:
187,16,453712,1,0,1:0:0:0:
186,186,453931,1,2,0:0:0:0:
113,139,454149,1,8,1:0:0:0:
253,90,454368,5,0,1:0:0:0:
253,90,454478,1,0,1:0:0:0:
253,90,454587,2,0,P|288:58|296:12,1,80,4|2,1:0|0:0,0:0:0:0:
343,227,455025,2,0,P|319:193|313:140,1,80,8|2,1:0|0:0,0:0:0:0:
214,300,455463,2,0,P|225:267|224:198,1,80,0|4,1:0|0:0,0:0:0:0:
216,203,455755,1,2,0:0:0:0:
192,189,455828,1,2,0:0:0:0:
165,186,455901,1,0,1:0:0:0:
129,340,456120,1,4,0:0:0:0:
327,371,456339,6,0,P|306:331|296:262,1,80,4|2,1:0|0:0,0:0:0:0:
323,293,456631,1,2,0:0:0:0:
349,298,456704,1,2,0:0:0:0:
371,309,456777,1,0,1:0:0:0:
264,219,456996,1,0,1:0:0:0:
256,132,457215,1,0,1:0:0:0:
340,135,457434,6,0,P|340:158|352:184,3,26.6666666666667,0|0|2|0,1:0|0:0|0:0|1:0,0:0:0:0:
341,109,457763,1,0,1:0:0:0:
336,81,457872,1,0,1:0:0:0:
326,55,457982,1,0,1:0:0:0:
314,32,458091,6,0,P|248:16|175:121,1,191.999994140625,6|8,1:0|0:0,0:0:0:0:
228,347,458748,1,2,1:0:0:0:
228,347,458858,1,0,0:0:0:0:
228,347,458967,2,0,P|302:357|364:266,1,191.999994140625,2|8,1:0|0:0,0:0:0:0:
159,245,459624,5,2,1:0:0:0:
159,245,459733,1,0,0:0:0:0:
159,245,459843,2,0,P|151:211|143:149,1,95.9999970703126,2|2,1:0|1:0,0:0:0:0:
143,144,460135,1,2,1:0:0:0:
144,137,460208,1,0,0:0:0:0:
145,130,460281,2,0,P|178:122|240:114,1,95.9999970703126,8|2,0:0|1:0,0:0:0:0:
292,60,460719,1,2,1:0:0:0:
376,106,460938,1,2,1:0:0:0:
355,226,461157,1,8,0:0:0:0:
446,199,461376,1,2,1:0:0:0:
300,169,461595,6,0,P|306:229|311:365,1,191.999994140625,2|8,1:0|0:0,0:0:0:0:
236,380,462252,1,2,1:0:0:0:
138,268,462471,2,0,P|189:279|251:308,1,95.9999970703126,2|0,1:0|0:0,0:0:0:0:
230,296,462799,1,0,0:0:0:0:
230,296,462909,1,2,1:0:0:0:
199,205,463128,5,0,0:0:0:0:
199,205,463237,1,0,0:0:0:0:
199,205,463347,2,0,P|206:142|316:87,1,191.999994140625,4|8,1:0|0:0,0:0:0:0:
345,205,464004,1,0,1:0:0:0:
365,218,464113,1,0,1:0:0:0:
388,225,464222,2,0,L|383:264,2,23.9999992675781,8|0|0,0:0|0:0|0:0,0:0:0:0:
416,192,464441,6,0,L|488:206,2,47.9999985351563,0|8|4,0:0|0:0|0:0,0:0:0:0:
206,351,464879,5,8,0:0:0:0:
206,351,464989,1,0,1:0:0:0:
206,351,465098,2,0,P|211:267|206:146,1,191.999994140625,6|8,1:0|0:0,0:0:0:0:
141,123,465755,1,2,1:0:0:0:
212,44,465974,6,0,P|149:49|93:51,1,95.9999970703126,2|0,1:0|1:0,0:0:0:0:
215,147,466412,2,0,P|278:142|334:140,1,95.9999970703126,8|2,0:0|1:0,0:0:0:0:
315,136,466704,1,2,1:0:0:0:
319,131,466777,1,0,0:0:0:0:
323,126,466850,2,0,P|329:229|331:250,1,95.9999970703126,2|0,1:0|1:0,0:0:0:0:
327,228,467142,1,2,1:0:0:0:
325,234,467215,1,0,0:0:0:0:
323,240,467288,1,8,0:0:0:0:
396,319,467507,1,2,1:0:0:0:
499,275,467726,1,2,1:0:0:0:
426,196,467945,1,2,1:0:0:0:
402,296,468164,5,8,0:0:0:0:
258,316,468383,1,2,1:0:0:0:
114,336,468602,2,0,P|116:273|107:129,1,191.999994140625,2|8,1:0|0:0,0:0:0:0:
163,92,469259,2,0,P|164:57|169:33,2,47.9999985351563,2|0|2,1:0|0:0|1:0,0:0:0:0:
332,90,469697,5,0,0:0:0:0:
328,95,469770,1,2,1:0:0:0:
324,100,469843,1,0,0:0:0:0:
321,105,469916,2,0,P|318:207|319:223,1,95.9999970703126,8|2,0:0|1:0,0:0:0:0:
298,215,470244,1,0,0:0:0:0:
281,232,470354,1,2,1:0:0:0:
425,283,470573,5,0,1:0:0:0:
422,277,470646,1,2,0:0:0:0:
419,271,470719,1,0,1:0:0:0:
416,265,470792,1,4,1:2:0:0:
313,341,471011,5,0,1:0:0:0:
318,340,471084,1,2,1:0:0:0:
324,339,471157,1,0,0:0:0:0:
330,338,471230,1,2,1:0:0:0:
212,294,471449,5,0,1:0:0:0:
206,294,471522,1,2,1:2:0:0:
199,294,471595,1,0,0:0:0:0:
192,294,471668,2,0,P|123:302|66:307,1,95.9999970703126,6|4,1:0|1:2,0:0:0:0:
26,275,472106,6,2,P|32:194|214:103,1,287.999991210938,4|2,1:0|1:0,0:2:0:0:
240,156,472982,1,0,1:0:0:0:
404,83,473201,5,2,1:0:0:0:
344,34,473420,2,0,P|353:97|362:186,1,143.999995605469,8|2,0:0|1:0,0:0:0:0:
383,163,473858,2,0,P|378:216|378:269,1,95.9999970703126,2|0,1:0|1:0,0:0:0:0:
376,265,474149,1,2,1:0:0:0:
374,271,474222,1,0,0:0:0:0:
372,277,474295,1,8,0:0:0:0:
278,254,474514,1,2,1:0:0:0:
221,329,474733,1,2,1:0:0:0:
127,306,474952,1,2,1:0:0:0:
36,205,475171,6,0,P|76:195|141:169,1,95.9999970703126,8|2,0:0|1:0,0:0:0:0:
133,149,475500,1,0,1:0:0:0:
139,123,475609,2,0,P|179:133|337:198,1,191.999994140625,6|8,1:0|0:0,0:0:0:0:
446,243,476266,5,0,1:0:0:0:
435,223,476376,1,2,1:0:0:0:
424,203,476485,2,2,P|338:221|302:320,2,191.999994140625,2|8|4,1:0|0:0|1:0,1:0:0:0:
262,183,477580,1,4,0:0:0:0:
197,222,477799,6,0,P|203:277|212:321,1,95.9999970703126,8|0,0:0|1:0,0:0:0:0:
192,334,478128,1,4,0:0:0:0:
176,352,478237,2,0,P|272:333|302:329,1,95.9999970703126,2|4,1:0|0:0,0:0:0:0:
275,329,478529,1,2,1:0:0:0:
280,325,478602,1,0,0:0:0:0:
285,321,478675,2,0,P|332:329|379:339,1,95.9999970703126,8|8,0:0|1:0,0:0:0:0:
461,352,479113,6,0,P|456:293|453:128,1,191.999994140625,4|10,1:0|0:0,0:0:0:0:
232,58,479770,1,2,1:2:0:0:
165,97,479989,2,0,P|170:156|166:326,1,191.999994140625,2|8,1:2|0:0,0:0:0:0:
250,335,480646,5,0,1:0:0:0:
250,335,480755,1,0,0:0:0:0:
250,335,480865,2,0,P|307:319|335:276,1,95.9999970703126,2|2,1:0|1:0,0:0:0:0:
105,262,481303,2,0,P|48:246|20:203,1,95.9999970703126,10|0,1:0|0:0,0:0:0:0:
246,149,481741,1,2,1:0:0:0:
325,105,481959,1,2,1:0:0:0:
174,21,482179,1,8,1:0:0:0:
94,64,482397,1,2,1:0:0:0:
208,86,482617,6,2,P|305:76|358:-2,1,191.999994140625,6|8,1:0|1:0,1:0:0:0:
216,179,483274,1,0,0:0:0:0:
216,179,483383,1,0,1:0:0:0:
216,179,483493,2,0,P|117:170|0:172,1,191.999994140625,2|10,1:0|1:0,0:0:0:0:
187,306,484149,5,4,1:0:0:0:
225,300,484259,1,2,1:0:0:0:
262,294,484368,1,2,1:0:0:0:
333,318,484587,1,4,1:2:0:0:
500,191,484806,1,10,1:0:0:0:
402,203,485025,1,4,1:0:0:0:
221,155,485244,5,4,1:2:0:0:
327,65,485463,1,4,1:2:0:0:
338,80,485573,1,8,1:0:0:0:
156,14,485792,1,8,1:2:0:0:
148,31,485902,1,8,1:0:0:0:
255,191,486120,5,4,1:0:0:0:
255,191,489611,5,2,0:0:0:0:
255,191,490047,1,2,0:0:0:0:
441,341,493101,6,0,P|428:310|422:278,1,60.0000022888184,2|0,0:0|0:0,0:0:0:0:
424,144,493535,1,0,1:0:0:0:
424,144,493970,6,0,P|383:154|359:165,1,60.0000022888184,2|0,0:0|0:0,0:0:0:0:
194,280,494405,1,0,1:0:0:0:
194,280,494840,6,0,L|188:200,1,60.0000022888184,2|0,0:0|0:0,0:0:0:0:
179,50,495274,1,2,0:0:0:0:
295,131,495492,5,0,0:0:0:0:
295,131,495564,1,0,0:0:0:0:
295,131,495637,1,0,0:0:0:0:
295,131,495709,1,4,0:0:0:0:
387,95,495927,1,0,0:0:0:0:
474,254,496144,1,4,0:0:0:0:
379,198,496361,1,0,0:0:0:0:
297,282,496579,6,0,L|224:292,1,60.0000022888184,2|0,0:0|0:0,0:0:0:0:
90,209,497014,2,0,L|198:194,1,90.0000034332277,0|0,1:0|0:0,0:0:0:0:
179,196,497448,5,2,0:0:0:0:
273,132,497666,1,0,0:0:0:0:
349,338,497883,2,0,L|422:347,1,60.0000022888184,0|0,1:0|0:0,0:0:0:0:
506,261,498318,5,2,0:0:0:0:
413,200,498535,1,0,0:0:0:0:
349,338,498753,1,2,0:0:0:0:
191,233,498970,6,0,L|194:201,2,20.0000007629395,0|0|0,0:0|0:0|0:0,0:0:0:0:
190,241,499187,2,0,L|183:306,1,60.0000022888185,4|0,0:0|0:0,0:0:0:0:
105,156,499622,2,0,L|103:113,1,30.0000011444092,4|0,0:0|0:0,0:0:0:0:
96,50,499840,2,0,L|93:5,2,30.0000011444092
27,239,500274,5,0,0:0:0:0:
148,352,500492,2,0,P|193:357|243:365,1,80,0|0,1:0|0:0,0:0:0:0:
452,279,500927,1,0,0:0:0:0:
452,279,501035,1,0,1:0:0:0:
452,279,501144,1,0,1:0:0:0:
343,348,501361,2,0,L|333:203,1,120,0|0,1:0|0:0,0:0:0:0:
333,202,501796,5,2,0:0:0:0:
227,164,502014,1,0,0:0:0:0:
93,356,502231,1,0,1:0:0:0:
178,290,502448,5,0,3:0:0:0:
178,290,502521,1,0,3:0:0:0:
178,290,502593,1,0,3:0:0:0:
178,290,502666,1,0,3:0:0:0:
276,324,502883,1,0,0:0:0:0:
480,75,503101,6,0,P|454:67|420:64,1,40,0|0,1:0|1:0,0:0:0:0:
391,127,503318,2,0,P|364:133|339:142,1,40
307,204,503535,6,0,L|221:213,1,80,2|0,0:0|0:0,0:0:0:0:
47,79,503970,2,0,P|90:71|122:145,1,120,0|0,1:0|0:0,0:0:0:0:
120,157,504405,2,0,L|69:171,2,40,0|0|0,0:0|0:0|0:0,0:0:0:0:
275,44,504840,2,0,L|265:132,1,80,0|0,1:0|0:0,0:0:0:0:
241,325,505274,5,2,0:0:0:0:
433,255,505492,1,0,0:0:0:0:
321,236,505709,1,0,1:0:0:0:
397,152,505927,6,0,L|402:121,3,26.6666666666667,0|0|0|0,3:0|3:0|3:0|3:0,0:0:0:0:
477,334,506361,1,2,0:0:0:0:
243,300,506579,2,0,P|205:305|154:318,1,80,0|0,1:0|0:0,0:0:0:0:
144,324,506905,1,0,0:0:0:0:
144,324,507014,5,2,0:0:0:0:
43,225,507231,1,0,0:0:0:0:
123,117,507448,2,0,P|116:78|90:27,1,80,0|0,1:0|0:0,0:0:0:0:
51,233,507883,5,2,0:0:0:0:
51,233,507992,1,0,0:0:0:0:
51,233,508101,1,0,0:0:0:0:
172,343,508318,2,0,L|273:355,1,80,0|0,1:0|0:0,0:0:0:0:
448,174,508753,5,2,0:0:0:0:
360,196,508970,1,0,0:0:0:0:
269,216,509187,1,0,1:0:0:0:
304,137,509405,5,0,3:0:0:0:
304,137,509477,1,0,3:0:0:0:
304,137,509550,1,0,3:0:0:0:
304,137,509622,1,2,0:0:0:0:
491,257,509840,1,0,0:0:0:0:
392,108,510057,1,0,1:0:0:0:
355,307,510274,1,0,0:0:0:0:
185,211,510492,6,0,L|177:76,1,120,2|0,0:0|0:0,0:0:0:0:
176,69,510927,2,0,L|172:12,2,40,0|0|0,1:0|0:0|0:0,0:0:0:0:
81,174,511361,5,2,0:0:0:0:
81,174,511470,1,0,0:0:0:0:
81,174,511579,1,0,0:0:0:0:
293,266,511796,1,0,1:0:0:0:
53,312,512014,1,0,0:0:0:0:
194,146,512231,5,4,3:0:0:0:
256,192,512340,12,0,513535,0:0:0:0:
229,157,513970,5,4,1:0:0:0:
411,48,514187,1,0,0:0:0:0:
310,206,514405,2,0,P|317:143|322:36,1,143.999995605469,0|0,1:0|0:0,0:0:0:0:
428,135,514840,2,0,P|473:161|516:181,1,95.9999970703126,0|0,1:0|0:0,0:0:0:0:
229,157,515274,1,0,1:0:0:0:
400,223,515492,1,0,0:0:0:0:
257,284,515709,6,0,P|213:304|172:328,1,95.9999970703126,0|0,1:0|0:0,0:0:0:0:
87,183,516144,2,0,P|126:210|168:234,1,95.9999970703126,0|0,1:0|0:0,0:0:0:0:
168,234,516434,1,0,0:0:0:0:
168,234,516506,1,0,0:0:0:0:
168,234,516579,1,0,1:0:0:0:
2,324,516796,1,0,0:0:0:0:
83,382,517014,2,0,P|86:334|86:286,1,95.9999970703126,0|0,1:0|1:0,0:0:0:0:
17,114,517448,5,0,1:0:0:0:
168,234,517666,1,0,0:0:0:0:
103,156,517883,2,0,P|166:163|273:168,1,143.999995605469,0|0,1:0|0:0,0:0:0:0:
418,229,518318,2,0,P|354:225|296:224,1,95.9999970703126,0|0,1:0|0:0,0:0:0:0:
506,233,518753,1,0,1:0:0:0:
322,224,518970,1,0,0:0:0:0:
506,233,519187,5,0,1:0:0:0:
452,143,519405,1,0,0:0:0:0:
367,311,519622,1,0,1:0:0:0:
330,122,519840,2,0,L|323:87,3,31.9999990234375,0|0|0|0,0:0|0:0|0:0|1:0,0:0:0:0:
367,311,520274,1,0,0:0:0:0:
506,233,520492,1,0,1:0:0:0:
322,224,520709,1,0,1:0:0:0:
322,224,520818,1,0,0:0:0:0:
322,224,520927,6,0,P|259:236|190:246,1,95.9999970703126,0|0,1:0|0:0,0:0:0:0:
23,329,521361,2,0,P|87:279|154:227,1,143.999995605469,0|0,1:0|0:0,0:0:0:0:
132,59,521796,2,0,P|122:114|106:177,1,95.9999970703126,0|0,1:0|0:0,0:0:0:0:
112,152,522122,1,0,0:0:0:0:
112,152,522231,2,0,P|182:142|280:123,1,143.999995605469,0|0,1:0|0:0,0:0:0:0:
437,86,522666,6,0,P|381:78|331:70,1,95.9999970703126,0|0,1:0|0:0,0:0:0:0:
377,202,523101,2,0,P|321:210|271:218,1,95.9999970703126,0|0,1:0|0:0,0:0:0:0:
282,216,523390,1,0,0:0:0:0:
282,216,523463,1,0,0:0:0:0:
282,216,523535,1,0,1:0:0:0:
397,289,523753,1,0,0:0:0:0:
234,372,523970,2,0,P|278:352|323:334,1,95.9999970703126,0|0,1:0|1:0,0:0:0:0:
467,347,524405,5,0,1:0:0:0:
377,202,524622,1,0,0:0:0:0:
214,284,524840,2,0,P|220:220|222:105,1,143.999995605469,0|0,1:0|0:0,0:0:0:0:
308,262,525274,1,0,1:0:0:0:
135,218,525492,1,0,0:0:0:0:
173,369,525709,2,0,P|101:371|29:377,1,143.999995605469,0|0,1:0|0:0,0:0:0:0:
80,296,526144,5,0,1:0:0:0:
256,328,526361,1,0,0:0:0:0:
432,296,526579,1,0,0:0:0:0:
350,180,526796,5,0,0:0:0:0:
345,161,526869,1,0,0:0:0:0:
340,142,526941,1,0,0:0:0:0:
335,123,527014,1,0,0:0:0:0:
252,240,527231,1,0,0:0:0:0:
162,180,527448,1,0,1:0:0:0:
168,152,527557,1,0,1:0:0:0:
176,124,527666,1,0,1:0:0:0:
184,96,527774,1,0,1:0:0:0:
192,68,527883,5,4,1:0:0:0:
335,123,528101,1,0,0:0:0:0:
162,180,528318,2,0,P|76:215|-8:237,1,143.999995605469,0|0,1:0|0:0,0:0:0:0:
252,240,528753,2,0,P|248:188|245:128,1,95.9999970703126,0|0,1:0|0:0,0:0:0:0:
344,290,529187,2,0,P|413:317|479:339,1,143.999995605469,0|0,1:0|0:0,0:0:0:0:
252,240,529622,6,0,P|256:292|259:352,1,95.9999970703126,0|0,1:0|0:0,0:0:0:0:
407,216,530057,2,0,P|409:168|413:120,1,95.9999970703126,0|0,1:0|0:0,0:0:0:0:
413,120,530347,1,0,0:0:0:0:
413,120,530419,1,0,0:0:0:0:
413,120,530492,1,0,1:0:0:0:
344,290,530709,1,0,0:0:0:0:
494,181,530927,1,0,1:0:0:0:
324,161,531144,1,0,1:0:0:0:
324,161,531253,1,0,0:0:0:0:
324,161,531361,6,0,P|279:171|213:177,1,95.9999970703126,0|0,1:0|0:0,0:0:0:0:
113,266,531796,2,0,P|127:192|136:106,1,143.999995605469,0|0,1:0|0:0,0:0:0:0:
109,362,532231,2,0,P|64:352|-2:346,1,95.9999970703126,0|0,1:0|0:0,0:0:0:0:
208,307,532666,6,0,P|276:321|364:330,1,143.999995605469,0|0,1:0|0:0,0:0:0:0:
350,329,533101,1,0,1:0:0:0:
452,189,533318,1,0,0:0:0:0:
349,223,533535,1,0,1:0:0:0:
453,359,533753,2,0,L|473:384,3,31.9999990234375,0|0|0|0,0:0|0:0|0:0|1:0,0:0:0:0:
349,223,534187,1,0,0:0:0:0:
512,278,534405,1,0,1:0:0:0:
350,329,534622,1,0,1:0:0:0:
274,160,534840,6,0,P|254:111|227:60,1,95.9999970703126,0|0,1:0|0:0,0:0:0:0:
349,223,535274,2,0,P|365:170|384:80,1,143.999995605469,0|0,1:0|0:0,0:0:0:0:
188,197,535709,2,0,P|170:249|158:305,1,95.9999970703126,0|0,1:0|0:0,0:0:0:0:
376,348,536144,2,0,P|321:305|248:259,1,143.999995605469,0|0,1:0|0:0,0:0:0:0:
0,257,536579,6,0,P|52:249|107:233,1,95.9999970703126,0|0,1:0|0:0,0:0:0:0:
188,197,537014,1,0,1:0:0:0:
96,362,537231,1,0,0:0:0:0:
96,362,537303,1,0,0:0:0:0:
96,362,537376,1,0,0:0:0:0:
96,362,537448,1,0,1:0:0:0:
257,268,537666,1,0,0:0:0:0:
103,142,537883,2,0,P|98:203|91:248,1,95.9999970703126,0|0,1:0|1:0,0:0:0:0:
92,237,538209,1,0,0:0:0:0:
92,237,538318,5,0,1:0:0:0:
194,100,538535,1,0,0:0:0:0:
348,163,538753,2,0,P|405:154|497:134,1,143.999995605469,0|0,1:0|0:0,0:0:0:0:
350,245,539187,2,0,P|297:257|237:274,1,95.9999970703126,0|0,1:0|0:0,0:0:0:0:
427,328,539622,6,0,P|433:276|441:230,1,95.9999970703126,0|0,1:0|0:0,0:0:0:0:
440,232,539948,1,0,0:0:0:0:
440,232,540057,1,0,1:0:0:0:
268,68,540274,2,0,P|262:120|254:166,1,95.9999970703126,0|0,0:0|1:0,0:0:0:0:
85,328,540709,1,0,0:0:0:0:
85,328,540782,1,0,0:0:0:0:
85,328,540854,1,0,0:0:0:0:
85,328,540927,2,0,P|79:276|71:230,1,95.9999970703126,0|0,1:0|0:0,0:0:0:0:
244,68,541361,2,0,P|250:120|258:166,1,95.9999970703126,0|0,1:0|1:0,0:0:0:0:
257,163,541687,1,0,0:0:0:0:
257,163,541796,5,6,1:0:0:0:
108,80,542014,1,0,0:0:0:0:
148,296,542231,2,0,P|160:228|168:136,1,143.999995605469,2|0,1:0|0:0,0:0:0:0:
308,244,542666,2,0,P|360:268|420:284,1,95.9999970703126,2|0,1:0|0:0,0:0:0:0:
167,153,543101,2,0,P|121:167|78:188,1,95.9999970703126,2|0,1:0|1:0,0:0:0:0:
78,188,543427,1,0,0:0:0:0:
78,188,543535,6,0,P|72:136|64:80,1,95.9999970703126,2|0,1:0|0:0,0:0:0:0:
446,92,543970,2,0,P|439:140|433:188,1,95.9999970703126,2|0,1:0|0:0,0:0:0:0:
433,188,544260,1,0,0:0:0:0:
433,188,544332,1,0,0:0:0:0:
433,188,544405,1,2,1:0:0:0:
200,288,544622,2,0,P|152:308|92:328,1,95.9999970703126,0|2,0:0|1:0,0:0:0:0:
312,288,545057,1,0,1:0:0:0:
312,288,545166,1,0,0:0:0:0:
312,288,545274,6,0,P|360:308|420:328,1,95.9999970703126,2|0,1:0|0:0,0:0:0:0:
264,208,545709,2,0,P|280:160|304:48,1,143.999995605469,2|0,1:0|0:0,0:0:0:0:
360,200,546144,1,2,1:0:0:0:
208,80,546361,1,0,0:0:0:0:
384,112,546579,2,0,P|436:108|488:100,1,95.9999970703126,2|0,1:0|1:0,0:0:0:0:
176,160,547014,6,0,P|128:153|80:149,1,95.9999970703126,2|0,1:0|0:0,0:0:0:0:
336,160,547448,2,0,P|383:153|431:149,1,95.9999970703126,2|0,1:0|0:0,0:0:0:0:
431,149,547738,1,0,0:0:0:0:
431,149,547811,1,0,0:0:0:0:
431,149,547883,1,2,1:0:0:0:
256,272,548101,1,0,0:0:0:0:
256,80,548318,2,0,L|256:176,1,95.9999970703126,2|0,1:0|1:0,0:0:0:0:
184,328,548753,5,2,1:0:0:0:
28,204,548970,1,0,0:0:0:0:
96,348,549187,2,0,P|104:292|112:200,1,143.999995605469,2|0,1:0|0:0,0:0:0:0:
160,40,549622,2,0,P|168:104|180:168,1,95.9999970703126,2|0,1:0|0:0,0:0:0:0:
264,288,550057,2,0,P|328:280|428:272,1,143.999995605469,2|0,1:0|0:0,0:0:0:0:
512,204,550492,6,0,P|456:196|400:188,1,95.9999970703126,2|0,1:0|0:0,0:0:0:0:
0,204,550927,2,0,P|56:196|112:188,1,95.9999970703126,2|0,1:0|0:0,0:0:0:0:
95,190,551216,1,0,0:0:0:0:
95,190,551289,1,0,0:0:0:0:
95,190,551361,2,0,P|144:204|200:216,1,95.9999970703126,2|0,1:0|0:0,0:0:0:0:
416,190,551796,2,0,P|368:204|312:216,1,95.9999970703126,2|0,1:0|1:0,0:0:0:0:
323,213,552122,1,0,0:0:0:0:
323,213,552231,5,2,1:0:0:0:
404,104,552448,1,0,0:0:0:0:
372,300,552666,2,0,P|320:308|240:316,1,95.9999970703126,2|0,0:0|0:0,0:0:0:0:
184,360,552992,2,0,P|204:304|212:204,1,143.999995605469
112,52,553427,2,0,P|92:108|84:208,1,143.999995605469
92,220,553861,1,0,0:0:0:0:
100,248,553970,6,0,L|116:304,1,47.9999985351563
212,220,554187,2,0,L|228:164,1,47.9999985351563,8|0,0:0|0:0,0:0:0:0:
292,96,554405,1,0,0:0:0:0:
332,84,554514,1,8,0:0:0:0:
376,84,554622,1,0,0:0:0:0:
416,96,554731,1,0,0:0:0:0:
448,124,554840,1,8,0:0:0:0:
472,160,554948,1,0,0:0:0:0:
484,204,555057,1,8,0:0:0:0:
472,244,555166,1,0,0:0:0:0:
448,280,555274,2,0,L|460:344,1,47.9999985351563,8|0,0:0|0:0,0:0:0:0:
384,384,555492,2,0,L|375:336,1,47.9999985351563
352,236,555709,5,4,0:0:0:0:
256,192,555818,12,0,557020,0:0:0:0:
380,176,557457,6,0,L|481:163,1,80,2|0,0:0|0:0,0:0:0:0:
300,120,557888,2,0,P|252:132|170:92,1,120,8|0,0:0|0:0,0:0:0:0:
176,76,558320,6,0,L|182:17,1,40,0|0,3:0|0:0,0:0:0:0:
100,144,558536,2,0,L|121:262,1,120,8|0,0:0|0:0,0:0:0:0:
60,348,558967,1,0,0:0:0:0:
179,153,559183,6,0,L|83:141,1,80,2|0,0:0|0:0,0:0:0:0:
244,76,559615,2,0,P|298:54|355:71,1,120,8|0,0:0|0:0,0:0:0:0:
380,96,560046,6,0,L|392:160,1,40,0|0,3:0|0:0,0:0:0:0:
326,261,560262,2,0,L|304:144,1,120,8|0,0:0|0:0,0:0:0:0:
244,76,560694,1,0,3:0:0:0:
248,44,560802,1,0,0:0:0:0:
172,136,560910,6,0,P|132:136|80:112,1,80,2|0,0:0|0:0,0:0:0:0:
8,256,561341,2,0,P|52:231|140:244,1,120,8|0,0:0|0:0,0:0:0:0:
144,256,561773,6,0,L|136:320,1,40,0|0,3:0|0:0,0:0:0:0:
224,352,561989,2,0,L|241:214,1,120,8|0,0:0|0:0,0:0:0:0:
320,316,562421,1,0,0:0:0:0:
184,160,562636,6,0,P|223:144|262:146,1,80,2|0,0:0|0:0,0:0:0:0:
396,330,563068,2,0,P|356:331|319:315,1,80,8|0,0:0|0:0,0:0:0:0:
400,132,563500,5,2,0:0:0:0:
400,132,563608,1,0,0:0:0:0:
400,132,563715,1,2,0:0:0:0:
512,296,563931,1,8,0:0:0:0:
319,315,564147,2,0,L|252:300,1,40,4|0,0:0|0:0,0:0:0:0:
196,236,564363,6,0,L|112:252,1,80,2|0,0:0|0:0,0:0:0:0:
280,168,564795,2,0,P|288:108|272:28,1,120,8|0,0:0|0:0,0:0:0:0:
260,16,565226,6,0,L|196:24,1,40,0|0,3:0|0:0,0:0:0:0:
280,168,565442,2,0,L|428:149,1,120,8|0,0:0|0:0,0:0:0:0:
480,88,565874,1,0,0:0:0:0:
372,328,566090,6,0,L|384:244,1,80,2|0,0:0|0:0,0:0:0:0:
268,88,566521,2,0,L|280:172,1,80,8|0,0:0|0:0,0:0:0:0:
108,296,566953,5,0,0:0:0:0:
108,296,567061,1,0,0:0:0:0:
108,295,567169,2,0,P|152:272|221:277,1,120,8|0,0:0|0:0,0:0:0:0:
178,367,567600,1,0,3:0:0:0:
52,208,567816,6,0,L|64:120,1,80,2|0,0:0|0:0,0:0:0:0:
184,32,568248,2,0,L|164:172,1,120,8|0,0:0|0:0,0:0:0:0:
164,188,568680,6,0,L|223:180,1,40,0|0,3:0|0:0,0:0:0:0:
388,80,568895,2,0,L|248:98,1,120,8|0,0:0|0:0,0:0:0:0:
184,32,569327,1,0,3:0:0:0:
304,204,569543,5,2,0:0:0:0:
360,4,569759,1,0,3:0:0:0:
304,204,569974,1,0,3:0:0:0:
184,32,570190,2,0,L|164:4,2,26.6666666666667,2|0|0,0:0|0:0|0:0,0:0:0:0:
257,67,570406,5,2,0:0:0:0:
433,178,570622,1,0,0:0:0:0:
316,352,570838,1,8,0:0:0:0:
136,245,571054,2,0,L|182:234,1,40,4|0,0:0|0:0,0:0:0:0:
304,204,571269,5,0,3:0:0:0:
188,352,571485,1,0,0:0:0:0:
32,248,571701,2,0,L|44:116,1,120,8|0,0:0|0:0,0:0:0:0:
48,96,572133,6,0,L|108:92,1,40,0|0,3:0|0:0,0:0:0:0:
180,88,572349,1,8,0:0:0:0:
32,248,572564,1,2,0:0:0:0:
32,248,572672,1,0,0:0:0:0:
32,248,572780,1,0,0:0:0:0:
208,188,572996,6,0,L|102:180,1,80,2|0,0:0|0:0,0:0:0:0:
184,340,573428,2,0,L|289:332,1,80,8|0,0:0|0:0,0:0:0:0:
300,332,573751,1,0,0:0:0:0:
336,330,573859,6,0,L|384:326,2,40,0|0|8,3:0|0:0|0:0,0:0:0:0:
204,227,574291,2,0,L|207:187,1,40,0|0,3:0|0:0,0:0:0:0:
216,96,574507,1,0,0:0:0:0:
376,136,574723,6,0,L|284:148,1,80,2|0,0:0|0:0,0:0:0:0:
188,0,575154,2,0,L|280:12,1,80,8|0,0:0|0:0,0:0:0:0:
128,136,575586,5,2,0:0:0:0:
128,136,575694,1,0,0:0:0:0:
128,136,575802,2,0,L|63:144,1,40,8|0,0:0|0:0,0:0:0:0:
207,187,576018,2,0,L|271:195,2,40,0|0|0,3:0|0:0|3:0,0:0:0:0:
12,100,576449,5,2,0:0:0:0:
100,240,576665,1,0,0:0:0:0:
256,108,576881,2,0,L|396:96,1,120,8|0,0:0|0:0,0:0:0:0:
408,96,577313,6,0,L|404:135,1,40,0|0,3:0|0:0,0:0:0:0:
400,224,577528,1,8,0:0:0:0:
256,108,577744,1,0,1:0:0:0:
120,232,577960,2,0,L|116:192,1,40,4|0,0:0|0:0,0:0:0:0:
112,104,578175,5,2,0:0:0:0:
276,220,578392,1,0,0:0:0:0:
136,364,578608,2,0,L|52:356,1,80,8|0,0:0|0:0,0:0:0:0:
156,244,579039,1,0,0:0:0:0:
156,244,579147,1,0,0:0:0:0:
156,244,579255,2,0,L|216:232,1,40
276,220,579471,1,8,0:0:0:0:
88,116,579687,1,0,0:0:0:0:
272,8,579903,5,2,0:0:0:0:
176,156,580118,1,0,0:0:0:0:
32,52,580334,2,0,P|60:36|116:36,1,80,8|0,0:0|0:0,0:0:0:0:
284,120,580766,1,0,0:0:0:0:
284,120,580874,1,0,0:0:0:0:
284,120,580982,6,0,L|344:116,1,40,8|0,0:0|0:0,0:0:0:0:
360,240,581198,2,0,L|326:190,1,40,0|0,3:0|0:0,0:0:0:0:
436,116,581413,2,0,L|409:169,1,40,4|0,0:0|0:0,0:0:0:0:
312,328,581629,5,2,0:0:0:0:
188,208,581845,1,0,0:0:0:0:
60,328,582061,2,0,P|96:340|152:336,1,80,8|0,0:0|0:0,0:0:0:0:
168,328,582385,1,0,0:0:0:0:
192,316,582492,6,0,L|240:324,2,40,0|0|0,0:0|0:0|0:0,0:0:0:0:
80,184,582924,2,0,P|40:183|2:195,1,80,8|0,0:0|0:0,0:0:0:0:
188,208,583356,5,2,0:0:0:0:
280,116,583571,1,0,0:0:0:0:
280,116,583678,1,0,0:0:0:0:
280,116,583786,1,8,0:0:0:0:
316,240,584001,1,0,0:0:0:0:
172,108,584216,5,2,0:0:0:0:
172,108,584323,1,0,0:0:0:0:
172,108,584431,1,0,0:0:0:0:
376,152,584646,1,8,0:0:0:0:
232,304,584861,2,0,L|164:296,1,40,4|0,0:0|0:0,0:0:0:0:
84,320,585076,5,2,0:0:0:0:
82,286,585183,1,0,0:0:0:0:
90,258,585291,1,2,0:0:0:0:
109,230,585398,1,0,0:0:0:0:
134,212,585507,2,0,L|51:206,1,80,8|0,0:0|0:0,0:0:0:0:
32,188,585831,1,0,0:0:0:0:
16,160,585939,6,0,P|12:140|13:120,2,40,2|0|0,0:0|0:0|0:0,0:0:0:0:
134,212,586370,2,0,L|213:215,1,80,8|0,0:0|0:0,0:0:0:0:
336,288,586802,5,2,0:0:0:0:
344,258,586911,1,0,0:0:0:0:
354,228,587018,1,2,0:0:0:0:
364,199,587126,1,0,0:0:0:0:
374,170,587234,2,0,L|364:52,1,80,8|0,0:0|0:0,0:0:0:0:
380,60,587558,1,0,0:0:0:0:
392,36,587665,6,0,L|328:32,1,40,2|0,0:0|0:0,0:0:0:0:
272,76,587881,1,0,0:0:0:0:
472,148,588097,1,8,0:0:0:0:
240,204,588313,2,0,L|228:148,1,40,0|0,0:0|0:0,0:0:0:0:
160,96,588529,5,2,0:0:0:0:
130,115,588637,1,0,0:0:0:0:
101,125,588745,1,2,0:0:0:0:
66,120,588852,1,0,0:0:0:0:
37,105,588960,2,0,L|51:222,1,80,8|0,0:0|0:0,0:0:0:0:
52,216,589284,1,0,0:0:0:0:
56,248,589392,6,0,P|32:240|0:238,2,40,2|0|0,0:0|0:0|0:0,0:0:0:0:
176,332,589824,2,0,P|224:336|265:320,1,80,8|0,0:0|0:0,0:0:0:0:
372,216,590255,5,2,0:0:0:0:
402,224,590363,1,0,0:0:0:0:
432,233,590471,1,2,0:0:0:0:
463,242,590579,1,0,0:0:0:0:
493,250,590687,2,0,L|488:149,1,80,8|0,0:0|0:0,0:0:0:0:
480,140,591011,1,0,0:0:0:0:
468,112,591119,6,0,L|524:108,1,40,0|0,0:0|0:0,0:0:0:0:
416,36,591334,2,0,L|508:28,1,80,0|8,0:0|0:0,0:0:0:0:
372,128,591766,2,0,L|332:125,1,40,0|0,0:0|0:0,0:0:0:0:
240,84,591982,5,2,0:0:0:0:
214,106,592090,1,0,0:0:0:0:
180,115,592198,1,2,0:0:0:0:
149,113,592306,1,0,0:0:0:0:
119,100,592414,2,0,L|6:124,1,80,8|0,0:0|0:0,0:0:0:0:
18,94,592737,1,0,0:0:0:0:
20,60,592845,6,0,L|3:16,2,40,2|0|2,0:0|0:0|0:0,0:0:0:0:
116,160,593277,2,0,P|124:208|115:242,1,80,8|0,0:0|0:0,0:0:0:0:
68,360,593709,5,2,0:0:0:0:
99,364,593817,1,0,0:0:0:0:
131,369,593924,1,2,0:0:0:0:
163,373,594032,1,0,0:0:0:0:
195,378,594140,2,0,L|288:374,1,80,8|0,0:0|0:0,0:0:0:0:
300,356,594464,1,0,0:0:0:0:
324,336,594572,6,0,L|392:332,1,40,2|0,0:0|0:0,0:0:0:0:
460,368,594788,1,0,0:0:0:0:
344,248,595004,1,8,0:0:0:0:
480,152,595219,2,0,L|412:148,1,40,0|0,0:0|0:0,0:0:0:0:
352,84,595435,5,2,0:0:0:0:
323,98,595543,1,0,0:0:0:0:
295,112,595651,1,2,0:0:0:0:
266,126,595759,1,0,0:0:0:0:
238,140,595867,2,0,L|124:130,1,80,8|0,0:0|0:0,0:0:0:0:
128,144,596191,1,0,0:0:0:0:
96,152,596299,6,0,L|84:96,2,40,0|0|0,0:0|0:0|0:0,0:0:0:0:
196,248,596730,2,0,L|309:257,1,80,8|0,0:0|0:0,0:0:0:0:
400,380,597162,5,2,0:0:0:0:
400,380,597270,2,0,L|351:276,1,80,2|0,0:0|0:0,0:0:0:0:
412,136,597593,2,0,L|346:229,1,80,2|0,0:0|0:0,0:0:0:0:
276,256,597917,1,2,0:0:0:0:
276,256,598025,6,0,L|196:249,1,80,2|0,0:0|0:0,0:0:0:0:
40,152,598457,2,0,L|12:156,7,20,2|0|0|0|0|0|0|0,0:0|0:0|0:0|0:0|0:0|0:0|0:0|0:0,0:0:0:0:
72,184,598888,6,0,L|60:272,1,80,4|0,0:0|0:0,0:0:0:0:
168,128,599320,1,8,0:0:0:0:
168,128,599428,2,0,L|156:216,1,80,0|0,0:0|0:0,0:0:0:0:
248,168,599752,6,0,L|352:152,1,80,0|0,1:0|0:0,0:0:0:0:
192,36,600183,1,8,0:0:0:0:
192,36,600291,2,0,L|88:52,1,80,0|0,0:0|0:0,0:0:0:0:
24,24,600615,6,0,L|40:128,1,80,0|0,1:0|0:0,0:0:0:0:
157,207,601047,1,8,0:0:0:0:
157,207,601155,2,0,L|141:311,1,80,0|0,0:0|0:0,0:0:0:0:
157,365,601478,6,0,L|144:285,1,80,0|0,1:0|0:0,0:0:0:0:
36,103,601910,1,8,0:0:0:0:
157,207,602126,1,0,0:0:0:0:
264,68,602342,6,0,P|304:64|360:72,1,80,0|0,1:0|0:0,0:0:0:0:
468,196,602773,1,8,0:0:0:0:
468,196,602881,2,0,P|428:200|372:192,1,80,0|0,0:0|0:0,0:0:0:0:
308,272,603205,6,0,L|320:372,1,80,0|0,1:0|0:0,0:0:0:0:
184,196,603637,1,8,0:0:0:0:
184,196,603745,2,0,L|196:96,1,80,0|0,0:0|0:0,0:0:0:0:
124,40,604068,6,0,P|84:36|44:40,1,80,0|0,1:0|0:0,0:0:0:0:
104,196,604500,1,8,0:0:0:0:
104,196,604608,2,0,P|143:199|183:195,1,80,0|0,0:0|0:0,0:0:0:0:
288,164,604932,6,0,L|276:264,1,80,0|0,1:0|0:0,0:0:0:0:
384,132,605363,1,8,0:0:0:0:
288,322,605579,6,0,L|278:242,1,80,2|0,3:2|0:0,0:0:0:0:
204,104,606011,1,0,0:0:0:0:
40,220,606227,2,0,P|72:228|132:216,1,80,8|0,0:0|0:0,0:0:0:0:
204,192,606550,1,0,0:0:0:0:
204,192,606658,1,0,0:0:0:0:
76,60,606874,2,0,L|84:148,1,80,2|8,0:0|0:0,0:0:0:0:
180,372,607306,6,0,L|187:292,1,80,2|0,0:0|0:0,0:0:0:0:
216,92,607737,1,0,0:0:0:0:
360,248,607953,2,0,P|328:256|268:244,1,80,8|0,0:0|0:0,0:0:0:0:
204,192,608277,1,0,0:0:0:0:
204,192,608385,1,0,0:0:0:0:
328,84,608601,2,0,L|320:163,1,80,2|8,0:0|0:0,0:0:0:0:
187,292,609032,1,2,0:0:0:0:
132,108,609248,6,0,P|172:88|224:80,1,80,4|0,3:2|0:0,0:0:0:0:
278,219,609680,1,8,0:0:0:0:
278,219,609788,2,0,P|239:210|203:191,1,80,0|0,0:0|0:0,0:0:0:0:
292,120,610111,6,0,L|384:108,1,80,2|0,0:0|0:0,0:0:0:0:
324,304,610543,1,8,0:0:0:0:
324,304,610651,2,0,L|232:316,1,80,0|0,0:0|0:0,0:0:0:0:
96,216,610975,6,0,P|136:212|188:228,1,80,2|0,0:0|0:0,0:0:0:0:
140,380,611406,1,8,0:0:0:0:
140,380,611514,2,0,L|128:288,1,80,0|0,0:0|0:0,0:0:0:0:
284,196,611838,2,0,L|272:288,1,80,2|0,0:0|0:0,0:0:0:0:
152,108,612270,6,0,L|124:112,7,20,8|0|0|0|0|0|0|0,0:0|0:0|0:0|0:0|0:0|0:0|0:0|0:0,0:0:0:0:
188,84,612701,6,0,P|228:88|280:84,1,80,4|0,0:0|0:0,0:0:0:0:
460,160,613133,2,0,P|408:154|340:160,1,120,8|0,0:0|0:0,0:0:0:0:
252,216,613565,1,2,0:0:0:0:
384,44,613781,1,0,0:0:0:0:
408,260,613996,1,8,0:0:0:0:
267,85,614212,6,0,P|227:81|175:85,1,80,2|0,0:0|0:0,0:0:0:0:
52,140,614644,1,2,0:0:0:0:
212,264,614860,2,0,L|220:176,1,80,8|0,0:0|0:0,0:0:0:0:
312,256,615183,1,0,0:0:0:0:
312,256,615291,6,0,L|304:344,1,80,2|0,0:0|0:0,0:0:0:0:
220,184,615723,1,8,0:0:0:0:
388,92,615939,1,0,0:0:0:0:
388,92,616047,1,0,0:0:0:0:
388,92,616155,6,0,P|348:92|300:80,1,80,4|0,3:2|0:0,0:0:0:0:
102,192,616586,2,0,P|151:179|231:187,1,120,8|0,0:0|0:0,0:0:0:0:
312,224,617018,1,2,0:0:0:0:
176,76,617234,1,0,0:0:0:0:
156,284,617450,1,8,0:0:0:0:
16,120,617665,6,0,L|28:28,1,80,2|0,0:0|0:0,0:0:0:0:
100,188,618097,1,2,0:0:0:0:
255,69,618313,2,0,L|163:77,1,80,8|0,0:0|0:0,0:0:0:0:
175,75,618637,1,0,0:0:0:0:
175,75,618745,5,2,0:0:0:0:
348,128,618960,1,0,0:0:0:0:
100,188,619176,6,0,L|72:192,7,20,8|0|0|0|0|0|0|0,0:0|0:0|0:0|0:0|0:0|0:0|0:0|0:0,0:0:0:0:
132,208,619608,6,0,P|128:248|132:288,1,80,2|0,0:0|0:0,0:0:0:0:
292,368,620040,2,0,P|296:312|284:240,1,120,8|0,0:0|0:0,0:0:0:0:
256,164,620471,1,2,0:0:0:0:
52,292,620687,1,0,0:0:0:0:
292,368,620903,1,8,0:0:0:0:
124,168,621119,6,0,L|112:64,1,80,2|0,0:0|0:0,0:0:0:0:
204,304,621550,1,2,0:0:0:0:
264,124,621766,2,0,L|276:20,1,80,8|0,0:0|0:0,0:0:0:0:
356,96,622090,1,0,0:0:0:0:
356,96,622198,1,2,0:0:0:0:
200,208,622414,1,2,0:0:0:0:
392,272,622629,2,0,L|488:264,1,80,8|0,0:0|0:0,0:0:0:0:
208,352,623061,6,0,L|112:360,1,80,2|0,0:0|0:0,0:0:0:0:
284,144,623493,2,0,P|296:192|292:264,1,120,8|0,0:0|0:0,0:0:0:0:
200,208,623924,1,2,0:0:0:0:
380,96,624140,1,0,0:0:0:0:
432,304,624356,2,0,P|400:320|352:324,1,80,8|0,0:0|0:0,0:0:0:0:
180,116,624788,6,0,P|220:116|264:136,1,83.9999974365235,4|0,0:0|0:0,0:0:0:0:
310,69,625219,6,0,P|250:73|178:117,1,143.999995605469,4|0,0:0|0:0,0:0:0:0:
148,8,625651,6,0,P|220:12|312:72,1,180.000006866455,4|0,0:0|0:0,0:0:0:0:
279,148,626083,6,0,L|319:144,2,40.000001525879,4|0|0,0:0|0:0|0:0,0:0:0:0:
249,154,626299,1,2,0:0:0:0:
217,167,626370,1,0,0:0:0:0:
185,182,626442,1,2,0:0:0:0:
153,193,626514,6,0,P|69:201|61:201,1,80,4|0,1:0|0:0,0:0:0:0:
288,148,626946,2,0,P|360:160|428:160,1,120,12|0,1:2|0:0,0:0:0:0:
420,68,627378,1,0,1:0:0:0:
420,68,627809,5,0,1:0:0:0:
408,164,628025,1,2,0:0:0:0:
120,212,628241,2,0,L|144:76,1,120,0|0,1:0|0:0,0:0:0:0:
152,16,628673,1,12,1:2:0:0:
408,164,629104,5,0,1:0:0:0:
424,72,629320,1,2,0:0:0:0:
424,72,629392,1,0,0:0:0:0:
424,72,629464,1,2,0:0:0:0:
424,72,629536,1,0,1:0:0:0:
408,164,629752,1,4,0:0:0:0:
484,96,629968,6,0,P|488:168|496:228,1,120,4|0,1:0|0:0,0:0:0:0:
290,145,630399,2,0,P|342:161|422:161,1,120,12|0,1:2|0:0,0:0:0:0:
288,224,630831,2,0,P|240:256|216:320,1,120,4|0,0:0|0:0,0:0:0:0:
140,364,631263,1,4,1:0:0:0:
304,296,631478,5,2,0:0:0:0:
212,312,631694,1,0,1:0:0:0:
140,364,631910,1,4,0:0:0:0:
388,332,632126,5,0,1:0:0:0:
304,296,632342,1,2,0:0:0:0:
212,312,632558,1,12,1:2:0:0:
128,280,632773,1,2,0:0:0:0:
388,332,632989,5,4,1:2:0:0:
304,296,633205,1,4,0:0:0:0:
460,384,633421,6,0,P|484:320|492:252,1,120,4|0,1:0|0:0,0:0:0:0:
400,256,633852,2,0,P|360:216|360:140,1,120,12|0,1:2|0:0,0:0:0:0:
432,176,634284,2,0,P|476:148|468:68,1,120,4|0,1:2|0:0,0:0:0:0:
412,32,634716,1,8,1:2:0:0:
354,155,634932,1,2,0:0:0:0:
484,244,635147,1,0,1:0:0:0:
208,192,635471,5,0,0:0:0:0:
208,192,635579,2,0,P|160:196|64:196,1,120,12|0,1:2|0:0,0:0:0:0:
0,192,636011,1,0,1:0:0:0:
52,120,636227,1,2,0:0:0:0:
52,120,636299,1,0,0:0:0:0:
52,120,636370,1,2,0:0:0:0:
52,120,636442,1,8,1:2:0:0:
84,200,636658,1,4,0:0:0:0:
116,288,636874,2,0,P|164:240|192:144,2,160,4|12|0,1:0|1:2|1:0,0:0:0:0:
84,200,637953,1,2,0:0:0:0:
96,112,638169,5,4,1:0:0:0:
132,88,638277,1,0,0:0:0:0:
173,76,638385,1,2,0:0:0:0:
219,89,638493,1,0,0:0:0:0:
248,122,638601,2,0,P|271:167|272:272,1,120,4|0,1:2|1:0,0:0:0:0:
272,320,639032,1,0,1:0:0:0:
176,160,639248,5,2,0:0:0:0:
320,232,639464,2,0,P|364:232|404:192,1,80,4|2,1:2|0:0,0:0:0:0:
416,168,639752,1,0,0:0:0:0:
424,112,639824,1,2,0:0:0:0:
412,56,639896,1,0,1:0:0:0:
504,20,640111,6,0,P|504:52|512:88,1,40,10|0,0:0|0:0,0:0:0:0:
284,40,640327,1,4,1:0:0:0:
284,40,640651,5,0,0:0:0:0:
284,40,640759,2,0,P|284:104|280:180,1,120,12|0,1:2|0:0,0:0:0:0:
136,72,641191,1,0,1:0:0:0:
136,72,641622,2,0,P|196:80|228:76,1,80,0|4,1:0|0:0,0:0:0:0:
112,160,642054,2,0,P|64:228|84:328,2,160,4|12|0,1:0|1:2|1:0,0:0:0:0:
192,96,643133,1,2,0:0:0:0:
200,100,643205,1,0,0:0:0:0:
208,104,643277,1,2,0:0:0:0:
216,108,643349,1,0,1:0:0:0:
308,80,643565,1,4,0:0:0:0:
404,104,643781,6,0,P|392:160|392:228,1,120,4|0,1:0|0:0,0:0:0:0:
208,268,644212,2,0,P|155:249|171:197,1,120,8|0,1:2|0:0,0:0:0:0:
302,214,644644,2,0,B|292:268|316:332,1,120,4|0,1:2|0:0,0:0:0:0:
440,232,645076,1,0,1:0:0:0:
271,126,645291,2,0,P|343:142|379:150,1,80,2|0,0:0|1:0,0:0:0:0:
136,188,645723,1,2,0:0:0:0:
144,192,645795,1,0,0:0:0:0:
152,196,645867,1,2,0:0:0:0:
160,200,645939,1,0,1:0:0:0:
272,212,646155,1,2,0:0:0:0:
388,228,646370,1,0,1:0:0:0:
48,184,646586,5,4,0:0:0:0:
160,200,646802,1,0,1:0:0:0:
272,212,647018,1,4,0:0:0:0:
388,228,647234,6,0,P|396:300|348:336,1,120,4|0,1:0|0:0,0:0:0:0:
272,212,647665,2,2,P|212:212|152:272,1,120,14|0,1:2|2:0,1:0:0:0:
40,128,648097,2,0,P|92:160|148:136,1,120,0|0,1:0|1:0,0:0:0:0:
156,52,648529,1,0,1:0:0:0:
220,112,648745,2,0,P|239:116|259:119,1,40,4|0,0:0|0:0,0:0:0:0:
64,48,648960,1,4,1:0:0:0:
64,48,649284,5,0,0:0:0:0:
64,48,649392,2,0,P|116:72|208:76,1,120,12|0,1:2|0:0,0:0:0:0:
272,140,649824,2,0,P|192:164|168:160,1,80,0|4,1:0|0:0,0:0:0:0:
280,56,650255,1,0,1:0:0:0:
320,62,650363,1,0,0:0:0:0:
348,88,650471,2,0,P|360:120|360:152,1,40,2|0,0:0|0:0,0:0:0:0:
284,136,650687,6,0,P|312:192|432:196,2,160,4|12|2,1:0|1:2|1:0,0:0:0:0:
428,200,651766,1,2,1:0:0:0:
284,136,651982,2,0,P|304:96|312:68,1,40,12|0,1:2|0:0,0:0:0:0:
367,50,652198,2,0,P|370:70|375:90,1,40,4|0,1:2|0:0,0:0:0:0:
439,39,652414,1,6,1:0:0:0:
236,232,652629,2,0,P|231:244|223:254,3,26.6666666666667,2|0|2|2,0:0|0:0|0:0|1:0,0:0:0:0:
152,308,653061,2,0,P|120:324|92:328,1,40,4|0,0:0|0:0,0:0:0:0:
24,240,653277,2,0,P|56:256|84:260,1,40,0|0,1:0|0:0,0:0:0:0:
272,320,653493,1,2,1:0:0:0:
356,284,653709,5,12,1:2:0:0:
439,312,653924,1,2,1:0:0:0:
464,225,654140,6,0,P|472:145|482:57,1,160,4|8,1:0|1:0,0:0:0:0:
353,27,654788,1,0,0:0:0:0:
353,27,654896,1,2,0:0:0:0:
353,27,655004,2,0,P|286:39|251:63,1,80,2|2,1:0|0:0,0:0:0:0:
321,142,655435,2,0,P|360:139|397:124,1,80,10|2,1:0|0:0,0:0:0:0:
240,119,655867,6,2,P|191:108|63:114,1,160,2|8,1:0|1:0,0:0:0:0:
16,70,656514,1,2,0:1:0:0:
39,228,656730,2,0,L|25:324,1,80,2|0,1:0|0:0,0:0:0:0:
27,307,657054,1,0,0:1:0:0:
27,307,657162,1,8,1:0:0:0:
105,343,657378,1,2,0:1:0:0:
249,249,657593,6,0,P|297:258|361:350,1,160,6|8,1:0|1:0,0:0:0:0:
185,370,658241,1,2,0:0:0:0:
185,370,658349,1,0,0:0:0:0:
185,370,658457,2,0,P|185:322|182:276,1,80,2|2,1:0|0:0,0:0:0:0:
127,238,658888,1,10,1:0:0:0:
142,165,659104,1,4,0:0:0:0:
264,68,659320,5,4,1:0:0:0:
336,133,659536,2,0,L|391:148,2,40,2|0|8,0:0|0:0|1:0,0:0:0:0:
258,44,659968,1,4,0:0:0:0:
170,12,660183,1,4,1:0:0:0:
109,82,660399,2,0,L|54:97,2,40,2|0|8,0:0|0:0|1:0,0:0:0:0:
332,11,660831,5,8,0:0:0:0:
332,11,660939,1,0,0:0:0:0:
332,11,661047,2,0,P|382:25|434:132,1,160,4|10,1:0|1:0,0:0:0:0:
488,198,661694,1,2,0:0:0:0:
488,198,661802,1,0,0:0:0:0:
488,198,661910,2,0,P|422:192|322:190,1,160,2|10,1:0|1:0,0:0:0:0:
267,235,662558,1,2,0:1:0:0:
52,234,662773,6,0,L|98:153,1,80,2|2,1:0|0:0,0:0:0:0:
205,292,663205,2,0,L|171:213,1,80,8|2,1:0|0:0,0:0:0:0:
37,319,663637,2,0,L|140:327,1,80,2|2,1:0|0:1,0:0:0:0:
33,217,664068,6,0,L|76:133,1,80,10|0,1:0|0:0,0:0:0:0:
62,126,664392,1,2,1:0:0:0:
55,107,664500,2,0,L|232:98,1,160,2|8,1:0|1:0,0:0:0:0:
328,28,665147,5,0,0:0:0:0:
328,28,665255,1,0,0:0:0:0:
328,28,665363,2,0,B|287:21|287:21|252:35,1,80,2|2,1:0|0:0,0:0:0:0:
184,190,665795,2,0,B|225:197|225:197|260:183,1,80,10|2,1:0|0:1,0:0:0:0:
372,122,666227,2,0,L|362:284,1,160,2|2,1:0|1:2,0:0:0:0:
178,330,666874,5,4,0:0:0:0:
262,311,667090,1,0,1:0:0:0:
243,227,667306,1,2,0:0:0:0:
159,246,667522,1,4,1:2:0:0:
354,324,667737,5,2,1:2:0:0:
354,324,667845,1,4,0:0:0:0:
354,324,667953,2,0,L|363:164,1,160,4|10,1:0|1:0,0:0:0:0:
237,61,668601,1,2,0:0:0:0:
237,61,668709,1,2,1:0:0:0:
237,61,668817,2,0,P|165:83|124:171,1,160,0|10,1:0|1:0,0:0:0:0:
206,296,669464,1,2,1:0:0:0:
206,296,669572,1,0,0:0:0:0:
206,296,669680,2,0,P|203:232|207:181,1,80,6|0,1:0|0:0,0:0:0:0:
385,147,670111,5,10,1:0:0:0:
476,186,670327,1,2,0:0:0:0:
476,186,670435,1,0,0:0:0:0:
476,186,670543,1,4,1:0:0:0:
433,262,670759,1,6,0:0:0:0:
350,232,670975,1,10,1:0:0:0:
255,111,671191,5,4,0:0:0:0:
255,111,671299,1,0,0:0:0:0:
255,111,671407,2,0,P|258:47|254:-4,1,80,6|2,1:0|0:0,0:0:0:0:
141,155,671838,2,0,P|138:91|142:40,1,80,10|2,1:0|0:0,0:0:0:0:
341,204,672270,2,0,P|344:140|340:89,1,80,4|2,1:2|0:0,0:0:0:0:
215,358,672701,2,2,P|209:304|214:190,1,160,6|4,1:0|1:2,1:0:0:0:
294,302,673349,5,2,0:0:0:0:
346,359,673565,2,0,L|426:350,1,80,10|0,1:0|0:0,0:0:0:0:
334,233,673996,2,0,L|254:224,1,80,0|2,1:0|0:1,0:0:0:0:
209,166,674428,1,8,1:0:0:0:
146,204,674644,1,2,0:1:0:0:
0,175,674860,6,0,P|52:191|75:288,1,160,6|8,1:0|1:0,0:0:0:0:
208,345,675507,1,2,1:0:0:0:
208,345,675615,1,2,1:0:0:0:
208,345,675723,2,0,P|198:286|199:174,1,160,0|8,1:0|1:0,0:0:0:0:
91,116,676370,5,2,0:0:0:0:
91,116,676478,1,0,0:0:0:0:
91,116,676586,2,0,P|149:106|227:31,1,160,4|10,1:2|1:0,0:0:0:0:
299,31,677234,1,2,0:1:0:0:
307,109,677450,2,0,P|309:151|317:211,1,80,2|0,1:0|0:0,0:0:0:0:
130,278,677881,2,0,P|134:238|136:198,1,80,10|0,1:0|0:0,0:0:0:0:
240,360,678313,6,2,P|293:361|384:275,2,160,4|8|2,1:0|1:0|1:0,1:0:0:0:
365,212,679500,1,2,1:0:0:0:
365,212,679608,2,0,L|454:224,1,80,4|2,1:2|1:0,0:0:0:0:
486,191,679932,5,2,1:0:0:0:
466,166,680040,2,2,B|446:116|446:116|470:58,1,103.999995239258,6|0,1:0|1:0,1:0:0:0:
422,43,680363,1,0,1:0:0:0:
385,46,680471,1,8,1:2:0:0:
348,49,680579,1,0,1:0:0:0:
311,52,680687,1,0,0:0:0:0:
280,92,680795,5,0,1:0:0:0:
254,83,680903,2,0,L|195:79,1,51.999997619629,8|0,1:0|0:0,0:0:0:0:
182,159,681119,2,0,L|241:155,1,51.999997619629,0|0,1:0|0:0,0:0:0:0:
233,248,681334,1,8,1:0:0:0:
207,243,681442,1,0,1:0:0:0:
181,239,681550,1,4,1:2:0:0:
137,258,681658,5,0,1:0:0:0:
137,258,681766,1,4,1:0:0:0:
137,258,682414,1,2,0:0:0:0:
65,243,682629,1,0,0:0:0:0:
18,297,683061,1,0,0:0:0:0:
48,363,683493,1,4,0:0:0:0:
121,360,684572,5,2,0:0:0:0:
190,331,684788,1,0,0:0:0:0:
265,325,685004,1,2,0:0:0:0:
333,357,685219,1,4,0:0:0:0:
406,352,685860,1,0,0:0:0:0:
460,303,686502,1,2,0:0:0:0:
445,232,686930,1,4,0:0:0:0:
397,177,688000,5,2,0:0:0:0:
380,107,688214,1,0,0:0:0:0:
413,42,688428,1,2,0:0:0:0:
342,24,688642,1,4,0:0:0:0:
293,81,689284,1,0,0:0:0:0:
310,152,689926,1,2,0:0:0:0:
379,183,690354,1,4,0:0:0:0:
446,149,691353,5,0,0:0:0:0:
446,149,691424,1,2,0:0:0:0:
510,191,691638,1,0,0:0:0:0:
512,265,691852,1,2,0:0:0:0:
448,303,692066,1,4,0:0:0:0:
379,282,692278,1,2,0:0:0:0:
324,235,692491,1,2,0:0:0:0:
251,238,692704,6,2,L|266:358,1,111.999996582031,6|0,0:0|0:0,0:0:0:0:
81,364,693342,6,0,L|140:356,1,55.9999982910157,4|0,0:0|0:0,0:0:0:0:
181,299,693768,1,4,0:0:0:0:
181,299,693980,1,2,0:0:0:0:
139,227,694193,6,0,L|67:234,1,55.9999982910157,2|0,0:0|0:0,0:0:0:0:
223,136,694619,2,0,P|223:101|227:59,1,55.9999982910157,2|0,0:0|0:0,0:0:0:0:
228,287,695044,2,0,P|232:314|234:347,1,55.9999982910157,2|0,0:0|0:0,0:0:0:0:
143,160,695470,5,2,0:0:0:0:
215,130,696108,1,2,0:0:0:0:
254,199,696746,1,2,0:0:0:0:
328,167,697172,1,2,0:0:0:0:
328,167,697385,2,0,P|317:112|337:44,1,111.999996582031,0|0,0:0|0:0,0:0:0:0:
183,242,698236,5,2,0:0:0:0:
254,199,698448,1,2,0:0:0:0:
272,280,698661,1,2,0:0:0:0:
201,318,698874,2,0,P|155:308|77:303,1,111.999996582031,2|0,0:0|0:0,0:0:0:0:
166,221,699512,2,0,P|173:125|171:106,1,111.999996582031,2|0,0:0|0:0,0:0:0:0:
257,198,700151,2,0,L|328:190,1,55.9999982910157,2|0,0:0|0:0,0:0:0:0:
382,16,700576,5,2,0:0:0:0:
376,97,700789,1,2,0:0:0:0:
380,101,701214,1,2,0:0:0:0:
295,86,701640,5,2,0:0:0:0:
319,165,701853,1,2,0:0:0:0:
280,236,702066,1,2,0:0:0:0:
341,285,702278,2,0,P|384:277|461:303,1,111.999996582031,2|0,0:0|0:0,0:0:0:0:
344,363,702917,2,0,P|326:321|248:311,1,111.999996582031,2|0,0:0|0:0,0:0:0:0:
168,238,703555,1,2,0:0:0:0:
172,244,703980,6,0,L|180:358,1,111.999996582031,2|0,0:0|0:0,0:0:0:0:
61,275,704619,1,2,0:0:0:0:
65,279,705044,5,2,0:0:0:0:
100,209,705257,1,2,0:0:0:0:
94,128,705470,1,2,0:0:0:0:
37,71,705683,1,2,0:0:0:0:
20,151,705895,1,2,0:0:0:0:
117,49,706108,5,2,0:0:0:0:
177,108,706321,2,0,P|224:119|248:12,1,167.999994873047,2|0,0:0|0:0,0:0:0:0:
264,218,707385,5,0,0:0:0:0:
324,159,707598,2,0,P|371:148|395:255,1,167.999994873047,2|0,0:0|0:0,0:0:0:0:
428,335,708448,5,2,0:0:0:0:
355,300,708661,1,2,0:0:0:0:
296,357,708874,1,2,0:0:0:0:
233,301,709087,1,2,0:0:0:0:
257,224,709725,1,2,0:0:0:0:
248,143,710363,1,2,0:0:0:0:
205,74,710789,6,0,P|158:77|79:78,1,111.999996582031,2|0,0:0|0:0,0:0:0:0:
11,55,711427,1,2,0:0:0:0:
23,135,711853,1,2,0:0:0:0:
89,187,712066,1,2,0:0:0:0:
161,152,712279,1,2,0:0:0:0:
220,224,712491,1,2,0:0:0:0:
308,215,712704,1,2,0:0:0:0:
341,134,712917,5,2,0:0:0:0:
257,136,713129,2,0,P|243:200|239:320,1,167.999994873047,2|0,0:0|0:0,0:0:0:0:
52,278,714193,5,0,0:0:0:0:
106,207,714406,2,0,P|124:263|117:351,1,143.999995605469,2|0,0:0|0:0,0:0:0:0:
52,278,715257,1,2,0:0:0:0:
35,124,715895,6,0,P|81:115|206:125,1,160,2|0,0:0|0:0,0:0:0:0:
230,195,716959,1,2,0:0:0:0:
328,122,717597,6,0,P|321:150|309:252,1,128,2|0,0:0|0:0,0:0:0:0:
311,328,718661,1,2,0:0:0:0:
137,151,719300,6,0,P|150:189|156:251,1,95.9999970703126,2|0,0:0|0:0,0:0:0:0:
142,318,720363,1,2,0:0:0:0:
253,189,721002,5,2,0:0:0:0:
257,193,721427,6,0,B|360:162|334:230|450:251|504:114|435:41|335:67|315:85|325:142,1,360.000013732911,2|0,0:0|0:0,0:0:0:0:
281,280,722278,6,0,B|271:273|254:268|254:268|240:279|235:297|235:297|224:282|207:278|207:278|193:288|188:306|188:306|177:291|160:287|160:287|145:298|141:315|141:315,1,180.000006866455,4|0,0:0|0:0,0:0:0:0:
81,348,722704,5,4,1:0:0:0:
94,371,735895,6,0,B|136:331|137:261|137:261|161:326|221:351,1,240,4|0,0:0|0:0,0:0:0:0:
213,347,736321,6,0,L|303:353,1,80,4|0,3:0|0:0,0:0:0:0:
392,302,736746,1,8,0:0:0:0:
262,154,736959,2,0,P|254:116|254:98,2,40,0|0|0,0:0|0:0|0:0,0:0:0:0:
394,310,737385,1,0,0:0:0:0:
453,118,737597,2,0,L|462:32,1,80,8|0,0:0|0:0,0:0:0:0:
497,216,738023,2,0,P|445:221|402:231,1,80,0|0,3:0|0:0,0:0:0:0:
146,323,738448,5,8,0:0:0:0:
291,163,738661,1,0,0:0:0:0:
291,163,738768,1,0,0:0:0:0:
291,163,738874,1,0,0:0:0:0:
357,360,739087,1,0,0:0:0:0:
182,171,739300,1,8,0:0:0:0:
251,361,739512,1,0,0:0:0:0:
387,202,739725,2,0,P|395:154|406:108,1,80,0|0,3:0|0:0,0:0:0:0:
481,247,740151,5,8,0:0:0:0:
387,320,740363,1,0,0:0:0:0:
387,320,740470,1,0,0:0:0:0:
387,320,740576,2,0,L|298:331,1,80,0|0,0:0|0:0,0:0:0:0:
174,349,741002,5,8,0:0:0:0:
233,234,741214,1,0,0:0:0:0:
118,156,741427,5,0,3:0:0:0:
137,254,741640,1,0,0:0:0:0:
220,137,741853,6,0,P|216:89|201:36,1,80,8|0,0:0|0:0,0:0:0:0:
205,48,742172,1,0,0:0:0:0:
201,37,742278,1,0,0:0:0:0:
105,103,742491,1,0,0:0:0:0:
186,224,742704,6,0,B|239:241|285:213|285:213|309:238|309:238|352:214|419:242,1,240,4|0,0:0|0:0,0:0:0:0:
436,219,743129,6,0,L|442:123,1,80,0|0,3:0|0:0,0:0:0:0:
497,313,743555,1,8,0:0:0:0:
469,311,743661,1,0,0:0:0:0:
441,313,743767,1,0,0:0:0:0:
414,321,743874,1,0,0:0:0:0:
389,334,743980,1,0,0:0:0:0:
316,221,744193,1,0,0:0:0:0:
265,359,744406,6,0,L|162:372,1,80,8|0,0:0|0:0,0:0:0:0:
32,249,744831,1,0,3:0:0:0:
76,345,745044,1,0,0:0:0:0:
138,119,745257,5,8,0:0:0:0:
223,202,745470,1,0,0:0:0:0:
223,202,745576,1,0,0:0:0:0:
223,202,745683,2,0,P|264:204|311:211,1,80,0|0,0:0|0:0,0:0:0:0:
460,103,746108,1,8,0:0:0:0:
399,198,746321,1,0,0:0:0:0:
363,98,746534,1,0,3:0:0:0:
502,201,746746,1,0,0:0:0:0:
331,267,746959,5,8,0:0:0:0:
331,267,747066,1,0,0:0:0:0:
214,182,747278,1,0,0:0:0:0:
214,182,747385,2,0,L|204:80,1,80,0|0,0:0|0:0,0:0:0:0:
144,254,747810,1,8,0:0:0:0:
252,329,748023,1,0,0:0:0:0:
300,131,748236,2,0,L|310:29,1,80,0|0,3:0|0:0,0:0:0:0:
503,286,748661,6,0,B|326:314|242:202|345:118|477:176|422:298|227:334,1,480,4|0,0:0|0:0,0:0:0:0:
251,328,749512,5,2,0:0:0:0:
84,260,749725,2,0,P|62:265|39:273,2,26.6666666666667,0|0|0,0:0|0:0|0:0,0:0:0:0:
98,255,749938,6,0,L|104:164,1,80,4|0,0:0|0:0,0:0:0:0:
71,58,750363,1,8,0:0:0:0:
224,165,750576,1,0,0:0:0:0:
246,174,750683,2,0,P|282:172|345:154,1,80,0|0,0:0|0:0,0:0:0:0:
342,148,751002,1,0,0:0:0:0:
464,66,751214,5,8,0:0:0:0:
367,26,751427,1,0,0:0:0:0:
279,253,751640,6,0,L|178:264,1,80,0|0,0:0|0:0,0:0:0:0:
55,221,752066,1,8,0:0:0:0:
149,156,752278,1,0,0:0:0:0:
149,156,752384,1,0,0:0:0:0:
199,261,752597,1,0,0:0:0:0:
199,261,752703,1,0,0:0:0:0:
268,349,752916,6,0,L|370:361,1,80,8|0,0:0|0:0,0:0:0:0:
481,208,753342,5,0,0:0:0:0:
447,295,753555,1,0,0:0:0:0:
354,108,753768,1,8,0:0:0:0:
384,216,753980,1,0,0:0:0:0:
384,216,754087,2,0,P|342:222|295:231,1,80,0|0,0:0|0:0,0:0:0:0:
305,228,754406,1,0,0:0:0:0:
108,267,754619,5,8,0:0:0:0:
218,340,754831,1,0,0:0:0:0:
198,192,755044,6,0,L|188:98,2,80,0|0|8,0:0|0:0|0:0,0:0:0:0:
345,320,755683,1,0,0:0:0:0:
345,320,755789,2,0,P|392:324|438:335,1,80,0|0,0:0|0:0,0:0:0:0:
424,330,756108,6,0,L|418:362,3,26.6666666666667,0|0|0|8,0:0|0:0|0:0|0:0,0:0:0:0:
460,138,756534,1,0,0:0:0:0:
344,209,756746,6,0,P|334:163|334:107,1,80,0|0,0:0|0:0,0:0:0:0:
459,144,757172,1,8,0:0:0:0:
341,325,757385,1,0,0:0:0:0:
325,339,757491,2,0,P|273:350|241:354,1,80,0|0,0:0|0:0,0:0:0:0:
225,351,757810,1,0,0:0:0:0:
251,193,758023,5,8,0:0:0:0:
108,342,758236,1,0,0:0:0:0:
49,150,758448,5,0,0:0:0:0:
112,349,758661,1,0,0:0:0:0:
257,200,758874,2,0,P|299:196|347:187,1,80,8|0,0:0|0:0,0:0:0:0:
382,157,759193,2,0,P|340:153|292:144,1,80,0|0,0:0|0:0,0:0:0:0:
280,134,759512,1,0,0:0:0:0:
372,54,759725,6,0,P|401:40|422:34,2,40,8|0|0,0:0|0:0|0:0,0:0:0:0:
140,172,760151,6,0,L|132:88,1,80
78,321,760576,1,8,0:0:0:0:
117,324,760682,1,0,0:0:0:0:
157,328,760788,1,0,0:0:0:0:
197,332,760895,1,0,0:0:0:0:
237,335,761002,2,0,P|265:329|281:322,1,40,0|0,0:0|0:0,0:0:0:0:
324,263,761214,2,0,P|296:256|280:249,1,40,0|0,0:0|0:0,0:0:0:0:
247,180,761427,6,0,L|243:151,7,20,8|0|0|0|0|0|0|0,0:0|0:0|0:0|0:0|0:0|0:0|0:0|0:0,0:0:0:0:
247,180,761853,5,4,3:0:0:0:
256,192,761906,12,4,763129,3:0:0:0:
57,212,763555,5,2,0:0:0:0:
251,132,763768,1,2,0:0:0:0:
155,207,763980,2,0,P|158:149|159:116,1,80
158,127,764300,2,0,B|107:86|24:106|24:106,1,120,2|2,0:0|0:0,0:0:0:0:
252,220,764831,2,0,B|295:235|335:232|335:232,1,80,4|2,0:0|0:0,0:0:0:0:
426,134,765257,5,2,0:0:0:0:
278,80,765470,1,2,0:0:0:0:
330,232,765683,2,0,B|351:303|299:348|299:348,1,120,0|2,0:0|0:0,0:0:0:0:
303,343,766108,1,0,0:0:0:0:
441,274,766321,5,2,0:0:0:0:
346,158,766534,1,4,0:0:0:0:
229,245,766746,1,6,0:0:0:0:
142,125,766959,1,2,0:0:0:0:
25,275,767172,1,2,0:0:0:0:
25,275,767385,6,0,P|22:223|18:180,1,80
19,195,767704,2,0,B|80:246|157:213|157:213,1,120,2|2,0:0|0:0,0:0:0:0:
309,123,768236,2,0,B|256:115|226:160|226:160,1,80,4|2,0:0|0:0,0:0:0:0:
236,148,768661,5,2,0:0:0:0:
406,153,768874,1,2,0:0:0:0:
315,288,769087,2,0,B|392:308|431:228|431:228,1,120,0|2,0:0|0:0,0:0:0:0:
419,246,769512,5,0,0:0:0:0:
246,239,769725,1,2,0:0:0:0:
116,314,769938,5,4,0:0:0:0:
289,321,770151,1,6,0:0:0:0:
150,163,770363,6,0,L|159:253,1,80,2|2,0:0|0:0,0:0:0:0:
300,167,770789,2,0,L|292:87,1,80
292,87,771108,2,0,B|357:123|418:107|418:107,1,120,2|2,0:0|0:0,0:0:0:0:
224,139,771640,5,4,0:0:0:0:
82,82,771853,1,2,0:0:0:0:
105,239,772066,1,2,0:0:0:0:
133,155,772278,5,2,0:0:0:0:
211,264,772491,2,0,B|240:336|185:376|185:376,1,120,0|2,0:0|0:0,0:0:0:0:
304,259,772917,2,0,B|342:227|401:228|401:228,1,80,0|2,0:0|0:0,0:0:0:0:
128,308,773342,2,0,B|83:329|26:312|26:312,1,80,4|6,0:0|0:0,0:0:0:0:
236,107,773768,6,0,B|228:161|253:199|253:199,1,80,2|2,0:0|0:0,0:0:0:0:
457,272,774193,2,0,B|482:204|434:143|434:143,1,120,0|2,0:0|0:0,0:0:0:0:
442,156,774619,1,0,0:0:0:0:
309,242,774831,1,2,0:0:0:0:
304,76,775044,1,4,0:0:0:0:
395,265,775257,1,2,0:0:0:0:
221,242,775470,1,2,0:0:0:0:
348,157,775683,5,0,0:0:0:0:
350,348,775895,2,0,B|278:351|195:352|195:352,1,132.00000402832
169,277,776321,2,0,B|63:334|-3:226|-3:226,1,180.000006866455,4|0,2:1|0:0,0:0:0:0:
0,159,776746,1,4,1:0:0:0:
135,81,776959,2,0,L|119:65|60:28,4,20.0000007629395
135,81,777172,6,0,P|209:78|318:69,1,143.999995605469,4|0,1:1|0:0,0:0:0:0:
278,72,777597,1,8,0:0:0:0:
478,156,777810,1,2,0:0:0:0:
261,274,778023,2,0,B|159:223|240:143|240:143,1,143.999995605469
371,39,778448,2,0,B|372:89|355:158|355:158,1,95.9999970703126,10|0,0:0|0:0,0:0:0:0:
418,330,778874,2,0,B|413:282|426:220|426:220,1,95.9999970703126,0|2,0:0|0:0,0:0:0:0:
197,243,779300,6,0,P|123:246|14:255,1,143.999995605469,8|0,0:0|0:0,0:0:0:0:
53,251,779725,1,2,0:0:0:0:
302,86,779938,1,0,0:0:0:0:
280,186,780151,1,10,0:0:0:0:
337,268,780363,1,0,0:0:0:0:
337,268,780576,6,0,P|394:262|448:254,1,95.9999970703126
259,336,781002,2,0,P|211:329|163:324,1,95.9999970703126,10|0,0:0|0:0,0:0:0:0:
0,206,781427,2,0,P|89:219|176:227,1,143.999995605469
284,148,781853,1,8,0:0:0:0:
142,224,782066,1,2,0:0:0:0:
216,353,782278,6,0,B|326:308|221:204|221:204,1,143.999995605469
185,144,782704,1,10,0:0:0:0:
386,104,782917,1,0,0:0:0:0:
386,104,783023,2,0,P|331:97|227:82,1,143.999995605469,6|2,0:0|0:0,0:0:0:0:
12,256,783555,6,0,P|84:265|200:279,1,180.000006866455,12|0,2:1|0:0,0:0:0:0:
255,347,783980,5,2,0:0:0:0:
387,141,784193,1,0,0:0:0:0:
348,310,784406,6,0,B|238:265|343:161|343:161,1,143.999995605469,8|0,0:0|0:0,0:0:0:0:
448,211,784831,5,0,0:0:0:0:
196,253,785044,1,2,0:0:0:0:
233,169,785257,1,8,0:0:0:0:
196,79,785470,1,0,0:0:0:0:
196,79,785683,6,0,B|108:96|46:96|46:96,1,143.999995605469,2|0,0:0|0:0,0:0:0:0:
53,95,786108,1,8,0:0:0:0:
301,31,786321,1,2,0:0:0:0:
257,247,786534,2,0,B|367:202|262:98|262:98,1,143.999995605469
161,271,786959,5,10,0:0:0:0:
338,298,787172,1,0,0:0:0:0:
434,274,787385,5,0,0:0:0:0:
257,247,787598,1,2,0:0:0:0:
110,357,787810,2,0,P|104:297|88:184,1,143.999995605469,8|0,0:0|0:0,0:0:0:0:
282,251,788236,2,0,P|334:259|387:266,1,95.9999970703126,2|0,0:0|0:0,0:0:0:0:
165,156,788661,2,0,B|120:46|16:151|16:151,1,143.999995605469,8|0,0:0|0:0,0:0:0:0:
48,125,789087,5,0,0:0:0:0:
252,105,789300,1,0,0:0:0:0:
48,125,789512,1,10,0:0:0:0:
69,329,789725,1,0,0:0:0:0:
69,329,789831,1,0,0:0:0:0:
69,329,789938,1,6,0:0:0:0:
48,125,790151,1,4,0:0:0:0:
252,105,790363,1,10,0:0:0:0:
273,309,790576,2,0,L|257:293|199:269,4,15.9999995117188
273,309,790789,6,0,P|346:320|416:328,1,143.999995605469,4|0,2:1|0:0,0:0:0:0:
415,328,791214,1,8,0:0:0:0:
172,348,791427,1,2,0:0:0:0:
336,228,791640,2,0,B|415:139|275:91|275:91,1,143.999995605469
93,183,792066,2,0,P|166:171|223:163,1,95.9999970703126,10|0,0:0|0:0,0:0:0:0:
221,173,792385,1,0,0:0:0:0:
254,178,792491,1,0,0:0:0:0:
96,89,792704,1,2,0:0:0:0:
33,283,792917,6,0,P|104:274|187:261,1,143.999995605469,8|0,0:0|0:0,0:0:0:0:
175,262,793342,1,2,0:0:0:0:
414,337,793555,1,0,0:0:0:0:
343,252,793768,1,14,0:0:0:0:
381,145,793980,1,0,0:0:0:0:
381,145,794193,2,0,P|435:151|487:155,1,95.9999970703126
258,198,794619,2,0,P|210:201|162:207,1,95.9999970703126,10|0,0:0|0:0,0:0:0:0:
35,62,795044,6,0,P|108:73|216:85,1,143.999995605469,2|0,0:0|0:0,0:0:0:0:
328,53,795470,1,8,0:0:0:0:
177,81,795683,1,2,0:0:0:0:
218,274,795895,6,0,B|328:229|223:125|223:125,1,143.999995605469
150,171,796321,1,10,0:0:0:0:
357,247,796534,1,0,0:0:0:0:
357,247,796640,2,0,P|423:243|534:231,1,143.999995605469,4|2,0:0|0:0,0:0:0:0:
279,340,797172,1,8,0:1:0:0:
279,340,797278,1,0,0:1:0:0:
279,340,797385,2,0,L|287:324|289:300,4,15.9999995117188,4|0|0|0|0,0:1|0:1|0:1|0:1|0:1,0:1:0:0:
279,340,797597,6,0,L|135:328,1,143.999995605469,6|0,0:0|0:0,0:0:0:0:
0,216,798023,2,0,P|73:227|130:236,1,95.9999970703126,10|0,0:0|0:0,0:0:0:0:
128,226,798342,1,0,0:0:0:0:
161,221,798448,1,0,0:0:0:0:
320,80,798661,1,2,0:0:0:0:
296,182,798874,1,12,0:1:0:0:
361,269,799087,1,0,0:0:0:0:
361,269,799300,6,0,P|418:273|508:278,1,143.999995605469,2|0,0:0|0:0,0:0:0:0:
504,277,799725,1,8,0:0:0:0:
385,177,799938,1,2,0:0:0:0:
305,353,800151,2,0,B|195:308|300:204|300:204,1,143.999995605469
389,148,800576,2,0,P|314:142|252:138,1,95.9999970703126,14|0,0:0|0:0,0:0:0:0:
259,138,800895,1,0,0:0:0:0:
225,136,801002,1,4,0:0:0:0:
38,341,801214,5,2,0:0:0:0:
91,261,801427,1,8,0:0:0:0:
61,169,801640,1,0,0:0:0:0:
185,66,801853,6,0,B|75:111|180:215|180:215,1,143.999995605469,2|0,0:0|0:0,0:0:0:0:
327,318,802278,2,0,B|437:273|332:169|332:169,1,143.999995605469,10|0,0:0|0:0,0:0:0:0:
154,182,802704,6,0,P|86:190|7:195,1,120,2|0,0:0|0:0,0:0:0:0:
358,202,803132,6,0,P|426:194|489:190,1,120,10|0,0:0|0:0,0:0:0:0:
256,272,803561,1,2,0:0:0:0:
256,232,803668,1,0,0:0:0:0:
256,192,803775,1,0,0:0:0:0:
256,152,803882,1,0,0:0:0:0:
256,112,803989,6,0,L|256:72,2,40,4|0|0,0:0|0:0|0:0,0:0:0:0:
122,344,804418,6,0,P|130:296|110:243,1,80,4|0,0:0|0:0,0:0:0:0:
34,127,804843,2,0,L|52:304,1,160,8|0,0:0|0:0,0:0:0:0:
171,162,805481,1,2,0:0:0:0:
294,226,805694,1,8,0:0:0:0:
222,342,805907,1,2,0:0:0:0:
222,342,806013,1,2,0:0:0:0:
222,342,806120,6,0,L|205:234,1,80,0|2,1:0|0:0,0:0:0:0:
231,227,806439,1,0,0:0:0:0:
231,227,806545,2,0,L|326:240,1,80,8|0,0:0|0:0,0:0:0:0:
476,124,806971,1,0,1:0:0:0:
398,196,807183,1,2,0:0:0:0:
371,94,807396,6,0,P|299:124|199:108,1,160,4|0,0:0|0:0,0:0:0:0:
99,257,807822,5,0,1:0:0:0:
331,238,808141,1,0,0:0:0:0:
331,238,808247,2,0,P|276:211|210:213,1,120.000004577637,8|0,0:0|0:0,0:0:0:0:
99,257,808673,5,0,1:0:0:0:
240,133,808886,1,2,0:0:0:0:
250,352,809098,2,0,P|224:306|189:285,1,80,8|2,0:0|0:0,0:0:0:0:
24,191,809524,5,0,1:0:0:0:
24,191,809630,2,0,L|125:172,1,80
181,212,809949,1,8,0:0:0:0:
244,114,810162,1,2,0:0:0:0:
399,113,810375,1,2,0:0:0:0:
399,113,810481,1,2,0:0:0:0:
399,113,810588,1,2,0:0:0:0:
345,180,810800,2,0,P|343:135|307:43,1,120,8|0,0:0|0:0,0:0:0:0:
244,114,811226,6,0,L|259:225,1,80,0|2,1:0|0:0,0:0:0:0:
243,218,811545,1,0,0:0:0:0:
243,218,811652,2,0,L|259:332,1,80,8|2,0:0|0:0,0:0:0:0:
392,362,812077,1,0,1:0:0:0:
507,338,812290,1,2,0:0:0:0:
476,223,812502,1,8,0:0:0:0:
363,250,812715,1,2,0:0:0:0:
405,161,812928,5,0,1:0:0:0:
405,161,813035,2,0,P|356:165|306:154,1,80
247,136,813354,1,8,0:0:0:0:
269,271,813566,1,0,0:0:0:0:
90,245,813779,1,0,1:0:0:0:
181,198,813992,1,2,0:0:0:0:
22,172,814205,1,8,0:0:0:0:
98,105,814418,1,2,0:0:0:0:
98,105,814524,1,2,0:0:0:0:
98,105,814630,6,0,P|115:167|112:229,1,120,0|2,1:0|0:0,0:0:0:0:
23,258,815056,2,0,L|101:244,1,80,8|2,0:0|0:0,0:0:0:0:
256,140,815481,1,0,1:0:0:0:
232,264,815694,1,2,0:0:0:0:
351,225,815907,1,8,0:0:0:0:
256,140,816120,1,2,0:0:0:0:
451,40,816332,5,8,0:0:0:0:
451,40,816439,1,0,0:0:0:0:
459,48,816652,1,0,0:0:0:0:
459,48,816758,1,0,1:0:0:0:
255,129,816971,2,0,L|296:137,1,40,2|0,0:0|0:0,0:0:0:0:
402,139,817183,1,0,1:0:0:0:
358,27,817396,1,2,0:0:0:0:
396,253,817609,6,0,P|306:264|208:248,1,180.000006866455,4|0,0:0|0:0,0:0:0:0:
127,223,818035,5,0,1:0:0:0:
127,223,818141,1,0,0:0:0:0:
199,128,818354,1,0,0:0:0:0:
199,128,818460,1,8,0:0:0:0:
219,252,818673,1,0,0:0:0:0:
19,88,818886,1,0,1:0:0:0:
37,260,819098,1,2,0:0:0:0:
219,252,819311,1,8,0:0:0:0:
199,128,819524,1,2,0:0:0:0:
19,88,819737,6,0,L|32:177,1,80,0|2,1:0|0:0,0:0:0:0:
82,344,820162,2,0,P|72:297|100:206,1,120,8|0,0:0|0:0,0:0:0:0:
161,186,820588,2,0,L|196:192,4,20,2|0|0|0|0,0:0|0:0|0:0|0:0|0:0,0:0:0:0:
281,102,821013,2,0,P|277:153|295:238,1,120,8|0,0:0|0:0,0:0:0:0:
338,291,821439,5,0,1:0:0:0:
338,291,821545,2,0,P|395:284|432:286,1,80
378,167,821864,2,0,L|370:42,1,120,8|2,0:0|0:0,0:0:0:0:
448,8,822290,1,0,1:0:0:0:
459,125,822503,1,2,0:0:0:0:
290,52,822715,1,8,0:0:0:0:
454,209,822928,1,2,0:0:0:0:
210,132,823141,6,0,P|158:127|109:130,1,80,0|2,1:0|0:0,0:0:0:0:
71,323,823566,2,0,L|87:278,1,40,8|0,0:0|0:0,0:0:0:0:
85,201,823779,2,0,L|67:166,1,40,8|0,0:0|0:0,0:0:0:0:
173,286,823992,1,0,1:0:0:0:
228,294,824098,1,2,0:0:0:0:
258,249,824205,1,2,0:0:0:0:
309,233,824311,1,2,0:0:0:0:
350,257,824418,2,0,P|390:267|459:272,1,80,8|0,0:0|0:0,0:0:0:0:
400,67,824843,6,0,P|325:87|263:78,1,120,0|2,1:0|0:0,0:0:0:0:
185,13,825269,2,0,L|201:108,1,80,8|2,0:0|0:0,0:0:0:0:
120,224,825694,1,0,1:0:0:0:
241,150,825907,1,2,0:0:0:0:
365,225,826120,1,8,0:0:0:0:
234,303,826332,1,2,0:0:0:0:
166,149,826545,5,0,1:0:0:0:
166,149,826652,1,0,0:0:0:0:
325,67,826864,1,0,0:0:0:0:
325,67,826971,1,8,0:0:0:0:
274,171,827183,1,2,0:0:0:0:
424,123,827396,2,0,L|434:101,4,20,0|0|0|0|0,1:0|0:0|0:0|0:0|0:0,0:0:0:0:
191,348,827822,2,0,P|240:358|287:352,1,80,8|0,0:0|0:0,0:0:0:0:
451,225,828247,5,0,1:0:0:0:
451,225,828354,2,0,L|316:243,1,120,0|8,0:0|0:0,0:0:0:0:
188,268,828886,1,2,0:0:0:0:
256,131,829098,1,0,1:0:0:0:
126,179,829311,1,2,0:0:0:0:
229,62,829524,1,8,0:0:0:0:
359,14,829737,1,2,0:0:0:0:
103,268,829949,5,0,1:0:0:0:
103,268,830375,1,8,0:0:0:0:
174,162,830588,2,0,L|183:212,1,40,2|0,0:0|0:0,0:0:0:0:
204,298,830800,1,0,1:0:0:0:
305,179,831013,1,2,0:0:0:0:
130,352,831226,6,8,B|115:337|115:337|110:348|110:348|99:342|99:342|93:352|93:352|82:345|82:345|76:353|76:353|67:347|67:347|63:356|63:356|36:328|-2:348,1,160
305,179,831652,6,0,P|348:186|389:218,1,80,0|2,1:0|0:0,0:0:0:0:
457,375,832077,2,0,L|462:203,1,160,8|0,0:0|1:0,0:0:0:0:
400,54,832715,1,2,0:0:0:0:
290,293,832928,2,0,P|329:298|377:293,1,80,8|0,0:0|0:0,0:0:0:0:
297,91,833354,5,0,1:0:0:0:
297,91,833460,2,0,L|281:186,1,80,0|2,0:0|0:0,0:0:0:0:
219,290,833779,2,0,L|199:153,1,120,8|0,0:0|0:0,0:0:0:0:
167,104,834205,2,0,L|137:111,4,20,0|0|0|0|0,1:0|0:0|0:0|0:0|0:0,0:0:0:0:
20,35,834630,1,8,0:0:0:0:
15,174,834843,1,2,0:0:0:0:
120,24,835056,5,0,1:0:0:0:
120,24,835162,2,0,P|141:25|206:19,1,80,0|2,0:0|0:0,0:0:0:0:
396,55,835481,2,0,P|358:57|273:105,1,120,8|0,0:0|0:0,0:0:0:0:
196,108,835907,1,0,1:0:0:0:
327,187,836120,1,2,0:0:0:0:
254,314,836332,1,8,0:0:0:0:
101,295,836545,1,2,0:0:0:0:
157,164,836758,5,0,1:0:0:0:
157,164,836864,2,0,P|174:203|176:248,1,80
163,361,837183,1,8,0:0:0:0:
258,266,837396,1,2,0:0:0:0:
58,72,837609,1,0,1:0:0:0:
82,113,837715,1,0,0:0:0:0:
65,158,837822,1,2,0:0:0:0:
63,205,837928,1,0,0:0:0:0:
81,249,838035,2,0,P|128:241|196:195,1,120,8|0,0:0|0:0,0:0:0:0:
326,87,838460,6,0,P|282:106|251:135,1,80,0|2,1:0|0:0,0:0:0:0:
55,108,838886,2,0,L|188:114,1,120,8|0,0:0|0:0,0:0:0:0:
174,113,839311,1,0,1:0:0:0:
278,228,839524,1,2,0:0:0:0:
413,170,839737,1,8,0:0:0:0:
471,316,839950,1,2,0:0:0:0:
471,316,840056,1,0,0:0:0:0:
471,316,840162,6,0,L|487:218,1,80,0|0,1:0|0:0,0:0:0:0:
323,28,840588,2,0,P|338:108|346:223,1,160,8|0,0:0|1:0,0:0:0:0:
147,243,841226,1,2,0:0:0:0:
248,189,841439,2,0,L|257:245,1,40,8|0,0:0|0:0,0:0:0:0:
239,107,841652,2,0,L|186:119,1,40,2|0,0:0|0:0,0:0:0:0:
147,243,841864,5,0,1:0:0:0:
147,243,841971,2,0,P|151:191|132:152,1,80
53,222,842290,2,0,L|73:347,1,120,8|0,0:0|0:0,0:0:0:0:
71,340,842715,1,0,1:0:0:0:
243,212,842928,1,2,0:0:0:0:
147,149,843141,1,8,0:0:0:0:
210,364,843354,1,2,0:0:0:0:
227,132,843566,6,0,B|274:62|379:70|401:105,1,180.000006866455,4|0,0:0|0:0,0:0:0:0:
350,363,843994,6,0,B|291:331|255:232|302:156,1,227.999993911743,4|0,0:0|0:0,0:0:0:0:
441,278,844423,6,0,B|377:230|236:212|124:304,1,300,4|0,0:0|0:0,0:0:0:0:
150,297,844851,6,0,L|156:345,1,40,8|0,0:0|0:0,0:0:0:0:
157,140,845066,2,0,L|163:188,1,40,8|0,0:0|0:0,0:0:0:0:
187,31,845280,5,4,0:0:0:0:
187,31,845705,1,8,0:0:0:0:
332,305,846556,1,8,0:0:0:0:
332,305,847407,2,0,P|328:251|339:180,1,120,8|0,0:0|0:0,0:0:0:0:
65,58,848258,6,0,P|96:55|184:83,1,120,8|0,0:0|0:0,0:0:0:0:
174,298,848790,2,0,P|209:240|213:177,1,120,8|8,0:0|0:0,0:0:0:0:
51,166,849322,2,0,L|61:251,1,80,2|0,0:0|0:0,0:0:0:0:
387,85,849960,5,8,0:0:0:0:
387,85,850811,2,0,P|378:123|387:213,1,120,8|0,0:0|0:0,0:0:0:0:
184,348,851662,6,0,P|189:291|163:218,1,120,8|0,0:0|0:0,0:0:0:0:
98,305,852194,1,8,0:0:0:0:
98,305,852301,1,0,0:0:0:0:
258,216,852514,1,8,0:0:0:0:
112,158,852726,2,0,L|14:165,1,80,2|0,0:0|0:0,0:0:0:0:
411,344,853365,5,8,0:0:0:0:
411,344,853471,1,0,0:0:0:0:
354,169,853685,1,8,0:0:0:0:
391,263,853897,1,0,0:0:0:0:
391,263,854003,1,0,0:0:0:0:
338,73,854217,1,8,0:0:0:0:
338,73,854322,1,0,0:0:0:0:
338,73,854429,2,0,L|243:69,1,80,2|0,0:0|0:0,0:0:0:0:
12,242,855067,6,0,P|56:226|141:225,1,120,8|8,0:0|0:0,0:0:0:0:
221,298,855599,1,0,0:0:0:0:
221,298,855705,1,0,0:0:0:0:
195,170,855918,2,0,L|182:81,1,80,8|0,0:0|0:0,0:0:0:0:
268,18,856343,1,0,0:0:0:0:
268,18,856450,2,0,L|279:105,1,80,2|0,0:0|0:0,0:0:0:0:
275,129,856769,6,0,L|365:119,1,80,8|0,0:0|0:0,0:0:0:0:
425,180,857088,1,8,0:0:0:0:
412,205,857194,2,0,L|409:261,1,40,2|2,0:0|0:0,0:0:0:0:
424,296,857406,2,0,L|370:312,1,40,2|0,0:0|0:0,0:0:0:0:
340,280,857618,2,0,L|288:266,1,40,8|0,0:0|0:0,0:0:0:0:
266,301,857831,2,0,L|209:312,1,40,2|0,0:0|0:0,0:0:0:0:
192,336,858043,1,2,0:0:0:0:
154,298,858149,1,0,0:0:0:0:
165,250,858255,1,2,0:0:0:0:
154,196,858362,5,0,0:0:0:0:
200,176,858468,1,8,0:0:0:0:
200,176,858893,6,0,B|253:169|253:213|321:201,1,120,0|0,0:3|0:0,0:0:0:0:
301,113,859318,1,8,0:0:0:0:
200,264,859531,5,2,0:0:0:0:
136,112,859744,2,0,L|108:36,1,80,2|0,0:0|0:0,0:0:0:0:
84,220,860169,5,8,0:0:0:0:
248,152,860382,2,0,P|332:172|368:236,1,160,0|0,0:0|0:0,0:0:0:0:
260,328,861020,6,0,L|272:236,1,80,8|0,0:0|0:0,0:0:0:0:
248,152,861339,1,8,0:0:0:0:
252,120,861446,1,8,0:0:0:0:
256,88,861552,1,0,0:0:0:0:
260,56,861658,1,8,0:0:0:0:
448,100,861871,2,0,P|408:108|348:100,1,80,8|0,0:0|0:0,0:0:0:0:
168,8,862297,6,0,L|156:100,1,80,0|0,0:0|0:0,0:0:0:0:
142,206,862722,1,8,0:0:0:0:
68,48,862935,6,0,L|60:102,1,40,2|0,0:0|0:0,0:0:0:0:
142,206,863148,2,0,L|157:84,1,120,2|0,0:0|0:0,0:0:0:0:
252,56,863573,1,8,0:0:0:0:
404,180,863786,6,0,L|412:234,1,32,2|0,0:0|0:0,0:0:0:0:
336,308,863999,2,0,L|322:196,1,96,2|0,0:0|0:0,0:0:0:0:
240,200,864424,1,8,0:0:0:0:
76,304,864637,5,0,0:0:0:0:
103,316,864743,1,8,0:0:0:0:
131,324,864850,1,8,0:0:0:0:
161,327,864956,1,0,0:0:0:0:
191,324,865063,1,8,0:0:0:0:
324,212,865275,2,0,L|310:100,1,80,8|0,0:0|0:0,0:0:0:0:
192,40,865701,5,2,0:0:0:0:
120,124,865914,1,0,0:0:0:0:
20,76,866127,1,8,0:0:0:0:
24,240,866339,6,0,L|32:196,1,40,2|0,0:0|0:0,0:0:0:0:
120,260,866552,2,0,L|148:384,1,120,2|0,0:0|0:0,0:0:0:0:
196,200,866978,1,8,0:0:0:0:
312,328,867190,6,0,L|268:320,1,32,2|0,0:0|0:0,0:0:0:0:
344,240,867403,2,0,L|448:228,1,96,2|0,0:0|0:0,0:0:0:0:
288,164,867829,1,8,0:0:0:0:
184,280,868042,5,0,0:0:0:0:
154,275,868148,1,8,0:0:0:0:
124,271,868254,1,8,0:0:0:0:
94,267,868361,1,0,0:0:0:0:
65,264,868467,1,8,0:0:0:0:
0,145,868680,2,0,P|39:142|79:139,1,80,8|0,0:0|0:0,0:0:0:0:
196,8,869105,6,0,L|188:92,1,80,2|0,0:0|0:0,0:0:0:0:
176,196,869531,1,8,0:0:0:0:
320,168,869744,6,0,L|280:176,1,40,2|0,0:0|0:0,0:0:0:0:
176,196,869956,2,0,L|163:329,1,120,2|0,0:0|0:0,0:0:0:0:
64,344,870382,1,8,0:0:0:0:
48,136,870595,6,0,L|84:154,1,32,2|0,0:0|0:0,0:0:0:0:
176,196,870807,2,0,L|186:84,1,96,2|0,0:0|0:0,0:0:0:0:
272,56,871233,1,8,0:0:0:0:
400,208,871446,2,0,L|364:220,1,32,2|0,0:0|0:0,0:0:0:0:
277,217,871658,6,0,P|326:196|279:265,1,215.999993408203,2|0,0:0|0:0,0:0:0:0:
176,196,872084,1,2,0:3:0:0:
176,196,872510,6,0,P|188:244|188:316,1,120,4|0,3:0|0:0,0:0:0:0:
140,384,872935,1,8,0:0:0:0:
96,152,873148,5,2,0:0:0:0:
264,240,873361,2,0,L|340:276,1,80,2|0,0:0|0:0,0:0:0:0:
96,260,873786,5,8,0:0:0:0:
244,136,873999,2,0,P|304:128|408:152,1,160,0|0,0:0|0:0,0:0:0:0:
512,64,874637,6,0,L|424:72,1,80,8|0,0:0|0:0,0:0:0:0:
400,148,874957,1,8,0:0:0:0:
396,177,875063,1,0,0:0:0:0:
395,207,875169,1,8,0:0:0:0:
396,237,875276,1,8,0:0:0:0:
476,364,875488,2,0,P|480:344|480:280,1,80,8|0,0:0|0:0,0:0:0:0:
288,208,875914,6,0,P|286:247|293:286,1,80,2|0,0:0|0:0,0:0:0:0:
352,384,876339,1,8,0:0:0:0:
480,283,876552,6,0,L|475:226,1,40,2|0,0:0|0:0,0:0:0:0:
392,92,876765,2,0,P|384:136|400:208,1,120,2|0,0:0|0:0,0:0:0:0:
480,144,877190,1,8,0:0:0:0:
312,40,877403,6,0,L|264:32,1,32,2|2,0:0|0:0,0:0:0:0:
136,104,877616,2,0,P|183:111|230:104,1,96,2|0,0:0|0:0,0:0:0:0:
183,20,878041,1,8,0:0:0:0:
76,184,878254,5,8,0:0:0:0:
78,210,878360,1,0,0:0:0:0:
81,237,878466,1,8,0:0:0:0:
84,264,878573,1,8,0:0:0:0:
87,291,878679,1,0,0:0:0:0:
272,224,878893,2,0,L|192:216,1,80,8|0,0:0|0:0,0:0:0:0:
236,344,879318,6,0,L|316:352,1,80,2|0,0:0|0:0,0:0:0:0:
464,300,879744,1,8,0:0:0:0:
268,184,879956,6,0,L|272:224,1,40,2|0,0:0|0:0,0:0:0:0:
312,92,880169,2,0,P|250:84|196:108,1,120,2|0,0:0|0:0,0:0:0:0:
48,28,880595,2,0,P|84:42|123:46,1,80,8|0,0:0|0:0,0:0:0:0:
268,186,881020,6,0,P|211:205|153:195,1,120,2|0,0:0|0:0,0:0:0:0:
40,296,881446,2,0,P|76:280|115:276,1,80,8|0,0:0|0:0,0:0:0:0:
200,328,881765,1,8,0:0:0:0:
229,325,881871,1,8,0:0:0:0:
259,323,881977,1,0,0:0:0:0:
289,320,882084,1,8,0:0:0:0:
460,256,882297,2,0,L|356:248,1,80,2|0,0:0|0:0,0:0:0:0:
196,152,882722,6,0,L|300:144,1,80,2|0,0:0|0:0,0:0:0:0:
460,48,883148,1,8,0:0:0:0:
434,57,883254,1,8,0:0:0:0:
406,61,883360,1,8,0:0:0:0:
378,61,883467,1,0,0:0:0:0:
352,56,883573,5,8,0:0:0:0:
346,38,883679,1,8,0:0:0:0:
340,20,883785,1,8,0:0:0:0:
272,144,883999,2,0,L|292:243,1,80,8|0,0:0|0:0,0:0:0:0:
88,300,884424,6,0,P|128:280|224:284,1,120,2|0,0:0|0:0,0:0:0:0:
360,324,884850,2,0,P|312:328|272:312,1,80,8|8,0:0|0:0,0:0:0:0:
252,60,885275,6,0,B|358:51|333:137|447:129,1,215.999993408203,2|0,0:0|0:0,0:0:0:0:
432,8,885701,1,8,0:0:0:0:
424,36,885807,1,8,0:0:0:0:
276,184,886020,1,2,0:0:0:0:
263,161,886127,6,0,L|281:321,1,160,4|8,3:0|0:0,0:0:0:0:
365,224,886765,1,0,0:0:0:0:
180,343,886978,2,0,P|141:351|90:355,1,80,0|0,0:0|0:0,0:0:0:0:
263,161,887403,1,8,0:0:0:0:
122,274,887616,2,0,P|100:221|97:142,1,120
181,47,888041,2,0,L|170:128,1,80,0|8,0:0|0:0,0:0:0:0:
71,62,888467,5,2,0:0:0:0:
71,62,888573,1,0,0:0:0:0:
71,62,888680,1,0,0:0:0:0:
170,126,888893,1,0,0:0:0:0:
72,211,889105,2,0,L|80:306,1,80,8|0,0:0|0:0,0:0:0:0:
213,355,889531,1,0,0:0:0:0:
253,234,889744,1,0,0:0:0:0:
399,361,889956,6,0,P|390:327|386:302,1,40,8|0,0:0|0:0,0:0:0:0:
401,243,890169,2,8,P|410:209|419:185,1,40
461,142,890382,2,0,L|466:58,1,80,8|0,0:0|0:0,0:0:0:0:
489,251,890807,1,8,0:0:0:0:
489,251,890914,1,0,0:0:0:0:
489,251,891020,1,2,0:0:0:0:
362,327,891233,6,0,P|309:349|230:352,1,120,2|0,0:0|0:0,0:0:0:0:
135,268,891658,2,0,L|216:279,1,80,8|0,0:0|0:0,0:0:0:0:
290,192,891978,1,0,0:0:0:0:
290,192,892084,2,0,L|209:203,1,80,2|2,0:0|0:0,0:0:0:0:
96,38,892510,2,0,P|115:102|94:152,1,120,8|0,0:0|0:0,0:0:0:0:
44,234,892935,6,0,L|138:251,1,80,0|0,0:0|0:0,0:0:0:0:
96,149,893361,1,8,0:0:0:0:
209,336,893573,2,0,P|231:332|253:326,1,40,2|0,0:0|0:0,0:0:0:0:
354,198,893786,2,0,L|340:346,1,120,0|0,0:0|0:0,0:0:0:0:
340,342,894212,1,8,0:0:0:0:
266,242,894424,1,0,0:0:0:0:
450,305,894637,6,0,L|462:140,1,160,2|8,0:0|0:0,0:0:0:0:
329,47,895275,1,0,0:0:0:0:
329,47,895382,1,0,0:0:0:0:
329,47,895488,2,0,L|333:116,1,64,2|0,0:0|0:0,0:0:0:0:
375,193,895807,1,0,0:0:0:0:
375,193,895914,2,0,P|339:196|299:206,1,64,8|0,0:0|0:0,0:0:0:0:
165,334,896339,6,0,L|312:351,1,120,2|0,0:0|0:0,0:0:0:0:
364,354,896765,1,8,0:0:0:0:
299,250,896978,1,0,0:0:0:0:
446,114,897190,5,2,0:0:0:0:
402,228,897403,1,0,0:0:0:0:
319,137,897616,2,0,L|313:53,1,80,8|0,0:0|0:0,0:0:0:0:
402,228,898041,6,0,L|396:318,1,80,2|0,0:0|0:0,0:0:0:0:
498,258,898467,1,8,0:0:0:0:
321,350,898680,6,0,P|271:361|224:366,1,71.9999978027344,2|0,0:0|0:0,0:0:0:0:
149,232,898893,2,0,P|170:244|78:309,1,215.999993408203,2|0,0:0|0:0,0:0:0:0:
53,245,899318,5,2,0:0:0:0:
54,230,899424,1,2,0:0:0:0:
55,216,899530,1,2,0:0:0:0:
56,201,899637,1,2,0:0:0:0:
56,189,899744,6,0,L|65:52,1,120
66,40,900169,1,8,0:0:0:0:
236,235,900382,1,0,0:0:0:0:
144,210,900594,1,2,0:0:0:0:
210,143,900807,1,0,0:0:0:0:
333,343,901020,2,0,P|381:332|420:319,2,80,8|0|0,0:0|0:0|0:0,0:0:0:0:
355,238,901658,1,2,0:0:0:0:
214,362,901871,6,0,L|70:351,1,120,8|0,0:0|0:0,0:0:0:0:
94,352,902297,1,8,0:0:0:0:
49,183,902510,1,0,0:0:0:0:
22,280,902722,1,8,0:0:0:0:
118,252,902935,1,0,0:0:0:0:
302,363,903148,2,0,P|349:357|383:345,1,80
226,217,903573,5,8,0:0:0:0:
226,217,903680,1,0,0:0:0:0:
226,217,903786,1,0,0:0:0:0:
438,290,903999,2,0,L|443:195,1,80,2|0,0:0|0:0,0:0:0:0:
334,263,904424,1,8,0:0:0:0:
334,263,904531,1,0,0:0:0:0:
334,263,904637,1,0,0:0:0:0:
400,106,904850,1,2,0:0:0:0:
432,191,905063,1,0,0:0:0:0:
322,156,905275,5,8,0:0:0:0:
312,129,905381,1,8,0:0:0:0:
309,102,905487,1,0,0:0:0:0:
313,74,905594,1,0,0:0:0:0:
323,48,905700,1,8,0:0:0:0:
493,76,905914,1,0,0:0:0:0:
404,110,906127,1,8,0:0:0:0:
413,6,906339,1,0,0:0:0:0:
463,322,906552,6,0,P|396:331|320:274,1,160,4|8,3:0|0:0,0:0:0:0:
413,199,907190,1,2,0:0:0:0:
162,325,907403,1,0,0:0:0:0:
162,325,907510,1,0,0:0:0:0:
162,325,907616,1,0,0:0:0:0:
258,132,907829,1,8,0:0:0:0:
162,325,908041,2,0,L|69:339,1,80
154,111,908467,5,2,0:0:0:0:
196,207,908680,1,8,0:0:0:0:
196,207,908786,1,0,0:0:0:0:
196,207,908893,1,0,0:0:0:0:
258,132,909105,5,2,0:0:0:0:
90,198,909318,1,0,0:0:0:0:
90,198,909424,1,0,0:0:0:0:
90,198,909531,1,8,0:0:0:0:
216,34,909744,1,2,0:0:0:0:
70,287,909956,5,2,3:0:0:0:
81,287,910062,1,0,3:0:0:0:
93,288,910168,1,0,3:0:0:0:
105,289,910275,1,0,3:0:0:0:
117,290,910381,1,8,3:0:0:0:
129,291,910487,1,0,3:0:0:0:
141,292,910594,1,2,3:0:0:0:
153,292,910700,1,0,3:0:0:0:
165,293,910807,5,2,3:0:0:0:
177,294,910913,1,0,3:0:0:0:
189,295,911019,1,0,3:0:0:0:
201,296,911126,1,0,3:0:0:0:
213,297,911232,1,8,3:0:0:0:
225,297,911338,1,0,3:0:0:0:
238,298,911446,1,0,3:0:0:0:
250,299,911552,1,0,3:0:0:0:
263,301,911658,6,0,L|307:304,3,40,8|0|0|0,3:0|3:0|3:0|3:0,3:0:0:0:
381,311,912086,2,0,L|425:314,3,40,8|0|0|0,3:0|3:0|3:0|3:0,3:0:0:0:
499,316,912515,6,0,B|506:217|506:217|500:198|500:198|508:89,1,215.999993408203,4|0,0:0|0:0,0:0:0:0:
425,223,912943,2,0,L|420:315,1,71.9999978027344,4|0,0:0|0:0,0:0:0:0:
420,313,913372,5,4,1:0:0:0:
503,192,914223,2,0,P|458:182|403:181,2,95.9999970703126,2|2|2,0:0|0:0|0:0,0:0:0:0:
361,238,916776,6,0,P|316:248|261:249,1,95.9999970703126,4|2,0:0|0:0,0:0:0:0:
207,203,918053,1,0,0:0:0:0:
158,147,918478,2,0,P|113:137|58:136,2,95.9999970703126,4|2|4,0:0|0:0|0:0,0:0:0:0:
207,203,921032,2,0,P|248:199|264:195,1,47.9999985351563,2|0,0:0|0:0,0:0:0:0:
325,226,921883,1,4,0:0:0:0:
257,382,922734,5,4,0:0:0:0:
257,382,925287,2,0,L|268:277,1,95.9999970703126,4|2,0:0|0:0,0:0:0:0:
303,223,926989,2,0,L|292:118,1,95.9999970703126,2|2,0:0|0:0,0:0:0:0:
8,188,928692,5,4,0:0:0:0:
8,188,929543,1,2,0:0:0:0:
8,188,930394,2,0,L|61:196,1,47.9999985351563,2|4,0:0|0:0,0:0:0:0:
258,12,931245,6,0,L|255:46,1,32,6|2,0:0|0:0,0:0:0:0:
480,195,932096,6,0,L|452:192,1,23.9999992675781,4|2,0:0|0:0,0:0:0:0:
254,372,932947,6,0,L|257:339,1,32,4|4,0:0|0:0,0:0:0:0:
256,192,938905,12,0,940820,0:0:0:0:
68,276,941459,5,0,0:0:0:0:
68,276,941884,6,0,B|5:168|87:94|87:94,1,180.000006866455,4|0,0:0|0:0,0:0:0:0:
150,81,942310,1,8,0:0:0:0:
173,96,942416,1,2,0:0:0:0:
201,97,942523,1,0,0:0:0:0:
317,53,942735,1,8,0:0:0:0:
302,81,942841,1,0,0:0:0:0:
302,112,942947,1,0,0:0:0:0:
313,142,943054,1,0,0:0:0:0:
334,165,943160,1,8,0:0:0:0:
362,179,943267,1,2,0:0:0:0:
391,190,943373,1,0,0:0:0:0:
419,205,943480,1,2,0:0:0:0:
438,229,943586,1,8,0:0:0:0:
449,259,943693,1,0,0:0:0:0:
450,290,943799,1,2,0:0:0:0:
443,321,943906,1,2,0:0:0:0:
472,308,944012,6,0,L|519:303,2,40,8|0|2,0:0|0:0|0:0,0:0:0:0:
348,278,944438,1,8,0:0:0:0:
251,361,944650,1,0,0:0:0:0:
233,334,944757,1,2,0:0:0:0:
208,313,944863,1,8,0:0:0:0:
179,298,944969,1,0,0:0:0:0:
147,292,945076,1,2,0:0:0:0:
115,292,945182,1,0,0:0:0:0:
83,300,945289,1,10,0:0:0:0:
54,316,945395,1,0,0:0:0:0:
45,281,945501,2,0,L|-13:273,2,40,2|2|8,0:0|0:0|0:0,0:0:0:0:
180,206,945927,5,2,0:0:0:0:
192,176,946033,1,2,0:0:0:0:
195,144,946140,1,8,0:0:0:0:
185,113,946246,1,0,0:0:0:0:
15,40,946459,5,0,0:0:0:0:
5,71,946565,1,8,0:0:0:0:
8,103,946672,1,0,0:0:0:0:
20,133,946778,1,0,0:0:0:0:
43,155,946885,1,2,0:0:0:0:
73,165,946991,1,8,0:0:0:0:
104,163,947097,1,2,0:0:0:0:
122,35,947310,5,0,0:0:0:0:
150,20,947416,1,10,0:0:0:0:
181,14,947523,1,2,0:0:0:0:
212,19,947629,2,0,L|245:26,4,20,0|0|0|0|8,0:0|0:0|0:0|0:0|0:0,0:0:0:0:
298,129,948055,1,2,0:0:0:0:
424,90,948268,1,10,0:0:0:0:
424,90,948374,1,2,0:0:0:0:
424,90,948480,2,0,L|471:81,2,26.6666666666667,0|0|2,0:0|0:0|0:0,0:0:0:0:
465,172,948693,1,10,0:0:0:0:
465,172,948800,1,0,0:0:0:0:
465,172,948906,1,2,0:0:0:0:
354,203,949119,5,8,0:0:0:0:
326,219,949225,1,2,0:0:0:0:
307,245,949331,1,0,0:0:0:0:
272,357,949544,1,8,0:0:0:0:
260,326,949651,1,0,0:0:0:0:
240,301,949757,1,0,0:0:0:0:
215,280,949863,1,0,0:0:0:0:
185,268,949970,1,8,0:0:0:0:
154,261,950076,1,2,0:0:0:0:
121,262,950183,1,0,0:0:0:0:
89,270,950289,1,2,0:0:0:0:
61,284,950395,1,8,0:0:0:0:
68,252,950502,1,2,0:0:0:0:
63,220,950608,1,2,0:0:0:0:
47,191,950715,1,2,0:0:0:0:
24,168,950821,6,0,L|29:114,2,40,8|0|2,0:0|0:0|0:0,0:0:0:0:
113,65,951247,1,8,0:0:0:0:
231,134,951459,1,0,0:0:0:0:
261,144,951566,1,2,0:0:0:0:
291,145,951672,1,8,0:0:0:0:
323,138,951778,1,0,0:0:0:0:
351,124,951885,1,2,0:0:0:0:
374,101,951991,1,0,0:0:0:0:
387,72,952098,1,10,0:0:0:0:
391,42,952204,1,0,0:0:0:0:
421,60,952310,2,0,L|478:53,2,40,2|2|8,0:0|0:0|0:0,0:0:0:0:
316,188,952736,5,0,0:0:0:0:
306,219,952842,1,2,0:0:0:0:
309,251,952949,1,10,0:0:0:0:
321,281,953055,1,2,0:0:0:0:
494,307,953268,1,0,0:0:0:0:
500,275,953374,1,8,0:0:0:0:
494,243,953481,1,0,0:0:0:0:
480,214,953587,1,0,0:0:0:0:
450,201,953694,1,2,0:0:0:0:
418,204,953800,1,8,0:0:0:0:
397,228,953906,1,2,0:0:0:0:
230,292,954119,5,0,0:0:0:0:
238,323,954225,1,2,0:0:0:0:
258,348,954332,1,2,0:0:0:0:
284,366,954438,2,0,L|312:386,4,20,0|0|0|0|8,0:0|0:0|0:0|0:0|0:0,0:0:0:0:
140,348,954864,1,2,0:0:0:0:
164,203,955077,1,10,0:0:0:0:
164,203,955183,1,2,0:0:0:0:
164,203,955289,2,0,L|173:156,2,26.6666666666667,0|0|2,0:0|0:0|0:0,0:0:0:0:
84,167,955502,1,10,0:0:0:0:
84,167,955609,1,0,0:0:0:0:
84,167,955715,1,2,0:0:0:0:
183,60,955928,5,8,0:0:0:0:
213,63,956034,1,2,0:0:0:0:
238,83,956140,1,0,0:0:0:0:
307,191,956353,1,8,0:0:0:0:
303,222,956460,1,0,0:0:0:0:
313,252,956566,1,0,0:0:0:0:
338,270,956672,1,0,0:0:0:0:
369,276,956779,1,8,0:0:0:0:
399,266,956885,1,2,0:0:0:0:
419,240,956992,1,0,0:0:0:0:
422,208,957098,1,2,0:0:0:0:
410,178,957204,1,8,0:0:0:0:
396,149,957311,1,2,0:0:0:0:
394,117,957417,1,2,0:0:0:0:
405,86,957523,1,2,0:0:0:0:
373,92,957630,6,0,L|303:81,2,40,8|0|2,0:0|0:0|0:0,0:0:0:0:
512,122,958056,1,8,0:0:0:0:
493,289,958268,1,0,0:0:0:0:
474,315,958375,1,2,0:0:0:0:
451,337,958481,1,8,0:0:0:0:
423,353,958587,1,0,0:0:0:0:
393,365,958694,1,2,0:0:0:0:
361,368,958800,1,0,0:0:0:0:
328,365,958907,1,10,0:0:0:0:
298,352,959013,1,0,0:0:0:0:
272,370,959119,2,0,L|219:347,2,40,2|2|10,0:0|0:0|0:0,0:0:0:0:
134,330,959545,5,0,0:0:0:0:
102,331,959651,1,2,0:0:0:0:
71,341,959758,1,8,0:0:0:0:
44,358,959864,1,0,0:0:0:0:
134,243,960077,1,0,0:0:0:0:
151,216,960183,1,8,0:0:0:0:
163,186,960290,1,0,0:0:0:0:
166,154,960396,1,0,0:0:0:0:
160,122,960503,1,2,0:0:0:0:
145,93,960609,1,8,0:0:0:0:
175,85,960715,2,0,L|182:4,1,80,2|2,0:0|0:0,0:0:0:0:
206,26,961034,5,10,0:0:0:0:
236,37,961141,1,2,0:0:0:0:
267,35,961247,2,0,L|300:28,4,20,0|0|2|0|0,0:0|0:0|0:0|0:0|0:0,0:0:0:0:
320,176,961673,1,2,0:0:0:0:
465,129,961886,1,2,0:0:0:0:
465,129,961992,1,2,0:0:0:0:
465,129,962098,2,0,L|474:82,2,26.6666666666667,0|2|2,0:0|0:0|0:0,0:0:0:0:
406,200,962311,1,10,0:0:0:0:
406,200,962418,1,0,0:0:0:0:
406,200,962524,1,2,0:0:0:0:
359,316,962737,5,8,0:0:0:0:
334,337,962843,1,2,0:0:0:0:
302,343,962949,1,0,0:0:0:0:
173,313,963162,1,8,0:0:0:0:
151,289,963269,1,0,0:0:0:0:
123,272,963375,1,0,0:0:0:0:
92,264,963481,1,0,0:0:0:0:
59,266,963588,1,8,0:0:0:0:
75,238,963694,1,2,0:0:0:0:
80,206,963801,1,0,0:0:0:0:
73,174,963907,1,2,0:0:0:0:
56,146,964013,1,8,0:0:0:0:
47,114,964120,1,2,0:0:0:0:
49,82,964226,1,2,0:0:0:0:
66,54,964333,1,2,0:0:0:0:
39,36,964439,2,0,L|-6:42,2,40,8|0|2,0:0|0:0|0:0,0:0:0:0:
141,113,964865,5,8,0:0:0:0:
170,125,964971,1,0,0:0:0:0:
201,129,965077,1,2,0:0:0:0:
233,125,965184,1,0,0:0:0:0:
262,112,965290,1,8,0:0:0:0:
287,92,965396,1,0,0:0:0:0:
313,73,965503,1,2,0:0:0:0:
343,63,965609,1,0,0:0:0:0:
375,64,965716,1,10,0:0:0:0:
404,75,965822,1,0,0:0:0:0:
401,43,965928,2,0,L|412:-1,2,40,2|2|10,0:0|0:0|0:0,0:0:0:0:
347,159,966354,5,0,0:0:0:0:
345,190,966460,1,2,0:0:0:0:
354,220,966567,1,8,0:0:0:0:
372,245,966673,1,0,0:0:0:0:
497,312,966885,1,0,0:0:0:0:
465,303,966992,1,8,0:0:0:0:
433,305,967098,1,0,0:0:0:0:
404,318,967204,1,0,0:0:0:0:
380,339,967311,2,0,L|382:378,2,40,2|8|2,0:0|0:0|0:0,0:0:0:0:
264,298,967737,5,2,0:0:0:0:
235,312,967843,1,10,0:0:0:0:
204,322,967950,1,2,0:0:0:0:
172,321,968056,1,0,0:0:0:0:
141,312,968163,1,2,0:0:0:0:
116,291,968269,1,8,0:0:0:0:
99,263,968375,1,2,0:0:0:0:
66,263,968482,2,0,P|69:210|71:168,1,80,2|10,0:0|0:0,0:0:0:0:
44,163,968801,1,2,0:0:0:0:
40,131,968907,1,0,0:0:0:0:
26,101,969014,1,2,0:0:0:0:
4,77,969120,2,0,L|8:44,7,20,12|0|0|0|2|0|0|0,0:0|0:0|0:0|0:0|0:0|0:0|0:0|0:0,0:0:0:0:
52,64,969546,6,0,P|116:81|129:82,1,60.0000022888184,4|0,1:0|0:0,0:0:0:0:
52,64,969971,2,2,P|112:52|244:132,1,180.000006866455,2|2,1:2|1:0,1:0:0:0:
280,152,970397,2,2,P|276:185|276:224,1,60.0000022888184,0|2,1:0|1:0,1:0:0:0:
300,284,970610,1,2,0:0:0:0:
356,204,970716,2,2,P|480:224|522:228,2,120.000004577637,2|2|2,1:0|1:0|1:0,1:0:0:0:
280,152,971248,6,0,P|276:200|276:232,1,60.0000022888184,4|0,1:0|0:0,0:0:0:0:
276,292,971461,1,2,0:0:0:0:
170,74,971674,2,0,P|174:170|174:258,1,180.000006866455,12|0,1:2|0:0,0:0:0:0:
174,253,972099,2,2,P|106:266|98:270,1,60.0000022888184,2|0,1:0|2:0,1:0:0:0:
98,177,972312,2,2,L|26:161,1,60.0000022888184,2|0,1:0|2:0,1:0:0:0:
248,220,972525,2,2,P|348:240|460:260,1,180.000006866455,2|2,1:0|1:0,1:0:0:0:
504,216,972950,1,4,1:0:0:0:
327,318,973163,5,2,1:0:0:0:
327,318,973269,1,2,1:0:0:0:
504,216,973482,1,0,1:0:0:0:
352,64,973801,1,0,1:0:0:0:
376,96,973907,1,2,0:0:0:0:
356,116,974014,1,0,0:0:0:0:
368,144,974120,2,2,P|356:212|356:220,1,60.0000022888184,2|0,1:0|0:0,1:0:0:0:
448,184,974333,2,2,B|468:176|468:176|444:284,1,120.000004577637,2|0,1:0|1:0,1:0:0:0:
396,288,974652,5,4,1:0:0:0:
344,300,974759,1,0,0:0:0:0:
292,312,974865,2,0,B|280:328|280:328|288:380,1,60.0000022888184,0|0,1:0|0:0,0:0:0:0:
345,211,975078,2,2,B|365:203|365:203|341:311,1,120.000004577637,2|0,1:0|1:0,1:0:0:0:
262,228,975504,5,0,1:0:0:0:
344,136,975716,1,0,1:0:0:0:
344,136,975787,1,0,1:0:0:0:
344,136,975858,1,2,1:0:0:0:
344,136,975929,1,2,1:0:0:0:
320,36,976142,2,0,B|348:44|348:44|384:36,1,60.0000022888184,2|0,1:0|0:0,0:0:0:0:
252,88,976355,6,0,B|224:80|224:80|188:88,1,60.0000022888184,4|0,1:0|0:0,0:0:0:0:
64,152,976567,1,0,1:0:0:0:
64,152,976674,2,2,L|184:128,2,120.000004577637,2|2|2,1:0|1:0|1:0,1:0:0:0:
180,220,977206,2,0,P|192:282|196:304,2,60.0000022888184,0|0|0,1:0|2:0|1:0,1:0:0:0:
272,216,977525,2,2,L|360:204,1,60.0000022888184,2|0,1:0|0:0,1:0:0:0:
329,339,977738,2,2,P|327:309|328:280,1,60.0000022888184,2|2,1:0|1:0,1:0:0:0:
272,216,977951,2,2,P|272:176|268:140,1,60.0000022888184,2|4,1:0|1:0,1:0:0:0:
248,8,978270,6,2,P|160:24|136:28,1,60.0000022888184,2|0,1:0|0:0,0:0:0:0:
276,88,978483,2,2,P|328:56|424:40,1,120.000004577637,2|0,1:0|0:0,1:0:0:0:
384,40,978802,2,2,L|360:188,1,120.000004577637,2|0,1:0|1:0,1:0:0:0:
364,158,979121,2,2,P|396:198|432:214,1,60.0000022888184,2|0,1:0|2:0,1:0:0:0:
264,192,979334,2,2,P|232:144|112:132,1,180.000006866455,2|0,1:0|0:0,1:0:0:0:
40,160,979759,5,4,1:0:0:0:
176,60,979972,2,2,P|208:76|268:80,1,60.0000022888184,2|0,1:0|1:0,1:0:0:0:
344,152,980291,2,2,L|488:136,1,120.000004577637,2|2,1:0|1:0,1:0:0:0:
463,138,980610,1,2,1:0:0:0:
248,212,980717,2,2,P|200:208|172:196,1,60.0000022888184,0|2,1:0|1:0,1:0:0:0:
72,172,980929,2,2,L|80:84,1,60.0000022888184,2|0,1:0|1:0,1:0:0:0:
116,240,981142,2,2,P|124:308|120:364,1,120.000004577637,2|2,1:0|1:0,1:0:0:0:
156,340,981461,1,0,1:0:0:0:
196,336,981568,1,0,1:0:0:0:
240,340,981674,1,0,1:0:0:0:
284,352,981781,1,2,1:0:0:0:
256,192,981887,12,4,982738,1:0:0:0:
286,65,983164,6,0,P|210:77|190:73,1,60.0000022888184,0|0,1:0|0:0,1:0:0:0:
129,92,983376,1,0,1:0:0:0:
129,92,983589,2,2,P|213:96|269:132,1,120.000004577637,2|2,1:0|1:0,1:0:0:0:
360,184,984015,1,2,1:0:0:0:
440,204,984121,2,2,L|428:288,1,60.0000022888184,0|2,1:0|1:0,1:0:0:0:
360,184,984334,2,2,P|380:96|384:48,1,120.000004577637,2|2,1:0|1:0,1:0:0:0:
344,40,984653,1,0,1:0:0:0:
304,20,984760,1,0,1:0:0:0:
252,8,984866,6,2,P|208:4|148:16,2,60.0000022888184,2|0|2,1:0|2:0|1:0,1:0:0:0:
216,120,985291,2,2,P|144:132|100:104,1,120.000004577637,2|2,1:0|1:0,1:0:0:0:
55,52,985611,1,2,1:0:0:0:
288,156,985823,1,0,1:0:0:0:
288,156,985930,1,2,1:0:0:0:
55,52,986143,2,2,P|75:184|79:260,1,180.000006866455,2|2,1:0|1:0,1:0:0:0:
96,320,986568,5,4,1:0:0:0:
419,204,986781,1,0,1:0:0:0:
419,204,986887,1,2,1:0:0:0:
114,326,987100,2,2,P|188:317|239:299,1,120.000004577637,2|0,1:0|0:0,1:0:0:0:
432,211,987419,2,2,P|469:198|510:185,2,60.0000022888184,2|2|2,1:0|1:0|1:0,1:0:0:0:
349,263,987738,2,2,L|387:338,1,60.0000022888184,2|0,1:0|0:0,1:0:0:0:
346,175,987951,2,2,L|232:199,1,60.0000022888184,2|0,1:0|0:0,1:0:0:0:
252,180,988164,1,2,1:0:0:0:
216,168,988270,1,2,1:0:0:0:
180,156,988377,1,0,1:0:0:0:
144,148,988483,1,2,1:0:0:0:
112,140,988590,1,0,1:0:0:0:
80,132,988696,1,6,1:0:0:0:
159,53,988909,5,2,1:0:0:0:
159,53,989015,2,2,P|236:72|244:72,1,60.0000022888184,2|0,1:0|0:0,1:0:0:0:
424,96,989228,1,2,1:0:0:0:
340,132,989334,1,2,1:0:0:0:
340,132,989405,1,2,1:0:0:0:
340,132,989476,1,0,0:0:0:0:
340,132,989547,2,2,P|288:156|244:188,1,60.0000022888184,2|0,1:0|2:0,1:0:0:0:
160,228,989760,2,2,P|252:260|268:268,1,60.0000022888184,2|0,1:0|0:0,1:0:0:0:
368,280,989973,6,0,P|296:256|284:252,2,60.0000022888184,4|2|0,1:0|1:0|1:0,1:0:0:0:
480,264,990292,2,2,L|492:356,1,60.0000022888184,2|0,1:0|0:0,1:0:0:0:
404,192,990505,2,2,P|396:120|400:68,2,120.000004577637,2|2|2,1:0|1:0|1:0,1:0:0:0:
172,40,991143,1,2,1:0:0:0:
172,40,991249,2,2,P|104:32|88:28,1,60.0000022888184,2|0,1:0|2:0,1:0:0:0:
136,200,991462,2,2,P|212:188|220:188,1,60.0000022888184,2|0,1:0|0:0,1:0:0:0:
94,123,991675,6,2,P|26:131|18:131,2,60.0000022888184,2|0|2,1:0|0:0|1:0,1:0:0:0:
151,118,991994,1,0,0:0:0:0:
204,116,992100,2,2,P|288:108|336:104,1,120.000004577637,2|0,1:0|2:0,1:0:0:0:
456,96,992420,2,2,L|440:240,1,120.000004577637,2|0,1:0|0:0,1:0:0:0:
356,212,992739,2,2,L|272:236,1,60.0000022888184,2|0,1:0|0:0,1:0:0:0:
360,356,992952,2,2,L|376:168,1,180.000006866455,2|2,1:0|1:0,1:0:0:0:
316,48,993377,6,0,P|284:60|248:60,3,60.0000022888184,0|0|0|0,1:0|3:0|1:0|3:0,1:0:0:0:
384,120,993803,6,0,P|404:96|425:45,3,68.0000012969971,0|0|0|0,1:0|3:0|1:0|3:0,1:0:0:0:
288,148,994228,6,0,P|256:160|194:158,3,73.9999997177124,0|0|0|0,1:0|3:0|1:0|3:0,1:0:0:0:
368,200,994654,6,0,P|401:207|459:238,3,80,0|0|0|0,1:0|3:0|1:0|3:0,1:0:0:0:
276,248,995079,5,0,1:0:0:0:
256,252,995186,1,0,1:0:0:0:
236,256,995292,1,0,1:0:0:0:
212,256,995399,1,0,1:0:0:0:
188,252,995505,5,0,1:0:0:0:
168,240,995611,1,0,1:0:0:0:
152,224,995718,1,0,1:0:0:0:
144,204,995824,1,0,1:0:0:0:
144,184,995931,5,0,1:0:0:0:
151,163,996037,1,0,1:0:0:0:
169,145,996143,1,0,1:0:0:0:
192,132,996250,1,0,1:0:0:0:
207,114,996356,5,0,1:0:0:0:
217,94,996462,1,0,1:0:0:0:
224,66,996569,1,0,1:0:0:0:
224,44,996675,1,0,1:0:0:0:
222,21,996782,5,4,1:0:0:0:
422,228,996994,1,0,0:0:0:0:
422,228,997207,2,0,P|435:165|419:63,2,160,8|0|8,0:0|0:0|0:0,0:0:0:0:
307,251,998271,1,0,0:0:0:0:
235,334,998484,6,0,L|140:324,1,80,0|0,0:0|0:0,0:0:0:0:
15,248,998909,2,0,P|113:237|148:232,1,120,8|0,0:0|0:0,0:0:0:0:
134,234,999335,1,0,0:0:0:0:
265,133,999548,2,0,L|179:147,1,80,0|8,0:0|0:0,0:0:0:0:
45,59,999973,1,0,0:0:0:0:
45,59,1000080,1,0,0:0:0:0:
45,59,1000186,6,0,L|124:67,1,80,0|0,0:0|0:0,0:0:0:0:
265,133,1000612,2,0,P|319:116|392:75,1,120,8|0,0:0|0:0,0:0:0:0:
375,86,1001037,2,0,P|369:123|360:172,1,80,0|0,0:0|0:0,0:0:0:0:
423,318,1001463,2,0,P|429:281|438:232,1,80,8|0,0:0|0:0,0:0:0:0:
436,239,1001782,1,0,0:0:0:0:
436,239,1001888,1,0,0:0:0:0:
315,260,1002101,1,0,0:0:0:0:
242,356,1002314,2,0,P|183:358|72:311,2,160,8|0|8,0:0|0:0|0:0,0:0:0:0:
315,260,1003378,1,0,0:0:0:0:
315,260,1003484,1,0,0:0:0:0:
315,260,1003591,6,0,L|305:176,1,80,2|0,0:0|0:0,0:0:0:0:
433,193,1004016,1,8,0:0:0:0:
433,193,1004229,2,0,L|517:203,1,80,2|0,0:0|0:0,0:0:0:0:
305,180,1004655,2,0,L|225:189,1,80,2|8,0:0|0:0,0:0:0:0:
86,207,1005080,2,0,P|90:162|95:98,1,80,0|0,0:0|0:0,0:0:0:0:
283,282,1005506,2,0,P|279:321|276:361,1,80,2|8,0:0|0:0,0:0:0:0:
191,317,1005931,2,0,P|138:301|21:276,1,160,2|0,0:0|0:0,0:0:0:0:
142,218,1006570,2,0,P|183:195|226:166,1,80,10|2,0:0|0:0,0:0:0:0:
210,176,1006889,1,0,0:0:0:0:
210,176,1006995,6,0,P|205:137|197:80,1,80,0|2,0:0|0:0,0:0:0:0:
305,238,1007421,1,8,0:0:0:0:
305,238,1007634,2,0,P|299:277|291:334,1,80,2|0,0:0|0:0,0:0:0:0:
404,288,1008059,2,0,P|409:327|417:384,1,80,0|8,0:0|0:0,0:0:0:0:
415,367,1008485,1,2,0:0:0:0:
488,223,1008697,5,4,0:0:0:0:
361,186,1008910,1,2,0:0:0:0:
252,246,1009123,1,8,0:0:0:0:
142,189,1009336,1,10,0:0:0:0:
252,246,1009549,1,2,0:0:0:0:
361,186,1009761,1,0,0:0:0:0:
304,47,1009974,2,0,P|244:46|190:72,1,120,12|0,0:0|0:0,0:0:0:0:
96,44,1010400,6,0,P|100:104|124:156,1,80,6|2,0:0|0:0,0:0:0:0:
52,228,1010825,2,0,P|100:252|192:244,1,120,10|0,0:0|0:0,0:0:0:0:
165,253,1011251,2,0,P|158:299|150:347,1,80,0|2,0:0|0:0,0:0:0:0:
252,204,1011676,2,0,P|258:164|263:124,1,80,8|2,0:0|0:0,0:0:0:0:
263,124,1011996,1,0,0:0:0:0:
263,124,1012103,5,2,0:0:0:0:
392,104,1012315,1,2,0:0:0:0:
432,232,1012527,2,0,P|426:271|420:311,1,80,10|0,0:0|0:0,0:0:0:0:
420,311,1012847,2,0,P|372:336|276:324,1,120,10|0,0:0|0:0,0:0:0:0:
140,248,1013379,2,0,P|200:264|244:292,1,80,8|2,0:0|0:0,0:0:0:0:
215,272,1013698,1,0,0:0:0:0:
215,272,1013804,5,2,0:0:0:0:
152,336,1014017,1,2,0:0:0:0:
84,164,1014230,2,0,P|152:164|220:184,1,120,8|0,0:0|0:0,0:0:0:0:
202,176,1014655,1,0,0:0:0:0:
308,248,1014868,1,2,0:0:0:0:
308,248,1015081,2,0,P|348:260|396:264,1,80,8|2,0:0|0:0,0:0:0:0:
472,200,1015506,6,0,L|482:118,1,80,0|2,0:0|0:0,0:0:0:0:
385,36,1015932,1,10,0:0:0:0:
284,108,1016145,1,0,0:0:0:0:
262,117,1016251,1,2,0:0:0:0:
238,123,1016358,1,0,0:0:0:0:
214,127,1016464,1,0,0:0:0:0:
190,128,1016570,1,10,0:0:0:0:
104,186,1016783,2,0,L|94:104,1,80,10|0,0:0|0:0,0:0:0:0:
94,106,1017102,1,0,0:0:0:0:
94,106,1017209,5,2,0:0:0:0:
192,225,1017421,1,2,0:0:0:0:
35,310,1017634,2,0,P|25:235|14:157,1,120,8|0,0:0|0:0,0:0:0:0:
18,191,1018060,1,0,0:0:0:0:
120,287,1018273,1,2,0:0:0:0:
120,287,1018485,6,0,P|161:306|203:315,1,80,8|2,0:0|0:0,0:0:0:0:
364,312,1018911,2,0,P|327:294|289:285,1,80,0|2,0:0|0:0,0:0:0:0:
130,172,1019336,2,0,P|189:178|244:201,1,120,10|10,0:0|0:0,0:0:0:0:
244,201,1019762,2,0,L|233:115,1,80,0|0,0:0|0:0,0:0:0:0:
341,261,1020188,2,0,L|352:174,1,80,8|2,0:0|0:0,0:0:0:0:
463,178,1020613,6,0,P|456:99|450:23,1,120,2|0,0:0|0:0,0:0:0:0:
452,58,1021039,1,8,0:0:0:0:
333,33,1021251,1,2,0:0:0:0:
242,118,1021464,1,0,0:0:0:0:
121,75,1021677,1,0,0:0:0:0:
121,75,1021783,1,0,0:0:0:0:
121,75,1021890,2,0,P|87:109|22:157,1,120,10|0,0:0|0:0,0:0:0:0:
29,152,1022315,6,0,P|104:167|161:178,1,120,8|0,0:0|0:0,0:0:0:0:
332,260,1022741,2,0,P|273:248|214:236,1,120,8|0,0:0|0:0,0:0:0:0:
68,288,1023167,1,8,0:0:0:0:
214,236,1023379,1,4,0:0:0:0:
68,288,1023592,1,0,0:0:0:0:
68,288,1023805,1,0,0:0:0:0:
68,288,1023911,1,0,0:0:0:0:
68,288,1024018,6,0,L|64:204,1,80,6|0,0:0|0:0,0:0:0:0:
180,236,1024443,2,0,L|188:152,1,80,10|0,0:0|0:0,0:0:0:0:
288,260,1024869,2,0,L|280:339,1,80,0|2,0:0|0:0,0:0:0:0:
400,296,1025294,2,0,L|388:172,1,120,10|0,0:0|0:0,0:0:0:0:
388,176,1025720,6,0,P|420:208|460:232,1,80,2|0,0:0|0:0,0:0:0:0:
292,172,1026145,2,0,P|256:164|200:160,1,80,10|0,0:0|0:0,0:0:0:0:
30,247,1026571,2,0,P|102:247|162:223,1,120,2|2,0:0|0:0,0:0:0:0:
147,232,1026997,1,8,0:0:0:0:
128,112,1027209,1,2,0:0:0:0:
128,112,1027316,1,0,0:0:0:0:
128,112,1027422,6,0,L|116:24,1,80,2|0,0:0|0:0,0:0:0:0:
224,136,1027848,2,0,P|288:168|360:192,1,120,10|0,0:0|0:0,0:0:0:0:
333,184,1028273,2,0,P|284:192|236:200,1,80,0|2,0:0|0:0,0:0:0:0:
400,112,1028699,2,0,P|439:105|479:99,1,80,10|0,0:0|0:0,0:0:0:0:
424,280,1029124,6,0,P|364:276|268:268,1,120,2|0,0:0|0:0,0:0:0:0:
304,271,1029550,1,8,0:0:0:0:
172,304,1029763,2,0,L|112:316,2,40,2|0|0,0:0|0:0|0:0,0:0:0:0:
304,271,1030188,1,10,0:0:0:0:
216,180,1030401,1,10,0:0:0:0:
348,147,1030614,1,0,0:0:0:0:
348,147,1030720,1,0,0:0:0:0:
348,147,1030827,6,0,P|400:152|440:156,1,80,0|2,0:0|0:0,0:0:0:0:
288,68,1031252,2,0,P|248:71|208:75,1,80,8|2,0:0|0:0,0:0:0:0:
208,75,1031571,1,0,0:0:0:0:
208,75,1031678,1,0,0:0:0:0:
100,48,1031891,1,0,0:0:0:0:
68,148,1032103,2,0,P|48:212|20:276,1,120,10|0,0:0|0:0,0:0:0:0:
27,260,1032529,6,0,L|109:245,1,80,2|0,0:0|0:0,0:0:0:0:
183,342,1032954,1,8,0:0:0:0:
296,311,1033167,1,2,0:0:0:0:
296,311,1033274,1,0,0:0:0:0:
296,311,1033380,2,0,P|310:263|320:213,1,80,0|0,0:0|0:0,0:0:0:0:
277,86,1033806,2,0,P|263:134|253:184,1,80,10|0,0:0|0:0,0:0:0:0:
394,286,1034231,6,0,P|413:235|418:139,1,120,2|0,0:0|0:0,0:0:0:0:
420,170,1034657,2,0,L|505:160,1,80,8|2,0:0|0:0,0:0:0:0:
316,233,1035082,2,0,L|236:242,1,80,0|2,0:0|0:0,0:0:0:0:
58,179,1035508,2,0,L|156:185,1,80,10|0,0:0|0:0,0:0:0:0:
210,326,1035933,6,0,P|161:335|79:350,1,120,2|0,0:0|0:0,0:0:0:0:
91,347,1036359,1,10,0:0:0:0:
140,234,1036572,1,0,0:0:0:0:
140,234,1036678,1,0,0:0:0:0:
140,234,1036785,2,0,P|144:199|146:152,1,80,0|6,0:0|0:0,0:0:0:0:
123,67,1037210,2,0,L|112:35,5,26.6666666666667,0|0|0|0|0|0,0:0|0:0|0:0|0:0|0:0|0:0,0:0:0:0:
152,68,1037636,6,0,P|180:60|241:57,1,80,4|0,0:0|0:0,0:0:0:0:
388,212,1038061,2,0,P|348:210|309:200,1,80,8|0,0:0|0:0,0:0:0:0:
352,24,1038487,2,0,L|364:112,1,80,2|0,0:0|0:0,0:0:0:0:
188,268,1038912,2,0,L|207:123,1,120,8|0,0:0|0:0,0:0:0:0:
204,149,1039338,6,0,P|165:158|125:160,1,80,2|0,0:0|0:0,0:0:0:0:
192,8,1039763,2,0,P|231:9|270:19,1,80,8|0,0:0|0:0,0:0:0:0:
452,116,1040189,2,0,L|320:128,1,120,2|0,0:0|0:0,0:0:0:0:
332,126,1040615,1,8,0:0:0:0:
428,296,1040827,5,0,0:0:0:0:
428,296,1040934,1,0,0:0:0:0:
428,296,1041040,2,0,L|440:208,1,80,2|0,0:0|0:0,0:0:0:0:
240,240,1041466,2,0,L|324:232,1,80,8|0,0:0|0:0,0:0:0:0:
224,80,1041891,2,0,L|92:92,1,120,2|0,0:0|0:0,0:0:0:0:
104,90,1042317,1,8,0:0:0:0:
320,140,1042530,1,0,0:0:0:0:
320,140,1042636,1,0,0:0:0:0:
320,140,1042742,6,0,B|404:152|376:196|468:200,1,160,2|8,0:0|0:0,0:0:0:0:
328,284,1043381,1,0,0:0:0:0:
324,258,1043487,1,0,0:0:0:0:
320,232,1043594,1,2,0:0:0:0:
456,108,1043806,1,2,0:0:0:0:
448,340,1044019,1,8,0:0:0:0:
320,140,1044232,1,2,0:0:0:0:
320,140,1044338,1,0,0:0:0:0:
320,140,1044445,6,0,L|328:44,1,80,2|0,0:0|0:0,0:0:0:0:
408,200,1044870,1,8,0:0:0:0:
232,24,1045082,1,0,0:0:0:0:
228,50,1045189,1,0,0:0:0:0:
225,76,1045296,2,0,L|212:204,1,120,2|0,0:0|0:0,0:0:0:0:
124,168,1045721,2,0,P|82:172|36:184,1,80,8|0,0:0|0:0,0:0:0:0:
45,181,1046040,1,0,0:0:0:0:
45,181,1046147,6,0,L|34:75,1,80,2|0,0:0|0:0,0:0:0:0:
212,195,1046572,2,0,L|222:300,1,80,8|0,0:0|0:0,0:0:0:0:
412,112,1046998,2,0,P|348:108|272:124,1,120,2|0,0:0|0:0,0:0:0:0:
120,48,1047424,2,0,P|173:56|227:52,1,80,8|0,0:0|0:0,0:0:0:0:
199,56,1047743,1,0,0:0:0:0:
199,56,1047849,6,0,P|192:112|200:184,1,120,2|0,0:0|0:0,0:0:0:0:
260,248,1048275,2,0,L|348:240,1,80,8|0,0:0|0:0,0:0:0:0:
339,240,1048594,1,0,0:0:0:0:
339,240,1048700,1,2,0:0:0:0:
197,175,1048913,5,2,0:0:0:0:
312,344,1049126,1,8,0:0:0:0:
384,152,1049339,1,2,0:0:0:0:
384,152,1049445,1,0,0:0:0:0:
384,152,1049551,6,0,P|384:120|368:24,1,120,4|0,0:0|0:0,0:0:0:0:
208,124,1049977,2,0,P|208:156|224:252,1,120,4|0,0:0|0:0,0:0:0:0:
408,300,1050402,6,0,L|320:292,1,80,2|0,0:0|0:0,0:0:0:0:
96,368,1050828,1,2,0:0:0:0:
125,365,1050934,1,0,0:0:0:0:
155,362,1051040,1,2,0:0:0:0:
185,359,1051147,1,0,0:0:0:0:
215,357,1051254,6,0,P|216:340|208:264,1,80,4|0,0:0|0:0,0:0:0:0:
112,168,1051679,2,0,L|28:160,1,80,8|0,0:0|0:0,0:0:0:0:
196,64,1052105,2,0,P|240:76|344:76,1,120,2|0,0:0|0:0,0:0:0:0:
476,36,1052530,2,0,P|424:40|376:56,1,80,8|0,0:0|0:0,0:0:0:0:
397,47,1052849,1,0,0:0:0:0:
397,47,1052956,6,0,L|408:136,1,80,2|0,0:0|0:0,0:0:0:0:
260,240,1053381,2,0,L|269:160,1,80,8|0,0:0|0:0,0:0:0:0:
480,224,1053807,2,0,P|440:236|396:236,1,80,2|0,0:0|0:0,0:0:0:0:
269,160,1054233,1,8,0:0:0:0:
80,312,1054445,5,0,0:0:0:0:
80,312,1054552,1,0,0:0:0:0:
80,312,1054658,2,0,P|156:328|232:260,1,160,2|8,0:0|0:0,0:0:0:0:
269,160,1055296,1,0,0:0:0:0:
176,48,1055509,2,0,L|96:36,1,80,2|0,0:0|0:0,0:0:0:0:
269,160,1055935,6,0,L|349:148,1,53.3333333333333,8|0,0:0|0:0,0:0:0:0:
432,176,1056219,1,2,0:0:0:0:
312,248,1056360,2,0,P|368:272|416:352,1,120,2|0,0:0|0:0,0:0:0:0:
336,384,1056786,6,0,L|236:376,1,80,8|0,0:0|0:0,0:0:0:0:
40,264,1057211,2,0,L|140:256,1,80,2|0,0:0|0:0,0:0:0:0:
269,160,1057637,1,8,0:0:0:0:
92,40,1057850,1,0,0:0:0:0:
92,40,1057956,1,0,0:0:0:0:
92,40,1058063,6,0,L|108:176,1,120,2|0,0:0|0:0,0:0:0:0:
128,336,1058488,2,0,L|119:257,1,80,8|0,0:0|0:0,0:0:0:0:
192,104,1058914,1,2,0:0:0:0:
20,220,1059127,1,2,0:0:0:0:
216,300,1059339,2,0,P|256:298|296:288,1,80,8|0,0:0|0:0,0:0:0:0:
294,288,1059658,1,0,0:0:0:0:
294,288,1059765,6,0,L|304:376,1,80,2|0,0:0|0:0,0:0:0:0:
443,215,1060190,2,0,L|452:136,1,80,8|0,0:0|0:0,0:0:0:0:
200,68,1060616,2,0,P|248:89|337:80,1,120,2|0,0:0|0:0,0:0:0:0:
403,52,1061042,1,8,0:0:0:0:
112,96,1061254,1,0,0:0:0:0:
90,115,1061361,1,0,0:0:0:0:
68,134,1061467,6,0,P|84:216|140:280,1,160,4|8,0:0|0:0,0:0:0:0:
296,212,1062105,1,0,0:0:0:0:
296,212,1062212,1,0,0:0:0:0:
296,212,1062318,2,0,L|192:200,1,80,2|0,0:0|0:0,0:0:0:0:
112,364,1062744,2,0,P|152:364|200:340,1,80,8|0,0:0|0:0,0:0:0:0:
188,348,1063063,1,0,0:0:0:0:
188,348,1063169,6,0,L|292:360,1,80,2|0,0:0|0:0,0:0:0:0:
375,221,1063595,2,0,L|271:209,1,80,8|0,0:0|0:0,0:0:0:0:
108,120,1064020,2,0,P|164:120|228:96,1,120,2|0,0:0|0:0,0:0:0:0:
296,40,1064446,6,0,L|292:-4,5,26.6666666666667,8|0|0|8|0|0,0:0|0:0|0:0|0:0|0:0|0:0,0:0:0:0:
324,60,1064872,6,0,P|368:64|416:84,1,80,2|0,0:0|0:0,0:0:0:0:
232,208,1065297,2,0,P|272:172|352:148,1,120,8|0,0:0|0:0,0:0:0:0:
428,164,1065723,1,2,0:0:0:0:
168,128,1065936,1,0,0:0:0:0:
336,340,1066148,2,0,L|324:252,1,80,8|0,0:0|0:0,0:0:0:0:
325,260,1066467,1,0,0:0:0:0:
325,260,1066574,6,0,P|376:272|424:272,1,80,2|0,0:0|0:0,0:0:0:0:
168,128,1066999,2,0,P|128:130|89:140,1,80,8|0,0:0|0:0,0:0:0:0:
276,0,1067425,2,0,P|288:56|280:136,1,120,2|0,0:0|0:0,0:0:0:0:
248,224,1067851,1,8,0:0:0:0:
10,152,1068063,1,0,0:0:0:0:
10,152,1068170,1,0,0:0:0:0:
10,152,1068276,6,0,P|48:142|88:139,1,80,2|0,0:0|0:0,0:0:0:0:
84,356,1068702,2,0,P|72:296|68:220,1,120,8|0,0:0|0:0,0:0:0:0:
162,72,1069127,2,0,P|126:54|88:44,1,80,2|0,0:0|0:0,0:0:0:0:
176,180,1069553,6,0,L|252:172,1,53.3333333333333,8|0,0:0|0:0,0:0:0:0:
320,208,1069836,1,8,0:0:0:0:
108,264,1069978,6,0,P|164:284|248:268,1,120,2|0,0:0|0:0,0:0:0:0:
320,208,1070404,2,0,L|434:196,1,80,8|0,0:0|0:0,0:0:0:0:
241,64,1070829,2,0,L|161:72,1,80,2|0,0:0|0:0,0:0:0:0:
320,208,1071255,1,8,0:0:0:0:
160,340,1071468,1,0,0:0:0:0:
160,340,1071574,1,0,0:0:0:0:
160,340,1071681,6,0,P|220:348|300:316,1,120,2|0,0:0|0:0,0:0:0:0:
436,368,1072106,2,0,P|403:369|353:386,1,80,8|0,0:0|0:0,0:0:0:0:
212,244,1072532,2,0,L|220:164,1,80,2|0,0:0|0:0,0:0:0:0:
404,92,1072957,2,0,L|396:172,1,80,8|0,0:0|0:0,0:0:0:0:
396,171,1073276,1,0,0:0:0:0:
396,171,1073383,6,0,L|484:160,1,80,2|0,0:0|0:0,0:0:0:0:
364,280,1073808,2,0,L|451:268,1,80,8|0,0:0|0:0,0:0:0:0:
268,96,1074234,2,0,L|396:78,1,120,2|0,0:0|0:0,0:0:0:0:
300,192,1074660,2,0,L|212:203,1,80,8|0,0:0|0:0,0:0:0:0:
220,202,1074979,1,0,0:0:0:0:
220,202,1075085,6,0,P|228:280|240:352,1,120,2|0,0:0|0:0,0:0:0:0:
316,368,1075511,2,0,L|400:360,1,80,8|0,0:0|0:0,0:0:0:0:
240,108,1075936,6,0,B|140:92|160:180|52:148,1,191.999994140625,2|8,0:0|0:0,0:0:0:0:
328,28,1076575,1,0,0:0:0:0:
328,28,1076681,1,0,0:0:0:0:
328,28,1076787,6,0,P|356:92|328:196,1,167.999994873047,2|0,0:0|0:0,0:0:0:0:
240,108,1077213,2,0,L|128:120,1,111.999996582031,8|0,0:0|0:0,0:0:0:0:
52,360,1077638,6,0,P|124:380|224:296,1,192,2|0,0:0|0:0,0:0:0:0:
256,232,1078064,5,8,0:0:0:0:
252,200,1078170,1,2,0:0:0:0:
399,347,1078383,1,2,0:0:0:0:
390,377,1078490,5,4,1:0:0:0:
325,331,1078702,5,4,0:0:0:0:
325,331,1078809,1,0,1:0:0:0:
250,320,1079022,5,4,0:1:0:0:
250,320,1079129,1,0,1:0:0:0:
175,309,1079340,5,4,0:0:0:0:
175,309,1079447,1,0,1:0:0:0:
100,298,1079659,5,4,0:1:0:0:
100,298,1079766,2,0,L|94:265,1,27.9999991455078,0|0,1:0|0:0,0:0:0:0:
25,287,1079978,5,2,1:0:0:0:
25,287,1080085,1,0,1:0:0:0:
25,287,1080192,6,0,P|18:233|16:212,1,55.9999982910157,4|0,1:0|0:0,0:0:0:0:
6,160,1080617,1,4,1:0:0:0:
15,88,1080830,1,2,0:0:0:0:
88,103,1081043,1,0,1:0:0:0:
79,179,1081256,2,0,L|86:208,3,18.6666660970052,0|2|0|0,1:0|0:0|0:0|1:0,0:0:0:0:
141,239,1081681,1,2,0:0:0:0:
270,304,1081894,6,0,L|336:320,2,55.9999982910157,4|0|0,0:0|1:0|1:0,0:0:0:0:
216,257,1082532,1,2,0:0:0:0:
177,316,1082745,2,0,L|109:328,1,55.9999982910157,0|0,1:0|1:0,0:0:0:0:
102,316,1083029,2,0,L|75:330,2,18.6666660970052,2|0|0,0:0|0:0|1:0,0:0:0:0:
137,249,1083384,1,2,0:0:0:0:
254,191,1083596,5,0,1:0:0:0:
297,62,1083916,1,4,0:0:0:0:
297,62,1084022,1,0,1:0:0:0:
241,114,1084235,1,2,0:0:0:0:
195,57,1084447,2,0,L|135:68,1,55.9999982910157,0|2,1:0|0:0,0:0:0:0:
97,127,1084873,2,0,L|37:138,1,55.9999982910157,0|4,1:0|0:0,0:0:0:0:
258,191,1085299,5,0,1:0:0:0:
215,62,1085619,1,4,0:0:0:0:
215,62,1085725,1,0,1:0:0:0:
271,114,1085938,1,2,0:0:0:0:
317,57,1086150,2,0,L|377:68,1,55.9999982910157,0|2,1:0|1:0,0:0:0:0:
394,97,1086469,1,0,1:0:0:0:
415,127,1086576,2,0,L|475:138,1,55.9999982910157,0|4,1:0|0:0,0:0:0:0:
370,203,1087001,5,0,1:0:0:0:
326,261,1087214,2,0,L|332:329,2,55.9999982910157,2|0|0,0:0|1:0|1:0,0:0:0:0:
262,225,1087852,1,2,1:2:0:0:
206,273,1088065,2,0,L|207:291,3,18.6666660970052,0|2|0|0,1:0|0:0|0:0|1:0,0:0:0:0:
167,353,1088490,1,2,0:0:0:0:
62,375,1088703,6,0,L|5:385,2,55.9999982910157,0|2|0,1:0|0:0|1:0,0:0:0:0:
96,310,1089341,1,0,1:0:0:0:
49,253,1089554,1,4,1:2:0:0:
170,147,1089874,1,4,0:0:0:0:
170,147,1089980,2,0,L|232:161,1,55.9999982910157,0|4,1:0|0:0,0:0:0:0:
271,215,1090405,6,0,P|335:211|398:204,1,111.999996582031,0|0,1:0|1:0,0:0:0:0:
439,159,1091044,1,0,0:0:0:0:
475,221,1091256,2,0,P|477:261|480:295,1,55.9999982910157,0|0,1:0|1:0,0:0:0:0:
447,297,1091576,1,2,0:1:0:0:
429,328,1091682,2,0,P|393:309|362:295,1,55.9999982910157,0|4,1:0|1:2,0:0:0:0:
281,343,1092108,5,0,1:0:0:0:
223,299,1092320,1,0,0:0:0:0:
223,299,1092427,1,0,0:0:0:0:
223,299,1092533,1,0,1:0:0:0:
278,252,1092746,1,0,0:0:0:0:
275,215,1092852,1,0,1:0:0:0:
272,178,1092959,1,0,1:0:0:0:
218,128,1093171,1,0,1:0:0:0:
265,72,1093384,1,0,1:0:0:0:
171,14,1093597,5,4,0:0:0:0:
126,19,1093703,1,0,1:0:0:0:
81,24,1093810,1,4,1:0:0:0:
0,131,1094129,1,4,0:0:0:0:
0,131,1094235,1,8,1:2:0:0:
76,113,1094448,1,2,0:0:0:0:
93,189,1094661,1,0,1:0:0:0:
9,213,1094874,1,0,1:0:0:0:
11,220,1094945,1,2,0:0:0:0:
13,227,1095016,1,0,0:0:0:0:
15,234,1095087,1,8,1:2:0:0:
2,308,1095299,1,0,1:0:0:0:
186,369,1095512,6,0,L|256:353,1,55.9999982910157,4|0,1:2|0:0,0:0:0:0:
257,323,1095831,1,0,0:0:0:0:
289,345,1095938,2,0,L|366:353,1,55.9999982910157,8|0,1:2|1:0,0:0:0:0:
404,308,1096363,1,0,1:0:0:0:
471,334,1096576,1,0,1:0:0:0:
469,341,1096647,1,2,0:0:0:0:
467,348,1096718,1,0,0:0:0:0:
465,355,1096789,1,8,1:2:0:0:
467,258,1097002,1,2,1:0:0:0:
413,208,1097214,6,0,P|419:168|426:103,1,83.9999974365235,4|2,1:0|1:0,0:0:0:0:
397,99,1097640,1,8,1:0:0:0:
338,142,1097853,1,2,1:0:0:0:
338,142,1097959,1,8,1:0:0:0:
276,103,1098172,1,8,1:0:0:0:
276,103,1098278,1,2,1:0:0:0:
217,146,1098491,2,0,L|141:135,1,55.9999982910157,10|0,1:0|1:0,0:0:0:0:
13,190,1098917,5,4,1:0:0:0:
71,253,1099129,1,0,1:0:0:0:
71,253,1099236,1,2,1:0:0:0:
71,253,1099342,1,10,1:0:0:0:
121,200,1099555,1,0,0:0:0:0:
140,204,1099661,1,10,1:0:0:0:
159,208,1099768,1,2,1:0:0:0:
178,212,1099874,1,10,1:0:0:0:
196,216,1099980,1,0,0:0:0:0:
233,283,1100193,1,10,1:0:0:0:
302,267,1100406,1,2,1:0:0:0:
477,367,1100619,6,0,L|383:350,1,71.9999978027344,4|2,1:0|0:0,0:0:0:0:
280,195,1101044,2,0,L|374:178,1,71.9999978027344,8|0,1:2|1:0,0:0:0:0:
451,244,1101470,1,0,1:0:0:0:
495,137,1101683,1,0,1:0:0:0:
490,128,1101754,1,2,0:0:0:0:
485,119,1101825,1,0,0:0:0:0:
480,110,1101896,1,8,1:2:0:0:
369,67,1102108,1,2,0:0:0:0:
343,184,1102321,6,0,P|344:243|350:280,2,71.9999978027344,0|2|8,1:0|0:0|1:2,0:0:0:0:
161,212,1102959,1,0,1:0:0:0:
214,157,1103172,2,0,P|214:74|220:4,1,143.999995605469,0|8,1:0|1:2,0:0:0:0:
52,146,1103811,5,0,1:0:0:0:
52,146,1103917,1,0,1:0:0:0:
52,146,1104023,2,0,P|102:161|138:257,1,143.999995605469,4|0,1:0|1:0,0:0:0:0:
336,308,1104662,5,0,1:0:0:0:
336,308,1104768,1,0,1:0:0:0:
336,308,1104874,2,0,L|254:304,1,71.9999978027344,4|0,1:2|0:0,0:0:0:0:
219,315,1105194,1,0,1:0:0:0:
213,274,1105300,2,0,L|217:192,1,71.9999978027344,8|2,1:0|1:0,0:0:0:0:
258,6,1105726,5,4,1:0:0:0:
273,152,1106045,5,8,1:0:0:0:
288,298,1106364,6,0,L|408:284,1,107.999996704102,10|0,1:0|1:0,0:0:0:0:
427,300,1106789,1,8,1:0:0:0:
463,307,1106896,1,2,1:0:0:0:
478,325,1107002,5,2,1:0:0:0:
474,289,1107109,1,0,1:0:0:0:
470,253,1107215,1,8,1:2:0:0:
465,217,1107321,1,8,1:2:0:0:
459,177,1107428,5,4,1:0:0:0:
321,272,1107641,1,0,0:0:0:0:
186,102,1107853,1,8,0:0:0:0:
318,167,1108066,1,2,0:0:0:0:
167,262,1108279,2,0,L|40:257,1,95.9999970703126,2|0,0:0|0:0,0:0:0:0:
51,274,1108598,1,0,0:0:0:0:
51,274,1108705,1,8,0:0:0:0:
217,164,1108917,1,0,0:0:0:0:
217,164,1109024,1,0,0:0:0:0:
217,164,1109130,6,0,L|284:170,1,47.9999985351563,2|0,0:0|0:0,0:0:0:0:
317,272,1109343,2,0,L|313:343,1,47.9999985351563,2|0,0:0|0:0,0:0:0:0:
501,213,1109556,2,0,L|436:210,1,47.9999985351563,8|0,0:0|0:0,0:0:0:0:
387,319,1109768,2,0,L|383:390,1,47.9999985351563,2|0,0:0|0:0,0:0:0:0:
373,207,1109981,1,2,0:0:0:0:
345,155,1110088,1,0,0:0:0:0:
356,98,1110194,1,2,0:0:0:0:
404,67,1110300,1,0,0:0:0:0:
460,81,1110407,1,8,0:0:0:0:
279,43,1110620,1,2,0:0:0:0:
279,43,1110726,1,0,0:0:0:0:
279,43,1110832,6,0,L|150:54,1,95.9999970703126,2|0,0:0|0:0,0:0:0:0:
96,301,1111258,2,0,L|229:287,1,95.9999970703126,8|0,0:0|0:0,0:0:0:0:
240,323,1111577,1,0,0:0:0:0:
240,323,1111683,2,0,P|241:269|287:198,1,95.9999970703126,2|0,0:0|0:0,0:0:0:0:
58,82,1112109,6,0,L|76:146,1,47.9999985351563,8|0,0:0|0:0,0:0:0:0:
9,258,1112322,2,0,L|27:322,1,47.9999985351563,2|0,0:0|0:0,0:0:0:0:
158,170,1112535,6,0,L|216:147,1,47.9999985351563,2|0,0:0|0:0,0:0:0:0:
178,335,1112747,2,0,L|236:312,1,47.9999985351563,2|0,0:0|0:0,0:0:0:0:
334,176,1112960,2,0,L|392:153,1,47.9999985351563,8|0,0:0|0:0,0:0:0:0:
354,341,1113172,2,0,L|412:318,1,47.9999985351563,2|0,0:0|0:0,0:0:0:0:
488,120,1113386,1,2,0:0:0:0:
288,277,1113598,1,0,0:0:0:0:
288,277,1113705,1,0,0:0:0:0:
288,277,1113811,1,8,0:0:0:0:
292,102,1114024,1,2,0:0:0:0:
104,285,1114237,5,4,1:0:0:0:
119,110,1114450,1,0,0:0:0:0:
119,110,1114556,1,0,0:0:0:0:
119,110,1114662,1,8,0:0:0:0:
292,102,1114875,1,2,0:0:0:0:
137,20,1115088,2,0,L|18:35,1,95.9999970703126,2|0,0:0|0:0,0:0:0:0:
18,67,1115407,1,0,0:0:0:0:
18,67,1115513,1,8,0:0:0:0:
247,30,1115726,1,0,0:0:0:0:
126,213,1115939,6,0,L|115:281,1,47.9999985351563,2|0,0:0|0:0,0:0:0:0:
219,153,1116152,1,0,0:0:0:0:
219,153,1116258,1,0,0:0:0:0:
219,153,1116365,2,0,L|281:160,1,47.9999985351563,8|0,0:0|0:0,0:0:0:0:
413,51,1116577,2,0,L|402:119,1,47.9999985351563,2|0,0:0|0:0,0:0:0:0:
413,208,1116790,1,2,0:0:0:0:
363,178,1116897,1,0,0:0:0:0:
313,207,1117003,1,2,0:0:0:0:
299,262,1117109,1,0,0:0:0:0:
332,309,1117216,1,8,0:0:0:0:
385,78,1117429,1,2,0:0:0:0:
385,78,1117535,1,0,0:0:0:0:
385,78,1117641,6,0,P|327:83|279:79,1,95.9999970703126,2|0,0:0|0:0,0:0:0:0:
40,234,1118067,2,0,P|104:227|148:233,1,95.9999970703126,8|0,0:0|0:0,0:0:0:0:
223,315,1118386,1,0,0:0:0:0:
223,315,1118492,2,0,P|210:246|218:194,1,95.9999970703126,2|0,0:0|0:0,0:0:0:0:
462,157,1118918,6,0,L|444:227,1,47.9999985351563,8|0,0:0|0:0,0:0:0:0:
406,351,1119131,2,0,L|366:296,1,47.9999985351563,2|0,0:0|0:0,0:0:0:0:
269,155,1119344,6,0,L|342:140,1,47.9999985351563,2|0,0:0|0:0,0:0:0:0:
121,323,1119556,2,0,L|48:338,1,47.9999985351563,2|0,0:0|0:0,0:0:0:0:
133,71,1119769,2,0,L|142:118,1,47.9999985351563,8|0,0:0|0:0,0:0:0:0:
343,264,1119982,2,0,L|352:311,1,47.9999985351563,2|0,0:0|0:0,0:0:0:0:
169,240,1120195,2,0,P|141:250|91:253,1,47.9999985351563,2|0,0:0|0:0,0:0:0:0:
303,82,1120407,6,0,B|320:155|260:124|285:209,1,116.000003540039,4|0,0:0|0:0,0:0:0:0:
343,264,1120620,6,0,L|354:223,1,30.0000011444092,2|2,0:0|0:0,0:0:0:0:
387,103,1120833,5,2,0:0:0:0:
232,318,1121046,6,0,L|117:324,1,95.9999970703126,4|0,1:0|0:0,0:0:0:0:
198,41,1121471,1,8,0:0:0:0:
156,223,1121684,1,2,0:0:0:0:
256,172,1121897,1,2,0:0:0:0:
25,212,1122110,1,0,0:0:0:0:
25,212,1122216,1,0,0:0:0:0:
25,212,1122322,1,8,0:0:0:0:
106,33,1122535,1,2,0:0:0:0:
106,33,1122642,1,0,0:0:0:0:
106,33,1122748,6,0,P|92:87|93:139,1,95.9999970703126,2|0,0:0|0:0,0:0:0:0:
414,144,1123174,2,0,P|425:191|423:239,1,95.9999970703126,8|0,0:0|0:0,0:0:0:0:
300,53,1123599,1,2,0:0:0:0:
247,77,1123706,1,0,0:0:0:0:
223,129,1123812,1,2,0:0:0:0:
240,183,1123918,1,0,0:0:0:0:
290,211,1124025,1,8,0:0:0:0:
122,157,1124238,1,2,0:0:0:0:
122,157,1124344,1,0,0:0:0:0:
122,157,1124450,6,0,L|46:179,1,47.9999985351563,2|0,0:0|0:0,0:0:0:0:
157,58,1124663,2,0,L|224:66,1,47.9999985351563,2|0,0:0|0:0,0:0:0:0:
231,225,1124876,6,0,L|307:247,1,47.9999985351563,8|0,0:0|0:0,0:0:0:0:
427,175,1125089,2,0,L|360:183,1,47.9999985351563,2|0,0:0|0:0,0:0:0:0:
336,80,1125301,6,0,L|444:94,1,95.9999970703126,2|0,0:0|0:0,0:0:0:0:
496,142,1125621,1,0,0:0:0:0:
496,142,1125727,2,0,L|510:79,1,47.9999985351563,8|0,0:0|0:0,0:0:0:0:
464,247,1125940,2,0,L|448:306,1,47.9999985351563,2|0,0:0|0:0,0:0:0:0:
369,179,1126153,6,0,P|336:169|306:168,1,47.9999985351563,2|0,0:0|0:0,0:0:0:0:
177,45,1126365,2,0,P|135:71|116:98,1,47.9999985351563,2|0,0:0|0:0,0:0:0:0:
113,281,1126578,6,0,P|124:313|141:338,1,47.9999985351563,8|0,0:0|0:0,0:0:0:0:
297,40,1126790,2,0,P|272:82|268:115,1,47.9999985351563,2|0,0:0|0:0,0:0:0:0:
140,139,1127004,6,0,L|202:144,1,47.9999985351563,2|0,0:0|0:0,0:0:0:0:
364,284,1127216,1,2,0:0:0:0:
382,232,1127323,1,0,0:0:0:0:
357,182,1127429,1,8,0:0:0:0:
313,205,1127536,1,0,0:0:0:0:
267,183,1127642,1,2,0:0:0:0:
218,218,1127748,1,0,0:0:0:0:
160,203,1127855,6,0,P|79:216|0:200,1,111.999996582031,4|0,1:0|0:0,0:0:0:0:
19,128,1128174,1,0,0:0:0:0:
95,80,1128280,2,0,P|150:78|205:90,1,111.999996582031,8|0,0:0|0:0,0:0:0:0:
295,75,1128600,1,0,0:0:0:0:
271,161,1128706,6,0,L|280:301,1,111.999996582031,2|0,0:0|0:0,0:0:0:0:
229,348,1129025,1,0,0:0:0:0:
165,284,1129131,1,8,0:0:0:0:
391,207,1129344,1,2,0:0:0:0:
391,207,1129451,1,0,0:0:0:0:
391,207,1129557,6,0,L|511:223,1,111.999996582031,2|0,0:0|0:0,0:0:0:0:
508,131,1129876,1,0,0:0:0:0:
418,118,1129983,2,0,L|296:134,1,111.999996582031,8|0,0:0|0:0,0:0:0:0:
158,20,1130408,1,2,0:0:0:0:
127,71,1130515,1,0,0:0:0:0:
138,128,1130621,1,2,0:0:0:0:
185,162,1130727,1,0,0:0:0:0:
244,158,1130834,1,8,0:0:0:0:
402,96,1131047,5,2,0:0:0:0:
402,96,1131153,1,0,0:0:0:0:
402,96,1131259,1,2,0:0:0:0:
93,290,1131472,2,0,L|221:303,1,111.999996582031,2|8,0:0|0:0,0:0:0:0:
277,351,1131791,1,0,0:0:0:0:
277,351,1131898,2,0,L|298:268,1,55.9999982910157,2|0,0:0|0:0,0:0:0:0:
321,59,1132110,5,2,0:0:0:0:
93,290,1132323,1,0,0:0:0:0:
61,150,1132536,1,8,0:0:0:0:
71,156,1132642,1,0,0:0:0:0:
81,162,1132749,1,2,0:0:0:0:
91,168,1132855,1,0,0:0:0:0:
101,174,1132962,5,2,0:0:0:0:
321,59,1133174,1,2,0:0:0:0:
256,181,1133387,5,8,0:0:0:0:
214,21,1133600,1,2,0:0:0:0:
214,21,1133813,6,0,L|240:110,1,55.9999982910157,2|0,0:0|0:0,0:0:0:0:
364,148,1134025,2,0,L|390:237,1,55.9999982910157,2|0,0:0|0:0,0:0:0:0:
365,370,1134238,2,0,L|349:316,1,55.9999982910157,8|0,0:0|0:0,0:0:0:0:
278,197,1134451,1,2,0:0:0:0:
245,211,1134557,1,0,0:0:0:0:
214,223,1134664,5,2,1:0:0:0:
351,51,1134877,1,0,0:0:0:0:
397,36,1134983,1,0,0:0:0:0:
443,20,1135089,1,2,1:0:0:0:
466,197,1135302,1,2,0:0:0:0:
438,157,1135409,1,0,0:0:0:0:
392,140,1135515,1,2,0:0:0:0:
341,155,1135621,1,0,0:0:0:0:
314,198,1135728,1,2,0:0:0:0:
320,251,1135834,1,0,0:0:0:0:
355,286,1135940,1,2,1:0:0:0:
353,77,1136153,1,0,0:0:0:0:
210,202,1136366,6,0,L|123:210,1,80,2|0,1:0|0:0,0:0:0:0:
71,120,1136792,1,2,1:0:0:0:
50,296,1137004,1,2,0:0:0:0:
56,294,1137075,1,0,0:0:0:0:
62,292,1137146,1,0,0:0:0:0:
68,290,1137217,6,0,L|163:306,1,80,2|0,0:0|0:0,0:0:0:0:
228,293,1137536,1,0,0:0:0:0:
228,293,1137643,2,0,L|239:385,1,80,2|0,1:0|0:0,0:0:0:0:
156,205,1138068,5,2,1:0:0:0:
295,97,1138281,1,0,0:0:0:0:
298,129,1138387,1,0,0:0:0:0:
301,161,1138494,1,2,1:0:0:0:
335,319,1138707,2,0,L|340:355,2,26.6666666666667
374,250,1138919,6,0,L|471:256,1,80,2|0,0:0|0:0,0:0:0:0:
233,197,1139345,2,0,L|131:205,1,80,2|0,0:0|0:0,0:0:0:0:
153,203,1139664,1,0,0:0:0:0:
153,203,1139771,1,2,1:0:0:0:
51,121,1139983,5,0,0:0:0:0:
185,92,1140196,1,2,1:0:0:0:
349,276,1140409,1,2,0:0:0:0:
407,92,1140622,1,2,0:0:0:0:
323,161,1140834,1,0,0:0:0:0:
328,167,1140905,1,0,0:0:0:0:
333,173,1140975,1,0,0:0:0:0:
338,179,1141047,2,0,L|435:173,1,80,2|0,1:0|0:0,0:0:0:0:
225,42,1141473,5,2,1:0:0:0:
127,240,1141686,1,0,0:0:0:0:
140,208,1141792,1,0,0:0:0:0:
153,176,1141898,1,2,1:0:0:0:
32,34,1142111,1,0,0:0:0:0:
43,80,1142218,1,0,0:0:0:0:
54,126,1142324,1,2,0:0:0:0:
267,80,1142537,1,0,0:0:0:0:
267,80,1142643,1,0,0:0:0:0:
267,80,1142749,2,0,P|311:85|368:84,1,80,2|0,1:0|0:0,0:0:0:0:
166,22,1143175,5,2,1:0:0:0:
195,155,1143388,1,0,0:0:0:0:
43,338,1143601,1,2,1:0:0:0:
107,195,1143813,1,0,0:0:0:0:
112,203,1143884,1,0,0:0:0:0:
117,211,1143955,1,0,0:0:0:0:
122,219,1144026,2,0,L|190:209,1,40,2|0,0:0|0:0,0:0:0:0:
54,133,1144239,2,0,L|-20:147,1,40
3,236,1144452,1,2,1:0:0:0:
156,115,1144664,1,0,0:0:0:0:
260,339,1144877,5,2,1:0:0:0:
339,139,1145090,1,0,0:0:0:0:
331,150,1145161,1,0,0:0:0:0:
323,161,1145232,1,0,0:0:0:0:
315,172,1145303,2,0,L|262:137,1,40,2|0,1:0|0:0,0:0:0:0:
198,95,1145516,2,0,L|165:131,2,26.6666666666667
229,215,1145728,2,0,L|276:247,1,40
394,283,1145941,1,2,0:0:0:0:
387,337,1146048,1,0,0:0:0:0:
344,363,1146154,1,2,1:0:0:0:
293,353,1146260,1,0,0:0:0:0:
251,321,1146367,1,2,0:0:0:0:
201,325,1146473,1,0,0:0:0:0:
166,357,1146580,6,0,P|162:304|111:253,1,111.999996582031,2|0,1:0|0:0,0:0:0:0:
164,18,1147005,6,0,P|59:96|55:246,1,251.999992309571,2|0,1:0|0:0,0:0:0:0:
166,138,1147431,6,0,P|236:131|341:185,1,167.999994873047,2|0,1:0|0:0,0:0:0:0:
401,131,1147714,1,0,0:0:0:0:
401,131,1147785,1,0,0:0:0:0:
401,131,1147856,2,0,L|390:257,2,111.999996582031,2|0|0,1:0|1:0|1:0,0:0:0:0:
296,60,1148282,5,4,0:0:0:0:
296,60,1148388,2,0,P|260:80|252:222,1,167.999994873047
324,331,1148707,1,6,0:0:0:0:
472,32,1161473,5,4,0:0:0:0:
464,40,1161899,1,2,0:0:0:0:
456,48,1162324,2,0,P|440:80|432:160,1,111.999996582031,4|2,0:0|0:0,0:0:0:0:
344,200,1163601,6,0,P|348:206|355:211,1,9.33333304850261,4|0,0:0|0:0,0:0:0:0:
419,237,1163743,6,0,P|427:232|434:223,1,18.6666660970052,2|0,0:0|0:0,0:0:0:0:
416,144,1164027,6,0,P|408:152|398:163,1,18.6666660970052,0|0,1:0|0:0,0:0:0:0:
353,209,1164878,5,4,0:0:0:0:
350,217,1165303,1,2,0:0:0:0:
348,226,1165729,2,0,P|332:170|332:106,2,111.999996582031,4|4|4,1:0|0:0|1:0,0:0:0:0:
344,224,1167857,5,2,0:0:0:0:
408,264,1168282,1,4,0:0:0:0:
480,240,1168708,1,2,0:0:0:0:
504,168,1169133,2,0,P|512:112|496:48,2,111.999996582031,4|0|0,1:0|1:0|1:0,0:0:0:0:
504,168,1171261,5,2,0:0:0:0:
440,136,1171687,1,0,1:0:0:0:
368,120,1172112,1,2,0:0:0:0:
296,120,1172538,6,0,P|232:128|176:144,1,111.999996582031,4|0,1:0|1:0,0:0:0:0:
88,176,1173815,1,2,0:0:0:0:
72,72,1174240,2,0,P|144:88|192:88,1,111.999996582031,4|4,1:0|0:0,0:0:0:0:
160,176,1175517,1,0,0:0:0:0:
232,144,1175942,2,0,P|288:128|456:152,1,223.999993164063,4|0,1:0|1:0,0:0:0:0:
449,149,1178496,2,0,P|416:192|416:224,1,83.9999974365235,2|0,0:0|0:0,0:0:0:0:
488,208,1179347,6,0,P|504:200|512:200,3,13.9999995727539,0|0|0|0,1:0|1:0|1:0|1:0,1:0:0:0:
400,192,1179773,6,0,P|384:200|376:200,3,13.9999995727539,0|0|0|0,1:0|1:0|1:0|1:0,1:0:0:0:
296,176,1180198,6,0,P|312:168|320:168,3,13.9999995727539,0|0|0|0,1:0|1:0|1:0|1:0,1:0:0:0:
216,152,1180624,6,0,P|200:160|192:160,3,13.9999995727539,0|0|0|0,1:0|1:0|1:0|1:0,1:0:0:0:
124,121,1181049,5,0,1:0:0:0:
136,114,1181155,1,0,1:0:0:0:
146,103,1181262,1,0,1:0:0:0:
152,91,1181369,1,0,1:0:0:0:
154,77,1181476,2,0,P|150:68|146:63,5,9.33333304850261,0|0|0|0|0|0,1:0|1:0|1:0|1:0|1:0|1:0,1:0:0:0:
154,77,1181904,6,0,P|146:141|146:197,1,111.999996582031,4|4,1:0|1:0,0:0:0:0:
216,136,1189568,5,2,0:0:0:0:
248,192,1189888,1,2,0:0:0:0:
280,136,1190207,1,0,1:0:0:0:
280,136,1190632,1,0,0:0:0:0:
144,200,1190844,1,2,0:0:0:0:
144,200,1190951,1,2,0:0:0:0:
144,200,1191271,5,2,0:0:0:0:
136,272,1191590,1,2,0:0:0:0:
152,128,1191909,1,0,1:0:0:0:
152,128,1192335,1,0,0:0:0:0:
144,280,1192547,1,2,0:0:0:0:
144,280,1192654,1,2,0:0:0:0:
171,204,1192973,6,0,P|197:210|219:220,1,40,4|0,0:0|0:0,0:0:0:0:
144,280,1193292,2,0,P|117:267|104:248,1,40,4|0,0:0|0:0,0:0:0:0:
56,168,1193611,1,0,1:0:0:0:
56,168,1194037,2,0,P|80:168|104:160,1,40,0|2,1:0|0:0,0:0:0:0:
168,96,1194356,1,2,0:0:0:0:
16,104,1194675,6,0,L|24:160,1,40,4|0,0:0|0:0,0:0:0:0:
96,168,1194994,2,0,L|104:216,1,40,4|0,0:0|0:0,0:0:0:0:
40,272,1195313,1,2,0:0:0:0:
24,144,1195526,1,2,0:0:0:0:
96,168,1195739,1,2,0:0:0:0:
160,128,1195952,2,0,P|176:120|192:120,4,20,0|0|0|0|4,1:0|1:0|1:0|1:0|1:0,1:0:0:0:
80,40,1196590,5,2,0:0:0:0:
80,40,1196696,2,0,P|56:48|32:48,1,40,2|0,0:0|0:0,0:0:0:0:
120,64,1197016,2,0,L|208:72,1,80,4|2,0:0|0:0,0:0:0:0:
328,88,1197654,1,2,0:0:0:0:
294,83,1197761,1,2,0:0:0:0:
424,104,1198080,6,0,L|496:112,2,60,4|4|4,0:0|0:0|1:0,0:0:0:0:
256,72,1198931,1,0,1:0:0:0:
344,88,1199143,1,0,1:0:0:0:
176,56,1199356,1,2,0:0:0:0:
176,56,1199463,1,2,0:0:0:0:
176,56,1199569,1,0,0:0:0:0:
176,56,1199675,1,0,0:0:0:0:
176,56,1199782,2,0,P|128:48|112:40,2,60,4|4|0,0:0|0:0|1:0,0:0:0:0:
264,64,1200633,1,2,0:0:0:0:
248,160,1200846,1,2,0:0:0:0:
232,256,1201059,5,2,0:0:0:0:
232,256,1201165,1,0,0:0:0:0:
236,229,1201271,1,2,0:0:0:0:
240,201,1201378,1,0,0:0:0:0:
248,160,1201484,2,0,P|296:168|320:168,2,60,4|4|0,0:0|0:0|0:0,0:0:0:0:
168,128,1202335,1,0,1:0:0:0:
80,144,1202548,1,0,1:0:0:0:
168,128,1202761,1,0,1:0:0:0:
168,128,1202867,1,0,1:0:0:0:
205,114,1202973,1,0,1:0:0:0:
248,104,1203080,1,0,1:0:0:0:
248,104,1203186,1,0,1:0:0:0:
336,80,1203399,5,0,1:0:0:0:
336,80,1203505,1,0,1:0:0:0:
336,80,1203612,1,0,1:0:0:0:
424,56,1203825,1,0,0:0:0:0:
248,104,1204037,1,0,0:0:0:0:
336,80,1204250,1,0,0:0:0:0:
176,136,1204463,5,0,1:0:0:0:
176,136,1204569,1,0,1:0:0:0:
176,136,1204676,1,0,1:0:0:0:
176,136,1204782,1,0,1:0:0:0:
176,136,1204888,1,0,1:0:0:0:
256,112,1205101,1,0,1:0:0:0:
256,112,1205208,1,0,1:0:0:0:
256,112,1205314,1,0,1:0:0:0:
88,160,1205527,1,0,1:0:0:0:
176,136,1205740,1,0,1:0:0:0:
256,112,1205952,1,0,1:0:0:0:
93,165,1206165,5,0,1:0:0:0:
93,165,1206271,1,0,1:0:0:0:
93,165,1206378,1,0,1:0:0:0:
130,150,1206484,1,0,1:0:0:0:
184,144,1206591,5,0,1:0:0:0:
184,144,1206697,1,0,1:0:0:0:
184,144,1206803,1,0,1:0:0:0:
218,130,1206910,1,0,1:0:0:0:
263,120,1207016,5,0,1:0:0:0:
263,120,1207122,1,0,1:0:0:0:
263,120,1207229,1,0,1:0:0:0:
300,104,1207335,1,0,1:0:0:0:
346,97,1207442,5,0,1:0:0:0:
346,97,1207548,1,0,1:0:0:0:
346,97,1207655,1,0,1:0:0:0:
384,80,1207761,1,0,1:0:0:0:
443,74,1207867,5,0,1:0:0:0:
443,74,1207974,1,0,1:0:0:0:
443,74,1208080,1,0,1:0:0:0:
483,58,1208186,1,0,1:0:0:0:
467,119,1208293,5,0,1:0:0:0:
467,119,1208399,1,0,1:0:0:0:
467,119,1208506,1,0,1:0:0:0:
503,141,1208612,1,0,1:0:0:0:
459,170,1208718,5,0,1:0:0:0:
459,170,1208825,1,0,1:0:0:0:
459,170,1208931,2,2,B|443:247|493:248|472:331,1,160,4|0,0:0|1:0,1:0:0:0:
473,326,1209995,6,0,L|352:342,1,111.999996582031,2|0,1:0|0:0,0:0:0:0:
287,205,1210314,1,2,1:0:0:0:
287,205,1210421,2,0,L|355:216,1,55.9999982910157,8|0,0:0|0:0,0:0:0:0:
449,126,1210633,2,0,L|381:137,1,55.9999982910157,2|0,1:0|0:0,0:0:0:0:
296,27,1210846,5,0,0:0:0:0:
296,27,1210953,1,0,0:0:0:0:
296,27,1211059,2,0,L|307:100,1,55.9999982910157,2|0,1:0|0:0,0:0:0:0:
401,141,1211272,1,8,0:0:0:0:
401,141,1211378,2,0,L|395:203,1,55.9999982910157,2|0,1:0|0:0,0:0:0:0:
390,295,1211591,5,0,0:0:0:0:
306,257,1211697,2,0,P|253:257|194:293,1,111.999996582031,2|0,1:0|0:0,0:0:0:0:
131,353,1212016,1,2,1:0:0:0:
131,353,1212123,2,0,P|122:300|110:267,1,55.9999982910157,8|0,0:0|0:0,0:0:0:0:
12,221,1212336,6,0,L|73:232,1,55.9999982910157,2|0,1:0|0:0,0:0:0:0:
177,142,1212548,1,0,0:0:0:0:
177,142,1212655,1,0,0:0:0:0:
177,142,1212761,2,0,L|116:153,1,55.9999982910157,2|0,1:0|0:0,0:0:0:0:
28,28,1212974,1,8,0:0:0:0:
28,28,1213080,2,0,L|43:153,1,111.999996582031,2|0,1:0|0:0,0:0:0:0:
102,315,1213400,6,0,B|182:301|182:351|275:326,1,167.999994873047,2|2,1:0|1:0,0:0:0:0:
356,311,1213825,2,0,L|348:392,1,55.9999982910157,8|0,0:0|0:0,0:0:0:0:
288,183,1214038,1,2,1:0:0:0:
288,183,1214144,1,0,0:0:0:0:
288,183,1214251,2,0,L|292:249,1,55.9999982910157
405,245,1214463,5,2,1:0:0:0:
382,40,1214676,1,8,0:0:0:0:
382,40,1214783,2,0,L|370:162,1,111.999996582031,2|0,1:0|0:0,0:0:0:0:
312,238,1215102,6,0,B|232:213|232:213|156:262,1,167.999994873047,2|2,1:0|1:0,0:0:0:0:
245,305,1215527,2,0,L|250:370,1,55.9999982910157,8|0,0:0|0:0,0:0:0:0:
66,198,1215740,1,2,1:0:0:0:
66,198,1215846,1,0,0:0:0:0:
66,198,1215953,1,0,0:0:0:0:
151,59,1216166,1,2,1:0:0:0:
151,59,1216378,6,0,L|158:126,1,55.9999982910157,8|2,0:0|1:0,0:0:0:0:
230,172,1216591,2,0,L|223:239,1,55.9999982910157
89,325,1216804,6,0,B|171:298|170:360|268:331,1,167.999994873047,2|2,1:0|1:0,0:0:0:0:
436,358,1217230,2,0,L|372:348,1,55.9999982910157,8|0,0:0|0:0,0:0:0:0:
312,113,1217442,2,0,P|328:166|331:182,1,55.9999982910157,2|0,1:0|0:0,0:0:0:0:
225,259,1217655,2,0,L|289:249,1,55.9999982910157
462,143,1217868,2,0,L|398:133,1,55.9999982910157,2|0,1:0|0:0,0:0:0:0:
347,41,1218081,1,8,0:0:0:0:
347,41,1218187,2,0,P|287:39|239:77,1,111.999996582031,2|0,1:0|0:0,0:0:0:0:
190,208,1218506,6,0,L|69:229,1,111.999996582031,2|0,1:0|0:0,0:0:0:0:
34,136,1218825,1,2,1:0:0:0:
34,136,1218932,2,0,L|99:148,1,55.9999982910157,8|0,0:0|0:0,0:0:0:0:
186,65,1219145,2,0,L|121:77,1,55.9999982910157,2|0,1:0|0:0,0:0:0:0:
61,38,1219357,5,0,0:0:0:0:
273,203,1219570,1,2,1:0:0:0:
42,301,1219783,1,8,0:0:0:0:
42,301,1219889,2,0,L|36:243,2,55.9999982910157,2|0|0,1:0|0:0|0:0,0:0:0:0:
121,333,1220208,6,0,B|205:315|203:374|298:348,1,167.999994873047,2|2,1:0|1:0,0:0:0:0:
364,295,1220634,2,0,L|368:240,1,55.9999982910157,8|0,0:0|0:0,0:0:0:0:
286,192,1220847,2,0,L|282:247,1,55.9999982910157,2|0,1:0|0:0,0:0:0:0:
375,156,1221060,6,0,L|378:100,1,55.9999982910157
296,52,1221273,2,0,L|292:107,1,55.9999982910157,0|0,1:0|0:0,0:0:0:0:
286,192,1221485,1,8,0:0:0:0:
203,163,1221591,2,0,B|148:156|148:156|93:187,1,111.999996582031,2|0,1:0|0:0,0:0:0:0:
165,235,1221911,6,0,L|183:361,1,111.999996582031,2|0,1:0|0:0,0:0:0:0:
286,192,1222230,1,2,1:0:0:0:
285,192,1222336,2,0,L|292:117,1,55.9999982910157,8|0,0:0|0:0,0:0:0:0:
343,271,1222549,2,0,L|348:326,1,55.9999982910157,2|0,1:0|0:0,0:0:0:0:
414,199,1222762,2,0,L|421:124,1,55.9999982910157
502,352,1222975,6,0,L|412:368,1,80,4|0,0:0|0:0,0:0:0:0:
263,259,1223187,6,0,L|345:271,1,80,4|0,0:0|0:0,0:0:0:0:
210,341,1223506,5,0,0:0:0:0:
210,341,1223613,2,0,P|148:356|72:281,1,167.999994873047,2|2,1:0|1:0,0:0:0:0:
152,220,1224038,2,0,L|160:291,1,55.9999982910157,8|0,0:0|0:0,0:0:0:0:
262,143,1224251,2,0,L|208:158,1,55.9999982910157,2|0,1:0|0:0,0:0:0:0:
22,154,1224464,2,0,L|76:169,1,55.9999982910157
135,104,1224677,5,2,1:0:0:0:
347,41,1224890,1,8,0:0:0:0:
347,41,1224996,2,0,L|344:106,1,55.9999982910157,2|0,1:0|0:0,0:0:0:0:
280,176,1225209,5,0,0:0:0:0:
280,176,1225315,2,0,P|340:186|397:200,1,111.999996582031,2|0,1:0|0:0,0:0:0:0:
472,109,1225634,1,2,1:0:0:0:
472,109,1225741,2,0,P|464:156|460:185,1,55.9999982910157,8|0,0:0|0:0,0:0:0:0:
467,319,1225953,2,0,P|462:291|457:263,1,55.9999982910157,2|0,1:0|0:0,0:0:0:0:
381,210,1226166,1,0,0:0:0:0:
281,348,1226379,1,2,1:0:0:0:
114,276,1226592,1,8,0:0:0:0:
114,276,1226698,2,0,L|105:221,1,55.9999982910157,2|0,1:0|0:0,0:0:0:0:
45,35,1226911,5,0,0:0:0:0:
45,35,1227017,2,0,P|48:101|67:163,1,111.999996582031,2|0,1:0|0:0,0:0:0:0:
104,220,1227336,2,0,L|169:229,1,55.9999982910157,2|8,1:0|0:0,0:0:0:0:
379,75,1227656,1,2,1:0:0:0:
379,75,1227762,1,0,0:0:0:0:
379,75,1227868,2,0,L|372:131,1,55.9999982910157
455,217,1228081,6,0,P|425:222|392:230,1,55.9999982910157,2|0,1:0|0:0,0:0:0:0:
339,338,1228294,1,8,0:0:0:0:
339,338,1228400,2,0,P|369:343|402:351,2,55.9999982910157,2|0|0,1:0|0:0|0:0,0:0:0:0:
257,282,1228720,6,0,B|182:261|182:322|74:284,1,167.999994873047,2|2,1:0|1:0,0:0:0:0:
41,218,1229145,2,0,L|36:158,1,55.9999982910157,8|0,0:0|0:0,0:0:0:0:
125,72,1229358,1,2,1:0:0:0:
125,72,1229464,1,0,0:0:0:0:
125,72,1229571,2,0,L|130:132,1,55.9999982910157
239,200,1229783,6,0,L|234:140,1,55.9999982910157,2|0,1:0|0:0,0:0:0:0:
319,59,1229996,1,8,0:0:0:0:
319,59,1230103,2,0,L|324:119,1,55.9999982910157,2|0,1:0|0:0,0:0:0:0:
421,186,1230315,5,0,0:0:0:0:
348,245,1230422,2,0,L|335:384,1,111.999996582031,2|0,1:0|0:0,0:0:0:0:
473,350,1230741,1,2,1:0:0:0:
473,350,1230847,2,0,P|446:354|416:361,1,55.9999982910157,8|0,0:0|0:0,0:0:0:0:
203,305,1231060,2,0,P|230:309|257:315,1,55.9999982910157,2|0,1:0|0:0,0:0:0:0:
400,247,1231273,6,0,L|406:183,1,55.9999982910157
326,174,1231486,2,0,L|320:110,1,55.9999982910157,2|0,1:0|0:0,0:0:0:0:
366,60,1231698,1,8,0:0:0:0:
366,60,1231805,2,0,P|315:77|250:78,1,111.999996582031,2|0,1:0|0:0,0:0:0:0:
92,13,1232124,5,2,1:0:0:0:
194,169,1232337,1,0,0:0:0:0:
194,169,1232443,1,2,1:0:0:0:
194,169,1232550,2,0,L|189:240,1,55.9999982910157,8|0,0:0|0:0,0:0:0:0:
133,303,1232762,2,0,L|198:309,1,55.9999982910157,2|0,1:0|0:0,0:0:0:0:
280,243,1232975,6,0,L|275:314,1,55.9999982910157
219,377,1233187,2,0,L|284:383,1,55.9999982910157,2|0,1:0|0:0,0:0:0:0:
359,335,1233401,5,8,0:0:0:0:
446,253,1233507,2,0,L|435:385,1,111.999996582031,2|0,1:0|0:0,0:0:0:0:
348,133,1233826,6,0,L|355:248,1,111.999996582031,2|0,1:0|0:0,0:0:0:0:
446,75,1234145,1,2,1:0:0:0:
446,75,1234252,2,0,L|442:147,1,55.9999982910157,8|0,0:0|0:0,0:0:0:0:
348,133,1234465,2,0,L|354:201,1,55.9999982910157,2|0,1:0|0:0,0:0:0:0:
436,272,1234677,1,0,0:0:0:0:
266,241,1234890,1,2,1:0:0:0:
149,340,1235103,1,8,0:0:0:0:
149,340,1235209,2,0,L|69:348,1,55.9999982910157,2|0,1:0|0:0,0:0:0:0:
15,350,1235422,5,0,0:0:0:0:
60,275,1235528,2,0,P|72:220|51:158,1,111.999996582031,2|0,1:0|0:0,0:0:0:0:
20,105,1235848,1,2,1:0:0:0:
102,199,1235954,2,0,L|219:213,1,111.999996582031,8|2,0:0|1:0,0:0:0:0:
274,113,1236273,5,0,0:0:0:0:
274,113,1236380,2,0,P|288:156|290:172,1,40,4|0,0:0|0:0,0:0:0:0:
441,272,1236592,6,0,P|388:283|298:230,1,160,4|0,0:0|0:0,0:0:0:0:
179,324,1236805,6,0,P|234:324|279:299,1,80,4|0,0:0|0:0,0:0:0:0:
379,357,1237018,6,0,P|347:350|323:341,1,40,4|0,0:0|0:0,0:0:0:0:
188,219,1237231,6,0,L|309:233,1,111.999996582031,2|0,1:0|0:0,0:0:0:0:
395,132,1237550,1,2,1:0:0:0:
395,132,1237656,2,0,L|388:205,1,55.9999982910157,8|0,0:0|0:0,0:0:0:0:
431,269,1237869,2,0,L|356:286,1,55.9999982910157,2|0,1:0|0:0,0:0:0:0:
282,343,1238082,2,0,L|357:360,1,55.9999982910157
430,271,1238295,1,2,1:0:0:0:
237,92,1238508,1,8,0:0:0:0:
237,92,1238614,2,0,L|231:161,1,55.9999982910157,2|0,1:0|0:0,0:0:0:0:
267,248,1238827,5,0,0:0:0:0:
194,215,1238933,2,0,P|136:203|40:284,1,167.999994873047,2|2,1:0|1:0,0:0:0:0:
136,293,1239358,2,0,L|144:375,1,55.9999982910157,8|0,0:0|0:0,0:0:0:0:
57,337,1239572,1,2,1:0:0:0:
330,342,1239784,5,0,0:0:0:0:
330,342,1239890,1,0,0:0:0:0:
330,342,1239997,2,0,L|396:342,1,55.9999982910157,2|0,1:0|0:0,0:0:0:0:
469,339,1240210,1,8,0:0:0:0:
413,261,1240316,2,0,P|400:214|418:144,1,111.999996582031,2|0,1:0|0:0,0:0:0:0:
441,131,1240635,6,0,L|306:143,1,111.999996582031,2|0,1:0|0:0,0:0:0:0:
207,65,1240954,1,2,1:0:0:0:
207,65,1241061,2,0,L|279:73,1,55.9999982910157,8|0,0:0|0:0,0:0:0:0:
267,208,1241274,1,2,1:0:0:0:
267,208,1241380,1,0,0:0:0:0:
267,208,1241486,2,0,L|206:218,1,55.9999982910157
87,124,1241699,6,0,P|95:157|99:190,1,55.9999982910157,2|0,1:0|0:0,0:0:0:0:
67,264,1241912,1,8,0:0:0:0:
124,332,1242019,2,0,B|250:344,1,111.999996582031,2|0,1:0|0:0,0:0:0:0:
313,287,1242338,6,0,P|382:278|448:346,1,167.999994873047,2|2,1:0|1:0,0:0:0:0:
361,363,1242763,1,8,0:0:0:0:
432,158,1242976,1,2,1:0:0:0:
361,363,1243189,1,0,0:0:0:0:
203,224,1243401,2,0,L|197:169,1,55.9999982910157,2|0,1:0|0:0,0:0:0:0:
184,93,1243614,5,8,0:0:0:0:
266,126,1243720,2,0,P|323:137|377:143,1,111.999996582031,2|0,1:0|0:0,0:0:0:0:
497,69,1244040,6,0,P|436:64|382:174,1,167.999994873047,2|2,1:0|1:0,0:0:0:0:
370,229,1244465,1,8,0:0:0:0:
370,229,1244678,2,0,L|237:246,1,111.999996582031,2|0,1:0|0:0,0:0:0:0:
64,351,1245103,1,2,1:0:0:0:
144,217,1245316,1,8,0:0:0:0:
144,217,1245423,2,0,L|138:286,1,55.9999982910157,2|0,1:0|0:0,0:0:0:0:
51,149,1245635,1,0,0:0:0:0:
15,69,1245742,6,0,P|76:64|130:174,1,167.999994873047,2|2,1:0|1:0,0:0:0:0:
148,221,1246167,1,8,0:0:0:0:
148,221,1246380,2,0,L|281:238,1,111.999996582031,2|0,1:0|0:0,0:0:0:0:
448,351,1246805,1,2,1:0:0:0:
355,157,1247018,1,8,0:0:0:0:
355,157,1247125,2,0,L|360:85,1,55.9999982910157,2|0,1:0|0:0,0:0:0:0:
401,231,1247338,5,0,3:0:0:0:
418,275,1247444,1,0,3:0:0:0:
414,322,1247550,1,0,3:0:0:0:
389,362,1247657,1,0,3:0:0:0:
343,375,1247763,1,2,3:0:0:0:
296,368,1247869,1,8,3:2:0:0:
256,342,1247976,1,0,3:0:0:0:
216,317,1248082,1,2,3:0:0:0:
168,311,1248188,1,0,3:0:0:0:
123,325,1248295,1,0,3:0:0:0:
88,357,1248402,1,0,3:0:0:0:
110,315,1248508,1,2,3:0:0:0:
119,268,1248614,1,0,3:0:0:0:
114,220,1248721,1,8,3:2:0:0:
93,178,1248827,1,2,3:0:0:0:
88,130,1248933,1,0,3:0:0:0:
100,84,1249040,1,0,3:0:0:0:
129,46,1249146,6,0,L|177:37,3,40,4|0|4|0,0:0|0:0|0:0|0:0,0:0:0:0:
223,121,1249572,2,0,L|262:128,3,40,4|0|0|0,0:0|0:0|0:0|0:0,0:0:0:0:
371,40,1249997,5,0,0:0:0:0:
371,40,1250104,1,0,0:0:0:0:
371,40,1250210,2,0,L|364:127,1,80,4|0,0:0|0:0,0:0:0:0:
453,221,1250423,6,0,L|448:162,1,40,4|0,0:0|0:0,0:0:0:0:
349,297,1250636,6,0,L|346:325,1,20,0|0,1:0|0:0,0:0:0:0:
342,342,1250848,6,0,L|258:351,1,80,6|0,1:0|0:0,0:0:0:0:
152,318,1251274,2,0,L|91:337,1,40,8|0,0:0|0:0,0:0:0:0:
29,359,1251487,2,0,L|33:309,1,40
91,260,1251700,2,0,L|103:150,1,80,2|0,0:0|0:0,0:0:0:0:
99,180,1252019,1,0,0:0:0:0:
99,180,1252125,1,8,0:0:0:0:
33,59,1252338,1,0,0:0:0:0:
33,59,1252551,6,0,L|144:77,1,80,2|0,0:0|0:0,0:0:0:0:
169,154,1252976,1,8,0:0:0:0:
216,72,1253189,1,2,0:0:0:0:
216,72,1253295,1,0,0:0:0:0:
209,242,1253508,1,0,0:0:0:0:
209,242,1253615,1,2,0:0:0:0:
311,89,1253827,2,0,B|305:62|305:62|320:18,1,55.9999982910157,8|0,0:0|0:0,0:0:0:0:
317,262,1254040,2,0,B|323:289|323:289|308:333,1,55.9999982910157,2|0,0:0|0:0,0:0:0:0:
342,181,1254253,6,0,L|240:188,1,80,2|0,0:0|0:0,0:0:0:0:
115,262,1254678,2,0,L|207:257,1,80,8|0,0:0|0:0,0:0:0:0:
194,257,1254998,1,0,0:0:0:0:
194,257,1255104,2,0,P|186:185|191:144,1,80,2|0,0:0|0:0,0:0:0:0:
2,158,1255530,2,0,P|14:225|15:298,1,120,8|0,0:0|0:0,0:0:0:0:
68,353,1255955,6,0,L|168:360,1,80,2|0,0:0|0:0,0:0:0:0:
325,292,1256381,1,8,0:0:0:0:
268,209,1256593,1,2,0:0:0:0:
268,209,1256700,1,0,0:0:0:0:
428,105,1256913,1,0,0:0:0:0:
428,105,1257019,1,2,0:0:0:0:
376,193,1257232,2,0,B|431:197|511:186|510:186,1,120,8|0,0:0|0:0,0:0:0:0:
428,105,1257657,6,0,P|366:108|319:115,1,80,2|0,0:0|0:0,0:0:0:0:
318,91,1257977,1,0,0:0:0:0:
318,91,1258083,2,0,P|266:98|223:94,1,80,8|0,0:0|0:0,0:0:0:0:
81,177,1258508,1,2,0:0:0:0:
158,112,1258721,1,2,0:0:0:0:
122,286,1258934,1,8,0:0:0:0:
168,203,1259147,1,2,0:0:0:0:
168,203,1259253,1,0,0:0:0:0:
168,203,1259360,6,0,P|217:197|259:201,1,80,2|0,0:0|0:0,0:0:0:0:
437,313,1259785,2,0,P|366:308|334:288,1,80,8|0,0:0|0:0,0:0:0:0:
330,342,1260104,1,0,0:0:0:0:
329,342,1260211,2,0,L|336:208,1,120,2|0,0:0|0:0,0:0:0:0:
310,141,1260636,6,0,B|345:146|345:146|372:139,1,55.9999982910157,8|0,0:0|0:0,0:0:0:0:
305,46,1260849,2,0,B|285:40|285:40|250:45,1,55.9999982910157
156,65,1261062,5,2,0:0:0:0:
106,251,1261381,1,0,0:0:0:0:
106,251,1261487,2,0,P|121:202|102:130,1,120,8|0,0:0|0:0,0:0:0:0:
23,225,1261913,2,0,L|41:325,1,80,2|0,0:0|0:0,0:0:0:0:
105,136,1262338,2,0,P|148:135|244:168,1,120,8|0,0:0|0:0,0:0:0:0:
258,244,1262764,6,0,L|252:345,1,80,2|0,0:0|0:0,0:0:0:0:
329,94,1263190,1,8,0:0:0:0:
178,211,1263402,1,2,0:0:0:0:
178,211,1263509,1,0,0:0:0:0:
178,211,1263615,2,0,B|226:202|252:145|252:145|249:207|260:251|260:251|277:208|306:213|306:213|306:242|322:255|322:255|336:234|358:237|358:237|361:255|368:262|368:262|380:256|391:253|391:253|393:272|406:269|406:269|426:265|482:298,1,476.00000907898,2|0,0:0|0:0,0:0:0:0:
472,367,1264466,6,0,P|412:349|328:357,1,143.999995605469,2|0,0:0|0:0,0:0:0:0:
261,291,1264892,2,0,L|127:309,1,95.9999970703126,8|0,0:0|0:0,0:0:0:0:
26,351,1265317,1,2,0:0:0:0:
26,351,1265424,1,0,0:0:0:0:
26,351,1265530,1,0,0:0:0:0:
92,212,1265743,2,0,P|95:287|86:328,1,95.9999970703126,8|0,0:0|0:0,0:0:0:0:
122,75,1266168,6,0,L|199:56,1,47.9999985351563,2|0,0:0|0:0,0:0:0:0:
276,197,1266488,1,0,0:0:0:0:
276,197,1266594,1,8,0:0:0:0:
395,46,1266807,1,2,0:0:0:0:
395,46,1266913,2,0,L|313:56,1,47.9999985351563,2|0,0:0|0:0,0:0:0:0:
197,281,1267232,1,0,0:0:0:0:
197,281,1267445,2,0,L|256:274,1,55.9999982910157,8|0,0:0|0:0,0:0:0:0:
400,181,1267658,2,0,L|388:100,1,55.9999982910157,2|0,0:0|0:0,0:0:0:0:
313,217,1267871,6,0,P|389:201|451:262,1,143.999995605469,2|0,0:0|0:0,0:0:0:0:
454,213,1268296,2,0,L|436:344,1,95.9999970703126,8|0,0:0|0:0,0:0:0:0:
293,317,1268722,1,2,0:0:0:0:
293,317,1268828,1,0,0:0:0:0:
315,219,1269041,1,0,0:0:0:0:
315,219,1269147,2,0,L|329:112,1,95.9999970703126,8|0,0:0|0:0,0:0:0:0:
104,51,1269573,6,0,L|31:67,1,47.9999985351563,2|0,0:0|0:0,0:0:0:0:
233,141,1269892,1,0,0:0:0:0:
233,141,1269998,1,8,0:0:0:0:
154,237,1270211,1,2,0:0:0:0:
154,237,1270318,1,0,0:0:0:0:
154,237,1270424,1,2,0:0:0:0:
154,237,1270530,2,0,P|145:159|119:127,1,95.9999970703126
54,100,1270850,5,8,0:0:0:0:
49,123,1270956,1,0,0:0:0:0:
66,164,1271062,1,2,0:0:0:0:
61,187,1271168,1,0,0:0:0:0:
71,227,1271275,6,0,P|74:311|61:384,1,143.999995605469,2|0,0:0|0:0,0:0:0:0:
149,326,1271701,2,0,P|202:325|258:347,1,95.9999970703126,8|0,0:0|0:0,0:0:0:0:
414,247,1272126,1,2,0:0:0:0:
312,381,1272339,1,2,0:0:0:0:
371,322,1272552,2,0,P|390:269|337:183,1,143.999995605469,8|0,0:0|0:0,0:0:0:0:
276,157,1272977,6,0,L|284:237,1,47.9999985351563,2|0,0:0|0:0,0:0:0:0:
169,313,1273297,1,0,0:0:0:0:
169,313,1273403,1,8,0:0:0:0:
196,201,1273616,1,0,0:0:0:0:
196,201,1273722,2,0,L|204:130,1,47.9999985351563,0|2,0:0|0:0,0:0:0:0:
222,34,1274041,1,2,0:0:0:0:
33,206,1274254,6,0,P|70:206|106:180,1,55.9999982910157,8|0,0:0|0:0,0:0:0:0:
146,50,1274467,2,0,P|124:19|82:5,1,55.9999982910157,8|0,0:0|0:0,0:0:0:0:
172,156,1274680,6,0,B|296:147|295:147,1,95.9999970703126,2|0,0:0|0:0,0:0:0:0:
285,133,1274999,2,0,L|274:211,1,47.9999985351563,0|8,0:0|0:0,0:0:0:0:
266,345,1275318,1,2,0:0:0:0:
266,345,1275531,1,2,0:0:0:0:
266,345,1275637,2,0,L|334:359,1,47.9999985351563
412,281,1275850,1,0,0:0:0:0:
412,281,1275956,2,0,L|279:288,1,95.9999970703126,8|0,0:0|0:0,0:0:0:0:
247,196,1276275,1,0,0:0:0:0:
247,196,1276382,6,0,P|245:253|170:283,1,143.999995605469,2|0,0:0|0:0,0:0:0:0:
250,90,1276807,2,0,P|252:33|327:3,1,143.999995605469,8|0,0:0|0:0,0:0:0:0:
119,58,1277233,1,2,0:0:0:0:
355,182,1277446,6,0,B|385:186|385:186|385:192|385:192|436:202,1,68.0000012969971,4|0,0:0|0:0,0:0:0:0:
318,77,1277659,5,8,0:0:0:0:
318,77,1277765,1,0,0:0:0:0:
478,128,1277978,1,0,0:0:0:0:
478,128,1278084,5,6,1:0:0:0:
478,128,1278403,1,0,1:0:0:0:
478,128,1278510,2,0,L|391:137,1,80,0|2,1:0|0:0,0:0:0:0:
343,194,1278935,2,0,L|196:180,1,120,0|0,1:0|0:0,0:0:0:0:
223,182,1279361,2,0,P|219:231|221:280,1,80,0|6,1:0|0:0,0:0:0:0:
240,296,1279680,5,0,1:0:0:0:
226,333,1279786,2,0,P|153:324|67:317,1,160,0|4,0:0|1:2,0:0:0:0:
11,258,1280425,1,2,0:0:0:0:
150,146,1280637,2,0,P|145:98|142:17,1,120,4|4,1:2|0:2,0:0:0:0:
142,26,1281063,1,0,1:0:0:0:
142,26,1281169,1,2,0:0:0:0:
142,26,1281276,1,4,1:2:0:0:
316,158,1281489,6,0,P|373:167|453:167,1,120,4|0,1:0|0:0,0:0:0:0:
435,168,1281914,2,0,P|448:220|458:248,1,80,0|2,1:0|0:0,0:0:0:0:
371,300,1282340,1,0,1:0:0:0:
371,300,1282446,1,4,1:2:0:0:
512,340,1282659,1,4,1:2:0:0:
512,340,1282765,1,2,1:2:0:0:
417,384,1282978,1,4,1:2:0:0:
225,378,1283191,6,0,P|238:324|249:256,1,120,4|0,1:0|0:0,0:0:0:0:
248,260,1283616,2,0,P|205:248|164:243,1,80,0|2,1:0|0:0,0:0:0:0:
16,187,1284042,1,4,1:2:0:0:
16,187,1284361,5,0,1:0:0:0:
16,187,1284467,2,0,L|133:176,1,103.999995239258,12|2,1:0|0:0,0:0:0:0:
134,145,1284787,5,0,1:0:0:0:
176,138,1284893,2,0,P|235:138|300:154,1,120,4|0,1:0|0:0,0:0:0:0:
294,151,1285319,1,0,1:0:0:0:
275,229,1285531,1,2,0:0:0:0:
352,250,1285744,1,0,1:0:0:0:
352,250,1285850,1,4,1:2:0:0:
379,174,1286063,1,4,1:2:0:0:
379,174,1286170,1,2,1:2:0:0:
455,194,1286382,1,0,1:0:0:0:
474,199,1286489,1,0,0:0:0:0:
499,189,1286595,6,0,P|502:241|508:312,1,120,4|0,1:2|0:0,0:0:0:0:
495,324,1287021,2,0,P|454:315|416:313,2,80,0|2|4,1:0|0:0|1:2,0:0:0:0:
256,360,1287765,1,0,1:0:0:0:
256,360,1287872,1,8,1:0:0:0:
253,320,1287978,1,4,0:2:0:0:
250,279,1288085,1,0,1:0:0:0:
304,197,1288297,6,0,P|311:146|328:72,1,120,4|0,1:0|0:0,0:0:0:0:
325,79,1288723,2,0,P|372:83|410:92,1,80,0|2,1:0|0:0,0:0:0:0:
260,23,1289149,1,0,1:0:0:0:
203,77,1289361,2,0,L|210:108,2,20,0|2|2,1:0|0:0|0:0,0:0:0:0:
145,29,1289574,2,0,P|103:31|59:26,1,80,8|4,1:2|0:0,0:0:0:0:
129,107,1290000,6,0,P|136:173|137:257,1,120,4|0,1:0|1:0,0:0:0:0:
137,226,1290425,1,8,1:2:0:0:
209,303,1290638,1,0,1:0:0:0:
228,299,1290744,1,8,1:0:0:0:
247,295,1290851,1,2,0:0:0:0:
266,291,1290957,1,8,1:0:0:0:
285,287,1291064,1,4,0:0:0:0:
350,327,1291276,1,8,1:2:0:0:
256,204,1291489,5,0,1:0:0:0:
257,164,1291595,1,0,1:0:0:0:
258,123,1291702,2,0,P|265:74|267:30,1,80,4|2,1:0|0:0,0:0:0:0:
467,2,1292127,2,0,P|469:41|475:81,1,80,8|2,1:2|0:0,0:0:0:0:
444,209,1292553,1,0,1:0:0:0:
351,133,1292766,1,4,0:0:0:0:
351,133,1292872,1,0,1:0:0:0:
351,133,1292979,1,8,1:2:0:0:
344,293,1293191,5,2,0:0:0:0:
348,312,1293298,1,0,0:0:0:0:
351,331,1293404,1,0,1:0:0:0:
132,383,1293723,1,4,0:0:0:0:
132,383,1293830,2,0,P|142:330|146:300,1,80,8|2,1:2|0:0,0:0:0:0:
133,288,1294149,1,12,1:2:0:0:
138,268,1294255,1,0,0:0:0:0:
125,252,1294362,1,8,1:2:0:0:
130,232,1294468,1,4,0:2:0:0:
74,124,1294681,5,8,1:2:0:0:
83,85,1294787,1,0,1:0:0:0:
93,46,1294894,1,6,1:2:0:0:
266,174,1295106,6,0,P|309:163|359:142,1,80,4|2,1:0|0:0,0:0:0:0:
139,30,1295532,2,0,P|96:41|46:62,1,80,8|2,1:2|0:0,0:0:0:0:
178,228,1295957,2,0,P|204:259|223:303,1,80,0|0,1:0|0:0,0:0:0:0:
219,66,1296383,2,0,P|235:29|261:-1,1,80,8|2,1:2|0:0,0:0:0:0:
81,176,1296809,6,0,L|-7:160,1,80,4|2,1:2|0:0,0:0:0:0:
294,113,1297234,2,0,L|382:129,1,80,8|2,1:2|0:0,0:0:0:0:
391,154,1297553,5,12,1:2:0:0:
409,146,1297660,1,2,0:0:0:0:
428,140,1297766,1,8,1:2:0:0:
446,132,1297872,1,4,0:0:0:0:
326,297,1298085,1,0,1:0:0:0:
307,289,1298192,1,4,1:2:0:0:
462,371,1298404,1,12,0:2:0:0:
462,371,1298511,6,0,P|461:308|471:213,1,120,4|0,1:0|0:0,0:0:0:0:
483,243,1298936,2,0,P|480:189|471:147,1,80,8|2,1:2|0:0,0:0:0:0:
504,88,1299362,1,0,1:0:0:0:
428,61,1299575,1,2,0:0:0:0:
428,61,1299681,1,2,1:2:0:0:
428,61,1299787,1,8,1:2:0:0:
396,134,1300000,1,2,1:2:0:0:
199,35,1300213,6,0,P|146:36|96:103,1,120,4|0,1:0|0:0,0:0:0:0:
100,81,1300639,1,8,1:2:0:0:
281,243,1300851,1,2,0:0:0:0:
281,243,1300958,1,8,1:2:0:0:
281,243,1301064,2,0,P|285:183|291:141,1,80,0|2,0:0|0:0,0:0:0:0:
325,151,1301383,1,8,1:2:0:0:
358,173,1301490,2,0,L|407:160,2,40,8|0|4,1:0|0:0|1:2,0:0:0:0:
210,183,1301915,6,0,L|118:189,1,80,4|2,1:0|0:0,0:0:0:0:
332,260,1302341,2,0,L|411:254,1,80,8|2,1:2|0:0,0:0:0:0:
149,258,1302766,6,0,L|154:337,1,80,0|4,1:0|0:0,0:0:0:0:
401,178,1303192,2,0,L|395:98,1,80,8|2,1:2|0:0,0:0:0:0:
12,81,1303617,6,0,L|198:95,1,160,4|8,1:0|1:2,0:0:0:0:
248,287,1304256,5,0,0:0:0:0:
248,287,1304362,1,8,1:0:0:0:
248,287,1304469,2,0,L|108:296,1,120,4|0,1:0|1:0,0:0:0:0:
113,279,1304894,5,8,1:2:0:0:
124,261,1305000,1,8,1:3:0:0:
115,243,1305107,1,4,1:2:0:0:
120,223,1305213,1,0,1:0:0:0:
114,206,1305320,6,0,L|103:79,1,120,4|0,3:0|0:0,0:0:0:0:
101,57,1305745,1,8,0:0:0:0:
66,301,1305958,1,0,0:0:0:0:
206,218,1306171,1,0,1:0:0:0:
56,138,1306384,1,0,0:0:0:0:
249,343,1306596,6,0,P|318:348|387:358,1,120,8|0,0:0|0:0,0:0:0:0:
368,354,1307022,1,2,0:0:0:0:
482,253,1307235,1,0,0:0:0:0:
320,195,1307447,2,0,P|308:154|291:113,2,53.3333333333333,8|0|0,0:0|0:0|0:0,0:0:0:0:
320,195,1307873,1,2,0:0:0:0:
373,358,1308086,1,0,0:0:0:0:
483,226,1308299,5,8,0:0:0:0:
375,368,1308511,1,0,0:0:0:0:
237,285,1308724,2,0,P|194:291|144:304,1,80,0|0,1:0|0:0,0:0:0:0:
45,217,1309150,1,8,0:0:0:0:
45,217,1309256,1,0,0:0:0:0:
45,217,1309362,1,2,0:0:0:0:
266,61,1309575,6,0,L|255:182,1,120,2|0,0:0|0:0,0:0:0:0:
232,12,1310001,6,0,L|242:131,1,120,8|0,0:0|0:0,0:0:0:0:
296,243,1310426,6,0,B|258:259|258:259|213:251,1,80,2|0,0:0|0:0,0:0:0:0:
79,51,1310852,2,0,L|83:115,1,53.3333333333333,8|0,0:0|0:0,0:0:0:0:
162,126,1311136,1,0,0:0:0:0:
162,126,1311277,2,0,L|158:186,1,53.3333333333333,2|0,0:0|0:0,0:0:0:0:
106,248,1311561,1,0,0:0:0:0:
154,329,1311703,2,0,P|199:331|242:336,1,80,8|0,0:0|0:0,0:0:0:0:
349,271,1312022,5,0,0:0:0:0:
349,271,1312129,2,0,B|301:238|301:238|237:264,1,120,2|0,0:0|0:0,0:0:0:0:
243,261,1312554,1,8,0:0:0:0:
291,359,1312767,1,0,0:0:0:0:
401,187,1312980,2,0,P|406:143|415:100,1,80,2|0,0:0|0:0,0:0:0:0:
98,106,1313405,2,0,P|106:146|111:186,1,80,8|0,0:0|0:0,0:0:0:0:
256,338,1313831,5,2,0:0:0:0:
349,246,1314044,1,0,0:0:0:0:
349,246,1314150,1,0,0:0:0:0:
349,246,1314256,1,8,0:0:0:0:
256,338,1314469,6,0,P|234:344|210:347,1,40,0|0,0:0|0:0,0:0:0:0:
132,332,1314682,1,2,0:0:0:0:
216,206,1314895,1,0,0:0:0:0:
133,339,1315107,1,2,0:0:0:0:
18,241,1315320,1,0,0:0:0:0:
171,124,1315533,6,0,P|252:119|304:194,1,160,4|8,3:0|0:0,0:0:0:0:
486,43,1316171,2,0,P|408:36|356:93,1,160,4|0,3:0|0:0,0:0:0:0:
431,340,1316810,2,0,P|459:330|486:323,2,53.3333333333333,8|0|0,0:0|0:0|0:0,0:0:0:0:
317,310,1317235,6,0,L|306:201,1,80,2|0,0:0|0:0,0:0:0:0:
357,158,1317554,1,0,0:0:0:0:
336,146,1317661,2,0,B|294:140|256:158,1,80,8|0,0:0|0:0,0:0:0:0:
150,91,1317980,2,0,B|192:97|230:79,1,80,2|0,0:0|0:0,0:0:0:0:
247,68,1318299,1,2,0:0:0:0:
441,274,1318512,5,2,0:0:0:0:
437,281,1318618,1,0,0:0:0:0:
433,288,1318724,1,2,0:0:0:0:
429,295,1318831,1,0,0:0:0:0:
424,303,1318937,6,0,P|355:313|296:328,1,120,4|0,3:0|0:0,0:0:0:0:
306,325,1319363,1,8,0:0:0:0:
121,266,1319576,1,0,0:0:0:0:
220,247,1319789,1,0,1:0:0:0:
72,361,1320001,1,0,0:0:0:0:
156,167,1320214,1,8,0:0:0:0:
156,167,1320640,6,0,L|148:259,1,80,2|0,0:0|0:0,0:0:0:0:
70,360,1321065,2,0,P|107:346|133:331,1,53.3333333333333,8|0,0:0|0:0,0:0:0:0:
71,271,1321349,1,0,0:0:0:0:
149,246,1321491,2,0,L|157:155,1,80,2|0,0:0|0:0,0:0:0:0:
167,56,1321916,1,8,0:0:0:0:
167,56,1322129,1,0,0:0:0:0:
80,174,1322342,5,2,0:0:0:0:
236,342,1322555,1,0,0:0:0:0:
236,342,1322661,1,0,0:0:0:0:
236,342,1322767,2,0,P|278:348|318:357,1,80,8|0,0:0|0:0,0:0:0:0:
478,156,1323193,6,0,L|468:282,1,120,2|0,0:0|0:0,0:0:0:0:
444,108,1323619,6,0,L|454:234,1,120,8|0,0:0|0:0,0:0:0:0:
500,304,1324044,6,0,B|463:319|463:319|418:310,1,80,4|0,3:0|0:0,0:0:0:0:
297,376,1324470,1,2,0:0:0:0:
297,376,1324612,2,0,L|245:383,1,53.3333333333333
227,311,1324895,1,2,0:0:0:0:
227,311,1325037,2,0,L|175:304,1,53.3333333333333
130,227,1325321,5,2,0:0:0:0:
128,219,1325427,1,0,0:0:0:0:
127,211,1325533,1,0,0:0:0:0:
126,203,1325640,1,0,0:0:0:0:
125,194,1325746,2,0,L|115:96,1,80,0|0,0:0|0:0,0:0:0:0:
44,253,1326172,5,10,0:0:0:0:
125,194,1326385,1,0,0:0:0:0:
261,340,1326597,2,0,P|318:349|344:355,1,80,0|0,1:0|0:0,0:0:0:0:
339,353,1326917,1,0,0:0:0:0:
339,353,1327023,1,8,0:0:0:0:
448,300,1327236,1,0,0:0:0:0:
360,91,1327449,6,0,P|303:91|248:151,1,120,2|0,0:0|0:0,0:0:0:0:
159,231,1327874,2,0,L|91:223,2,53.3333333333333,8|0|0,0:0|0:0|0:0,0:0:0:0:
159,231,1328300,1,2,0:0:0:0:
318,164,1328512,1,0,0:0:0:0:
399,346,1328725,1,8,0:0:0:0:
399,346,1328832,1,0,0:0:0:0:
399,346,1328938,1,0,0:0:0:0:
486,204,1329151,5,2,0:0:0:0:
403,356,1329364,1,0,0:0:0:0:
248,279,1329576,2,0,P|205:285|168:292,1,80,8|0,0:0|0:0,0:0:0:0:
38,180,1330002,2,0,P|77:187|116:192,1,80,2|0,0:0|0:0,0:0:0:0:
341,68,1330427,5,0,1:0:0:0:
341,68,1330534,1,0,3:0:0:0:
262,249,1330747,1,0,3:0:0:0:
262,249,1330853,1,0,1:0:0:0:
121,107,1331066,1,0,3:0:0:0:
262,249,1331279,5,0,1:0:0:0:
363,322,1331491,1,0,3:0:0:0:
454,93,1331704,6,0,L|458:64,2,20,2|0|0,0:0|0:0|0:0,0:0:0:0:
396,201,1331917,2,0,L|352:205,1,40,2|0,0:0|0:0,0:0:0:0:
230,86,1332130,2,0,L|269:82,1,40,2|0,0:0|0:0,0:0:0:0:
160,221,1332342,1,0,0:0:0:0:
144,222,1332448,1,0,0:0:0:0:
128,223,1332554,5,4,3:0:0:0:
340,155,1346175,6,0,P|322:110|274:27,1,120.000004577637,2|2,0:0|0:0,0:0:0:0:
416,108,1346814,1,0,0:0:0:0:
376,240,1347027,1,2,0:0:0:0:
376,240,1347133,2,0,P|424:252|472:259,1,90.0000034332277,0|2,0:0|0:0,0:0:0:0:
464,258,1347665,1,2,0:0:0:0:
295,276,1347878,6,0,P|241:296|181:331,1,120.000004577637,2|2,0:0|0:0,0:0:0:0:
186,326,1348516,1,0,0:0:0:0:
75,310,1348729,1,2,0:0:0:0:
75,310,1348836,1,0,0:0:0:0:
91,198,1349049,1,0,0:0:0:0:
91,198,1349155,1,2,0:0:0:0:
203,215,1349368,1,2,0:0:0:0:
91,198,1349581,6,0,P|85:135|72:64,1,120.000004577637,2|2,0:0|0:0,0:0:0:0:
185,55,1350219,1,2,0:0:0:0:
294,119,1350432,1,2,0:0:0:0:
406,100,1350645,2,0,L|442:92,3,20.0000007629395,0|0|0|0,0:0|0:0|0:0|0:0,0:0:0:0:
357,217,1351070,1,2,0:0:0:0:
204,170,1351283,6,0,P|163:137|116:87,1,120.000004577637,0|2,0:0|0:0,0:0:0:0:
167,249,1351922,1,0,0:0:0:0:
284,213,1352135,2,0,P|326:206|369:202,1,60.0000022888184,2|0,0:0|0:0,0:0:0:0:
434,205,1352560,2,0,L|472:207,5,20.0000007629395,0|0|0|0|0|0,0:0|0:0|0:0|0:0|0:0|0:0,0:0:0:0:
434,205,1352986,5,6,0:0:0:0:
434,205,1353092,2,0,P|372:210|275:219,1,150.000005722046
205,291,1353837,5,4,2:1:0:0:
205,291,1353944,2,0,P|151:266|106:251,1,90.0000034332277,0|2,0:0|0:0,0:0:0:0:
20,231,1354476,2,0,L|3:194,3,30.0000011444092,2|0|2|0,0:0|0:0|0:0|0:0,0:0:0:0:
122,155,1355008,1,0,0:0:0:0:
122,155,1355114,2,0,L|134:127,4,30.0000011444092,2|0|0|0|2,0:0|0:0|0:0|0:0|0:0,0:0:0:0:
314,336,1355966,1,2,0:0:0:0:
442,306,1356178,1,2,0:0:0:0:
314,336,1356391,6,0,P|328:261|334:194,1,120.000004577637,6|2,0:0|0:0,0:0:0:0:
207,227,1357030,1,2,0:0:0:0:
73,200,1357242,1,6,0:0:0:0:
97,64,1357455,2,0,L|103:30,3,20.0000007629395,0|0|0|0,0:0|0:0|0:0|0:0,0:0:0:0:
73,200,1357881,1,2,0:0:0:0:
207,227,1358094,5,4,0:0:0:0:
73,200,1358306,1,6,0:0:0:0:
50,331,1358519,1,0,0:0:0:0:
50,331,1358626,1,0,0:0:0:0:
50,331,1358732,2,0,L|18:322,5,20.0000007629395,2|0|0|6|0|0,0:0|0:0|0:0|0:0|0:0|0:0,0:0:0:0:
128,288,1359158,5,0,0:0:0:0:
128,288,1359264,2,4,B|256:480|384:288|384:288,1,320,0|4,0:0|2:1,2:1:0:0:
429,225,1359796,6,0,P|438:154|450:57,1,132.00000402832,6|0,0:0|0:0,0:0:0:0:
287,131,1360222,2,0,P|279:71|271:8,1,88.000002685547,10|0,0:0|0:0,0:0:0:0:
217,215,1360648,2,0,P|225:285|234:366,1,132.00000402832,2|0,0:0|0:0,0:0:0:0:
68,232,1361073,2,0,P|76:176|84:112,1,88.000002685547,10|2,0:0|0:0,0:0:0:0:
315,218,1361499,6,0,P|370:235|474:253,1,132.00000402832,2|0,0:0|0:0,0:0:0:0:
236,276,1361925,2,0,P|194:291|134:329,1,88.000002685547,10|0,0:0|0:0,0:0:0:0:
156,312,1362244,1,0,0:0:0:0:
156,312,1362350,2,0,P|166:240|167:154,1,132.00000402832,2|0,0:0|0:0,0:0:0:0:
268,48,1362776,2,0,P|260:109|256:150,1,88.000002685547,10|2,0:0|0:0,0:0:0:0:
432,345,1363202,6,0,P|394:294|351:199,1,132.00000402832,2|0,0:0|0:0,0:0:0:0:
363,233,1363627,2,0,P|416:240|481:247,1,88.000002685547,10|2,0:0|0:0,0:0:0:0:
253,324,1364053,2,0,P|200:317|135:310,1,88.000002685547,2|0,0:0|0:0,0:0:0:0:
165,313,1364337,2,0,L|157:273,2,29.3333342285157,0|0|8,0:0|0:0|0:0,0:0:0:0:
265,224,1364691,1,2,0:0:0:0:
20,224,1364904,6,0,P|92:214|160:203,1,132.00000402832,0|0,0:0|0:0,0:0:0:0:
280,117,1365330,2,0,P|237:104|196:90,1,88.000002685547,10|0,0:0|0:0,0:0:0:0:
280,224,1365755,2,0,P|306:277|326:362,1,132.00000402832,2|0,0:0|0:0,0:0:0:0:
360,176,1366181,2,0,P|367:138|388:72,1,88.000002685547,8|0,0:0|0:0,0:0:0:0:
380,90,1366500,1,0,0:0:0:0:
380,90,1366607,6,0,P|293:97|211:101,1,132.00000402832,6|0,0:0|0:0,0:0:0:0:
161,228,1367032,2,0,P|100:223|42:219,1,88.000002685547,10|0,0:0|0:0,0:0:0:0:
318,215,1367458,2,0,P|387:225|489:240,1,132.00000402832,2|0,0:0|0:0,0:0:0:0:
256,308,1367884,2,0,P|217:315|141:326,1,88.000002685547,10|2,0:0|0:0,0:0:0:0:
39,202,1368309,6,0,P|68:163|118:61,1,132.00000402832,2|0,0:0|0:0,0:0:0:0:
107,89,1368735,2,0,L|4:96,1,88.000002685547,10|0,0:0|0:0,0:0:0:0:
208,128,1369161,2,0,P|272:107|360:89,1,132.00000402832,2|0,0:0|0:0,0:0:0:0:
335,92,1369586,5,10,0:0:0:0:
482,126,1369799,1,2,0:0:0:0:
335,92,1370012,1,2,0:0:0:0:
176,203,1370331,1,0,0:0:0:0:
176,203,1370438,1,10,0:0:0:0:
29,236,1370651,1,0,0:0:0:0:
176,203,1370863,1,2,0:0:0:0:
212,336,1371076,2,0,L|223:370,3,29.3333342285157,0|0|0|8,0:0|0:0|0:0|0:0,0:0:0:0:
176,203,1371502,1,2,0:0:0:0:
309,304,1371715,6,0,P|359:335|449:371,1,132.00000402832,0|0,0:0|0:0,0:0:0:0:
212,336,1372140,2,0,P|172:314|99:289,1,88.000002685547,10|0,0:0|0:0,0:0:0:0:
132,298,1372459,1,0,0:0:0:0:
132,298,1372566,2,0,L|236:273,1,88.000002685547,2|0,0:0|0:0,0:0:0:0:
446,221,1372992,1,8,0:0:0:0:
446,221,1373098,1,0,0:0:0:0:
446,221,1373204,1,4,0:0:0:0:
446,221,1373311,1,0,0:0:0:0:
446,221,1373417,6,0,P|451:153|459:59,1,132.00000402832,6|0,0:0|0:0,0:0:0:0:
305,116,1373843,2,0,P|245:126|184:136,1,88.000002685547,10|0,0:0|0:0,0:0:0:0:
0,305,1374268,2,0,P|88:318|154:326,1,132.00000402832,2|0,0:0|0:0,0:0:0:0:
100,153,1374694,2,0,P|90:107|75:33,1,88.000002685547,10|2,0:0|0:0,0:0:0:0:
233,181,1375120,6,0,P|292:214|380:240,1,132.00000402832,2|0,0:0|0:0,0:0:0:0:
151,229,1375545,2,0,P|101:252|47:294,1,88.000002685547,10|0,0:0|0:0,0:0:0:0:
73,270,1375971,2,0,P|94:191|109:110,1,132.00000402832,2|0,0:0|0:0,0:0:0:0:
285,36,1376397,2,0,P|275:83|266:134,1,88.000002685547,10|2,0:0|0:0,0:0:0:0:
267,122,1376716,1,0,0:0:0:0:
267,122,1376822,6,0,P|221:78|146:31,1,132.00000402832,2|0,0:0|0:0,0:0:0:0:
361,99,1377248,2,0,P|415:108|477:114,2,88.000002685547,10|2|0,0:0|0:0|0:0,0:0:0:0:
207,196,1377887,2,0,L|160:201,3,29.3333342285157,0|0|0|8,0:0|0:0|0:0|0:0,0:0:0:0:
359,292,1378312,1,2,0:0:0:0:
207,196,1378525,6,0,P|131:212|59:240,1,132.00000402832
80,230,1378951,2,0,P|91:184|107:108,1,88.000002685547,10|0,0:0|0:0,0:0:0:0:
260,264,1379376,2,0,P|249:310|233:386,1,88.000002685547,2|0,0:0|0:0,0:0:0:0:
380,116,1379802,1,10,0:0:0:0:
380,116,1379908,1,0,0:0:0:0:
380,116,1380015,1,0,0:0:0:0:
380,116,1380121,1,0,0:0:0:0:
380,116,1380228,6,0,P|324:104|220:80,1,132.00000402832,2|0,0:0|0:0,0:0:0:0:
72,60,1380653,2,0,P|80:116|88:172,1,88.000002685547,10|0,0:0|0:0,0:0:0:0:
196,352,1381079,2,0,P|192:288|188:192,1,132.00000402832,2|0,0:0|0:0,0:0:0:0:
188,220,1381505,1,10,0:0:0:0:
320,188,1381717,1,2,0:0:0:0:
452,252,1381930,6,0,P|424:192|400:96,1,132.00000402832,2|0,0:0|0:0,0:0:0:0:
364,272,1382356,2,0,P|348:324|320:376,1,88.000002685547,10|0,0:0|0:0,0:0:0:0:
333,354,1382782,2,0,P|400:340|464:336,1,132.00000402832,2|0,0:0|0:0,0:0:0:0:
463,336,1383207,1,10,0:0:0:0:
256,300,1383420,2,0,L|172:288,2,44.0000013427735,2|0|6,0:0|0:0|0:0,0:0:0:0:
52,240,1383952,5,0,0:0:0:0:
52,240,1384058,1,10,0:0:0:0:
188,212,1384271,1,0,0:0:0:0:
88,100,1384484,1,10,0:0:0:0:
236,72,1384697,2,0,L|248:28,3,29.3333342285157,0|0|0|8,0:0|0:0|0:0|0:0,0:0:0:0:
188,212,1385123,1,2,0:0:0:0:
188,212,1385229,1,0,0:0:0:0:
188,212,1385335,5,2,0:0:0:0:
248,352,1385548,1,0,0:0:0:0:
395,293,1385761,1,2,0:0:0:0:
335,153,1385974,1,0,0:0:0:0:
474,24,1386187,1,2,0:0:0:0:
465,48,1386293,1,0,0:0:0:0:
459,74,1386400,1,0,0:0:0:0:
455,100,1386506,1,0,0:0:0:0:
453,126,1386612,1,0,0:0:0:0:
429,114,1386719,1,0,0:0:0:0:
407,98,1386825,1,2,0:0:0:0:
387,80,1386932,1,0,0:0:0:0:
387,80,1387038,6,0,P|331:74|257:67,1,120.000004577637,0|0,0:0|0:0,0:0:0:0:
92,153,1387357,2,0,P|151:147|211:140,1,120.000004577637
334,203,1387677,2,0,L|403:213,1,60.0000022888184
394,213,1387889,6,0,P|411:167|416:106,1,100,4|0,1:0|0:0,0:0:0:0:
306,245,1388314,1,0,1:0:0:0:
232,184,1388527,1,2,0:0:0:0:
254,91,1388740,1,0,1:0:0:0:
346,60,1388953,1,0,1:0:0:0:
346,60,1389059,1,0,0:0:0:0:
346,60,1389166,1,4,0:0:0:0:
232,184,1389379,6,0,P|181:189|23:215,1,200,0|2,1:0|0:0,0:0:0:0:
23,216,1389911,1,0,0:0:0:0:
14,221,1390017,1,0,1:0:0:0:
129,16,1390230,2,0,L|146:134,1,100,0|0,1:0|1:0,0:0:0:0:
48,340,1390656,1,2,0:0:0:0:
28,212,1390869,1,4,1:0:0:0:
69,200,1391294,5,4,1:0:0:0:
87,322,1391507,1,0,0:0:0:0:
156,185,1391720,1,0,1:0:0:0:
156,185,1391827,1,0,0:0:0:0:
156,185,1391933,2,0,P|151:146|130:75,1,100,8|0,1:2|0:0,0:0:0:0:
60,211,1392359,2,0,P|164:189|196:186,1,100,0|8,0:0|0:0,0:0:0:0:
107,375,1392785,6,0,P|93:319|82:262,1,100,0|0,0:0|1:0,0:0:0:0:
84,277,1393104,1,0,0:0:0:0:
84,277,1393210,1,0,0:0:0:0:
192,313,1393423,1,0,1:0:0:0:
230,212,1393636,1,12,0:0:0:0:
26,359,1393849,1,4,1:0:0:0:
26,359,1394275,5,12,1:2:0:0:
84,277,1394488,1,0,0:0:0:0:
134,185,1394700,2,0,P|91:191|29:188,1,100,4|0,1:0|0:0,0:0:0:0:
24,188,1395020,1,0,0:0:0:0:
12,187,1395126,1,0,1:0:0:0:
84,277,1395339,6,0,P|168:270|258:280,1,150,8|0,0:0|0:0,0:0:0:0:
233,275,1395765,1,0,0:0:0:0:
187,350,1395978,1,8,0:0:0:0:
160,225,1396191,1,0,0:0:0:0:
265,69,1396403,1,0,1:0:0:0:
226,203,1396616,1,0,0:0:0:0:
187,350,1396829,1,2,0:0:0:0:
187,350,1397255,5,2,0:0:0:0:
358,267,1397468,1,2,0:0:0:0:
358,267,1397681,1,0,1:0:0:0:
187,350,1397893,1,0,0:0:0:0:
69,230,1398106,1,4,1:0:0:0:
232,112,1398319,2,0,P|249:37|248:8,1,100,0|8,0:0|0:0,0:0:0:0:
201,24,1398639,1,0,0:0:0:0:
156,36,1398745,1,2,0:0:0:0:
69,230,1398958,6,0,P|115:247|163:262,2,100,0|0|12,1:0|0:0|0:0,0:0:0:0:
319,196,1399596,2,0,P|375:170|481:161,1,150
463,281,1400022,1,2,0:0:0:0:
319,194,1400235,1,0,1:0:0:0:
450,43,1400448,1,12,0:0:0:0:
319,194,1400661,2,0,P|303:135|293:78,1,100
293,283,1401087,1,12,0:0:0:0:
293,283,1401512,6,0,P|383:287|474:287,1,150,4|0,1:0|0:0,0:0:0:0:
442,287,1401938,1,0,1:0:0:0:
202,333,1402151,1,2,0:0:0:0:
229,218,1402364,1,0,1:0:0:0:
229,218,1402470,1,0,0:0:0:0:
229,218,1402577,2,0,P|171:230|108:253,1,100,0|8,0:0|0:0,0:0:0:0:
314,177,1403002,6,0,P|386:194|475:209,1,150,0|0,1:0|0:0,0:0:0:0:
367,274,1403428,1,2,0:0:0:0:
318,175,1403641,1,0,1:0:0:0:
283,83,1403854,1,4,0:0:0:0:
386,100,1404067,1,0,1:0:0:0:
386,100,1404173,1,0,0:0:0:0:
386,100,1404280,2,0,P|337:159|296:190,1,100,0|0,0:0|1:0,0:0:0:0:
126,284,1404705,5,0,0:0:0:0:
126,284,1404811,1,0,0:0:0:0:
126,284,1404918,2,0,P|175:225|216:194,1,100,4|0,1:0|0:0,0:0:0:0:
271,93,1405344,1,0,1:0:0:0:
287,184,1405557,1,8,0:0:0:0:
382,220,1405770,1,2,0:0:0:0:
464,162,1405983,1,0,0:0:0:0:
464,162,1406089,1,0,0:0:0:0:
464,162,1406195,1,8,0:0:0:0:
271,93,1406408,5,0,0:0:0:0:
253,89,1406515,1,0,0:0:0:0:
234,88,1406621,1,0,1:0:0:0:
216,89,1406728,1,0,0:0:0:0:
197,93,1406834,1,0,0:0:0:0:
0,240,1407047,1,0,1:0:0:0:
56,161,1407260,5,8,2:0:0:0:
74,165,1407367,1,2,0:0:0:0:
93,166,1407473,1,0,1:0:0:0:
111,165,1407580,1,2,0:0:0:0:
130,161,1407686,1,0,0:0:0:0:
197,93,1407899,1,8,1:2:0:0:
130,162,1408111,1,0,0:0:0:0:
213,217,1408324,5,4,1:0:0:0:
279,140,1408537,2,0,P|291:76|306:26,1,100,4|0,1:2|1:0,0:0:0:0:
130,162,1408963,2,0,P|139:233|141:302,1,100,0|4,0:0|0:0,0:0:0:0:
141,351,1409389,1,2,0:0:0:0:
31,327,1409601,1,8,0:0:0:0:
31,184,1409814,5,0,0:0:0:0:
31,184,1409921,1,0,0:0:0:0:
31,184,1410027,2,0,P|34:103|34:67,1,100,0|0,1:0|1:0,0:0:0:0:
225,150,1410453,1,0,1:0:0:0:
133,176,1410666,1,4,0:0:0:0:
225,150,1410879,1,2,0:0:0:0:
324,177,1411092,1,0,0:0:0:0:
418,155,1411304,1,8,0:0:0:0:
324,177,1411517,5,2,0:0:0:0:
324,177,1411624,1,0,0:0:0:0:
324,177,1411730,2,0,P|316:243|314:284,1,100,4|0,1:0|0:0,0:0:0:0:
137,227,1412156,1,0,1:0:0:0:
155,138,1412369,1,4,0:0:0:0:
234,206,1412582,5,2,0:0:0:0:
214,298,1412795,1,0,0:0:0:0:
50,262,1413007,1,4,0:0:0:0:
59,165,1413220,1,2,0:0:0:0:
252,116,1413433,2,0,L|257:89,11,26.6666666666667,0|0|0|0|0|0|0|0|0|0|0|0,1:0|1:0|1:0|1:0|1:0|1:0|1:0|1:0|1:0|1:0|1:0|1:0,1:0:0:0:
276,97,1414279,2,0,P|337:102|381:98,1,80,4|0,1:0|0:0,0:0:0:0:
135,95,1414702,5,0,1:0:0:0:
135,95,1414808,1,2,0:0:0:0:
135,95,1414914,1,0,1:0:0:0:
135,95,1415126,6,0,P|140:136|143:231,1,120,6|0,0:0|0:0,0:0:0:0:
56,336,1415551,2,0,L|49:247,1,80,2|0,0:0|0:0,0:0:0:0:
245,170,1415977,6,0,L|238:252,1,80,2|0,0:0|0:0,0:0:0:0:
238,249,1416296,1,0,0:0:0:0:
238,249,1416402,1,0,1:0:0:0:
135,95,1416615,1,2,0:0:0:0:
304,48,1416828,6,0,L|436:40,1,120,0|0,1:0|0:0,0:0:0:0:
512,140,1417253,2,0,L|421:134,1,80,0|0,1:0|0:0,0:0:0:0:
244,180,1417679,6,0,P|240:236|248:312,1,120,0|0,1:0|0:0,0:0:0:0:
320,364,1418104,1,0,1:0:0:0:
352,356,1418211,1,0,0:0:0:0:
384,348,1418317,1,2,0:0:0:0:
244,180,1418530,6,0,L|117:210,1,120,0|0,0:0|0:0,0:0:0:0:
44,136,1418955,1,0,1:0:0:0:
184,288,1419168,1,2,0:0:0:0:
248,84,1419381,6,0,L|162:104,1,80,0|0,0:0|0:0,0:0:0:0:
170,102,1419700,1,0,0:0:0:0:
170,102,1419806,1,0,1:0:0:0:
316,232,1420019,1,2,0:0:0:0:
384,56,1420232,5,0,1:0:0:0:
424,180,1420445,1,2,0:0:0:0:
398,168,1420551,1,0,0:0:0:0:
373,156,1420657,1,0,1:0:0:0:
500,100,1420870,1,2,0:0:0:0:
460,296,1421083,6,0,P|416:316|332:324,1,120,0|0,1:0|0:0,0:0:0:0:
194,258,1421508,2,0,P|239:263|281:281,1,80,0|0,1:0|0:0,0:0:0:0:
272,276,1421828,1,0,0:0:0:0:
272,276,1421934,6,0,L|264:132,1,120,0|0,1:0|0:0,0:0:0:0:
200,88,1422360,2,0,P|154:93|112:111,1,80,0|0,1:0|0:0,0:0:0:0:
60,264,1422785,2,0,L|148:280,1,80,0|0,1:0|0:0,0:0:0:0:
138,278,1423104,1,0,0:0:0:0:
138,278,1423211,1,0,1:0:0:0:
122,105,1423423,1,2,0:0:0:0:
52,360,1423636,5,0,1:0:0:0:
138,278,1423849,1,2,0:0:0:0:
135,248,1423955,1,0,0:0:0:0:
132,220,1424062,1,0,1:0:0:0:
240,348,1424274,1,2,0:0:0:0:
352,212,1424487,6,0,L|344:291,1,80,0|0,1:0|0:0,0:0:0:0:
468,360,1424913,1,2,0:0:0:0:
464,328,1425019,1,0,0:0:0:0:
461,296,1425125,1,0,1:0:0:0:
496,116,1425338,6,0,P|452:116|372:84,1,120,0|0,1:0|0:0,0:0:0:0:
312,28,1425764,1,0,1:0:0:0:
352,212,1425977,1,2,0:0:0:0:
184,76,1426189,6,0,L|176:160,1,80,0|0,1:0|0:0,0:0:0:0:
176,155,1426508,1,0,0:0:0:0:
176,155,1426615,1,0,1:0:0:0:
312,28,1426828,1,2,0:0:0:0:
352,212,1427040,6,0,L|364:345,1,120,0|0,1:0|0:0,0:0:0:0:
448,364,1427466,1,0,1:0:0:0:
248,256,1427679,1,2,0:0:0:0:
432,152,1427891,6,0,P|388:120|312:120,1,120,0|0,1:0|0:0,0:0:0:0:
172,184,1428317,2,0,P|212:180|248:160,1,80,0|0,1:0|0:0,0:0:0:0:
246,161,1428636,1,0,0:0:0:0:
246,161,1428743,6,0,L|240:292,1,120,0|0,1:0|0:0,0:0:0:0:
308,348,1429168,1,0,1:0:0:0:
144,276,1429381,1,2,0:0:0:0:
340,240,1429594,6,0,L|444:232,1,80,0|0,1:0|0:0,0:0:0:0:
419,233,1429913,1,0,0:0:0:0:
419,233,1430019,1,0,1:0:0:0:
246,161,1430232,1,2,0:0:0:0:
336,36,1430445,6,0,P|344:76|340:120,1,80,0|0,1:0|0:0,0:0:0:0:
341,114,1430764,1,0,0:0:0:0:
341,114,1430870,2,0,L|432:104,1,80,0|0,1:0|0:0,0:0:0:0:
246,161,1431296,2,0,L|155:171,1,80,0|0,1:0|0:0,0:0:0:0:
324,284,1431721,1,2,0:0:0:0:
328,252,1431827,1,0,0:0:0:0:
332,220,1431934,1,0,0:0:0:0:
165,50,1432147,6,0,P|159:110|166:170,1,120,0|0,1:0|0:0,0:0:0:0:
204,256,1432572,1,0,1:0:0:0:
256,84,1432785,1,2,0:0:0:0:
46,158,1432998,6,0,L|182:170,1,120,0|0,1:0|0:0,0:0:0:0:
264,180,1433423,1,0,1:0:0:0:
144,332,1433636,1,2,0:0:0:0:
422,278,1433849,6,0,L|286:266,1,120,0|0,1:0|0:0,0:0:0:0:
204,256,1434274,1,0,1:0:0:0:
324,104,1434487,1,2,0:0:0:0:
422,278,1434700,6,0,L|432:368,1,80,0|0,1:0|0:0,0:0:0:0:
430,357,1435019,1,0,0:0:0:0:
430,357,1435126,1,0,1:0:0:0:
268,177,1435338,1,2,0:0:0:0:
268,177,1435445,1,0,0:0:0:0:
268,177,1435551,5,0,1:0:0:0:
324,104,1435764,1,2,0:0:0:0:
304,268,1435977,5,0,1:0:0:0:
172,172,1436189,1,2,0:0:0:0:
172,364,1436402,5,0,1:0:0:0:
304,268,1436614,1,2,0:0:0:0:
172,172,1436828,2,0,L|80:184,1,80,0|0,1:0|0:0,0:0:0:0:
304,268,1437253,6,0,L|439:250,1,120,0|0,1:0|0:0,0:0:0:0:
496,312,1437679,1,0,1:0:0:0:
348,168,1437891,1,2,0:0:0:0:
232,336,1438104,6,0,P|212:288|224:216,1,120,0|0,1:0|0:0,0:0:0:0:
260,136,1438530,2,0,L|244:48,1,80,0|0,1:0|0:0,0:0:0:0:
245,57,1438849,1,0,0:0:0:0:
245,57,1438955,6,0,P|296:76|392:72,1,120,0|0,1:0|0:0,0:0:0:0:
168,128,1439381,2,0,P|136:128|80:140,1,80,0|0,1:0|0:0,0:0:0:0:
280,228,1439806,2,0,P|312:228|368:216,1,80,0|0,1:0|0:0,0:0:0:0:
359,218,1440126,1,0,0:0:0:0:
359,218,1440232,1,0,1:0:0:0:
168,128,1440445,1,2,0:0:0:0:
266,347,1440657,6,0,L|282:203,1,120,4|0,0:0|0:0,0:0:0:0:
168,128,1441085,2,0,L|178:223,1,80,2|0,0:0|0:0,0:0:0:0:
340,104,1441514,1,2,0:0:0:0:
343,72,1441621,1,0,0:0:0:0:
347,40,1441728,1,2,0:0:0:0:
248,152,1441942,1,8,0:0:0:0:
440,84,1442157,5,0,0:0:0:0:
444,116,1442264,1,2,0:0:0:0:
448,148,1442371,1,0,0:0:0:0:
452,180,1442478,1,0,0:0:0:0:
456,212,1442585,1,0,0:0:0:0:
316,284,1442799,5,8,0:0:0:0:
456,212,1443014,1,0,0:0:0:0:
460,376,1443228,5,2,0:0:0:0:
316,284,1443442,1,2,0:0:0:0:
312,252,1443549,1,0,0:0:0:0:
308,220,1443656,1,8,0:0:0:0:
179,376,1443871,1,2,0:0:0:0:
303,185,1444069,5,2,0:0:0:0:
460,376,1444281,1,2,0:0:0:0:
228,276,1444494,2,0,L|148:284,1,80,8|0,0:0|0:0,0:0:0:0:
100,384,1444813,1,0,0:0:0:0:
100,384,1444920,2,0,L|180:376,1,80,2|0,0:0|0:0,0:0:0:0:
344,320,1445345,5,8,0:0:0:0:
339,283,1445451,1,0,0:0:0:0:
333,247,1445557,1,2,0:0:0:0:
327,211,1445664,1,0,0:0:0:0:
320,175,1445771,6,0,L|417:184,1,80,2|0,0:0|0:0,0:0:0:0:
280,60,1446196,1,8,0:0:0:0:
180,224,1446409,1,2,0:0:0:0:
48,40,1446622,6,0,L|136:48,1,80,2|0,0:0|0:0,0:0:0:0:
127,47,1446941,1,0,0:0:0:0:
127,47,1447048,1,8,0:0:0:0:
320,175,1447260,1,2,0:0:0:0:
196,352,1447473,6,0,P|140:348|84:304,1,120,2|0,0:0|0:0,0:0:0:0:
272,284,1447898,2,0,P|312:288|364:308,1,80,8|0,0:0|0:0,0:0:0:0:
424,364,1448217,1,0,0:0:0:0:
452,216,1448324,6,0,L|449:196,4,20,2|0|0|0|0,0:0|0:0|0:0|0:0|0:0,0:0:0:0:
378,119,1448643,1,0,0:0:0:0:
384,84,1448749,6,0,L|392:28,1,40,8|0,0:0|0:0,0:0:0:0:
292,236,1449069,1,0,0:0:0:0:
296,270,1449175,1,4,0:3:0:0:
136,160,1449388,6,0,L|224:168,1,80,4|0,0:0|0:0,0:0:0:0:
460,312,1449707,2,0,L|372:320,1,80,4|0,0:0|0:0,0:0:0:0:
116,132,1450026,6,0,L|204:140,1,80,4|0,0:0|0:0,0:0:0:0:
484,336,1450345,2,0,L|396:344,1,80,4|0,0:0|0:0,0:0:0:0:
100,104,1450664,6,0,L|188:112,1,80,4|0,0:0|0:0,0:0:0:0:
340,176,1450877,6,0,P|348:124|344:40,1,120,4|0,1:0|0:0,0:0:0:0:
432,80,1451303,2,0,L|512:68,1,80,2|0,0:0|0:0,0:0:0:0:
280,240,1451728,2,0,L|200:228,1,80,2|0,0:0|0:0,0:0:0:0:
200,228,1452047,1,0,0:0:0:0:
200,228,1452154,1,2,0:0:0:0:
64,84,1452366,6,0,P|120:32|220:36,1,160,2|0,0:0|0:0,0:0:0:0:
344,128,1453005,2,0,P|312:128|268:112,1,80,2|0,0:0|0:0,0:0:0:0:
436,40,1453430,5,2,0:0:0:0:
416,224,1453643,1,2,0:0:0:0:
420,248,1453749,1,0,0:0:0:0:
424,272,1453856,1,2,0:0:0:0:
428,296,1453962,1,0,0:0:0:0:
432,320,1454069,1,2,0:0:0:0:
264,296,1454281,6,0,L|352:283,2,80,0|0|0,0:0|0:0|0:0,0:0:0:0:
292,200,1454920,1,2,0:0:0:0:
188,344,1455132,1,2,0:0:0:0:
174,310,1455239,1,0,0:0:0:0:
177,274,1455345,1,0,0:0:0:0:
320,384,1455558,1,2,0:0:0:0:
428,240,1455771,1,2,0:0:0:0:
280,120,1455983,6,0,L|291:200,1,80,2|0,0:0|0:0,0:0:0:0:
290,199,1456303,1,0,0:0:0:0:
290,199,1456409,1,2,0:0:0:0:
164,92,1456622,1,0,0:0:0:0:
316,28,1456834,6,0,L|400:32,1,80,2|0,0:0|0:0,0:0:0:0:
164,92,1457260,2,0,L|80:88,1,80,2|0,0:0|0:0,0:0:0:0:
56,112,1457579,1,0,0:0:0:0:
67,136,1457685,5,2,0:0:0:0:
74,161,1457791,1,0,0:0:0:0:
77,188,1457898,1,0,0:0:0:0:
76,214,1458004,1,0,0:0:0:0:
70,240,1458110,1,2,0:0:0:0:
0,372,1458324,1,0,0:0:0:0:
164,348,1458537,5,2,0:0:0:0:
140,344,1458643,1,0,0:0:0:0:
117,340,1458749,1,0,0:0:0:0:
184,216,1458962,2,0,L|292:196,1,80,2|0,0:0|0:0,0:0:0:0:
288,168,1459281,1,0,0:0:0:0:
274,140,1459387,5,2,0:0:0:0:
267,113,1459493,1,0,0:0:0:0:
263,83,1459600,1,0,0:0:0:0:
265,55,1459706,1,0,0:0:0:0:
271,26,1459812,1,2,0:0:0:0:
392,88,1460026,5,2,0:0:0:0:
148,156,1460239,1,2,0:0:0:0:
116,152,1460345,1,0,0:0:0:0:
84,148,1460451,1,0,0:0:0:0:
204,328,1460664,6,0,L|212:224,1,80,4|0,0:0|0:0,0:0:0:0:
240,212,1460983,1,0,0:0:0:0:
273,228,1461089,5,2,0:0:0:0:
304,236,1461195,1,0,0:0:0:0:
340,241,1461302,1,2,0:0:0:0:
373,239,1461408,1,0,0:0:0:0:
407,232,1461514,1,2,0:0:0:0:
336,120,1461728,5,2,0:0:0:0:
412,352,1461941,1,0,0:0:0:0:
412,352,1462047,1,0,0:0:0:0:
412,352,1462154,1,0,0:0:0:0:
500,132,1462366,5,2,0:0:0:0:
300,288,1462579,1,2,0:0:0:0:
128,128,1462792,6,0,L|141:284,1,143.999995605469,4|0,0:0|0:0,0:0:0:0:
320,348,1463856,5,2,0:0:0:0:
320,348,1463962,1,0,0:0:0:0:
3,384,1464175,1,0,0:0:0:0:
3,384,1464281,1,2,0:0:0:0:
255,189,1464494,5,4,0:0:0:0:
256,192,1474708,12,0,1476839,0:0:0:0:
256,192,1477052,6,0,L|266:254,1,51.999997619629,4|0,0:0|0:0,0:0:0:0:
337,318,1477265,1,2,0:0:0:0:
169,234,1477478,1,0,0:0:0:0:
345,138,1477692,1,0,0:0:0:0:
140,52,1477905,1,0,0:0:0:0:
140,52,1478011,1,0,0:0:0:0:
140,52,1478133,5,2,0:0:0:0:
236,112,1478345,1,0,0:0:0:0:
300,20,1478558,2,0,P|344:12|396:20,1,80
243,191,1478984,2,0,L|235:111,1,80,2|0,0:0|0:0,0:0:0:0:
340,240,1479409,1,2,0:0:0:0:
140,24,1479622,6,0,P|128:76|132:192,1,160,2|0,0:0|0:0,0:0:0:0:
314,118,1480260,2,0,L|235:111,1,80,8|0,0:0|0:0,0:0:0:0:
235,111,1480579,1,0,0:0:0:0:
235,111,1480686,1,2,0:0:0:0:
388,56,1480898,1,0,0:0:0:0:
312,224,1481111,5,8,0:0:0:0:
272,20,1481324,1,0,0:0:0:0:
130,182,1481537,6,0,L|136:276,1,80,2|0,0:0|0:0,0:0:0:0:
244,336,1481962,1,8,0:0:0:0:
312,224,1482175,1,0,0:0:0:0:
156,80,1482388,6,0,P|120:80|72:92,1,80,2|0,0:0|0:0,0:0:0:0:
228,152,1482813,1,8,0:0:0:0:
104,0,1483026,1,0,0:0:0:0:
36,184,1483239,5,2,0:0:0:0:
144,244,1483452,1,0,0:0:0:0:
228,152,1483664,1,8,0:0:0:0:
48,280,1483877,1,0,0:0:0:0:
48,280,1483984,1,0,0:0:0:0:
48,280,1484090,2,0,L|40:364,1,80,2|0,0:0|0:0,0:0:0:0:
128,144,1484515,2,0,L|120:64,1,80,8|0,0:0|0:0,0:0:0:0:
120,64,1484835,1,0,0:0:0:0:
120,64,1484941,5,2,0:0:0:0:
220,0,1485154,1,0,0:0:0:0:
308,76,1485367,1,8,0:0:0:0:
200,224,1485579,1,0,0:0:0:0:
120,64,1485792,2,0,L|24:56,1,80,2|0,0:0|0:0,0:0:0:0:
208,128,1486218,1,8,0:0:0:0:
116,324,1486430,6,0,P|104:252|116:156,1,160,2|0,0:0|0:0,0:0:0:0:
216,28,1487069,2,0,L|312:19,1,80,8|0,0:0|0:0,0:0:0:0:
295,21,1487388,1,0,0:0:0:0:
295,21,1487494,2,0,P|304:60|300:112,1,80,2|0,0:0|0:0,0:0:0:0:
420,224,1487920,2,0,P|418:184|426:145,1,80,8|0,0:0|0:0,0:0:0:0:
426,145,1488239,1,0,0:0:0:0:
426,145,1488345,5,2,0:0:0:0:
332,288,1488558,1,2,0:0:0:0:
204,164,1488771,1,8,0:0:0:0:
302,99,1488984,1,2,0:0:0:0:
200,264,1489196,5,2,0:0:0:0:
128,80,1489409,2,0,L|100:0,1,80,2|8,0:0|0:0,0:0:0:0:
112,192,1489835,1,2,0:0:0:0:
216,24,1490047,5,2,0:0:0:0:
302,99,1490259,1,0,0:0:0:0:
412,60,1490471,1,2,0:0:0:0:
512,308,1490683,6,0,L|460:300,1,51.999997619629,4|0,0:0|0:0,0:0:0:0:
396,240,1490895,5,2,0:0:0:0:
302,99,1491107,1,0,0:0:0:0:
164,192,1491319,1,8,0:0:0:0:
72,48,1491531,2,0,L|32:56,2,34.6666650797527,0|0|0,0:0|0:0|0:0,0:0:0:0:
104,64,1491743,6,0,L|192:48,1,80,4|0,0:0|0:0,0:0:0:0:
164,192,1492168,2,0,L|76:208,1,80,8|0,0:0|0:0,0:0:0:0:
224,364,1492594,1,2,0:0:0:0:
248,264,1492806,1,0,0:0:0:0:
272,164,1493019,1,8,0:0:0:0:
480,320,1493232,6,0,P|420:348|320:336,1,160,2|0,0:0|0:0,0:0:0:0:
180,196,1493870,1,8,0:0:0:0:
384,112,1494083,1,0,0:0:0:0:
384,112,1494189,1,0,0:0:0:0:
384,112,1494296,6,0,P|392:156|388:204,1,80,2|0,0:0|0:0,0:0:0:0:
248,88,1494721,2,0,P|246:48|254:8,1,80,8|0,0:0|0:0,0:0:0:0:
253,8,1495040,1,0,0:0:0:0:
253,8,1495147,5,2,0:0:0:0:
112,136,1495360,1,0,0:0:0:0:
248,268,1495572,1,2,0:0:0:0:
212,168,1495785,1,0,0:0:0:0:
216,368,1495998,5,2,0:0:0:0:
336,200,1496211,2,0,P|352:236|355:289,1,80,2|8,0:0|0:0,0:0:0:0:
140,300,1496636,1,2,0:0:0:0:
292,116,1496849,6,0,L|300:20,1,80,2|0,0:0|0:0,0:0:0:0:
133,220,1497274,2,0,L|139:299,1,80,8|0,0:0|0:0,0:0:0:0:
140,300,1497594,1,0,0:0:0:0:
139,299,1497700,5,2,0:0:0:0:
220,176,1497913,1,0,0:0:0:0:
120,72,1498125,1,8,0:0:0:0:
252,288,1498338,1,2,0:0:0:0:
272,276,1498445,1,0,0:0:0:0:
292,264,1498551,6,0,L|384:268,1,80,2|0,0:0|0:0,0:0:0:0:
472,168,1498977,1,8,0:0:0:0:
392,52,1499189,1,2,0:0:0:0:
372,268,1499402,6,0,L|384:364,1,80,2|0,0:0|0:0,0:0:0:0:
472,168,1499828,1,8,0:0:0:0:
296,72,1500040,6,0,P|224:100|128:92,1,160,2|0,0:0|0:0,0:0:0:0:
16,180,1500679,2,0,P|63:182|101:193,1,80,8|0,0:0|0:0,0:0:0:0:
94,190,1500998,1,0,0:0:0:0:
94,190,1501105,6,0,L|104:284,1,80,2|0,0:0|0:0,0:0:0:0:
268,380,1501530,2,0,L|275:300,1,80,8|0,0:0|0:0,0:0:0:0:
275,300,1501849,1,0,0:0:0:0:
275,300,1501955,5,2,0:0:0:0:
424,224,1502168,1,2,0:0:0:0:
400,228,1502274,1,0,0:0:0:0:
376,232,1502381,1,8,0:0:0:0:
164,140,1502594,5,2,0:0:0:0:
188,144,1502700,1,0,0:0:0:0:
212,148,1502807,1,8,0:0:0:0:
236,152,1502913,1,0,0:0:0:0:
260,156,1503020,2,0,L|304:164,1,40,4|4,0:0|0:0,0:0:0:0:
360,52,1503233,5,2,0:0:0:0:
336,56,1503339,1,0,0:0:0:0:
312,60,1503446,1,2,0:0:0:0:
288,64,1503552,1,0,0:0:0:0:
264,68,1503659,6,0,L|252:16,1,40,2|0,0:0|0:0,0:0:0:0:
212,148,1503873,2,0,L|224:200,1,40,8|0,0:0|0:0,0:0:0:0:
120,72,1504086,6,0,P|48:104|48:204,1,180.000006866455,4|0,0:0|0:0,0:0:0:0:
100,272,1504512,2,0,L|160:260,1,60.0000022888184,2|0,0:0|0:0,0:0:0:0:
290,133,1504725,6,0,L|206:149,1,80,4|0,0:0|0:0,0:0:0:0:
436,39,1504939,5,2,0:0:0:0:
432,47,1505045,1,0,0:0:0:0:
427,54,1505152,1,2,0:0:0:0:
422,61,1505258,1,0,0:0:0:0:
416,68,1505365,6,0,P|316:76|261:71,1,120,4|0,1:0|0:0,0:0:0:0:
259,52,1505790,1,0,1:0:0:0:
299,172,1506003,1,0,0:0:0:0:
196,350,1506216,1,2,0:0:0:0:
184,160,1506428,1,0,0:0:0:0:
316,303,1506641,1,0,1:0:0:0:
316,303,1506747,2,0,P|376:310|424:310,1,80
440,346,1507067,6,0,P|429:270|435:177,1,160,2|0,0:0|1:0,0:0:0:0:
316,303,1507705,1,2,0:0:0:0:
316,303,1507811,1,0,0:0:0:0:
316,303,1507918,1,2,0:0:0:0:
332,100,1508130,6,0,L|338:133,3,26.6666666666667,0|0|0|0,0:0|0:0|0:0|1:0,0:0:0:0:
368,234,1508556,1,2,0:0:0:0:
298,9,1508769,1,2,0:0:0:0:
261,204,1508982,1,0,0:0:0:0:
261,204,1509088,1,0,0:0:0:0:
261,204,1509194,2,0,P|205:208|107:200,1,120,0|0,1:0|0:0,0:0:0:0:
105,188,1509620,1,0,1:0:0:0:
226,306,1509833,5,2,0:0:0:0:
339,147,1510045,1,0,1:0:0:0:
339,147,1510152,1,0,0:0:0:0:
346,297,1510365,1,0,0:0:0:0:
346,297,1510471,6,0,B|403:304|446:297|445:297,1,80,2|0,0:0|0:0,0:0:0:0:
123,247,1510896,2,0,P|48:252|5:251,1,80,0|0,1:0|0:0,0:0:0:0:
376,211,1511322,1,2,0:0:0:0:
243,282,1511535,2,0,L|248:326,2,26.6666666666667,2|0|0,0:0|0:0|0:0,0:0:0:0:
297,192,1511747,2,0,L|292:142,1,40,8|0,0:0|0:0,0:0:0:0:
240,27,1511960,2,0,L|247:89,1,40,2|0,0:0|0:0,0:0:0:0:
212,151,1512173,6,0,P|253:122|369:150,1,160,2|0,0:0|1:0,0:0:0:0:
471,324,1512811,1,2,0:0:0:0:
446,317,1512918,1,0,0:0:0:0:
421,313,1513024,2,0,L|439:208,1,80,2|0,0:0|0:0,0:0:0:0:
267,21,1513450,2,0,L|281:119,1,80,0|0,1:0|0:0,0:0:0:0:
278,100,1513769,1,0,0:0:0:0:
278,100,1513875,6,0,P|225:95|147:146,1,120,2|0,0:0|0:0,0:0:0:0:
20,247,1514301,2,0,P|73:252|151:201,1,120,2|0,0:0|0:0,0:0:0:0:
236,246,1514726,1,2,0:0:0:0:
166,124,1514939,1,0,0:0:0:0:
350,191,1515152,1,0,1:0:0:0:
420,313,1515365,1,0,0:0:0:0:
248,167,1515577,5,0,0:0:0:0:
326,288,1515790,1,0,0:0:0:0:
326,288,1515896,1,0,0:0:0:0:
326,288,1516003,2,0,P|261:269|177:284,1,120,0|0,1:0|0:0,0:0:0:0:
151,336,1516428,1,0,0:0:0:0:
127,144,1516641,2,0,L|133:189,3,26.6666666666667,0|0|0|0,0:0|0:0|0:0|1:0,0:0:0:0:
105,30,1517067,1,0,0:0:0:0:
73,239,1517279,6,0,P|128:207|207:209,1,120,2|0,0:0|0:0,0:0:0:0:
261,159,1517705,2,0,L|281:266,1,80,0|0,1:0|0:0,0:0:0:0:
275,237,1518024,1,0,0:0:0:0:
275,237,1518130,1,0,0:0:0:0:
330,103,1518343,1,0,0:0:0:0:
270,322,1518556,1,0,1:0:0:0:
402,182,1518769,1,0,0:0:0:0:
481,287,1518982,6,0,P|424:271|311:269,1,160,2|8,0:0|0:0,0:0:0:0:
151,231,1519620,1,0,0:0:0:0:
302,343,1519833,1,2,0:0:0:0:
273,96,1520045,1,2,0:0:0:0:
233,230,1520258,1,8,0:0:0:0:
233,230,1520365,1,0,0:0:0:0:
87,153,1520577,1,0,0:0:0:0:
87,153,1520684,6,0,L|-5:158,1,80,2|0,0:0|0:0,0:0:0:0:
209,105,1521109,1,8,0:0:0:0:
127,288,1521322,1,0,0:0:0:0:
127,288,1521428,1,0,0:0:0:0:
127,288,1521535,1,2,0:0:0:0:
225,192,1521747,2,0,L|232:226,3,26.6666666666667,0|0|0|8,0:0|0:0|0:0|0:0,0:0:0:0:
303,310,1522173,1,0,0:0:0:0:
405,256,1522386,5,2,0:0:0:0:
325,152,1522599,1,0,0:0:0:0:
464,332,1522811,2,0,P|484:273|467:200,1,120,8|0,0:0|0:0,0:0:0:0:
447,167,1523237,1,2,0:0:0:0:
330,265,1523450,1,2,0:0:0:0:
277,30,1523662,1,8,0:0:0:0:
265,151,1523875,1,0,0:0:0:0:
265,151,1523982,1,0,0:0:0:0:
265,151,1524088,6,0,P|212:133|127:147,1,120,2|0,0:0|0:0,0:0:0:0:
101,118,1524513,1,8,0:0:0:0:
72,282,1524726,1,0,0:0:0:0:
72,282,1524833,1,0,0:0:0:0:
72,282,1524939,2,0,L|166:269,1,80,2|0,0:0|0:0,0:0:0:0:
398,143,1525365,1,8,0:0:0:0:
332,254,1525577,1,0,0:0:0:0:
332,254,1525684,1,0,0:0:0:0:
332,254,1525790,6,0,P|296:209|199:211,1,160,2|8,0:0|0:0,0:0:0:0:
376,353,1526428,1,2,0:0:0:0:
376,353,1526535,1,0,0:0:0:0:
376,353,1526641,2,0,L|470:344,1,80,2|0,0:0|0:0,0:0:0:0:
402,80,1527067,2,0,L|394:185,1,80,8|0,0:0|0:0,0:0:0:0:
395,159,1527386,1,0,0:0:0:0:
395,159,1527492,6,0,P|351:150|273:173,1,120,2|0,0:0|0:0,0:0:0:0:
175,265,1527918,2,0,P|173:169|161:147,1,120,8|0,0:0|0:0,0:0:0:0:
148,65,1528343,1,2,0:0:0:0:
119,321,1528556,1,2,0:0:0:0:
357,256,1528769,1,8,0:0:0:0:
277,344,1528982,1,0,0:0:0:0:
277,344,1529088,1,0,0:0:0:0:
277,344,1529194,6,0,P|319:356|370:357,1,80,2|0,0:0|0:0,0:0:0:0:
233,158,1529620,2,0,P|148:175|90:173,1,120,8|0,0:0|0:0,0:0:0:0:
29,189,1530045,2,0,L|32:139,1,40,2|0,0:0|0:0,0:0:0:0:
95,47,1530258,2,0,L|101:81,2,26.6666666666667,2|0|0,0:0|0:0|0:0,0:0:0:0:
173,26,1530471,1,8,0:0:0:0:
200,73,1530577,1,0,0:0:0:0:
247,91,1530684,1,2,0:0:0:0:
302,81,1530790,1,0,0:0:0:0:
342,44,1530896,6,0,L|321:6,1,40,2|0,0:0|0:0,0:0:0:0:
354,177,1531109,2,0,L|375:215,1,40,2|0,0:0|0:0,0:0:0:0:
247,91,1531322,6,0,L|223:49,1,47.9999985351563,8|0,0:0|0:0,0:0:0:0:
161,145,1531535,2,0,L|184:186,2,31.9999990234375,2|0|0,0:0|0:0|0:0,0:0:0:0:
155,107,1531747,6,0,L|127:57,1,57.60000140625,2|0,0:0|0:0,0:0:0:0:
83,222,1531960,2,0,L|110:271,1,57.60000140625,2|0,0:0|0:0,0:0:0:0:
258,132,1532173,5,8,0:0:0:0:
316,140,1532279,1,0,0:0:0:0:
373,147,1532386,2,0,L|441:155,1,68.0000012969971,2|0,0:0|0:0,0:0:0:0:
391,240,1532599,6,0,P|331:251|328:325,1,120,4|0,0:0|0:0,0:0:0:0:
385,342,1533024,1,8,0:0:0:0:
441,155,1533237,5,2,0:0:0:0:
246,211,1533450,1,2,0:0:0:0:
449,163,1533662,1,0,0:0:0:0:
449,163,1533769,1,0,0:0:0:0:
449,163,1533875,1,8,0:0:0:0:
385,342,1534088,1,2,0:0:0:0:
153,206,1534301,6,0,P|102:200|51:224,1,80,2|0,0:0|0:0,0:0:0:0:
3,368,1534726,1,8,0:0:0:0:
22,113,1534939,2,0,L|11:71,2,26.6666666666667
35,127,1535152,2,0,L|128:118,1,80,2|0,0:0|0:0,0:0:0:0:
255,0,1535577,2,0,P|231:34|232:75,1,80,8|0,0:0|0:0,0:0:0:0:
239,81,1535861,1,0,0:0:0:0:
249,89,1535932,1,0,0:0:0:0:
259,97,1536003,6,0,L|351:86,1,80,2|0,0:0|0:0,0:0:0:0:
470,206,1536428,1,8,0:0:0:0:
326,355,1536641,1,2,0:0:0:0:
326,355,1536747,1,0,0:0:0:0:
326,355,1536854,1,2,0:0:0:0:
290,205,1537067,1,2,0:0:0:0:
480,303,1537279,1,8,0:0:0:0:
450,102,1537492,1,2,0:0:0:0:
348,279,1537705,6,0,P|296:305|227:306,1,120,2|0,0:0|0:0,0:0:0:0:
148,337,1538130,2,0,L|156:240,1,80,8|0,0:0|0:0,0:0:0:0:
149,244,1538414,1,0,0:0:0:0:
144,235,1538485,1,0,0:0:0:0:
139,226,1538556,2,0,L|149:127,1,80,2|0,0:0|0:0,0:0:0:0:
360,65,1538982,1,8,0:0:0:0:
360,65,1539088,1,0,0:0:0:0:
346,252,1539301,1,0,0:0:0:0:
346,252,1539407,6,0,P|307:253|219:172,1,160,2|8,0:0|0:0,0:0:0:0:
469,185,1540045,1,2,0:0:0:0:
414,338,1540258,1,2,0:0:0:0:
341,139,1540471,1,2,0:0:0:0:
341,139,1540577,1,0,0:0:0:0:
341,139,1540684,1,8,0:0:0:0:
481,274,1540896,1,2,0:0:0:0:
251,221,1541109,6,0,P|191:217|109:230,1,120,2|0,0:0|0:0,0:0:0:0:
55,202,1541535,1,8,0:0:0:0:
139,343,1541747,1,0,0:0:0:0:
139,343,1541818,1,0,0:0:0:0:
139,343,1541889,1,0,0:0:0:0:
139,343,1541960,2,0,L|228:336,1,80,2|0,0:0|0:0,0:0:0:0:
134,92,1542386,2,0,L|44:89,1,80,8|0,0:0|0:0,0:0:0:0:
202,176,1542811,6,0,P|233:133|194:18,1,160,2|8,0:0|0:0,0:0:0:0:
32,184,1543450,1,2,0:0:0:0:
212,33,1543662,2,0,P|263:44|311:155,1,160,2|8,0:0|0:0,0:0:0:0:
275,319,1544301,5,2,0:0:0:0:
275,319,1544407,1,0,0:0:0:0:
275,319,1544513,1,2,0:0:0:0:
67,292,1544726,1,0,0:0:0:0:
262,172,1544939,1,8,0:0:0:0:
173,366,1545152,1,0,0:0:0:0:
156,205,1545365,2,0,L|56:217,1,80,2|0,0:0|0:0,0:0:0:0:
306,359,1545790,2,0,L|350:347,1,40,8|0,0:0|0:0,0:0:0:0:
249,193,1546003,2,0,L|258:252,1,40,2|0,0:0|0:0,0:0:0:0:
169,356,1546216,6,0,P|144:303|169:186,1,160,2|8,0:0|0:0,0:0:0:0:
384,126,1546854,1,2,0:0:0:0:
384,126,1546960,1,0,0:0:0:0:
384,126,1547067,1,2,0:0:0:0:
218,77,1547279,1,2,0:0:0:0:
245,243,1547492,1,8,0:0:0:0:
365,38,1547705,1,2,0:0:0:0:
365,38,1547811,1,0,0:0:0:0:
365,38,1547918,6,0,P|409:26|455:36,1,80,2|0,0:0|0:0,0:0:0:0:
273,202,1548343,2,0,L|170:215,1,80,8|0,0:0|0:0,0:0:0:0:
186,223,1548627,1,0,0:0:0:0:
179,234,1548698,1,0,0:0:0:0:
172,245,1548769,2,0,L|87:258,1,80,2|0,0:0|0:0,0:0:0:0:
107,54,1549194,2,0,P|105:96|113:140,1,80,8|0,0:0|0:0,0:0:0:0:
296,297,1549620,6,0,P|248:289|204:303,1,80,2|0,0:0|0:0,0:0:0:0:
218,296,1549939,1,0,0:0:0:0:
218,296,1550045,1,8,0:0:0:0:
429,244,1550258,1,2,0:0:0:0:
297,139,1550471,2,0,P|285:207|302:318,1,160,2|8,0:0|0:0,0:0:0:0:
414,100,1551109,5,2,0:0:0:0:
286,50,1551322,1,2,0:0:0:0:
197,148,1551535,1,0,0:0:0:0:
197,148,1551606,1,0,0:0:0:0:
197,148,1551677,1,0,0:0:0:0:
197,148,1551747,1,8,0:0:0:0:
194,36,1551960,1,2,0:0:0:0:
298,175,1552173,1,8,0:0:0:0:
205,245,1552386,1,2,0:0:0:0:
286,50,1552599,1,8,0:0:0:0:
197,148,1552811,1,0,0:0:0:0:
197,148,1552918,1,0,0:0:0:0:
197,148,1553024,6,0,L|304:140,1,80,2|0,0:0|0:0,0:0:0:0:
438,267,1553450,2,0,P|389:258|272:275,1,160,8|2,0:0|0:0,0:0:0:0:
106,333,1554088,1,0,0:0:0:0:
106,333,1554159,1,0,0:0:0:0:
106,333,1554230,1,0,0:0:0:0:
106,333,1554301,2,0,P|154:314|183:287,1,80,8|0,0:0|0:0,0:0:0:0:
304,139,1554726,6,0,P|248:143|171:202,1,120,2|0,0:0|0:0,0:0:0:0:
152,171,1555152,1,8,0:0:0:0:
289,246,1555365,1,0,0:0:0:0:
289,246,1555471,1,0,0:0:0:0:
289,246,1555577,1,2,0:0:0:0:
448,71,1555790,1,2,0:0:0:0:
446,198,1556003,1,8,0:0:0:0:
297,63,1556216,1,0,0:0:0:0:
297,63,1556286,1,0,0:0:0:0:
297,63,1556357,1,0,0:0:0:0:
297,63,1556428,6,0,P|244:63|200:67,1,80,2|0,0:0|0:0,0:0:0:0:
144,251,1556854,2,0,P|161:201|116:150,1,120,8|0,0:0|0:0,0:0:0:0:
88,172,1557279,2,0,L|6:180,1,80,2|0,0:0|0:0,0:0:0:0:
197,342,1557705,5,8,0:0:0:0:
251,225,1557918,1,0,0:0:0:0:
251,225,1558024,1,0,0:0:0:0:
251,225,1558130,1,4,0:0:0:0:
300,100,1558343,1,2,0:0:0:0:
300,100,1558450,2,0,L|403:104,1,80
441,159,1558769,1,2,0:0:0:0:
179,57,1558982,5,2,0:0:0:0:
179,57,1559088,1,0,0:0:0:0:
202,163,1559301,1,0,0:0:0:0:
202,163,1559407,1,0,0:0:0:0:
240,341,1559620,1,0,0:0:0:0:
240,341,1559726,1,0,0:0:0:0:
240,341,1559833,6,0,L|373:351,2,120.000004577637,4|0|8,1:0|1:0|1:2,0:0:0:0:
127,199,1561118,1,0,0:0:0:0:
122,282,1561332,2,0,P|116:324|106:358,1,60.0000022888184,0|0,1:0|1:0,0:0:0:0:
127,199,1561761,1,0,0:0:0:0:
195,331,1561975,1,0,1:0:0:0:
195,331,1562404,2,0,P|238:323|275:318,1,60.0000022888184,8|0,1:2|0:0,0:0:0:0:
356,203,1562833,2,0,P|302:214|273:219,1,60.0000022888184,2|0,0:0|0:0,0:0:0:0:
266,227,1563154,1,0,0:0:0:0:
233,248,1563261,6,0,P|213:188|207:115,2,120.000004577637,4|0|8,1:0|1:0|1:2,0:0:0:0:
346,186,1564324,1,2,0:0:0:0:
390,94,1564537,2,0,P|336:104|307:104,1,60.0000022888184,4|0,0:0|0:0,0:0:0:0:
454,32,1564963,1,2,0:0:0:0:
451,160,1565175,1,2,0:0:0:0:
451,160,1565282,1,0,0:0:0:0:
451,160,1565388,2,0,P|447:230|451:300,1,120.000004577637,0|8,1:0|1:2,0:0:0:0:
198,133,1566026,2,0,P|247:129|280:121,1,60.0000022888184,4|0,0:0|0:0,0:0:0:0:
335,80,1566452,1,2,0:0:0:0:
106,185,1566665,1,4,1:0:0:0:
106,185,1567090,6,0,P|53:194|25:203,1,60.0000022888184,0|0,1:0|0:0,0:0:0:0:
194,236,1567516,2,0,P|205:183|204:100,1,120.000004577637,8|0,1:2|0:0,0:0:0:0:
181,36,1568154,1,2,0:0:0:0:
181,36,1568580,1,2,0:0:0:0:
207,119,1568792,1,0,1:0:0:0:
124,137,1569005,1,2,0:0:0:0:
99,53,1569218,1,8,1:2:0:0:
181,36,1569431,1,2,0:0:0:0:
124,137,1569643,1,4,0:0:0:0:
124,137,1570069,5,4,0:0:0:0:
65,219,1570281,1,2,0:0:0:0:
8,299,1570493,1,2,0:0:0:0:
0,160,1570706,5,2,0:0:0:0:
65,219,1570918,1,0,0:0:0:0:
157,244,1571130,2,0,P|221:256|266:273,1,90.0000034332277,4|0,0:0|0:0,0:0:0:0:
244,263,1571555,2,0,P|238:318|237:345,1,60.0000022888184,4|0,0:0|0:0,0:0:0:0:
253,189,1571980,1,2,0:0:0:0:
153,173,1572192,1,2,0:0:0:0:
70,232,1572405,1,0,0:0:0:0:
70,232,1572617,5,2,0:1:0:0:
213,227,1572830,5,4,0:0:0:0:
334,169,1573042,5,2,2:1:0:0:
417,56,1573254,5,2,2:1:0:0:
334,169,1573467,6,0,P|324:223|320:253,1,60.0000022888184,4|0,1:0|0:0,0:0:0:0:
204,286,1573679,2,0,P|212:238|213:208,1,60.0000022888184,0|0,1:0|0:0,0:0:0:0:
316,324,1573892,2,0,P|397:310|446:287,1,120.000004577637,8|0,1:0|1:0,0:0:0:0:
458,253,1574211,1,2,0:0:0:0:
470,203,1574318,1,0,0:0:0:0:
464,147,1574424,1,2,0:0:0:0:
448,91,1574530,1,0,1:0:0:0:
236,204,1574743,1,8,1:0:0:0:
203,122,1574956,2,0,P|190:85|182:50,1,60.0000022888184,4|0,0:0|0:0,0:0:0:0:
274,73,1575169,6,0,L|351:83,1,60.0000022888184,4|0,1:0|0:0,0:0:0:0:
138,179,1575382,2,0,P|84:161|69:147,1,60.0000022888184,0|0,1:0|0:0,0:0:0:0:
278,188,1575594,2,0,P|313:280|332:335,1,120.000004577637,8|0,1:0|0:0,0:0:0:0:
345,354,1575913,2,0,P|375:298|438:290,1,120.000004577637,8|0,1:0|0:0,0:0:0:0:
506,308,1576232,1,0,1:0:0:0:
270,379,1576445,1,8,1:0:0:0:
123,282,1576658,2,0,P|103:260|88:235,1,60.0000022888184,0|0,1:0|0:0,0:0:0:0:
206,252,1576871,6,0,P|228:321|227:359,1,60.0000022888184,4|0,1:0|0:0,0:0:0:0:
147,177,1577084,2,0,P|144:147|146:118,1,60.0000022888184,0|0,1:0|0:0,0:0:0:0:
236,158,1577296,2,0,P|274:103|343:99,1,120.000004577637,8|0,1:0|1:0,0:0:0:0:
368,107,1577615,1,2,0:0:0:0:
403,141,1577722,1,0,0:0:0:0:
455,165,1577828,1,2,0:0:0:0:
506,161,1577935,1,0,1:0:0:0:
454,55,1578147,1,8,1:0:0:0:
361,220,1578360,2,0,P|381:295|391:314,1,60.0000022888184,2|0,1:0|0:0,0:0:0:0:
260,187,1578573,6,0,P|270:116|269:105,1,60.0000022888184,2|0,1:0|0:0,0:0:0:0:
362,106,1578786,6,0,P|370:76|371:47,1,60.0000022888184,0|0,1:0|0:0,0:0:0:0:
132,71,1578998,6,0,P|145:97|154:126,1,60.0000022888184,2|0,1:0|0:0,0:0:0:0:
49,198,1579211,5,6,1:0:0:0:
132,71,1579637,6,0,P|145:97|154:126,1,60.0000022888184,2|0,1:0|0:0,0:0:0:0:
49,198,1579849,6,6,P|62:128|64:107,1,60.0000022888184,2|0,1:0|0:0,1:0:0:0:
33,51,1580062,1,2,0:0:0:0:
23,298,1580275,6,0,P|109:319|123:319,1,60.0000022888184,6|0,1:0|0:0,0:0:0:0:
181,325,1580488,1,0,1:0:0:0:
146,220,1580701,2,0,P|225:182|246:242,1,120.000004577637,8|0,1:0|1:0,0:0:0:0:
269,227,1581020,1,2,0:0:0:0:
271,278,1581126,1,0,0:0:0:0:
253,326,1581232,1,2,0:0:0:0:
212,362,1581339,1,0,1:0:0:0:
149,268,1581552,2,0,P|204:285|231:289,1,60.0000022888184,0|0,1:0|0:0,0:0:0:0:
369,206,1581764,1,8,1:0:0:0:
369,206,1581977,6,0,P|309:224|281:227,1,60.0000022888184,4|0,1:0|0:0,0:0:0:0:
378,308,1582190,2,0,L|335:367,1,60.0000022888184,0|0,1:0|0:0,0:0:0:0:
227,198,1582403,2,2,P|237:142|255:75,1,120.000004577637,10|0,1:0|1:0,1:0:0:0:
263,58,1582722,1,8,2:1:0:0:
278,32,1582828,6,0,P|352:57|376:62,1,60.0000022888184,2|0,2:1|0:0,0:0:0:0:
437,62,1583041,1,0,1:0:0:0:
437,194,1583254,6,0,P|450:159|462:90,1,60.0000022888184,8|0,1:0|0:0,0:0:0:0:
437,62,1583467,1,4,1:2:0:0:
304,125,1583679,6,2,P|256:192|254:293,1,180.000006866455,6|0,1:0|0:2,1:0:0:0:
162,196,1584105,6,2,P|55:177|40:102,1,180.000006866455,2|0,1:0|0:0,1:0:0:0:
181,122,1584530,6,2,P|215:92|209:13,1,120.000004577637,2|2,1:0|1:0,1:0:0:0:
214,21,1584849,1,0,0:0:0:0:
214,21,1584956,2,0,L|140:20,1,60.0000022888184,2|0,1:0|0:0,0:0:0:0:
26,32,1585169,6,2,P|34:114|51:256,1,180.000006866455,2|0,1:0|0:0,1:0:0:0:
45,210,1585594,1,0,1:0:0:0:
199,118,1585807,2,0,P|140:136|111:143,1,60.0000022888184,8|0,1:0|0:0,0:0:0:0:
281,189,1586020,5,0,1:0:0:0:
310,182,1586126,1,2,0:0:0:0:
341,188,1586232,1,0,0:0:0:0:
372,197,1586339,5,2,0:0:0:0:
400,215,1586445,2,0,P|482:232|499:233,1,60.0000022888184,4|0,0:0|0:0,0:0:0:0:
445,136,1586658,5,0,1:0:0:0:
416,147,1586764,1,2,0:0:0:0:
383,159,1586871,1,4,0:0:0:0:
348,167,1586977,1,2,0:0:0:0:
309,163,1587084,1,4,1:0:0:0:
256,192,1597296,12,4,1598998,1:0:0:0:
209,57,1599846,5,2,1:0:0:0:
179,199,1600058,1,4,0:0:0:0:
359,207,1600270,1,2,2:1:0:0:
181,182,1600482,1,2,2:1:0:0:
358,220,1600694,6,0,P|352:272|348:294,1,40,6|0,1:0|0:0,0:0:0:0:
392,116,1600906,2,2,P|348:126|250:133,1,120,2|0,1:0|0:0,1:0:0:0:
273,133,1601332,2,2,L|281:39,1,80,2|0,1:0|1:0,1:0:0:0:
264,225,1601758,1,2,0:0:0:0:
178,317,1601970,2,0,P|155:246|153:207,1,80,8|4,1:0|0:0,0:0:0:0:
154,211,1602290,1,0,0:0:0:0:
157,173,1602396,1,4,1:0:0:0:
264,225,1602609,1,4,0:0:0:0:
52,120,1602822,6,2,P|57:207|42:315,1,160,2|2,1:0|1:0,1:0:0:0:
149,167,1603460,1,2,0:0:0:0:
149,167,1603566,1,0,0:0:0:0:
149,167,1603673,2,0,P|158:107|167:67,1,80,10|2,1:0|1:0,0:0:0:0:
166,257,1604098,1,2,1:0:0:0:
260,297,1604311,1,2,0:0:0:0:
362,303,1604524,2,2,P|451:278|507:226,1,160,2|2,1:0|1:0,1:0:0:0:
338,172,1605162,2,0,P|307:142|308:92,1,80,0|10,1:0|1:0,1:0:0:0:
430,139,1605588,1,2,1:0:0:0:
396,45,1605801,5,6,1:0:0:0:
338,172,1606014,5,2,0:0:0:0:
386,295,1606226,5,2,1:0:0:0:
512,355,1606439,5,2,1:0:0:0:
512,355,1606865,5,2,1:0:0:0:
386,295,1607078,1,2,1:0:0:0:
464,184,1607290,1,2,0:0:0:0:
386,295,1607503,1,2,1:0:0:0:
245,298,1607716,6,2,P|151:311|95:326,1,120,2|0,1:0|0:0,1:0:0:0:
126,316,1608142,2,2,P|124:248|117:224,1,80,2|0,1:0|1:0,1:0:0:0:
166,138,1608567,1,0,1:0:0:0:
166,138,1608674,1,0,0:0:0:0:
166,138,1608780,1,8,1:0:0:0:
121,237,1608993,1,0,1:0:0:0:
23,195,1609206,5,0,1:0:0:0:
257,159,1609418,1,2,0:0:0:0:
215,247,1609631,2,2,P|227:317|258:372,1,120,2|0,1:0|0:0,1:0:0:0:
249,360,1610057,2,2,L|339:333,1,80,2|2,1:0|1:0,1:0:0:0:
399,231,1610482,1,8,1:0:0:0:
491,308,1610695,1,2,0:0:0:0:
399,231,1610908,6,2,P|390:155|399:37,2,160,6|2|2,1:0|1:0|1:0,1:0:0:0:
503,188,1611972,1,0,1:0:0:0:
503,188,1612078,1,0,0:0:0:0:
503,188,1612185,1,8,1:0:0:0:
314,138,1612398,2,2,P|228:142|77:207,1,240,2|2,1:0|1:0,1:0:0:0:
67,105,1613249,1,2,1:0:0:0:
183,277,1613462,5,0,1:0:0:0:
161,164,1613674,1,6,0:1:0:0:
42,346,1613887,5,8,1:0:0:0:
17,243,1614100,1,6,1:0:0:0:
248,372,1614313,5,4,1:0:0:0:
311,263,1614526,1,2,0:0:0:0:
172,260,1614738,1,8,1:0:0:0:
244,140,1614951,1,0,0:0:0:0:
244,140,1615058,1,2,0:0:0:0:
244,140,1615164,2,0,P|248:90|251:52,1,80,0|0,1:0|1:0,0:0:0:0:
426,155,1615590,2,0,P|429:194|432:234,1,80,0|0,1:0|1:0,0:0:0:0:
377,290,1616015,1,4,1:0:0:0:
314,240,1616228,1,2,0:0:0:0:
132,336,1616441,6,0,P|123:280|125:157,1,160,8|0,1:0|1:0,0:0:0:0:
34,78,1617079,1,0,0:0:0:0:
34,78,1617186,1,0,1:0:0:0:
34,78,1617292,1,8,1:0:0:0:
166,40,1617505,1,0,1:0:0:0:
267,160,1617718,6,0,L|351:154,1,80,4|0,1:0|0:0,0:0:0:0:
481,168,1618143,2,0,P|430:185|401:299,1,160,8|0,1:0|1:0,0:0:0:0:
462,321,1618782,1,0,0:0:0:0:
479,312,1618888,1,0,1:0:0:0:
497,303,1618994,1,8,1:0:0:0:
322,307,1619207,5,0,1:0:0:0:
264,362,1619420,2,0,L|169:341,2,80,0|0|8,1:0|0:0|1:0,0:0:0:0:
110,362,1620058,2,0,P|110:277|108:197,1,160,0|0,1:0|0:0,0:0:0:0:
185,61,1620697,5,8,1:0:0:0:
285,99,1620910,1,0,1:0:0:0:
285,99,1621016,1,0,0:0:0:0:
285,99,1621122,1,0,1:0:0:0:
347,22,1621335,1,2,0:0:0:0:
263,0,1621548,2,0,L|168:8,1,80,8|2,1:0|0:0,0:0:0:0:
183,6,1621867,1,0,1:0:0:0:
183,6,1621974,2,0,L|103:-1,1,80,0|0,0:0|1:0,0:0:0:0:
14,43,1622399,1,8,1:0:0:0:
29,116,1622612,1,0,1:0:0:0:
136,219,1622825,6,0,P|116:287|102:380,1,160,4|8,1:0|1:0,0:0:0:0:
285,205,1623463,1,0,0:0:0:0:
285,205,1623570,1,0,1:0:0:0:
285,205,1623676,2,0,B|194:188,1,80,0|0,1:0|1:0,0:0:0:0:
301,280,1624102,2,0,B|286:318|286:318|304:370,1,80,0|0,1:0|1:0,0:0:0:0:
500,350,1624527,6,0,P|433:351|402:253,1,160,4|8,1:0|1:0,0:0:0:0:
450,137,1625166,1,0,0:0:0:0:
450,137,1625272,1,0,1:0:0:0:
450,137,1625378,2,0,P|461:180|456:227,1,80,0|0,1:0|1:0,0:0:0:0:
255,153,1625804,2,0,P|257:113|260:73,1,80,8|0,1:0|1:0,0:0:0:0:
46,37,1626230,5,4,1:0:0:0:
179,23,1626442,1,2,0:0:0:0:
179,23,1626549,1,0,1:0:0:0:
179,23,1626655,1,4,1:2:0:0:
165,227,1626868,1,0,1:0:0:0:
145,221,1626974,1,2,0:0:0:0:
125,215,1627081,6,0,B|199:212|199:212|212:224|212:224|281:221,1,155.999992858887,4|0,1:0|0:0,0:0:0:0:
293,202,1627506,6,0,L|433:219,1,120.000004577637,2|0,1:0|0:0,0:0:0:0:
430,204,1627826,1,0,1:0:0:0:
475,229,1627932,6,0,L|484:148,1,80,4|0,1:0|0:0,0:0:0:0:
314,133,1628358,2,0,L|305:53,1,80,4|0,1:2|0:0,0:0:0:0:
428,10,1628783,1,4,1:2:0:0:
501,52,1628996,1,0,0:0:0:0:
501,52,1629102,1,0,0:0:0:0:
501,52,1629209,1,4,1:2:0:0:
477,119,1629422,1,0,0:0:0:0:
270,68,1629634,6,0,L|171:57,1,80,0|0,1:2|0:0,0:0:0:0:
154,192,1630060,2,0,L|74:200,1,80,4|0,1:2|0:0,0:0:0:0:
15,110,1630486,1,4,1:2:0:0:
40,42,1630698,1,0,0:0:0:0:
40,42,1630805,1,0,0:0:0:0:
40,42,1630911,1,4,1:2:0:0:
113,22,1631124,1,0,0:0:0:0:
256,167,1631337,6,0,L|271:339,1,160,0|4,1:0|1:2,0:0:0:0:
342,367,1631975,1,0,0:0:0:0:
342,367,1632082,1,0,0:0:0:0:
342,367,1632188,2,0,P|383:345|402:310,1,80,4|0,1:2|0:0,0:0:0:0:
189,253,1632614,2,0,P|148:231|129:196,1,80,4|0,1:2|0:0,0:0:0:0:
272,87,1633039,5,4,1:0:0:0:
267,187,1633252,1,2,0:0:0:0:
360,140,1633465,1,2,1:2:0:0:
176,126,1633678,1,8,0:0:0:0:
156,121,1633784,1,0,1:0:0:0:
136,116,1633890,1,0,1:2:0:0:
116,110,1633997,1,8,1:2:0:0:
96,105,1634103,1,0,1:0:0:0:
35,197,1634316,2,0,L|144:187,1,80,10|8,1:2|0:0,0:0:0:0:
254,114,1634742,6,0,L|415:140,1,160,4|4,1:0|1:2,0:0:0:0:
490,160,1635380,1,0,1:0:0:0:
490,160,1635486,1,0,0:0:0:0:
490,160,1635593,1,4,1:2:0:0:
460,296,1635806,1,2,0:0:0:0:
381,275,1636018,1,4,1:2:0:0:
411,139,1636231,1,0,1:0:0:0:
470,82,1636444,6,0,P|446:45|329:14,1,160,0|4,1:0|1:2,0:0:0:0:
283,57,1637082,1,0,1:0:0:0:
283,57,1637189,1,0,0:0:0:0:
283,57,1637295,1,4,1:2:0:0:
210,23,1637508,1,2,0:0:0:0:
113,131,1637721,2,0,L|30:121,1,80,4|0,1:2|1:0,0:0:0:0:
110,206,1638146,6,0,P|180:227|210:305,1,160,0|4,1:0|1:2,0:0:0:0:
85,295,1638785,1,0,1:0:0:0:
85,295,1638891,1,0,0:0:0:0:
85,295,1638998,2,0,B|-8:287,1,80,4|2,1:2|0:0,0:0:0:0:
188,376,1639423,2,0,L|104:369,1,80,4|0,1:2|1:0,0:0:0:0:
270,344,1639849,5,4,1:0:0:0:
367,359,1640062,1,2,0:0:0:0:
464,374,1640274,1,8,1:2:0:0:
386,283,1640487,5,2,0:0:0:0:
386,283,1640594,1,8,1:2:0:0:
386,283,1640700,1,0,1:0:0:0:
256,179,1640913,6,0,B|229:177|229:177|220:183|220:183|180:178,2,60.0000022888184,2|0|8,1:0|1:0|1:0,0:0:0:0:
458,156,1641338,2,0,L|450:124,2,26.6666666666667,0|2|0,1:0|1:0|1:0,0:0:0:0:
433,149,1641551,6,0,P|393:147|321:245,1,160,4|12,1:0|1:2,0:0:0:0:
231,300,1642190,1,0,1:0:0:0:
231,300,1642296,1,0,1:0:0:0:
231,300,1642402,2,0,P|243:249|244:209,1,80,4|2,1:2|0:0,0:0:0:0:
91,338,1642828,2,0,P|79:287|78:247,1,80,12|0,1:2|1:0,0:0:0:0:
179,67,1643254,2,0,B|193:161|138:128|159:235,1,160,0|12,1:0|1:2,0:0:0:0:
262,365,1643892,5,0,1:0:0:0:
262,365,1643998,1,0,1:0:0:0:
262,365,1644105,2,0,P|303:360|330:326,1,80,4|2,1:2|0:0,0:0:0:0:
444,227,1644530,2,0,L|429:137,1,80,12|0,1:2|1:0,0:0:0:0:
261,85,1644956,2,0,P|314:95|341:211,1,160,0|12,1:0|1:2,0:0:0:0:
426,307,1645595,5,0,1:0:0:0:
426,307,1645701,1,0,1:0:0:0:
426,307,1645807,2,0,P|386:276|340:261,2,80,4|2|12,1:2|0:0|1:2,0:0:0:0:
496,289,1646446,1,0,1:0:0:0:
294,231,1646659,5,4,1:0:0:0:
203,242,1646871,1,2,0:0:0:0:
112,253,1647084,1,12,1:2:0:0:
79,135,1647297,5,0,1:0:0:0:
79,135,1647403,1,8,1:0:0:0:
79,135,1647510,2,0,L|165:147,1,80,4|8,1:2|1:2,0:0:0:0:
211,94,1647935,1,12,1:2:0:0:
327,213,1648148,1,8,1:0:0:0:
216,321,1648361,6,0,B|225:268|225:268|215:216|215:216|232:155,1,160,4|12,1:0|1:2,0:0:0:0:
424,102,1648999,1,0,1:0:0:0:
424,102,1649106,1,0,1:0:0:0:
424,102,1649212,2,0,L|405:182,1,80,4|2,1:2|0:0,0:0:0:0:
451,245,1649638,1,12,1:2:0:0:
288,368,1649851,5,0,1:0:0:0:
268,363,1649957,1,0,1:0:0:0:
248,359,1650063,2,0,L|83:379,1,160,4|4,1:0|1:2,0:0:0:0:
32,327,1650702,1,0,1:0:0:0:
32,327,1650808,1,0,0:0:0:0:
32,327,1650915,2,0,P|41:275|39:237,2,80,4|0|4,1:2|0:0|1:2,0:0:0:0:
79,178,1651553,5,0,1:0:0:0:
84,158,1651659,1,0,1:0:0:0:
89,138,1651766,2,0,P|86:76|71:41,1,80,0|2,1:0|0:0,0:0:0:0:
278,30,1652191,2,0,P|225:63|202:94,1,80,0|2,1:0|0:0,0:0:0:0:
156,228,1652617,2,0,P|177:189|288:168,1,160,0|0,1:0|1:0,0:0:0:0:
305,132,1653149,5,0,0:0:0:0:
344,139,1653255,1,0,1:0:0:0:
382,128,1653362,1,0,0:0:0:0:
420,138,1653468,6,0,L|392:180,1,40,4|0,1:0|0:0,0:0:0:0:
349,226,1653681,2,0,L|371:271,1,40,8|0,1:2|0:0,0:0:0:0:
371,334,1653894,2,0,L|421:337,1,40,8|0,1:0|0:0,0:0:0:0:
478,384,1654107,1,0,1:0:0:0:
478,384,1654213,1,0,1:0:0:0:
478,384,1654319,6,0,L|506:342,1,40,4|0,1:0|0:0,0:0:0:0:
410,336,1654532,2,0,L|387:290,1,40,8|0,1:0|0:0,0:0:0:0:
334,370,1654745,1,8,1:0:0:0:
294,370,1654851,2,0,L|178:378,1,80,8|4,1:2|1:2,0:0:0:0:
181,350,1655171,5,4,1:0:0:0:
86,373,1655383,1,2,0:0:0:0:
116,307,1655809,1,2,0:0:0:0:
98,253,1656235,1,0,0:0:0:0:
75,219,1656660,1,2,0:0:0:0:
45,192,1657086,1,2,0:0:0:0:
52,120,1657511,5,2,0:0:0:0:
105,102,1657937,1,2,0:0:0:0:
142,116,1658363,1,0,0:0:0:0:
163,127,1658788,1,2,0:0:0:0:
178,126,1659214,1,2,0:0:0:0:
248,142,1659639,5,2,0:0:0:0:
295,112,1660065,1,2,0:0:0:0:
252,139,1660491,5,2,0:0:0:0:
290,114,1660917,1,2,0:0:0:0:
256,136,1661342,5,2,0:0:0:0:
286,117,1661768,1,2,0:0:0:0:
202,93,1662193,5,2,0:0:0:0:
202,149,1662619,1,2,0:0:0:0:
215,186,1663044,1,0,0:0:0:0:
224,199,1663470,1,2,0:0:0:0:
229,204,1663895,1,2,0:0:0:0:
284,249,1664321,5,2,0:0:0:0:
339,252,1664747,1,2,0:0:0:0:
375,235,1665172,1,0,0:0:0:0:
386,223,1665598,1,2,0:0:0:0:
388,215,1666023,1,2,0:0:0:0:
396,143,1666449,5,2,0:0:0:0:
369,93,1666875,1,2,0:0:0:0:
330,80,1667300,1,0,0:0:0:0:
277,129,1667726,5,4,0:0:0:0:
277,129,1668151,1,4,0:0:0:0:
225,182,1668364,2,0,L|181:176,1,40,2|4,0:0|0:0,0:0:0:0:
99,136,1668790,6,0,P|90:96|89:56,1,80
185,176,1669215,2,0,P|193:213|163:306,1,120
150,313,1669641,2,0,P|101:309|44:307,1,80,4|2,0:0|0:0,0:0:0:0:
247,359,1670067,2,0,P|286:356|326:353,1,80,0|2,0:0|0:0,0:0:0:0:
430,364,1670492,5,0,0:0:0:0:
486,276,1670705,1,10,0:0:0:0:
429,188,1670918,2,0,P|428:148|446:74,1,80,0|2,0:0|0:0,0:0:0:0:
452,59,1671237,1,0,0:0:0:0:
405,81,1671343,2,0,P|338:103|266:115,1,120,4|0,0:0|0:0,0:0:0:0:
258,126,1671769,1,0,0:0:0:0:
154,114,1671982,1,2,0:0:0:0:
144,217,1672195,6,0,P|135:280|127:332,2,80,0|2|0,0:0|0:0|0:0,0:0:0:0:
240,309,1672833,2,0,P|322:319|409:331,1,160,2|2,0:0|0:0,0:0:0:0:
476,260,1673471,1,0,0:0:0:0:
447,159,1673684,1,2,0:0:0:0:
359,103,1673897,5,0,0:0:0:0:
256,122,1674110,1,2,0:0:0:0:
86,87,1674323,5,0,0:0:0:0:
189,68,1674536,1,2,0:0:0:0:
137,231,1674748,6,0,P|145:172|149:136,1,80,4|2,0:0|0:0,0:0:0:0:
264,211,1675174,2,0,P|256:270|252:306,1,80,2|2,0:0|0:0,0:0:0:0:
336,353,1675599,5,0,0:0:0:0:
438,336,1675812,1,2,0:0:0:0:
486,243,1676025,2,0,P|498:185|486:90,1,120
485,101,1676451,1,4,0:0:0:0:
387,135,1676663,1,2,0:0:0:0:
349,38,1676876,1,0,0:0:0:0:
447,6,1677088,1,2,0:0:0:0:
297,111,1677302,6,0,L|208:102,1,80,0|2,0:0|0:0,0:0:0:0:
56,44,1677727,2,0,L|136:36,1,80,0|2,0:0|0:0,0:0:0:0:
121,139,1678153,1,4,0:0:0:0:
182,222,1678366,1,2,0:0:0:0:
218,319,1678579,1,0,0:0:0:0:
315,283,1678791,1,2,0:0:0:0:
418,294,1679004,5,0,0:0:0:0:
418,294,1679217,2,0,P|436:233|431:128,2,160,2|2|2,0:0|0:0|0:0,0:0:0:0:
213,332,1680494,1,2,0:0:0:0:
169,128,1680919,1,2,0:0:0:0:
366,192,1681345,6,0,B|244:151|245:271|110:219,1,240,6|0,0:0|0:0,0:0:0:0:
62,155,1682196,1,2,0:0:0:0:
62,155,1682409,6,0,L|71:43,1,80,4|2,0:1|0:0,0:0:0:0:
172,85,1682835,2,0,P|245:72|309:41,1,120,12|0,0:0|0:0,0:0:0:0:
305,64,1683260,1,0,0:0:0:0:
405,90,1683473,1,10,0:0:0:0:
328,160,1683686,2,0,P|318:208|318:256,1,80,0|2,0:0|0:0,0:0:0:0:
404,295,1684111,6,0,P|414:247|414:199,1,80,0|2,0:0|0:0,0:0:0:0:
291,281,1684537,2,0,P|226:285|136:293,1,120,4|0,0:0|0:0,0:0:0:0:
140,280,1684963,1,0,0:0:0:0:
51,334,1685175,1,2,0:0:0:0:
49,229,1685388,2,0,L|37:141,1,80,0|2,0:0|0:0,0:0:0:0:
152,74,1685814,6,0,L|142:154,1,80,0|2,0:0|0:0,0:0:0:0:
245,148,1686239,2,0,P|312:128|389:78,1,160,4|0,0:0|0:0,0:0:0:0:
381,183,1686878,1,2,0:0:0:0:
474,227,1687091,1,0,0:0:0:0:
452,328,1687303,1,2,0:0:0:0:
348,336,1687516,6,0,P|298:336|239:330,1,80
102,276,1687942,2,0,P|142:273|182:274,1,80,4|2,0:0|0:0,0:0:0:0:
280,240,1688367,1,0,0:0:0:0:
321,144,1688580,1,0,0:0:0:0:
274,50,1688793,1,0,0:0:0:0:
172,25,1689006,1,2,0:0:0:0:
93,93,1689219,6,0,P|92:141|104:189,1,80,0|2,0:0|0:0,0:0:0:0:
186,226,1689644,2,0,P|188:288|159:365,1,120,4|0,0:0|0:0,0:0:0:0:
154,367,1690070,1,0,0:0:0:0:
50,378,1690283,1,2,0:0:0:0:
240,292,1690496,5,0,0:0:0:0:
344,303,1690709,1,6,0:0:0:0:
433,354,1690921,1,0,0:0:0:0:
439,250,1691134,1,2,0:0:0:0:
492,160,1691347,1,4,0:0:0:0:
492,160,1691560,2,0,P|503:98|474:-2,1,160,2|2,0:0|0:0,0:0:0:0:
339,107,1692198,2,0,P|378:100|417:88,1,80,0|2,0:0|0:0,0:0:0:0:
250,72,1692624,6,0,P|210:79|172:90,1,80,0|2,0:0|0:0,0:0:0:0:
101,167,1693049,1,4,0:0:0:0:
12,221,1693262,2,0,P|23:161|38:54,1,160,2|2,0:0|0:0,0:0:0:0:
168,234,1693900,2,0,P|159:293|154:325,1,80,0|6,0:0|0:0,0:0:0:0:
155,313,1694220,1,0,0:0:0:0:
155,313,1694326,5,0,0:0:0:0:
248,360,1694539,1,2,0:0:0:0:
347,327,1694752,1,4,0:0:0:0:
390,232,1694964,1,2,0:0:0:0:
343,138,1695177,2,0,P|332:87|333:39,1,80,0|2,0:0|0:0,0:0:0:0:
466,101,1695603,2,0,P|477:152|476:200,1,80,2|2,0:0|0:0,0:0:0:0:
390,232,1696028,5,4,0:0:0:0:
293,192,1696241,1,2,0:0:0:0:
223,269,1696454,2,0,P|150:281|72:288,1,120,4|0,0:0|0:0,0:0:0:0:
85,271,1696880,1,0,0:0:0:0:
4,336,1697092,1,2,0:0:0:0:
100,375,1697305,1,0,0:0:0:0:
85,271,1697518,1,6,0:0:0:0:
135,179,1697731,6,0,P|151:122|160:68,1,80,0|2,0:0|0:0,0:0:0:0:
245,152,1698156,1,4,0:0:0:0:
245,152,1698369,2,0,P|299:125|400:131,1,160,2|2,0:0|0:0,0:0:0:0:
381,233,1699008,2,0,P|332:247|288:245,1,80,0|6,0:0|0:0,0:0:0:0:
230,321,1699433,5,0,0:0:0:0:
126,308,1699646,1,2,0:0:0:0:
29,348,1699859,1,4,0:0:0:0:
52,246,1700072,2,0,B|64:167|58:143|70:66,1,160,2|2,0:0|0:0,0:0:0:0:
158,136,1700710,2,0,P|224:157|269:159,1,80,0|2,0:0|0:0,0:0:0:0:
376,53,1701136,6,0,P|337:61|300:76,1,80,0|2,0:0|0:0,0:0:0:0:
317,284,1701561,2,0,P|336:238|333:160,1,120,4|0,0:0|0:0,0:0:0:0:
359,186,1701987,1,0,0:0:0:0:
462,200,1702200,1,2,0:0:0:0:
486,300,1702412,1,2,0:0:0:0:
394,350,1702625,1,2,0:0:0:0:
223,305,1702838,5,0,0:0:0:0:
223,305,1703051,2,0,L|137:320,1,80,2|4,0:0|0:0,0:0:0:0:
78,238,1703476,2,0,L|-8:223,1,80,2|0,0:0|0:0,0:0:0:0:
75,152,1703902,2,0,P|114:110|142:-2,1,160,2|2,0:0|0:0,0:0:0:0:
308,63,1704540,5,0,0:0:0:0:
209,93,1704753,1,2,0:0:0:0:
241,191,1704966,1,4,0:0:0:0:
340,161,1705179,1,2,0:0:0:0:
194,308,1705604,1,2,0:0:0:0:
393,367,1706030,1,2,0:0:0:0:
471,298,1706243,6,0,P|481:235|480:180,1,80,0|2,0:0|0:0,0:0:0:0:
377,223,1706668,2,0,P|301:209|226:209,1,120,4|0,0:0|0:0,0:0:0:0:
232,217,1707094,1,0,0:0:0:0:
131,244,1707307,1,2,0:0:0:0:
39,293,1707520,1,0,0:0:0:0:
44,189,1707732,1,6,0:0:0:0:
19,87,1707945,5,0,0:0:0:0:
115,125,1708158,1,2,0:0:0:0:
219,126,1708371,1,4,0:0:0:0:
249,115,1708477,1,0,0:0:0:0:
281,114,1708584,1,2,0:0:0:0:
311,123,1708690,1,0,0:0:0:0:
337,140,1708796,1,0,0:0:0:0:
363,158,1708903,1,0,0:0:0:0:
392,169,1709009,1,2,0:0:0:0:
424,171,1709116,1,0,0:0:0:0:
455,165,1709222,1,0,0:0:0:0:
481,147,1709328,1,0,0:0:0:0:
498,119,1709435,1,2,0:0:0:0:
500,87,1709541,1,0,0:0:0:0:
491,55,1709648,6,0,L|485:20,6,26.6666666666667,0|0|0|2|0|0|0,0:0|0:0|0:0|0:0|0:0|0:0|0:0,0:0:0:0:
256,192,1710180,12,0,1711137,0:0:0:0:
256,192,1711350,5,0,1:0:0:0:
256,192,1711456,12,4,1712622,0:0:0:0:
157,219,1713046,5,4,0:0:0:0:
266,342,1713259,2,0,L|383:353,1,111.999996582031,2|0,0:1|0:0,0:0:0:0:
461,224,1713684,2,0,L|344:213,1,111.999996582031,2|0,0:1|0:0,0:0:0:0:
301,77,1714110,2,0,L|418:88,1,111.999996582031,2|0,0:1|0:0,0:0:0:0:
259,209,1714535,1,2,0:0:0:0:
120,30,1714748,5,0,0:0:0:0:
120,30,1714961,2,0,P|130:84|133:178,1,111.999996582031,2|0,0:1|0:0,0:0:0:0:
67,323,1715387,1,2,0:1:0:0:
268,218,1715599,1,0,0:0:0:0:
268,218,1715812,2,0,P|329:212|390:209,1,111.999996582031,2|0,0:1|0:0,0:0:0:0:
477,53,1716238,2,0,P|421:50|366:45,1,111.999996582031,2|0,0:1|0:0,0:0:0:0:
126,182,1716663,5,2,0:1:0:0:
232,54,1716876,1,0,0:0:0:0:
232,54,1717089,2,0,P|242:107|246:175,1,111.999996582031,2|0,0:1|0:0,0:0:0:0:
227,340,1717515,1,2,0:1:0:0:
373,163,1717727,1,0,0:0:0:0:
373,163,1717940,1,2,0:1:0:0:
114,265,1718153,5,0,0:0:0:0:
114,265,1718366,2,0,P|113:205|105:137,1,111.999996582031,2|0,0:1|0:0,0:0:0:0:
41,81,1718685,1,0,0:0:0:0:
41,81,1718791,2,0,P|99:71|160:55,1,111.999996582031,2|0,0:1|0:0,0:0:0:0:
401,179,1719217,1,2,0:1:0:0:
291,55,1719430,1,0,0:0:0:0:
291,55,1719642,2,0,P|299:116|305:184,1,111.999996582031,2|0,0:1|0:0,0:0:0:0:
397,326,1720068,6,0,P|339:336|280:349,1,111.999996582031,2|0,0:1|0:0,0:0:0:0:
42,158,1720494,1,2,0:1:0:0:
118,343,1720707,1,0,0:0:0:0:
176,70,1720919,5,2,0:1:0:0:
46,270,1721132,1,0,0:0:0:0:
87,32,1721345,5,2,0:1:0:0:
213,212,1721558,1,0,0:0:0:0:
213,212,1721771,6,0,P|275:217|337:225,1,111.999996582031,2|0,0:1|0:0,0:0:0:0:
494,75,1722196,1,2,0:1:0:0:
411,325,1722409,1,0,0:0:0:0:
289,104,1722622,5,2,0:1:0:0:
289,104,1722728,1,0,0:0:0:0:
289,104,1722835,1,0,0:0:0:0:
469,216,1723047,1,2,0:1:0:0:
251,334,1723260,1,0,0:0:0:0:
251,334,1723473,6,0,P|179:342|139:348,1,111.999996582031,2|0,0:1|0:0,0:0:0:0:
25,197,1723899,2,0,P|97:189|137:183,1,111.999996582031,2|0,0:1|0:0,0:0:0:0:
215,154,1724218,1,0,0:0:0:0:
215,154,1724324,2,0,B|227:99|227:99|202:36,1,111.999996582031,2|0,0:1|0:0,0:0:0:0:
65,98,1724750,1,2,0:1:0:0:
216,267,1724963,5,0,0:0:0:0:
216,267,1725175,2,0,L|330:280,1,111.999996582031,2|0,0:1|0:0,0:0:0:0:
454,212,1725601,1,2,0:1:0:0:
265,36,1725814,1,0,0:0:0:0:
265,36,1726027,2,0,P|272:110|281:160,1,111.999996582031,2|0,0:1|0:0,0:0:0:0:
373,345,1726452,1,2,1:0:0:0:
191,217,1726665,5,0,0:0:0:0:
191,217,1726878,2,0,P|117:226|63:236,1,111.999996582031,2|0,1:1|0:1,0:1:0:0:
169,345,1727303,1,2,0:1:0:0:
460,128,1727516,1,0,0:0:0:0:
373,345,1727729,2,0,P|361:295|354:213,1,111.999996582031,2|0,0:1|0:0,0:0:0:0:
478,17,1728155,2,0,P|472:72|459:127,1,111.999996582031,2|0,0:1|0:0,0:0:0:0:
392,183,1728474,1,0,0:0:0:0:
392,183,1728580,6,0,L|274:195,1,111.999996582031,2|0,0:1|0:0,0:0:0:0:
56,105,1729006,1,2,0:1:0:0:
134,279,1729219,1,0,0:0:0:0:
134,279,1729325,1,0,0:0:0:0:
134,279,1729431,1,2,0:1:0:0:
256,194,1729644,1,0,0:0:0:0:
333,341,1729857,2,0,P|387:347|456:358,1,111.999996582031,2|0,0:1|0:0,0:0:0:0:
486,288,1730176,5,0,0:0:0:0:
486,288,1730282,2,0,P|480:232|464:170,1,111.999996582031,2|0,0:1|0:0,0:0:0:0:
319,42,1730708,1,2,1:0:0:0:
379,268,1730921,1,0,0:0:0:0:
432,58,1731134,5,2,1:0:0:0:
377,162,1731346,1,0,0:0:0:0:
277,132,1731559,1,2,1:0:0:0:
277,132,1731666,1,0,0:0:0:0:
277,132,1731772,1,0,0:0:0:0:
100,53,1731985,6,0,P|111:107|121:183,1,111.999996582031,2|0,0:1|0:0,0:0:0:0:
47,339,1732411,1,2,1:0:0:0:
119,163,1732623,1,0,0:0:0:0:
170,317,1732836,5,2,1:0:0:0:
97,249,1733049,1,0,0:0:0:0:
55,347,1733262,1,0,1:0:0:0:
55,347,1733368,1,0,0:0:0:0:
55,347,1733474,1,0,0:0:0:0:
229,231,1733687,6,0,L|238:115,1,111.999996582031,2|0,0:1|0:0,0:0:0:0:
162,51,1734113,1,2,0:1:0:0:
346,187,1734326,1,0,0:0:0:0:
143,154,1734538,1,2,0:1:0:0:
143,154,1734645,1,0,0:0:0:0:
143,154,1734751,1,0,0:0:0:0:
444,57,1734964,5,2,0:1:0:0:
444,57,1735070,1,0,0:0:0:0:
444,57,1735177,2,0,P|446:117|439:183,1,111.999996582031,0|2,0:0|0:1,0:0:0:0:
289,339,1735602,1,0,0:0:0:0:
289,339,1735815,5,2,0:1:0:0:
354,152,1736028,1,0,0:0:0:0:
470,313,1736241,1,2,0:1:0:0:
268,237,1736454,5,0,0:0:0:0:
449,218,1736666,1,2,0:1:0:0:
449,218,1736773,1,0,0:0:0:0:
449,218,1736879,1,0,0:0:0:0:
378,357,1737092,6,0,P|363:302|354:231,1,111.999996582031,2|0,0:1|0:0,0:0:0:0:
439,81,1737518,1,2,0:1:0:0:
439,81,1737624,1,0,0:0:0:0:
439,81,1737730,1,0,0:0:0:0:
262,260,1737943,2,0,P|202:254|146:238,1,111.999996582031,2|0,0:1|0:0,0:0:0:0:
56,100,1738369,2,0,P|110:85|165:80,1,111.999996582031,2|0,0:1|0:0,0:0:0:0:
433,338,1738794,6,0,B|241:362|171:257|294:167|407:236|364:359|168:363,1,480,4|0,0:0|0:0,0:0:0:0:
187,362,1739646,6,0,L|108:355,1,80,4|0,0:0|0:0,0:0:0:0:
24,239,1739858,2,0,L|107:248,1,80,0|0,1:0|0:0,0:0:0:0:
153,134,1740071,2,0,L|74:125,1,80,2|0,1:0|0:0,0:0:0:0:
76,37,1740284,6,0,P|139:50|146:145,1,160,4|8,0:0|0:0,0:0:0:0:
55,350,1740922,1,0,0:0:0:0:
169,235,1741135,1,0,0:0:0:0:
148,328,1741348,1,0,0:0:0:0:
76,266,1741561,1,8,0:0:0:0:
240,306,1741774,1,0,0:0:0:0:
105,175,1741986,6,0,P|95:128|169:27,1,160,0|8,0:0|0:0,0:0:0:0:
175,277,1742625,2,0,P|121:287|84:295,1,80,0|0,0:0|0:0,0:0:0:0:
21,191,1743050,1,0,0:0:0:0:
96,292,1743263,1,8,0:0:0:0:
126,172,1743476,1,0,0:0:0:0:
246,342,1743689,6,0,B|329:322|334:373|416:351,1,160,0|8,0:0|0:0,0:0:0:0:
462,252,1744327,1,0,0:0:0:0:
462,252,1744434,1,0,0:0:0:0:
462,252,1744540,2,0,L|382:260,1,80,0|0,0:0|0:0,0:0:0:0:
245,156,1744966,1,8,0:0:0:0:
245,156,1745178,2,0,L|325:148,1,80,0|0,0:0|0:0,0:0:0:0:
211,274,1745604,2,0,L|131:282,1,80,0|8,0:0|0:0,0:0:0:0:
43,61,1746030,2,0,P|85:52|145:151,1,160,0|0,0:0|0:0,0:0:0:0:
56,218,1746668,5,8,0:0:0:0:
227,260,1746881,1,0,0:0:0:0:
28,312,1747094,1,0,0:0:0:0:
148,195,1747306,2,0,P|141:148|133:109,1,80,0|8,0:0|0:0,0:0:0:0:
136,299,1747732,5,0,0:0:0:0:
136,299,1747838,1,0,0:0:0:0:
136,299,1747945,1,0,0:0:0:0:
56,218,1748158,1,0,0:0:0:0:
227,260,1748370,1,8,0:0:0:0:
28,312,1748583,1,0,0:0:0:0:
87,127,1748796,1,0,0:0:0:0:
339,338,1749009,2,0,P|389:347|417:359,1,80,0|8,0:0|0:0,0:0:0:0:
416,359,1749328,1,0,0:0:0:0:
416,359,1749434,6,0,L|424:264,1,80,2|0,0:0|0:0,0:0:0:0:
354,173,1749860,1,2,0:0:0:0:
422,279,1750073,1,0,0:0:0:0:
393,91,1750286,2,0,P|306:91|264:153,1,160,2|0,0:0|0:0,0:0:0:0:
234,337,1750924,5,8,0:0:0:0:
425,227,1751137,2,0,P|459:216|487:209,2,40,0|0|0,0:0|0:0|0:0,0:0:0:0:
247,236,1751562,5,0,0:0:0:0:
358,339,1751775,1,8,0:0:0:0:
360,159,1751988,1,0,0:0:0:0:
360,159,1752094,1,0,0:0:0:0:
360,159,1752201,1,0,0:0:0:0:
463,300,1752414,1,0,0:0:0:0:
234,336,1752626,2,0,P|182:345|141:355,1,80,8|0,0:0|0:0,0:0:0:0:
40,126,1753052,6,0,P|96:129|133:206,1,120,0|0,0:0|0:0,0:0:0:0:
142,201,1753478,1,8,0:0:0:0:
78,338,1753690,5,0,0:0:0:0:
78,338,1753797,1,0,0:0:0:0:
78,338,1753903,2,0,L|224:349,1,120,0|0,0:0|0:0,0:0:0:0:
197,347,1754329,1,8,0:0:0:0:
393,162,1754542,1,0,0:0:0:0:
249,230,1754754,2,0,P|218:223|195:219,2,40
288,126,1755180,1,8,0:0:0:0:
362,354,1755393,1,0,0:0:0:0:
427,272,1755606,6,0,L|438:101,1,160,0|8,0:0|0:0,0:0:0:0:
355,43,1756244,1,0,0:0:0:0:
355,43,1756350,1,0,0:0:0:0:
355,43,1756457,1,0,0:0:0:0:
437,112,1756670,1,0,0:0:0:0:
470,16,1756882,1,8,0:0:0:0:
332,139,1757095,1,0,0:0:0:0:
480,283,1757308,6,0,B|402:261|401:311|319:296,1,160,0|8,0:0|0:0,0:0:0:0:
242,213,1757946,1,0,0:0:0:0:
242,213,1758053,1,0,0:0:0:0:
242,213,1758159,2,0,L|333:219,1,80,0|0,0:0|0:0,0:0:0:0:
239,347,1758585,2,0,L|148:341,1,80,8|0,0:0|0:0,0:0:0:0:
51,204,1759010,2,0,P|121:195|196:244,1,160,0|8,0:0|0:0,0:0:0:0:
390,154,1759649,6,0,P|320:163|245:114,1,160,0|0,0:0|0:0,0:0:0:0:
179,46,1760287,2,0,P|223:35|270:31,1,80,8|0,0:0|0:0,0:0:0:0:
402,238,1760713,5,4,0:0:0:0:
305,322,1760926,2,0,P|260:329|218:333,1,80,0|8,0:0|0:0,0:0:0:0:
61,216,1761351,1,0,0:0:0:0:
61,216,1761458,1,0,0:0:0:0:
61,216,1761564,1,0,0:0:0:0:
131,325,1761777,1,0,0:0:0:0:
229,246,1761990,1,8,0:0:0:0:
132,332,1762202,1,0,0:0:0:0:
61,216,1762415,6,0,L|53:52,1,160,0|8,0:0|0:0,0:0:0:0:
38,309,1763054,1,0,0:0:0:0:
199,194,1763266,1,0,0:0:0:0:
199,194,1763373,1,0,0:0:0:0:
199,194,1763479,1,0,0:0:0:0:
279,341,1763692,5,8,0:0:0:0:
318,344,1763798,1,0,0:0:0:0:
358,348,1763904,1,0,0:0:0:0:
398,351,1764011,1,0,0:0:0:0:
438,355,1764118,2,0,L|443:300,1,40,4|0,0:0|0:0,0:0:0:0:
445,230,1764330,6,0,L|448:207,2,20,2|0|0,0:0|0:0|0:0,0:0:0:0:
365,202,1764756,2,0,L|362:179,2,20,2|0|0,0:0|0:0|0:0,0:0:0:0:
447,132,1765182,2,0,L|450:109,2,20,2|0|0,0:0|0:0|0:0,0:0:0:0:
363,112,1765607,2,0,L|360:89,2,20,2|0|0,0:0|0:0|0:0,0:0:0:0:
365,202,1766033,6,0,L|360:252,1,40,2|0,0:0|0:0,0:0:0:0:
360,367,1766246,2,0,L|353:314,1,40,0|0,0:0|0:0,0:0:0:0:
274,227,1766458,2,0,L|269:277,1,40,2|0,0:0|0:0,0:0:0:0:
268,349,1766671,1,0,0:0:0:0:
245,352,1766778,1,0,0:0:0:0:
223,356,1766884,6,0,L|129:368,1,80,4|0,0:0|0:0,0:0:0:0:
34,193,1767310,1,0,0:0:0:0:
75,290,1767522,5,4,0:0:0:0:
256,192,1767629,12,0,1774332,0:0:0:0:
