osu file format v14

[General]
AudioFilename: zts - Captain Murasa.mp3
AudioLeadIn: 0
PreviewTime: 256102
Countdown: 0
SampleSet: Soft
StackLeniency: 0.7
Mode: 0
LetterboxInBreaks: 0
EpilepsyWarning: 1
WidescreenStoryboard: 1

[Editor]
DistanceSpacing: 2
BeatDivisor: 4
GridSize: 4
TimelineZoom: 0.7

[Metadata]
Title:Captain Murasa
TitleUnicode:キャプテン・ムラサ
Artist:zts
ArtistUnicode:zts
Creator:tokiko
Version:Nostalgic
Source:東方星蓮船 ~ Undefined Fantastic Object.
Tags:Touhou Project UFO th12 Stage 4 Boss theme Kyaputen Murasa Minamitsu 村紗 水蜜 Cradle2 Comiket 77 C77 ZTS CODE LABEL instrumental video game Team Shanghai Alice ZUN
BeatmapID:2503310
BeatmapSetID:1201987

[Difficulty]
HPDrainRate:6
CircleSize:4
OverallDifficulty:7
ApproachRate:8.5
SliderMultiplier:1.6
SliderTickRate:1

[Events]
//Background and Video events
0,0,"zts - Captain Murasa.jpg",0,0
//Break Periods
2,192235,212560
//Storyboard Layer 0 (Background)
//Storyboard Layer 1 (Fail)
//Storyboard Layer 2 (Pass)
//Storyboard Layer 3 (Foreground)
//Storyboard Layer 4 (Overlay)
//Storyboard Sound Samples

[TimingPoints]
235,428.571428571429,4,2,0,40,1,0
41377,-100,4,2,0,60,0,0
53163,-100,4,2,0,40,0,0
53377,-125,4,2,0,60,0,0
55092,-100,4,2,0,60,0,0
94520,-166.666666666667,4,1,0,60,0,0
95377,-100,4,2,0,60,0,0
96235,-100,4,1,0,60,0,0
123235,-125,4,1,0,60,0,0
123663,-100,4,1,0,60,0,1
149377,-100,4,2,0,60,0,1
150735,-100,4,2,0,20,0,1
150806,-100,4,2,0,30,0,1
150877,-100,4,2,0,40,0,1
150949,-100,4,2,0,50,0,1
151020,-100,4,2,0,60,0,1
151092,-100,4,2,0,60,0,0
157949,-100,4,2,0,50,0,0
164806,-100,4,2,0,40,0,0
168235,-100,4,2,0,35,0,0
171663,-100,4,2,0,30,0,0
177663,-100,4,2,0,40,0,0
180235,-100,4,2,0,35,0,0
181949,-100,4,2,0,30,0,0
183663,-100,4,2,0,25,0,0
185377,-100,4,2,0,20,0,0
187092,-100,4,2,0,25,0,0
188806,-100,4,2,0,30,0,0
189663,-100,4,2,0,35,0,0
190520,-100,4,2,0,40,0,0
191377,-100,4,2,0,30,0,0
191806,-100,4,2,0,20,0,0
213235,-285.714285714286,4,2,0,40,0,0
214520,-285.714285714286,4,2,0,10,0,0
219663,-125,4,2,0,40,0,0
238520,-200,4,1,0,60,0,0
238949,-100,4,1,0,60,0,0
239377,-125,4,1,0,60,0,0
256092,428.571428571429,4,1,0,60,1,1
256092,-90.9090909090909,4,1,0,60,0,1
281806,-90.9090909090909,4,1,0,60,0,0
283520,-83.3333333333333,4,1,0,60,0,1
309234,-83.3333333333333,4,1,0,60,0,0
314377,-100,4,2,0,60,0,0

[Colours]
Combo1 : 170,0,0
Combo2 : 108,185,210
Combo3 : 40,98,108
Combo4 : 16,78,133
Combo5 : 121,155,153

[HitObjects]
80,112,235,6,0,P|135:90|194:77,1,120,0|0,1:0|3:0,0:0:0:0:
194,77,663,2,0,L|180:161,1,80,0|0,1:0|0:0,0:0:0:0:
316,200,1092,2,0,L|302:278,1,80,0|0,1:0|0:0,0:0:0:0:
300,300,1413,1,0,3:0:0:0:
296,320,1520,2,0,L|376:304,1,80,0|0,1:0|1:0,0:0:0:0:
394,318,1842,1,0,1:0:0:0:
414,332,1949,6,0,P|438:277|454:219,1,120,0|0,1:0|3:0,0:0:0:0:
448,180,2377,1,0,1:0:0:0:
376,52,2592,1,0,0:0:0:0:
376,52,2806,2,0,L|252:32,1,120,0|0,1:0|0:0,0:0:0:0:
257,32,3235,1,0,1:0:0:0:
257,32,3342,1,0,1:0:0:0:
257,32,3449,1,0,1:0:0:0:
257,32,3556,1,0,1:0:0:0:
257,32,3663,5,0,1:0:0:0:
0,194,3985,1,0,3:0:0:0:
0,194,4092,1,0,1:0:0:0:
91,140,4306,1,0,0:0:0:0:
120,240,4520,2,0,P|136:297|142:357,1,120,0|0,1:0|0:0,0:0:0:0:
184,340,4949,2,0,P|196:300|212:260,1,80,0|0,1:0|1:0,0:0:0:0:
210,264,5270,1,0,1:0:0:0:
210,264,5377,5,0,1:0:0:0:
373,226,5699,1,0,3:0:0:0:
373,226,5806,2,0,P|387:263|392:302,1,80,0|0,1:0|0:0,0:0:0:0:
256,140,6235,2,0,L|278:22,1,120,0|0,1:0|0:0,0:0:0:0:
278,22,6663,1,0,1:0:0:0:
278,22,6770,1,0,1:0:0:0:
278,22,6877,1,0,1:0:0:0:
278,22,6985,1,0,1:0:0:0:
278,22,7092,21,0,1:0:0:0:
414,24,7306,1,2,0:0:0:0:
414,24,7520,2,0,L|402:109,1,80,0|2,1:0|0:0,0:0:0:0:
488,176,7949,2,0,L|504:296,1,120,0|0,1:0|3:0,0:0:0:0:
512,336,8377,1,0,1:0:0:0:
380,280,8592,1,0,1:0:0:0:
364,272,8699,1,0,1:0:0:0:
348,264,8806,6,0,L|275:229,1,80,0|2,1:0|0:0,0:0:0:0:
256,236,9127,1,0,3:0:0:0:
237,243,9235,2,0,L|164:208,1,80,0|2,1:0|0:0,0:0:0:0:
20,144,9663,2,0,B|44:184|44:184|28:256,1,120,0|0,1:0|3:0,0:0:0:0:
36,276,10092,1,0,1:0:0:0:
44,297,10199,1,0,1:0:0:0:
52,318,10306,1,0,1:0:0:0:
60,339,10413,1,0,1:0:0:0:
68,360,10520,6,0,P|108:344|148:336,1,80,0|2,1:0|0:0,0:0:0:0:
157,303,10842,1,0,3:0:0:0:
157,303,10949,2,0,P|193:288|233:280,1,80,0|2,1:0|0:0,0:0:0:0:
338,192,11377,2,0,P|302:177|262:169,1,80,0|2,1:0|0:0,0:0:0:0:
316,277,11806,1,0,1:0:0:0:
432,256,12020,1,0,1:0:0:0:
448,244,12127,1,0,1:0:0:0:
464,232,12235,6,0,P|484:176|492:116,1,120,0|0,1:0|3:0,0:0:0:0:
491,116,12663,2,0,P|472:81|465:42,1,80,0|2,1:0|0:0,0:0:0:0:
328,0,13092,2,0,P|312:36|293:71,1,80,0|2,1:0|0:0,0:0:0:0:
280,88,13413,1,0,0:0:0:0:
261,94,13520,1,0,1:0:0:0:
241,95,13627,1,0,1:0:0:0:
221,91,13735,1,0,1:0:0:0:
204,81,13842,1,0,1:0:0:0:
189,66,13949,22,0,P|131:16|54:26,1,160,0|8,1:0|1:0,0:0:0:0:
24,184,14592,1,2,0:0:0:0:
24,184,14806,2,0,L|36:264,1,80,0|2,1:0|0:0,0:0:0:0:
184,300,15235,2,0,L|196:220,1,80,8|0,1:0|1:0,0:0:0:0:
208,204,15556,1,0,1:0:0:0:
221,188,15663,6,0,L|196:29,1,160,0|8,1:0|1:0,0:0:0:0:
93,23,16306,1,2,0:0:0:0:
288,38,16520,2,0,P|326:27|366:22,1,80,0|2,1:0|0:0,0:0:0:0:
488,112,16949,1,8,1:0:0:0:
500,139,17056,1,0,1:0:0:0:
505,168,17163,1,0,1:0:0:0:
501,198,17270,1,0,1:0:0:0:
490,226,17377,6,0,P|411:233|343:193,1,160,0|8,1:0|1:0,0:0:0:0:
208,152,18020,1,2,0:0:0:0:
208,152,18235,1,0,1:0:0:0:
308,28,18449,1,2,0:0:0:0:
308,28,18556,1,0,3:0:0:0:
308,28,18663,2,0,P|326:63|338:101,1,80,8|0,1:0|1:0,0:0:0:0:
328,120,18985,1,0,1:0:0:0:
316,136,19092,6,0,L|304:296,1,160,0|8,1:0|1:0,0:0:0:0:
212,360,19735,1,2,0:0:0:0:
88,224,19949,2,0,L|9:209,1,80,0|2,1:0|0:0,0:0:0:0:
136,108,20377,1,8,1:0:0:0:
165,102,20485,1,0,1:0:0:0:
194,96,20592,1,0,1:0:0:0:
224,90,20699,1,0,1:0:0:0:
253,85,20806,21,0,1:0:0:0:
356,32,21020,1,2,0:0:0:0:
428,128,21235,2,0,B|456:168|456:168|440:244,1,120,8|0,1:0|3:0,0:0:0:0:
441,237,21663,2,0,L|362:249,1,80,0|2,1:0|0:0,0:0:0:0:
361,249,21985,1,0,0:0:0:0:
361,249,22092,1,8,1:0:0:0:
208,188,22306,1,0,1:0:0:0:
200,168,22413,1,0,1:0:0:0:
192,148,22520,5,0,1:0:0:0:
304,184,22735,1,2,0:0:0:0:
271,296,22949,2,0,P|197:319|128:284,1,160,8|0,1:0|1:0,0:0:0:0:
24,192,23592,2,0,L|40:112,1,80,2|8,0:0|1:0,0:0:0:0:
48,76,23913,1,2,1:0:0:0:
201,69,24127,1,2,1:0:0:0:
201,69,24235,6,0,L|216:147,1,80,0|2,1:0|0:0,0:0:0:0:
320,216,24663,2,0,P|240:225|166:256,1,160,8|0,1:0|1:0,0:0:0:0:
244,364,25306,2,0,P|284:356|324:344,1,80,2|8,0:0|1:0,0:0:0:0:
428,252,25735,1,0,1:0:0:0:
335,131,25949,6,0,P|326:93|321:53,1,80,0|2,1:0|0:0,0:0:0:0:
196,16,26377,2,0,P|159:62|102:80,1,120,8|0,1:0|3:0,0:0:0:0:
102,80,26806,2,0,P|94:119|84:158,1,80,0|2,1:0|0:0,0:0:0:0:
24,300,27235,1,8,1:0:0:0:
24,300,27342,1,2,1:0:0:0:
152,352,27556,1,2,1:0:0:0:
152,352,27663,21,0,1:0:0:0:
248,277,27877,1,2,0:0:0:0:
372,296,28092,2,0,P|408:224|434:149,1,160,8|0,1:0|1:0,0:0:0:0:
404,24,28735,1,2,0:0:0:0:
284,72,28949,2,0,P|244:64|206:52,1,80,8|0,1:0|1:0,0:0:0:0:
192,40,29270,1,0,1:0:0:0:
180,24,29377,6,0,P|140:31|102:43,1,80,0|2,1:0|0:0,0:0:0:0:
0,147,29806,2,0,P|39:149|75:166,1,80,8|2,1:0|0:0,0:0:0:0:
224,256,30235,2,0,P|298:227|376:209,1,160,0|8,1:0|1:0,0:0:0:0:
416,221,30770,1,2,1:0:0:0:
439,347,30985,1,2,1:0:0:0:
439,347,31092,6,0,P|400:340|360:336,1,80,0|2,1:0|0:0,0:0:0:0:
240,368,31520,2,0,L|216:209,1,160,8|0,1:0|1:0,0:0:0:0:
104,56,32163,2,0,L|92:136,1,80,2|8,0:0|1:0,0:0:0:0:
244,84,32592,1,0,1:0:0:0:
244,84,32699,1,0,1:0:0:0:
244,84,32806,6,0,L|256:4,1,80,0|2,1:0|0:0,0:0:0:0:
104,56,33235,2,0,P|66:41|27:36,1,80,8|2,1:0|0:0,0:0:0:0:
48,160,33663,2,0,P|87:165|124:179,1,80,0|2,1:0|0:0,0:0:0:0:
224,292,34092,1,8,1:0:0:0:
224,292,34199,1,2,1:0:0:0:
368,268,34413,1,2,1:0:0:0:
368,268,34520,21,0,1:0:0:0:
264,172,34735,1,2,0:0:0:0:
368,80,34949,2,0,P|383:43|388:3,1,80,8|2,1:0|0:0,0:0:0:0:
492,80,35377,2,0,P|497:119|512:156,2,80,0|2|8,1:0|0:0|1:0,0:0:0:0:
412,196,36020,1,0,1:0:0:0:
412,196,36127,1,0,1:0:0:0:
412,196,36235,5,0,1:0:0:0:
484,312,36449,1,2,0:0:0:0:
364,376,36663,2,0,L|285:361,1,80,8|2,1:0|0:0,0:0:0:0:
224,240,37092,1,0,1:0:0:0:
224,240,37306,2,0,L|145:255,1,80,2|8,0:0|1:0,0:0:0:0:
130,291,37627,1,2,1:0:0:0:
15,228,37842,1,2,1:0:0:0:
15,228,37949,5,0,1:0:0:0:
32,99,38163,1,2,0:0:0:0:
148,32,38377,2,0,P|187:24|227:23,1,80,8|2,1:0|0:0,0:0:0:0:
304,140,38806,2,0,P|264:132|224:131,1,80,0|2,1:0|0:0,0:0:0:0:
160,240,39235,2,0,P|152:279|151:319,1,80,8|0,1:0|1:0,0:0:0:0:
160,336,39556,1,0,1:0:0:0:
172,352,39663,6,0,P|209:366|248:372,1,80,2|2,0:0|0:0,0:0:0:0:
392,344,40092,1,8,1:0:0:0:
440,208,40306,1,2,0:0:0:0:
436,192,40413,1,2,0:0:0:0:
432,176,40520,1,2,0:0:0:0:
304,160,40735,1,8,1:0:0:0:
256,296,40949,1,2,0:0:0:0:
242,304,41056,1,2,0:0:0:0:
228,313,41163,1,2,0:0:0:0:
214,321,41270,1,2,0:0:0:0:
200,330,41377,22,0,L|41:351,1,160,6|0,1:2|1:0,0:0:0:0:
41,350,42020,1,2,0:0:0:0:
83,185,42235,2,0,L|162:173,1,80,2|2,1:2|0:0,0:0:0:0:
349,210,42663,2,0,L|270:222,1,80,2|2,1:2|0:0,0:0:0:0:
264,206,42985,1,2,0:0:0:0:
258,189,43092,6,0,P|250:151|258:111,1,80,0|2,1:0|0:0,0:0:0:0:
410,48,43520,2,0,P|418:86|410:126,1,80,0|2,1:0|0:0,0:0:0:0:
411,331,43949,1,0,1:0:0:0:
406,309,44056,1,2,0:0:0:0:
410,287,44163,2,0,P|448:275|487:275,1,80,2|2,0:0|1:2,0:0:0:0:
512,294,44806,6,0,L|500:134,1,160,0|0,1:0|1:0,0:0:0:0:
431,26,45449,1,2,0:0:0:0:
415,21,45556,1,2,0:0:0:0:
399,16,45663,2,0,L|322:-5,1,80,2|2,1:2|0:0,0:0:0:0:
207,68,46092,2,0,L|284:89,1,80,2|2,1:2|0:0,0:0:0:0:
377,308,46520,2,0,L|222:266,2,160,2|2|2,1:2|1:2|1:2,0:0:0:0:
300,378,47592,1,0,0:0:0:0:
199,354,47806,1,0,1:0:0:0:
199,354,47913,1,0,0:0:0:0:
199,354,48020,1,0,0:0:0:0:
126,56,48235,6,0,P|201:31|279:42,1,160,2|2,1:2|3:2,0:0:0:0:
331,139,48877,1,2,0:0:0:0:
331,139,48985,1,2,0:0:0:0:
331,139,49092,1,2,3:2:0:0:
257,200,49306,1,2,0:0:0:0:
162,185,49520,1,2,3:2:0:0:
90,249,49735,1,2,0:0:0:0:
235,358,49949,2,0,L|245:278,2,80,4|0|2,0:0|0:0|0:0,0:0:0:0:
415,246,50592,2,0,L|404:325,2,80,4|0|2,0:0|0:0|0:0,0:0:0:0:
376,77,51235,22,0,P|338:64|298:65,1,80,2|2,0:0|0:0,0:0:0:0:
204,161,51663,2,0,P|164:162|126:149,1,80,2|0,0:0|0:0,0:0:0:0:
81,4,52092,1,2,0:0:0:0:
81,4,52413,1,2,0:0:0:0:
81,4,52520,1,2,0:0:0:0:
25,307,52842,1,2,0:0:0:0:
25,307,52949,1,2,0:0:0:0:
168,368,53163,1,0,1:0:0:0:
168,368,53270,1,0,1:0:0:0:
168,368,53377,6,0,B|329:291|312:439|473:365,1,320,4|0,1:0|0:0,0:0:0:0:
508,245,54663,2,0,L|506:223,5,21.3333333333333
497,267,55092,6,0,P|458:276|418:275,1,80,6|0,1:0|0:0,0:0:0:0:
257,192,55520,1,10,1:0:0:0:
257,192,55735,2,0,P|294:178|333:172,2,80,0|2|0,0:0|1:0|0:0,0:0:0:0:
164,327,56377,1,10,1:0:0:0:
19,323,56592,2,0,P|4:245|5:165,1,160,2|0,0:1|0:1,0:0:0:0:
98,90,57235,2,0,P|98:50|94:10,1,80,10|0,1:0|0:0,0:0:0:0:
179,174,57663,2,0,P|217:184|256:191,1,80,2|0,1:0|0:0,0:0:0:0:
270,182,57985,1,0,0:0:0:0:
283,173,58092,2,0,P|321:162|360:155,1,80,10|2,1:0|0:1,0:0:0:0:
494,339,58520,6,0,B|414:330,1,80,0|2,1:0|0:0,0:0:0:0:
214,348,58949,2,0,B|294:357,1,80,10|2,1:0|0:0,0:0:0:0:
166,235,59377,2,0,B|86:226,1,80,2|2,1:0|0:0,0:0:0:0:
86,226,59806,1,10,1:0:0:0:
256,190,60020,1,2,0:0:0:0:
261,174,60127,1,2,0:0:0:0:
266,158,60235,22,0,L|253:78,2,80,4|2|8,1:2|0:0|1:0,0:0:0:0:
90,230,60877,2,0,L|102:309,2,80,6|0|0,0:0|1:0|0:0,0:0:0:0:
244,288,61520,2,0,L|256:367,1,80,8|0,1:0|0:0,0:0:0:0:
477,346,61949,6,0,P|437:342|398:346,1,80,6|0,1:0|0:0,0:0:0:0:
472,254,62377,2,0,P|481:215|473:176,1,80,10|0,1:0|0:0,0:0:0:0:
339,124,62806,2,0,P|329:162|337:201,1,80,2|0,1:0|0:0,0:0:0:0:
430,86,63235,1,10,1:0:0:0:
269,25,63449,2,0,P|191:8|113:23,1,160,2|0,0:1|0:0,0:0:0:0:
27,114,64092,2,0,L|106:122,1,80,10|2,1:0|0:0,0:0:0:0:
206,219,64520,2,0,L|126:227,1,80,2|0,1:0|0:0,0:0:0:0:
22,345,64949,1,10,1:0:0:0:
177,368,65163,6,0,P|255:380|333:365,1,160,2|2,0:1|0:0,0:0:0:0:
480,295,65806,2,0,L|471:374,1,80,10|2,1:0|0:0,0:0:0:0:
342,285,66235,2,0,L|351:205,1,80,2|2,1:0|0:0,0:0:0:0:
490,157,66663,1,10,1:0:0:0:
327,42,66877,1,2,0:0:0:0:
307,39,66985,1,2,0:0:0:0:
287,37,67092,6,0,L|207:28,2,80,4|2|8,1:2|0:0|1:0,0:0:0:0:
350,205,67735,2,0,L|430:214,2,80,6|0|0,0:0|1:0|0:0,0:0:0:0:
222,300,68377,2,0,L|142:291,1,80,8|0,1:0|1:0,0:0:0:0:
122,288,68699,1,0,1:0:0:0:
102,286,68806,22,0,P|84:321|76:360,1,80,6|0,1:0|0:0,0:0:0:0:
222,300,69235,2,0,P|214:260|196:225,1,80,10|0,1:0|0:0,0:0:0:0:
93,108,69663,2,0,P|126:130|164:142,1,80,2|0,1:0|0:0,0:0:0:0:
298,106,70092,1,10,1:0:0:0:
441,151,70306,1,2,0:1:0:0:
441,151,70413,1,0,0:0:0:0:
441,151,70520,6,0,P|403:164|363:169,1,80,0|0,1:0|0:1,0:0:0:0:
364,312,70949,2,0,P|325:301|290:283,1,80,10|2,1:0|0:0,0:0:0:0:
195,370,71377,2,0,P|174:335|163:297,1,80,2|0,1:0|0:0,0:0:0:0:
202,160,71806,1,10,1:0:0:0:
114,44,72020,1,2,0:1:0:0:
114,44,72127,1,0,0:0:0:0:
114,44,72235,6,0,L|34:36,1,80,0|2,1:0|0:0,0:0:0:0:
122,152,72663,2,0,L|201:159,1,80,10|2,1:0|0:0,0:0:0:0:
337,72,73092,2,0,L|257:64,1,80,2|2,1:0|0:0,0:0:0:0:
342,226,73520,2,0,L|421:233,1,80,10|2,1:0|0:0,0:0:0:0:
436,226,73842,1,2,0:0:0:0:
451,219,73949,5,4,1:2:0:0:
472,124,74163,1,2,0:0:0:0:
430,314,74377,1,8,1:0:0:0:
241,272,74592,1,6,0:0:0:0:
220,366,74806,1,0,1:0:0:0:
313,343,75020,1,0,0:0:0:0:
124,301,75235,1,8,1:0:0:0:
103,207,75449,1,0,0:0:0:0:
167,37,75663,22,0,P|206:28|245:25,1,80,6|0,1:0|0:0,0:0:0:0:
132,128,76092,2,0,P|92:131|53:140,1,80,10|0,1:0|0:0,0:0:0:0:
198,234,76520,2,0,P|237:225|276:222,1,80,2|0,1:0|0:0,0:0:0:0:
421,256,76949,1,10,1:0:0:0:
501,134,77163,1,2,0:1:0:0:
501,134,77270,1,0,0:0:0:0:
501,134,77377,6,0,P|508:94|505:55,1,80,0|0,1:0|0:0,0:0:0:0:
372,93,77806,2,0,P|366:132|369:172,1,80,10|0,1:0|0:1,0:0:0:0:
417,335,78235,2,0,P|423:295|421:256,1,80,2|0,1:0|0:0,0:0:0:0:
284,218,78663,1,10,1:0:0:0:
272,214,78770,1,0,1:0:0:0:
260,210,78877,1,2,1:1:0:0:
248,206,78985,1,0,1:0:0:0:
236,202,79092,6,0,L|157:214,1,80,0|2,1:0|0:0,0:0:0:0:
125,368,79520,1,10,1:0:0:0:
125,368,79735,2,0,L|46:355,2,80,2|2|2,0:0|1:0|0:0,0:0:0:0:
243,349,80377,1,10,1:0:0:0:
315,189,80592,1,2,0:0:0:0:
330,186,80699,1,2,0:0:0:0:
346,184,80806,6,0,P|362:220|371:259,1,80,4|0,1:2|0:0,0:0:0:0:
342,361,81235,1,2,0:0:0:0:
144,337,81449,2,0,P|127:300|118:261,1,80,4|0,1:2|0:0,0:0:0:0:
148,160,81877,1,0,0:0:0:0:
88,36,82092,2,0,P|50:25|11:27,1,80,2|0,0:0|0:0,0:0:0:0:
9,27,82413,1,0,0:0:0:0:
9,27,82520,21,4,1:0:0:0:
1,189,82735,1,2,0:0:0:0:
1,189,83163,1,2,0:0:0:0:
89,225,83377,1,2,0:0:0:0:
19,291,83592,1,2,0:0:0:0:
19,291,83699,2,0,P|71:318|131:315,1,120,2|2,0:0|0:0,0:0:0:0:
141,309,84127,1,2,0:0:0:0:
148,299,84235,1,0,0:0:0:0:
177,189,84449,1,2,0:0:0:0:
177,189,84556,2,0,P|228:159|287:156,1,120,2|2,0:0|0:0,0:0:0:0:
397,205,85092,1,0,0:0:0:0:
400,220,85199,1,2,0:0:0:0:
403,235,85306,1,2,0:0:0:0:
494,157,85520,2,0,L|478:78,1,80
315,18,85949,5,4,1:0:0:0:
287,156,86163,2,0,P|214:187|136:174,1,160,2|0,0:0|0:0,0:0:0:0:
129,164,86699,1,2,0:0:0:0:
125,152,86806,1,2,0:0:0:0:
257,262,87020,1,2,0:0:0:0:
257,262,87127,2,0,P|268:320|255:378,1,120,2|2,0:0|0:0,0:0:0:0:
26,323,87663,2,0,B|71:308|71:308|127:332|127:332|176:316,2,160,0|0|0,1:0|1:0|1:0,0:0:0:0:
26,323,88949,1,0,1:0:0:0:
470,296,89377,5,4,1:0:0:0:
329,247,89592,1,2,0:0:0:0:
329,247,90020,1,2,0:0:0:0:
315,151,90235,1,2,0:0:0:0:
227,123,90449,1,2,0:0:0:0:
227,123,90556,2,0,L|214:4,1,120,2|0,0:0|0:0,0:0:0:0:
49,25,91092,6,0,L|128:41,1,80,6|0,0:0|0:0,0:0:0:0:
191,199,91520,1,2,0:0:0:0:
270,215,91735,2,0,L|191:199,1,80,4|0,0:0|0:0,0:0:0:0:
346,145,92163,1,2,0:0:0:0:
448,158,92377,1,2,0:0:0:0:
503,244,92592,1,2,0:0:0:0:
472,341,92806,22,0,L|393:325,1,80,2|0,1:2|0:0,0:0:0:0:
213,290,93235,1,0,1:0:0:0:
171,19,93556,1,0,0:0:0:0:
171,19,93663,1,0,1:0:0:0:
151,32,94092,1,0,1:0:0:0:
129,45,94520,6,2,P|96:132|134:217,1,191.999994140625,2|0,0:0|1:0,0:0:0:0:
135,247,95485,1,0,1:0:0:0:
165,222,95592,1,0,1:0:0:0:
203,210,95699,1,0,1:0:0:0:
243,211,95806,1,0,1:0:0:0:
291,335,96020,1,0,1:0:0:0:
471,312,96235,6,2,L|487:152,2,160
364,236,97306,2,0,L|355:156,1,80,2|0,2:1|0:0,0:0:0:0:
293,52,97735,1,2,2:1:0:0:
180,97,97949,2,0,L|100:85,1,80,0|0,0:0|2:0,0:0:0:0:
0,224,98377,2,2,L|159:245,1,160
229,353,99020,2,0,L|149:363,1,80,2|0,2:1|0:0,0:0:0:0:
302,279,99449,1,2,0:0:0:0:
302,279,99556,1,0,0:0:0:0:
302,279,99663,6,2,P|377:254|455:267,2,160
185,215,100735,2,0,P|192:175|185:136,1,80,2|0,2:1|0:0,0:0:0:0:
42,29,101163,1,2,0:0:0:0:
35,42,101270,1,2,0:0:0:0:
31,58,101377,2,0,P|70:66|109:68,1,80,2|0,0:0|2:0,0:0:0:0:
264,147,101806,2,0,P|224:138|185:136,1,80,2|0,0:0|2:0,0:0:0:0:
323,35,102235,2,0,P|362:43|401:45,1,80,2|2,0:0|2:1,0:0:0:0:
502,210,102663,2,0,P|462:211|422:219,1,80,0|0,0:0|2:0,0:0:0:0:
296,355,103092,21,2,0:0:0:0:
296,355,103199,1,0,0:0:0:0:
296,355,103306,2,2,P|375:353|454:334,1,160,2|0,0:0|0:0,0:0:0:0:
453,334,103949,1,2,0:0:0:0:
356,191,104163,1,2,0:0:0:0:
356,191,104270,1,0,0:0:0:0:
356,191,104592,2,2,P|277:193|198:212,1,160,2|0,0:0|0:0,0:0:0:0:
198,211,105235,1,2,0:0:0:0:
459,112,105556,1,0,0:0:0:0:
459,112,105663,2,0,P|473:74|476:35,1,80,2|2,0:0|0:0,0:0:0:0:
317,36,106092,2,0,P|302:73|299:112,1,80,0|0,0:0|2:0,0:0:0:0:
106,177,106520,6,2,P|131:102|132:22,2,160
123,303,107592,2,0,L|45:285,1,80,2|0,2:1|0:0,0:0:0:0:
192,225,108020,1,2,0:0:0:0:
207,228,108127,1,2,0:0:0:0:
223,232,108235,2,0,L|232:312,1,80,2|0,0:0|2:0,0:0:0:0:
354,343,108663,2,0,L|345:263,1,80,2|0,0:0|2:0,0:0:0:0:
475,153,109092,2,0,L|484:233,1,80,2|2,0:0|0:0,0:0:0:0:
358,171,109520,1,0,0:0:0:0:
355,154,109627,1,0,0:0:0:0:
353,138,109735,1,0,0:0:0:0:
352,122,109842,1,0,0:0:0:0:
350,105,109949,6,2,P|413:56|490:38,2,160
235,166,111020,2,0,P|199:148|159:142,1,80,2|0,2:1|0:0,0:0:0:0:
57,216,111449,1,2,2:1:0:0:
111,344,111663,2,0,P|129:308|135:268,1,80,0|0,0:0|2:0,0:0:0:0:
276,258,112092,2,0,P|258:294|251:334,1,80,2|0,0:0|2:0,0:0:0:0:
454,285,112520,2,0,P|454:246|447:206,1,80,2|2,0:0|0:0,0:0:0:0:
428,180,112842,1,0,0:0:0:0:
340,41,113056,1,0,0:0:0:0:
340,41,113163,1,2,0:0:0:0:
340,41,113270,1,0,0:0:0:0:
340,41,113377,6,2,L|180:28,2,160
451,101,114449,2,0,L|373:119,1,80,2|0,2:1|0:0,0:0:0:0:
223,226,114877,1,2,0:0:0:0:
218,241,114985,1,2,0:0:0:0:
213,256,115092,2,0,L|227:334,1,80,2|0,0:0|2:0,0:0:0:0:
51,322,115520,2,0,L|36:243,1,80,2|0,0:0|2:0,0:0:0:0:
113,86,115949,2,0,L|34:71,1,80,2|2,0:0|0:0,0:0:0:0:
210,14,116377,2,0,L|288:28,1,80,0|0,0:0|2:0,0:0:0:0:
497,61,116806,21,2,0:0:0:0:
497,61,116913,1,0,0:0:0:0:
497,61,117020,2,2,P|455:128|455:207,1,160,2|0,0:0|0:0,0:0:0:0:
455,207,117663,1,2,0:0:0:0:
380,363,117877,1,2,0:0:0:0:
380,363,117985,1,0,0:0:0:0:
380,363,118306,2,2,P|305:339|225:337,1,160,2|0,0:0|0:0,0:0:0:0:
224,337,118949,1,2,0:0:0:0:
36,126,119270,1,0,0:0:0:0:
36,126,119377,2,0,P|74:137|113:138,1,80,2|2,0:0|0:0,0:0:0:0:
256,40,119806,2,0,P|217:28|178:27,1,80,0|2,0:0|2:0,0:0:0:0:
346,108,120235,6,2,P|326:185|316:264,2,160
422,50,121306,1,2,0:0:0:0:
500,104,121520,2,0,P|500:143|493:183,1,80,8|2,0:0|0:0,0:0:0:0:
465,357,121949,5,10,0:0:0:0:
346,342,122163,1,0,0:0:0:0:
341,326,122270,1,0,0:0:0:0:
336,310,122377,1,10,0:0:0:0:
311,192,122592,1,8,0:0:0:0:
192,177,122806,1,2,0:0:0:0:
167,295,123020,1,0,0:0:0:0:
162,311,123127,1,0,0:0:0:0:
157,327,123235,2,2,L|61:338,1,96,10|2,0:0|0:0,0:0:0:0:
67,296,123663,6,0,L|57:375,1,80,2|2,0:0|2:0,0:0:0:0:
246,376,124092,2,0,L|267:217,1,160,10|2,0:0|0:0,0:0:0:0:
464,161,124842,1,2,0:0:0:0:
464,161,124949,1,8,0:0:0:0:
437,27,125163,2,0,L|357:16,1,80,2|0,0:0|0:0,0:0:0:0:
77,53,125806,2,0,L|156:63,1,80,10|2,0:0|2:0,0:0:0:0:
181,40,126127,2,0,P|199:96|198:156,1,120,2|2,0:0|0:0,0:0:0:0:
89,320,126663,1,8,0:0:0:0:
89,320,126877,2,0,P|78:281|75:241,1,80,2|0,0:1|0:0,0:0:0:0:
424,357,127520,22,0,P|384:363|345:356,1,80,10|2,0:0|2:0,0:0:0:0:
282,247,127949,2,0,P|321:240|360:247,1,80,2|2,0:0|2:0,0:0:0:0:
388,248,128270,2,0,P|376:189|390:131,1,120,2|2,0:0|0:0,0:0:0:0:
406,119,128699,1,0,0:0:0:0:
423,109,128806,2,0,P|432:70|428:30,1,80,0|2,0:0|2:0,0:0:0:0:
256,7,129235,2,0,B|198:-11|207:36|139:7,2,120,10|2|2,0:0|0:0|0:0,0:0:0:0:
256,7,130092,1,8,0:0:0:0:
304,316,130520,6,0,P|241:315|179:337,1,120,2|0,0:0|2:0,0:0:0:0:
163,357,130949,2,0,P|202:361|240:375,1,80,10|2,0:0|2:0,0:0:0:0:
119,280,131377,2,0,P|133:244|139:204,1,80,2|2,0:0|2:0,0:0:0:0:
37,181,131699,2,0,P|16:124|8:65,1,120,2|2,0:0|0:0,0:0:0:0:
21,45,132127,1,0,0:0:0:0:
34,25,132235,6,0,L|113:19,1,80,0|2,0:0|2:0,0:0:0:0:
272,93,132663,2,0,L|193:99,1,80,10|2,0:0|2:0,0:0:0:0:
183,176,132985,2,0,L|198:57,1,120,2|2,0:0|2:1,0:0:0:0:
370,42,133520,1,8,0:0:0:0:
370,42,133627,1,0,0:0:0:0:
370,42,133735,2,0,L|380:121,1,80,2|0,0:1|0:0,0:0:0:0:
301,251,134163,1,2,2:0:0:0:
301,251,134377,2,0,P|336:233|376:229,1,80,10|2,0:0|2:0,0:0:0:0:
425,353,134806,2,0,P|371:378|312:380,2,120,2|2|2,0:0|0:0|0:0,0:0:0:0:
425,353,135663,1,0,0:0:0:0:
91,335,135985,1,0,0:0:0:0:
91,335,136092,6,0,L|86:255,1,80,10|2,0:0|2:0,0:0:0:0:
0,222,136413,2,0,L|119:231,1,120,2|2,0:0|0:0,0:0:0:0:
191,123,136949,1,8,0:0:0:0:
214,119,137056,1,0,0:0:0:0:
238,115,137163,1,0,0:0:0:0:
262,111,137270,1,0,0:0:0:0:
286,108,137377,22,0,P|304:164|306:224,1,120,2|0,0:0|2:0,0:0:0:0:
348,243,137806,2,0,P|308:249|271:264,1,80,10|2,0:0|2:0,0:0:0:0:
159,373,138235,2,0,P|99:380|43:361,2,120,2|2|2,0:0|0:0|0:0,0:0:0:0:
166,354,138985,1,0,0:0:0:0:
173,335,139092,6,0,L|161:255,1,80,0|2,0:0|2:0,0:0:0:0:
42,232,139520,2,0,L|30:152,1,80,10|2,0:0|2:0,0:0:0:0:
65,126,139842,2,0,L|81:245,1,120,2|2,0:0|0:0,0:0:0:0:
186,143,140377,1,8,0:0:0:0:
183,127,140485,1,0,0:0:0:0:
181,111,140592,1,2,0:1:0:0:
287,10,140806,6,0,P|366:0|445:5,1,160,0|10,0:0|0:0,0:0:0:0:
477,231,141556,1,0,0:0:0:0:
477,231,141663,2,0,L|401:256,1,80,2|2,0:0|2:0,0:0:0:0:
377,357,141985,2,0,L|258:335,1,120,2|2,0:0|0:0,0:0:0:0:
242,317,142413,1,0,0:0:0:0:
232,293,142520,6,0,P|223:255|232:216,1,80,0|2,0:0|2:0,0:0:0:0:
382,119,142949,2,0,P|391:177|378:235,2,120,10|2|2,0:0|0:0|0:0,0:0:0:0:
382,119,143806,1,8,0:0:0:0:
56,78,144235,53,2,0:0:0:0:
23,193,144449,1,2,2:0:0:0:
162,172,144663,2,0,L|205:18,1,160,10|2,0:0|0:0,0:0:0:0:
440,18,145413,1,2,0:0:0:0:
440,18,145520,6,0,L|418:95,1,80,8|2,0:0|0:0,0:0:0:0:
302,214,145949,2,0,L|421:200,1,120,0|0,0:0|2:0,0:0:0:0:
435,180,146377,54,0,L|445:259,1,80,10|2,0:0|2:0,0:0:0:0:
433,276,146699,1,2,0:0:0:0:
421,293,146806,2,0,L|431:372,1,80,0|2,0:0|0:0,0:0:0:0:
297,313,147235,1,8,0:0:0:0:
297,313,147449,2,0,L|287:234,2,80,2|0|2,0:1|0:0|2:0,0:0:0:0:
162,373,148092,6,0,P|123:374|85:362,1,80,10|2,0:0|2:0,0:0:0:0:
53,276,148413,1,0,0:0:0:0:
53,276,148520,2,0,P|92:274|130:286,1,80,2|2,0:0|2:0,0:0:0:0:
209,229,148842,2,0,P|191:173|187:113,1,120,2|2,0:0|0:0,0:0:0:0:
256,0,149377,21,4,1:0:0:0:
502,32,149806,1,2,0:1:0:0:
366,122,150127,1,2,0:1:0:0:
494,231,150449,1,2,0:1:0:0:
456,243,150556,1,0,0:0:0:0:
418,255,150663,2,0,L|415:282,5,26.6666666666667,0|2|2|2|2|2,0:0|0:0|0:0|0:0|0:0|0:0,0:0:0:0:
395,233,151092,6,0,P|318:209|239:210,2,160,4|0|0,1:0|1:0|1:0,0:0:0:0:
297,362,152163,1,2,0:0:0:0:
297,362,152270,2,0,P|239:374|179:377,1,120,6|0,1:2|0:0,0:0:0:0:
40,357,152806,1,2,1:2:0:0:
40,356,153235,2,0,P|32:277|30:197,1,160,0|0,1:0|1:0,0:0:0:0:
115,8,153877,1,2,0:0:0:0:
115,8,153985,2,0,P|113:67|125:126,1,120,6|0,1:2|0:0,0:0:0:0:
138,142,154413,1,2,0:0:0:0:
150,158,154520,6,0,L|229:147,1,80,2|0,1:2|0:0,0:0:0:0:
302,18,154949,2,0,L|223:29,1,80,0|0,1:0|0:0,0:0:0:0:
351,159,155377,2,0,L|469:141,2,120,0|6|0,1:0|0:0|0:0,0:0:0:0:
339,184,156127,1,2,0:0:0:0:
326,209,156235,2,0,P|319:248|328:287,1,80,2|0,1:2|0:0,0:0:0:0:
462,317,156663,2,0,P|468:277|459:238,1,80,2|0,1:2|0:0,0:0:0:0:
326,209,157092,2,0,L|246:204,1,80,2|0,1:2|0:0,0:0:0:0:
235,222,157413,2,0,L|115:213,1,120,6|0,0:0|0:0,0:0:0:0:
22,112,157949,6,0,P|5:191|0:270,1,160,4|0,1:0|1:0,0:0:0:0:
78,349,158592,1,0,0:0:0:0:
245,314,158806,2,0,P|189:292|129:284,1,120,0|6,1:0|1:2,0:0:0:0:
158,252,159235,2,0,P|197:250|236:239,1,80
297,74,159663,2,0,P|376:68|450:95,1,160,2|0,1:2|1:0,0:0:0:0:
485,249,160413,1,0,0:0:0:0:
485,249,160520,2,0,P|447:258|416:283,1,80,0|2,1:0|0:0,0:0:0:0:
404,312,160842,2,0,P|349:290|290:286,1,120,6|0,1:2|0:0,0:0:0:0:
277,296,161270,1,2,0:0:0:0:
269,309,161377,21,2,1:2:0:0:
237,41,161806,2,0,L|157:29,1,80,0|0,1:0|0:0,0:0:0:0:
17,156,162235,2,0,L|0:38,2,120,0|6|0,1:0|0:0|0:0,0:0:0:0:
36,175,162985,1,2,0:0:0:0:
55,194,163092,2,0,P|94:197|132:185,1,80,2|0,1:2|0:0,0:0:0:0:
315,212,163520,2,0,P|276:209|238:220,1,80,2|0,1:2|0:0,0:0:0:0:
420,175,163949,2,0,P|459:177|497:165,1,80,2|0,1:2|0:0,0:0:0:0:
512,181,164270,2,0,P|516:121|509:61,1,120,6|0,0:0|0:0,0:0:0:0:
373,44,164806,6,0,P|295:55|220:30,1,160,4|0,1:0|1:0,0:0:0:0:
85,50,165449,1,0,0:0:0:0:
171,177,165663,2,0,P|179:215|172:254,1,80,0|2,1:0|0:0,0:0:0:0:
201,265,165985,2,0,P|141:271|85:292,1,120,6|0,1:2|0:0,0:0:0:0:
148,375,166520,2,0,P|226:358|302:335,1,160,2|0,1:2|1:0,0:0:0:0:
339,203,167163,1,0,0:0:0:0:
469,128,167377,2,0,P|481:90|488:50,1,80,0|2,1:0|0:0,0:0:0:0:
414,21,167699,2,0,P|395:78|387:137,1,120,6|0,1:2|0:0,0:0:0:0:
410,325,168235,5,2,1:2:0:0:
410,325,168663,2,0,L|499:309,1,80,0|0,1:0|0:0,0:0:0:0:
328,232,169092,2,0,L|249:246,1,80,0|0,1:0|0:0,0:0:0:0:
232,273,169413,2,0,L|112:260,1,120,6|0,0:0|0:0,0:0:0:0:
105,233,169842,1,2,0:0:0:0:
98,206,169949,2,0,L|117:128,1,80,2|0,1:2|0:0,0:0:0:0:
263,89,170377,2,0,L|243:166,1,80,2|0,1:2|0:0,0:0:0:0:
388,126,170806,2,0,L|407:48,1,80,2|0,1:2|0:0,0:0:0:0:
392,28,171127,2,0,L|511:13,1,120,6|0,0:0|0:0,0:0:0:0:
455,222,171663,6,0,L|296:202,2,160,4|0|0,1:0|1:0|1:0,0:0:0:0:
474,339,172735,1,2,0:0:0:0:
474,339,172842,1,6,1:2:0:0:
334,364,173163,1,0,0:0:0:0:
334,364,173377,2,0,L|175:344,1,160,2|0,1:2|1:0,0:0:0:0:
89,192,174127,1,0,0:0:0:0:
89,192,174235,2,0,P|74:229|67:268,1,80,0|2,1:0|0:0,0:0:0:0:
153,268,174556,2,0,P|172:211|177:151,1,120,6|0,1:2|0:0,0:0:0:0:
91,20,175092,22,0,P|161:55|239:45,2,160,2|0|0,1:2|1:0|1:0,0:0:0:0:
297,126,176163,1,0,0:0:0:0:
297,126,176270,2,0,P|283:183|294:242,1,120,6|0,0:0|0:0,0:0:0:0:
314,261,176699,1,2,0:0:0:0:
339,271,176806,2,0,P|418:276|498:267,1,160,2|2,1:2|1:2,0:0:0:0:
225,351,177663,1,10,1:2:0:0:
199,193,177877,1,8,0:0:0:0:
47,245,178092,1,2,0:0:0:0:
44,268,178199,1,2,0:0:0:0:
41,292,178306,1,10,0:0:0:0:
39,316,178413,1,2,0:0:0:0:
36,340,178520,5,6,0:0:0:0:
256,192,178627,12,0,185377,0:0:0:0:
256,192,185485,12,0,191806,0:0:0:0:
256,192,213235,38,0,B|268:248|268:248|248:272|264:272|244:296|244:296|256:352,1,167.999994873047,12|0,0:3|0:0,0:0:0:0:
256,192,217520,12,0,218806,0:0:0:0:
448,52,219663,6,0,P|451:99|446:147,1,96,4|2,0:0|0:0,0:0:0:0:
446,147,220092,2,0,P|386:127|322:123,1,128,2|2,0:0|0:0,0:0:0:0:
240,172,220842,1,2,0:0:0:0:
240,172,220949,2,0,L|231:235,2,64,2|2|2,0:0|0:0|0:0,0:0:0:0:
151,149,221699,1,2,0:0:0:0:
151,149,221806,2,0,L|142:85,2,64,2|2|2,0:0|0:0|0:0,0:0:0:0:
32,268,222556,1,2,0:0:0:0:
29,283,222663,1,2,0:0:0:0:
27,299,222770,1,2,0:0:0:0:
25,315,222877,1,2,0:0:0:0:
23,331,222985,1,2,0:0:0:0:
20,346,223092,6,0,P|66:357|113:351,1,96,2|2,0:0|0:0,0:0:0:0:
127,320,223520,2,0,P|157:311|189:309,1,64,2|2,0:0|0:0,0:0:0:0:
292,339,223949,1,2,0:0:0:0:
406,261,224270,1,2,0:0:0:0:
406,261,224377,2,0,P|375:252|343:250,1,64,2|2,0:0|0:0,0:0:0:0:
335,255,224699,1,2,0:0:0:0:
328,261,224806,1,2,0:0:0:0:
495,192,225127,5,2,0:0:0:0:
495,192,225235,1,2,0:0:0:0:
387,149,225449,1,2,0:0:0:0:
512,88,225663,2,0,B|525:55|525:55|509:30|509:30|509:-1,1,96,2|2,0:0|0:0,0:0:0:0:
405,0,226199,1,2,0:0:0:0:
399,12,226306,1,4,0:1:0:0:
394,23,226413,1,0,0:0:0:0:
389,33,226520,6,0,L|325:27,1,64,0|0,1:0|0:0,0:0:0:0:
225,53,226949,2,0,P|216:83|211:115,1,64,4|0,1:0|0:0,0:0:0:0:
240,264,227377,1,0,1:0:0:0:
217,267,227485,1,0,1:0:0:0:
195,271,227592,1,0,0:0:0:0:
173,275,227699,1,0,1:0:0:0:
151,279,227806,2,0,P|118:278|87:274,1,64,0|0,1:0|0:0,0:0:0:0:
35,142,228235,22,0,P|48:170|52:202,1,64,0|0,1:0|0:0,0:0:0:0:
172,110,228663,2,0,P|166:141|151:169,1,64,4|0,1:0|0:0,0:0:0:0:
302,162,229092,1,0,1:0:0:0:
302,162,229199,1,0,1:0:0:0:
302,162,229413,1,0,1:0:0:0:
302,162,229520,2,0,P|279:184|250:198,1,64,0|0,1:0|0:0,0:0:0:0:
316,25,229949,22,0,L|379:33,1,64,0|0,1:0|0:0,0:0:0:0:
505,83,230377,2,0,L|441:90,1,64,4|0,1:0|0:0,0:0:0:0:
381,224,230806,2,0,L|374:192,3,32,0|0|0|0,1:0|1:0|0:0|1:0,0:0:0:0:
387,255,231235,2,0,L|450:263,1,64,0|0,1:0|1:0,0:0:0:0:
457,284,231556,1,0,1:0:0:0:
464,305,231663,2,0,P|468:336|466:368,1,64,0|0,1:0|0:0,0:0:0:0:
356,371,232092,2,0,P|324:373|293:363,1,64,4|0,1:0|0:0,0:0:0:0:
259,260,232520,1,0,1:0:0:0:
259,260,232627,1,0,1:0:0:0:
332,167,232842,2,0,P|337:136|339:104,1,64,0|0,1:0|1:0,0:0:0:0:
171,47,233270,1,0,1:0:0:0:
171,47,233377,6,0,P|177:78|177:110,1,64,0|0,1:0|0:0,0:0:0:0:
24,161,233806,1,4,1:0:0:0:
24,161,234235,1,0,1:0:0:0:
24,161,234342,1,0,1:0:0:0:
153,190,234556,1,0,1:0:0:0:
153,190,234663,1,0,1:0:0:0:
63,262,234877,1,0,0:0:0:0:
202,308,235092,22,0,L|209:371,1,64,0|0,1:0|0:0,0:0:0:0:
314,330,235520,2,0,L|306:266,1,64,4|0,1:0|0:0,0:0:0:0:
300,234,235842,1,0,1:0:0:0:
346,90,236056,1,0,1:0:0:0:
346,90,236163,1,0,0:0:0:0:
346,90,236270,1,0,1:0:0:0:
346,90,236377,2,0,L|409:100,1,64,0|0,1:0|0:0,0:0:0:0:
278,143,236806,6,0,L|215:133,1,64,0|0,1:0|0:0,0:0:0:0:
198,30,237235,2,0,L|135:20,1,64,4|0,1:0|0:0,0:0:0:0:
31,88,237663,1,0,1:0:0:0:
31,88,237770,1,0,1:0:0:0:
153,118,237985,1,0,1:0:0:0:
153,118,238092,1,0,1:0:0:0:
278,143,238306,1,0,0:0:0:0:
403,165,238520,22,2,L|410:224,1,60
479,300,238949,22,2,B|453:311|453:311|423:302|423:302|401:321|401:321|370:315,1,120
280,301,239377,6,2,L|264:363,1,64
246,370,239699,1,0,0:0:0:0:
227,373,239806,1,0,0:0:0:0:
208,371,239913,1,0,0:0:0:0:
189,366,240020,1,0,0:0:0:0:
173,357,240127,1,0,0:0:0:0:
158,344,240235,6,0,P|111:335|64:333,1,96,4|0,0:0|0:0,0:0:0:0:
40,354,240663,2,0,P|34:323|31:291,1,64,0|2,0:0|2:0,0:0:0:0:
66,90,241092,1,0,0:0:0:0:
66,90,241199,1,0,0:0:0:0:
170,123,241413,1,0,0:0:0:0:
170,123,241520,1,0,0:0:0:0:
88,192,241735,1,0,2:1:0:0:
256,236,241949,37,0,0:0:0:0:
256,236,242056,1,0,1:0:0:0:
256,236,242163,2,0,L|319:226,2,64,0|4|2,1:0|0:0|2:0,0:0:0:0:
328,329,242806,2,0,L|466:306,1,128,4|0,0:0|0:0,0:0:0:0:
454,307,243342,1,0,0:0:0:0:
454,307,243449,1,0,0:0:0:0:
491,168,243663,6,0,P|494:120|490:72,1,96,4|0,0:0|2:0,0:0:0:0:
502,51,244092,2,0,P|471:44|439:43,1,64,0|2,0:0|2:0,0:0:0:0:
318,91,244520,1,0,0:0:0:0:
318,91,244627,1,0,0:0:0:0:
444,47,244842,1,0,0:0:0:0:
444,47,244949,1,0,0:0:0:0:
282,7,245163,1,0,0:0:0:0:
158,91,245377,5,0,0:0:0:0:
158,91,245485,1,0,1:0:0:0:
158,91,245592,2,0,L|150:154,2,64,0|4|2,0:0|0:0|2:0,0:0:0:0:
38,144,246235,2,0,L|54:278,1,128,4|0,0:0|0:0,0:0:0:0:
78,289,246770,1,0,0:0:0:0:
108,301,246877,1,0,0:0:0:0:
139,304,246985,1,0,0:0:0:0:
171,297,247092,6,0,P|209:270|256:261,1,96,4|0,0:0|2:0,0:0:0:0:
283,278,247520,2,0,P|329:289|376:281,1,96,8|0,0:0|2:0,0:0:0:0:
392,254,247949,1,4,0:0:0:0:
409,49,248163,1,0,2:0:0:0:
409,49,248270,1,0,0:0:0:0:
409,49,248377,1,0,0:0:0:0:
482,125,248592,1,0,0:0:0:0:
343,159,248806,53,4,0:0:0:0:
321,154,248913,1,0,0:0:0:0:
299,149,249020,1,0,0:0:0:0:
277,144,249127,1,0,0:0:0:0:
255,139,249235,2,0,L|246:43,1,96,8|0,0:0|2:0,0:0:0:0:
164,26,249663,2,0,L|172:121,1,96,0|0,0:0|2:0,0:0:0:0:
89,103,250092,2,0,L|83:39,1,64,8|0,0:0|0:0,0:0:0:0:
68,22,250413,1,0,0:0:0:0:
53,5,250520,5,4,0:0:0:0:
28,208,250949,1,0,0:0:0:0:
231,233,251377,1,0,0:0:0:0:
256,30,251806,1,0,0:0:0:0:
256,30,252235,53,0,0:0:0:0:
401,7,252449,1,0,0:0:0:0:
424,152,252663,1,8,0:0:0:0:
279,175,252877,1,0,0:0:0:0:
279,175,252985,1,0,0:0:0:0:
279,175,253092,1,0,0:0:0:0:
134,152,253306,1,8,0:0:0:0:
111,297,253520,1,0,0:0:0:0:
111,297,253627,1,0,0:0:0:0:
111,297,253735,1,0,0:0:0:0:
256,320,253949,5,0,0:0:0:0:
256,192,254056,12,10,255663,2:0:0:0:
230,289,256092,22,0,L|143:274,1,88.000002685547,2|0,0:0|2:0,0:0:0:0:
81,166,256520,2,0,L|167:180,1,88.000002685547,10|0,0:0|2:0,0:0:0:0:
366,119,256949,2,0,P|300:121|246:156,2,132.00000402832,2|2|2,0:0|0:0|0:0,0:0:0:0:
377,138,257699,1,0,0:0:0:0:
388,157,257806,2,0,L|376:244,1,88.000002685547,4|0,0:0|2:0,0:0:0:0:
502,159,258234,2,0,L|490:70,1,88.000002685547,10|0,0:0|2:0,0:0:0:0:
506,75,258556,2,0,L|375:52,1,132.00000402832,2|2,0:0|0:0,0:0:0:0:
204,122,259092,1,8,0:0:0:0:
204,122,259199,1,0,0:0:0:0:
204,122,259306,2,0,L|292:111,1,88.000002685547,2|4,0:0|0:0,0:0:0:0:
224,36,259734,1,0,2:0:0:0:
89,70,259949,6,0,P|77:112|69:155,1,88.000002685547,10|0,0:0|2:0,0:0:0:0:
204,122,260377,2,0,P|211:78|224:36,1,88.000002685547,2|0,0:0|2:0,0:0:0:0:
332,15,260699,2,0,P|319:79|300:142,1,132.00000402832,2|2,0:0|0:0,0:0:0:0:
372,278,261234,2,0,P|331:260|288:258,1,88.000002685547,4|0,0:0|2:0,0:0:0:0:
68,345,261663,2,0,P|108:362|152:364,1,88.000002685547,10|0,0:0|2:0,0:0:0:0:
153,333,261984,2,0,P|182:274|193:209,1,132.00000402832,2|2,0:0|0:0,0:0:0:0:
178,56,262520,1,8,0:0:0:0:
156,51,262627,1,0,0:0:0:0:
134,46,262734,1,0,0:0:0:0:
113,42,262842,1,0,0:0:0:0:
92,37,262949,6,0,B|115:75|115:75|203:91,1,132.00000402832,6|0,0:0|2:0,0:0:0:0:
256,12,263377,2,0,L|343:3,1,88.000002685547,10|0,0:0|2:0,0:0:0:0:
502,128,263806,2,0,P|521:191|508:255,2,132.00000402832,2|2|2,0:0|0:0|0:0,0:0:0:0:
485,112,264556,1,0,0:0:0:0:
468,96,264663,2,0,L|479:8,1,88.000002685547,4|0,0:0|2:0,0:0:0:0:
341,100,265092,2,0,L|330:188,1,88.000002685547,10|0,0:0|2:0,0:0:0:0:
385,292,265413,2,0,L|254:274,1,132.00000402832,2|2,0:0|0:0,0:0:0:0:
165,100,265949,1,8,0:0:0:0:
42,151,266163,1,2,0:0:0:0:
42,151,266270,1,0,0:0:0:0:
42,151,266377,6,0,P|28:192|23:236,1,88.000002685547,4|0,0:0|2:0,0:0:0:0:
129,334,266806,2,0,P|87:323|43:322,1,88.000002685547,10|0,0:0|2:0,0:0:0:0:
177,233,267234,2,0,P|240:218|306:221,2,132.00000402832,2|2|2,0:0|0:0|0:0,0:0:0:0:
156,225,267984,1,0,0:0:0:0:
135,216,268092,1,4,0:0:0:0:
105,96,268306,1,0,2:0:0:0:
201,11,268520,2,0,L|220:96,1,88.000002685547,10|0,0:0|2:0,0:0:0:0:
220,96,268842,2,0,L|366:105,1,132.00000402832,2|2,0:0|0:0,0:0:0:0:
512,32,269377,1,8,0:0:0:0:
507,53,269484,1,0,0:0:0:0:
502,74,269592,1,0,0:0:0:0:
497,96,269699,1,0,0:0:0:0:
492,117,269806,22,0,L|400:132,1,88.000002685547,6|2,0:0|2:0,0:0:0:0:
317,223,270234,2,0,L|302:309,1,88.000002685547,10|2,0:0|2:0,0:0:0:0:
129,371,270663,2,0,P|64:373|2:351,2,132.00000402832,2|2|2,0:0|0:0|0:0,0:0:0:0:
91,255,271520,2,0,P|130:236|174:233,1,88.000002685547,4|2,0:0|2:0,0:0:0:0:
383,190,271949,2,0,P|319:199|258:175,2,132.00000402832,10|2|2,0:0|0:0|0:0,0:0:0:0:
512,151,272806,1,8,0:0:0:0:
420,26,273020,1,2,0:0:0:0:
420,26,273127,1,0,0:0:0:0:
420,26,273234,6,0,P|407:67|408:111,1,88.000002685547,4|2,0:0|2:0,0:0:0:0:
299,53,273663,2,0,P|255:44|211:54,1,88.000002685547,10|2,0:0|2:0,0:0:0:0:
65,156,274092,2,0,P|108:164|152:154,1,88.000002685547,2|2,0:0|2:0,0:0:0:0:
258,175,274413,2,0,P|233:235|232:301,1,132.00000402832,2|2,0:0|0:0,0:0:0:0:
245,319,274842,1,0,0:0:0:0:
263,331,274949,2,0,L|350:339,1,88.000002685547,4|2,0:0|2:0,0:0:0:0:
480,257,275377,1,10,0:0:0:0:
446,92,275592,1,2,2:0:0:0:
446,92,275699,2,0,L|314:81,1,132.00000402832,2|2,0:0|0:0,0:0:0:0:
155,120,276234,1,8,0:0:0:0:
165,117,276342,1,0,0:0:0:0:
176,115,276449,1,0,0:0:0:0:
187,113,276556,1,0,0:0:0:0:
198,111,276663,6,0,P|209:69|215:26,1,88.000002685547,6|2,0:0|2:0,0:0:0:0:
58,49,277092,2,0,P|46:91|40:134,1,88.000002685547,10|2,0:0|2:0,0:0:0:0:
95,296,277520,2,0,P|106:254|112:211,1,88.000002685547,2|2,0:0|2:0,0:0:0:0:
104,182,277842,2,0,P|168:195|234:198,1,132.00000402832,2|2,0:0|0:0,0:0:0:0:
429,151,278377,2,0,P|386:137|342:138,1,88.000002685547,4|2,0:0|2:0,0:0:0:0:
458,261,278806,2,0,L|445:348,1,88.000002685547,10|2,0:0|2:0,0:0:0:0:
357,373,279127,2,0,L|376:242,1,132.00000402832,2|2,0:0|0:0,0:0:0:0:
251,159,279663,1,8,0:0:0:0:
247,185,279770,1,0,0:0:0:0:
243,211,279877,1,2,0:0:0:0:
239,237,279984,1,0,0:0:0:0:
236,264,280092,6,0,L|103:286,1,132.00000402832,4|0,0:0|2:0,0:0:0:0:
97,304,280520,2,0,P|80:242|98:179,1,132.00000402832,10|0,0:0|2:0,0:0:0:0:
133,91,280949,2,0,P|141:134|130:177,1,88.000002685547,2|2,0:0|2:0,0:0:0:0:
23,66,281270,2,0,P|86:50|150:63,1,132.00000402832,2|2,0:0|0:0,0:0:0:0:
256,192,281806,21,4,0:0:0:0:
256,192,283092,1,0,0:0:0:0:
283,187,283199,1,0,0:0:0:0:
311,183,283306,1,0,0:0:0:0:
339,179,283413,1,0,0:0:0:0:
366,174,283520,6,0,L|385:31,1,143.999995605469,6|0,0:0|2:0,0:0:0:0:
401,61,283949,2,0,L|306:74,1,95.9999970703126,10|2,0:0|2:0,0:0:0:0:
137,37,284377,2,0,P|172:60|199:105,1,95.9999970703126,2|2,0:0|2:0,0:0:0:0:
104,132,284699,2,0,P|72:196|68:267,1,143.999995605469,2|2,0:0|0:0,0:0:0:0:
269,326,285234,2,0,P|221:331|183:359,1,95.9999970703126,4|2,0:0|2:0,0:0:0:0:
379,359,285663,2,0,P|448:350|487:292,2,143.999995605469,10|2|2,0:0|0:0|0:0,0:0:0:0:
306,225,286520,1,8,0:0:0:0:
306,225,286627,1,0,0:0:0:0:
306,225,286734,2,0,P|302:178|306:130,1,95.9999970703126,2|4,0:1|0:0,0:0:0:0:
459,35,287163,5,2,2:0:0:0:
459,35,287377,2,0,P|463:82|459:130,1,95.9999970703126,10|2,0:0|2:0,0:0:0:0:
288,45,287806,2,0,L|192:38,1,95.9999970703126,2|2,0:0|2:0,0:0:0:0:
66,70,288127,2,0,L|218:80,1,143.999995605469,2|2,0:0|0:0,0:0:0:0:
193,114,288556,1,0,0:0:0:0:
177,149,288663,2,0,L|169:244,1,95.9999970703126,4|2,0:0|2:0,0:0:0:0:
38,357,289092,2,0,P|80:334|127:332,1,95.9999970703126,10|2,0:0|2:0,0:0:0:0:
186,271,289413,2,0,P|255:293|298:347,1,143.999995605469,2|2,0:0|0:0,0:0:0:0:
436,313,289949,1,8,0:0:0:0:
439,285,290056,1,0,0:0:0:0:
443,259,290163,1,0,0:0:0:0:
446,233,290270,1,0,0:0:0:0:
450,205,290377,6,0,L|436:109,1,95.9999970703126,6|2,0:0|2:0,0:0:0:0:
289,156,290806,2,0,L|275:60,1,95.9999970703126,10|2,0:0|2:0,0:0:0:0:
114,11,291234,2,0,L|127:106,1,95.9999970703126,2|2,0:0|2:0,0:0:0:0:
37,134,291556,2,0,L|16:276,1,143.999995605469,2|2,0:0|0:0,0:0:0:0:
21,300,291984,1,0,0:0:0:0:
26,324,292092,22,0,P|72:334|120:331,1,95.9999970703126,4|2,0:0|2:0,0:0:0:0:
285,279,292520,2,0,P|238:268|190:271,1,95.9999970703126,10|2,0:0|2:0,0:0:0:0:
190,271,292842,1,2,0:0:0:0:
190,271,292949,1,0,0:0:0:0:
368,238,293163,1,2,0:0:0:0:
335,61,293377,1,8,0:0:0:0:
158,95,293592,1,2,0:0:0:0:
158,95,293699,1,0,0:0:0:0:
158,95,293806,6,0,P|203:110|250:109,1,95.9999970703126,4|2,0:0|2:0,0:0:0:0:
454,49,294234,2,0,P|448:120|454:192,1,143.999995605469,10|0,0:0|2:0,0:0:0:0:
440,196,294663,2,0,P|442:243|437:291,1,95.9999970703126,2|2,0:0|2:0,0:0:0:0:
374,362,294984,2,0,P|310:332|237:324,1,143.999995605469,2|2,0:0|0:0,0:0:0:0:
218,338,295413,1,0,0:0:0:0:
203,357,295520,6,0,L|111:329,1,95.9999970703126,4|2,0:0|2:0,0:0:0:0:
84,106,295949,1,10,0:0:0:0:
54,202,296163,1,2,2:0:0:0:
54,202,296270,1,2,0:0:0:0:
54,202,296377,2,0,L|148:186,1,95.9999970703126,0|2,0:0|0:0,0:0:0:0:
228,19,296806,1,8,0:0:0:0:
266,23,296913,1,0,0:0:0:0:
304,27,297020,1,0,0:0:0:0:
342,32,297127,1,0,0:0:0:0:
380,36,297234,6,0,P|396:80|398:128,1,95.9999970703126,6|2,0:0|2:0,0:0:0:0:
256,173,297663,2,0,P|228:264|227:360,1,191.999994140625,2|2,0:0|0:0,0:0:0:0:
353,294,298306,1,2,2:0:0:0:
353,294,298413,2,0,P|369:224|368:152,1,143.999995605469,2|2,0:0|0:0,0:0:0:0:
228,19,298949,22,0,L|132:9,1,95.9999970703126,4|2,0:0|2:0,0:0:0:0:
45,157,299377,2,0,L|186:131,2,143.999995605469,10|2|2,0:0|0:0|0:0,0:0:0:0:
37,180,300127,1,0,0:0:0:0:
29,203,300234,1,8,0:0:0:0:
105,336,300449,1,2,0:1:0:0:
113,313,300556,1,0,0:0:0:0:
121,290,300663,6,0,L|215:272,1,95.9999970703126,4|2,0:0|2:0,0:0:0:0:
471,363,301092,2,0,L|375:351,1,95.9999970703126,10|2,0:0|2:0,0:0:0:0:
363,358,301413,1,0,0:0:0:0:
351,365,301520,2,0,L|255:353,1,95.9999970703126,2|2,0:0|2:0,0:0:0:0:
313,273,301842,2,0,L|290:130,1,143.999995605469,2|2,0:0|0:0,0:0:0:0:
402,14,302377,2,0,P|447:0|494:7,1,95.9999970703126,4|2,0:0|2:0,0:0:0:0:
383,125,302806,2,0,P|337:138|290:130,1,95.9999970703126,10|2,0:0|2:0,0:0:0:0:
263,151,303127,2,0,P|195:129|124:118,1,143.999995605469,2|2,0:0|0:0,0:0:0:0:
25,201,303663,1,8,0:0:0:0:
48,203,303770,1,0,0:0:0:0:
72,207,303877,1,0,0:0:0:0:
96,211,303984,1,0,0:0:0:0:
119,218,304092,6,0,L|135:313,1,95.9999970703126,6|2,0:0|2:0,0:0:0:0:
273,364,304520,2,0,P|320:359|360:334,1,95.9999970703126,10|2,0:0|2:0,0:0:0:0:
420,183,304949,2,0,P|349:191|289:230,2,143.999995605469,2|2|2,0:0|0:0|0:0,0:0:0:0:
429,155,305699,1,0,0:0:0:0:
438,127,305806,2,0,L|427:31,1,95.9999970703126,4|2,0:0|2:0,0:0:0:0:
295,16,306234,1,10,0:0:0:0:
191,94,306449,1,2,2:0:0:0:
191,94,306556,2,0,L|48:71,1,143.999995605469,2|2,0:0|0:0,0:0:0:0:
213,232,307092,1,8,0:0:0:0:
213,232,307199,1,0,0:0:0:0:
213,232,307306,1,2,0:1:0:0:
213,232,307413,1,0,0:0:0:0:
213,232,307520,6,0,L|23:202,2,191.999994140625,4|2|2,0:0|0:0|0:0,0:0:0:0:
258,369,308592,1,0,0:0:0:0:
258,369,308699,2,0,L|401:352,1,143.999995605469,2|2,0:0|0:0,0:0:0:0:
409,329,309127,1,0,0:0:0:0:
418,306,309234,21,4,0:0:0:0:
455,166,309449,1,0,0:0:0:0:
315,129,309663,1,10,0:0:0:0:
278,269,309877,1,0,0:0:0:0:
278,269,309984,1,2,0:0:0:0:
278,269,310092,1,0,0:0:0:0:
138,232,310306,1,10,0:0:0:0:
134,223,310413,1,0,0:0:0:0:
130,214,310520,1,0,0:0:0:0:
126,205,310627,1,0,0:0:0:0:
122,196,310734,1,0,0:0:0:0:
118,187,310842,1,0,0:0:0:0:
114,178,310949,5,4,0:0:0:0:
256,192,311056,12,0,313949,2:0:0:0:
382,67,314377,5,4,1:2:0:0:
270,53,314592,1,0,0:0:0:0:
256,165,314806,1,0,1:0:0:0:
368,179,315020,1,2,0:0:0:0:
373,198,315127,1,2,0:0:0:0:
378,217,315234,2,0,L|368:296,1,80,2|2,1:2|0:0,0:0:0:0:
435,371,315556,2,0,P|376:370|317:383,1,120,2|0,0:1|0:0,0:0:0:0:
191,352,316092,6,0,P|184:313|183:273,1,80,4|0,1:0|0:0,0:0:0:0:
38,225,316520,2,0,P|47:263|52:303,1,80,0|2,1:0|0:0,0:0:0:0:
52,303,316842,1,2,0:0:0:0:
52,303,316949,1,2,1:2:0:0:
187,278,317163,1,2,0:0:0:0:
187,278,317270,1,2,0:0:0:0:
309,241,317484,1,2,0:0:0:0:
436,210,317699,1,2,0:0:0:0:
436,210,317806,22,0,L|515:217,1,80,4|0,1:2|0:0,0:0:0:0:
474,89,318234,2,0,L|394:81,1,80,0|2,1:0|0:0,0:0:0:0:
385,88,318556,1,2,0:0:0:0:
375,94,318663,2,0,P|365:56|364:16,1,80,2|2,1:2|0:0,0:0:0:0:
255,0,318984,2,0,P|204:29|145:28,1,120,2|0,0:1|0:0,0:0:0:0:
36,126,319520,5,4,1:0:0:0:
154,146,319734,1,0,0:0:0:0:
174,264,319949,1,0,1:0:0:0:
64,242,320163,1,2,0:0:0:0:
64,242,320270,1,2,0:0:0:0:
64,242,320377,1,2,1:2:0:0:
259,216,320592,1,2,0:0:0:0:
259,216,320699,1,2,0:0:0:0:
237,352,320913,1,2,0:0:0:0:
432,314,321127,1,2,0:0:0:0:
432,314,321234,6,0,P|471:307|511:309,1,80,4|0,1:2|0:0,0:0:0:0:
386,241,321663,2,0,P|396:203|400:163,1,80,0|2,1:0|0:0,0:0:0:0:
400,163,321984,1,2,0:0:0:0:
400,163,322092,1,2,1:2:0:0:
368,33,322306,1,2,0:0:0:0:
368,33,322413,2,0,P|422:56|482:56,1,120,2|0,0:1|0:0,0:0:0:0:
324,118,322949,6,0,L|245:131,1,80,4|0,1:0|0:0,0:0:0:0:
178,212,323377,2,0,L|256:225,1,80,0|2,1:0|0:0,0:0:0:0:
261,245,323699,1,2,0:0:0:0:
266,265,323806,1,2,1:2:0:0:
193,360,324020,1,2,0:0:0:0:
193,360,324127,1,2,0:0:0:0:
74,338,324342,1,2,0:0:0:0:
50,178,324556,1,2,0:0:0:0:
50,178,324663,22,0,L|34:256,1,80,4|0,1:2|0:0,0:0:0:0:
156,191,325092,2,0,L|146:111,1,80,0|2,1:0|0:0,0:0:0:0:
138,101,325413,1,2,0:0:0:0:
130,91,325520,2,0,L|255:101,1,120,2|2,1:2|0:1,0:0:0:0:
425,16,326163,1,2,0:0:0:0:
405,19,326270,1,2,0:0:0:0:
385,22,326377,5,4,1:0:0:0:
351,137,326592,1,0,0:0:0:0:
317,252,326806,1,0,1:0:0:0:
290,374,327020,1,2,0:0:0:0:
290,374,327127,1,2,0:0:0:0:
290,374,327234,1,2,1:2:0:0:
452,355,327449,1,2,0:0:0:0:
452,355,327556,1,2,0:0:0:0:
476,197,327770,1,2,0:0:0:0:
347,109,327984,1,2,0:0:0:0:
347,109,328092,6,0,P|308:109|269:98,1,80,6|0,1:2|0:0,0:0:0:0:
176,10,328520,2,0,P|136:1|97:0,1,80,0|2,1:0|0:0,0:0:0:0:
86,5,328842,1,2,0:0:0:0:
75,10,328949,2,0,L|64:89,1,80,2|2,1:2|0:0,0:0:0:0:
171,118,329270,2,0,L|184:237,1,120,2|0,0:1|0:0,0:0:0:0:
67,324,329806,6,0,L|145:336,1,80,4|0,1:0|0:0,0:0:0:0:
262,250,330234,2,0,L|183:237,1,80,0|2,1:0|0:0,0:0:0:0:
183,237,330556,1,2,0:0:0:0:
183,237,330663,1,2,1:2:0:0:
66,225,330877,1,2,0:0:0:0:
66,225,330984,1,2,0:0:0:0:
170,149,331199,1,2,0:0:0:0:
305,164,331413,1,2,0:0:0:0:
305,164,331520,22,0,P|326:131|332:92,2,80,6|0|0,1:2|0:0|1:0,0:0:0:0:
391,247,332163,1,0,0:0:0:0:
391,247,332377,2,0,P|332:254|285:290,2,120,0|2|2,1:0|0:1|0:0,0:0:0:0:
399,265,333127,1,2,0:0:0:0:
407,283,333234,6,0,L|486:294,1,80,4|0,1:0|0:0,0:0:0:0:
365,379,333663,2,0,L|285:367,1,80,0|0,1:0|0:0,0:0:0:0:
285,367,333984,1,0,0:0:0:0:
285,367,334092,1,0,1:0:0:0:
257,229,334306,1,2,0:0:0:0:
257,229,334413,2,0,L|179:243,1,80,2|2,0:0|0:0,0:0:0:0:
34,317,334842,1,2,0:0:0:0:
34,317,334949,6,0,L|112:303,1,80,4|0,1:2|0:0,0:0:0:0:
134,169,335377,1,0,1:0:0:0:
55,60,335592,1,2,0:0:0:0:
65,43,335699,1,2,0:0:0:0:
75,25,335806,2,0,P|112:11|154:12,1,80,2|2,1:2|0:0,0:0:0:0:
244,68,336127,2,0,P|299:90|358:87,1,120,2|0,0:1|0:0,0:0:0:0:
485,22,336663,6,0,P|472:60|466:99,1,80,4|0,1:0|0:0,0:0:0:0:
435,233,337092,2,0,P|423:196|402:161,1,80,0|2,1:0|0:0,0:0:0:0:
391,156,337413,1,2,0:0:0:0:
379,152,337520,1,2,1:2:0:0:
259,207,337734,1,0,0:0:0:0:
259,207,337842,2,0,P|296:220|336:222,2,80,2|2|2,0:0|0:0|0:0,0:0:0:0:
259,207,338377,22,0,L|252:127,1,80,4|0,1:2|0:0,0:0:0:0:
148,44,338806,2,0,L|68:39,1,80,0|2,1:0|0:0,0:0:0:0:
39,154,339127,1,2,0:0:0:0:
39,154,339234,2,0,L|120:141,1,80,2|2,1:2|0:0,0:0:0:0:
168,224,339556,2,0,L|152:342,1,120,2|0,0:1|0:0,0:0:0:0:
9,371,340092,5,4,1:0:0:0:
257,331,340520,5,0,1:0:0:0:
505,291,340949,5,0,1:0:0:0:
400,187,341270,21,0,1:0:0:0:
400,187,341377,1,0,1:0:0:0:
400,187,341484,1,0,1:0:0:0:
256,192,341699,1,0,1:0:0:0:
256,192,341806,53,4,1:2:0:0:
