osu file format v14

[General]
AudioFilename: audio.mp3
AudioLeadIn: 0
PreviewTime: 188983
Countdown: 1
SampleSet: Drum
StackLeniency: 0.2
Mode: 0
LetterboxInBreaks: 0
WidescreenStoryboard: 0

[Editor]
Bookmarks: 23983,32983,47983,53983,59983,65983,71983,119983,131983,137983,146983,164983,202108
DistanceSpacing: 0.4
BeatDivisor: 4
GridSize: 16
TimelineZoom: 2.5

[Metadata]
Title:Ethical Constraints Removed [Intro]
TitleUnicode:Ethical Constraints Removed [Intro]
Artist:zircon & Jonathan Peros
ArtistUnicode:zircon & Jonathan Peros
Creator:Liiraye
Version:begone thot
Source:System Shock
Tags:dnb Nightdive Studios
BeatmapID:1940962
BeatmapSetID:929337

[Difficulty]
HPDrainRate:6
CircleSize:4.8
OverallDifficulty:8
ApproachRate:9.6
SliderMultiplier:1.4
SliderTickRate:1

[Events]
//Background and Video events
0,0,"mbybg.jpg",0,0
//Break Periods
2,171182,188383
2,204464,225701
//Storyboard Layer 0 (Background)
//Storyboard Layer 1 (Fail)
//Storyboard Layer 2 (Pass)
//Storyboard Layer 3 (Foreground)
//Storyboard Layer 4 (Overlay)
//Storyboard Sound Samples

[TimingPoints]
-17,375,4,3,0,20,1,0
29983,-100,4,3,0,20,0,0
35983,-100,4,3,0,25,0,0
41983,-100,4,3,0,30,0,0
47983,-100,4,3,0,35,0,0
53983,-100,4,3,0,45,0,0
54076,-100,4,3,0,5,0,0
54170,-100,4,3,0,30,0,0
54826,-100,4,3,0,5,0,0
54920,-100,4,3,0,30,0,0
55576,-100,4,3,0,5,0,0
55670,-100,4,3,0,30,0,0
56326,-100,4,3,0,5,0,0
56420,-100,4,3,0,30,0,0
56701,-100,4,3,0,5,0,0
56795,-100,4,3,0,30,0,0
59983,-100,4,3,0,35,0,0
62983,-100,4,3,0,40,0,0
65983,-100,4,3,0,45,0,0
68983,-100,4,3,0,50,0,0
69733,-100,4,3,0,60,0,0
70483,-44.4444444444445,4,3,0,35,0,0
70576,-44.4444444444445,4,3,0,5,0,0
70670,-44.4444444444445,4,3,0,35,0,0
70764,-44.4444444444445,4,3,0,5,0,0
70858,-44.4444444444445,4,3,0,35,0,0
70951,-44.4444444444445,4,3,0,5,0,0
71045,-44.4444444444445,4,3,0,35,0,0
71139,-44.4444444444445,4,3,0,5,0,0
71233,-44.4444444444445,4,3,0,35,0,0
71326,-44.4444444444445,4,3,0,5,0,0
71420,-44.4444444444445,4,3,0,35,0,0
71514,-44.4444444444445,4,3,0,5,0,0
71608,-44.4444444444445,4,3,0,35,0,0
71983,-50,4,3,0,55,0,0
72264,-66.6666666666667,4,3,0,55,0,0
72733,-44.4444444444445,4,3,0,55,0,0
73108,-66.6666666666667,4,3,0,55,0,0
73483,-44.4444444444445,4,3,0,55,0,0
73858,-50,4,3,0,55,0,0
74233,-100,4,3,0,50,0,0
74608,-36.3636363636364,4,3,0,60,0,0
74983,-50,4,3,0,55,0,0
75264,-66.6666666666667,4,3,0,55,0,0
75733,-44.4444444444445,4,3,0,55,0,0
76295,-66.6666666666667,4,3,0,55,0,0
77983,-50,4,3,0,55,0,0
78264,-66.6666666666667,4,3,0,55,0,0
78545,-44.4444444444445,4,3,0,55,0,0
79014,-66.6666666666667,4,3,0,55,0,0
79295,-44.4444444444445,4,3,0,55,0,0
79483,-66.6666666666667,4,3,0,55,0,0
79858,-50,4,3,0,55,0,0
80326,-100,4,3,0,50,0,0
80608,-44.4444444444445,4,3,0,55,0,0
80983,-50,4,3,0,55,0,0
81264,-66.6666666666667,4,3,0,55,0,0
81545,-50,4,3,0,55,0,0
81826,-66.6666666666667,4,3,0,55,0,0
82483,-50,4,3,0,55,0,0
82858,-66.6666666666667,4,3,0,55,0,0
83139,-50,4,3,0,55,0,0
83608,-66.6666666666667,4,3,0,55,0,0
83983,-80,4,3,2,60,0,1
86983,-50,4,3,2,55,0,1
87358,-80,4,3,2,60,0,1
89045,-44.4444444444445,4,3,2,55,0,1
89420,-80,4,3,2,50,0,1
89983,-80,4,3,2,60,0,1
90264,-50,4,3,2,55,0,1
90545,-80,4,3,2,60,0,1
91108,-44.4444444444445,4,3,2,60,0,1
91483,-80,4,3,2,60,0,1
91764,-50,4,3,2,55,0,1
92045,-80,4,3,2,60,0,1
92983,-40,4,3,2,60,0,1
93358,-66.6666666666667,4,3,2,55,0,1
94483,-40,4,3,2,60,0,1
94858,-80,4,3,2,60,0,1
95233,-44.4444444444445,4,3,2,60,0,1
95608,-100,4,3,2,50,0,0
95983,-50,4,3,2,60,0,1
96264,-66.6666666666667,4,3,2,60,0,1
98326,-50,4,3,2,60,0,1
98608,-36.3636363636364,4,3,2,60,0,1
98983,-50,4,3,2,60,0,1
99264,-66.6666666666667,4,3,2,60,0,1
101045,-36.3636363636364,4,3,2,60,0,1
101326,-66.6666666666667,4,3,2,60,0,1
101983,-44.4444444444445,4,3,2,60,0,1
102264,-66.6666666666667,4,3,2,60,0,1
103483,-44.4444444444445,4,3,2,60,0,1
103764,-66.6666666666667,4,3,2,60,0,1
104326,-44.4444444444445,4,3,2,60,0,1
104983,-44.4444444444445,4,3,2,60,0,1
105264,-66.6666666666667,4,3,2,60,0,1
106483,-44.4444444444445,4,3,2,60,0,1
106858,-66.6666666666667,4,3,2,60,0,1
107420,-44.4444444444445,4,3,2,60,0,1
107983,-100,4,3,0,40,0,0
108076,-100,4,3,0,40,0,0
117358,-66.6666666666667,4,3,0,40,0,0
131983,-133.333333333333,4,3,0,25,0,0
137983,-100,4,3,0,20,0,0
143983,-100,4,3,0,30,0,0
146983,-100,4,3,0,40,0,0
152983,-200,4,3,0,40,0,0
154483,-200,4,3,0,40,0,0
155795,-100,4,3,0,40,0,0
155983,-66.6666666666667,4,3,0,40,0,0
158983,-40,4,3,0,40,0,0
159733,-66.6666666666667,4,3,0,40,0,0
160483,-40,4,3,0,40,0,0
161233,-66.6666666666667,4,3,0,40,0,0
161983,-80,4,3,0,40,0,0
163483,-50,4,3,0,40,0,0
163858,-33.3333333333333,4,3,0,40,0,0
164420,-28.5714285714286,4,3,0,40,0,0
164514,-28.5714285714286,4,3,0,45,0,0
164608,-28.5714285714286,4,3,0,60,0,0
164795,-28.5714285714286,4,3,0,70,0,0
188983,-66.6666666666667,4,3,0,60,0,1
191983,-40,4,3,0,60,0,1
192358,-66.6666666666667,4,3,0,60,0,1
194983,-40,4,3,0,60,0,1
195358,-66.6666666666667,4,3,0,60,0,1
197233,-50,4,3,0,60,0,1
197608,-33.3333333333333,4,3,0,60,0,1
197983,-66.6666666666667,4,3,0,60,0,1
199483,-33.3333333333333,4,3,0,60,0,1
199858,-50,4,3,0,60,0,1
200608,-100,4,3,0,50,0,1
200983,-33.3333333333333,4,3,0,50,0,1
201733,-25,4,3,0,50,0,1
202108,-25,4,3,0,50,0,1
202295,-33.3333333333333,4,3,0,50,0,1
204545,-25,4,3,0,50,0,1
212983,-100,4,3,0,50,0,0

[HitObjects]
256,192,19483,12,0,22483,0:0:0:0:
91,217,23983,6,0,P|145:248|206:205,1,140,2|0,0:0|0:0,0:0:0:0:
149,305,24733,2,0,P|201:276|203:189,1,140
279,317,25483,6,4,P|278:299|275:282,2,35,2|4|4,0:0|0:0|0:0,0:0:0:0:
368,245,25764,1,0,0:0:0:0:
368,245,25858,2,4,P|367:262|364:279,2,35,2|4|4,0:0|0:0|0:0,0:0:0:0:
286,208,26139,2,0,P|254:193|219:190,1,70,2|2,0:0|0:0,0:0:0:0:
150,249,26420,1,0,0:0:0:0:
150,249,26514,1,0,0:0:0:0:
149,248,26608,2,4,P|135:239|118:234,2,35,2|4|4,0:0|0:0|0:0,0:0:0:0:
105,111,26889,1,4,0:0:0:0:
105,111,26983,6,0,B|120:128|120:128|167:126,1,70,2|0,0:0|0:0,0:0:0:0:
239,68,27264,1,0,0:0:0:0:
239,68,27358,2,4,P|254:95|258:113,2,35,2|4|4,0:0|0:0|0:0,0:0:0:0:
341,135,27639,1,0,0:0:0:0:
341,135,27733,2,4,P|330:160|325:182,2,35,2|4|4,0:0|0:0|0:0,0:0:0:0:
235,215,28014,1,0,0:0:0:0:
235,215,28108,1,0,1:0:0:0:
235,215,28201,2,4,L|176:200,2,35,2|4|4,0:0|0:0|0:0,0:0:0:0:
319,262,28483,5,4,0:0:0:0:
325,274,28576,1,4,0:0:0:0:
327,287,28670,1,4,0:0:0:0:
325,300,28764,1,4,0:0:0:0:
294,314,28858,5,4,0:0:0:0:
282,306,28951,1,4,0:0:0:0:
268,302,29045,1,4,0:0:0:0:
254,300,29139,1,4,0:0:0:0:
240,302,29233,1,4,0:0:0:0:
227,308,29326,1,4,0:0:0:0:
215,316,29420,1,4,0:0:0:0:
201,320,29514,1,4,0:0:0:0:
186,322,29608,1,4,0:0:0:0:
172,318,29701,1,4,0:0:0:0:
159,311,29795,1,4,0:0:0:0:
147,300,29889,1,4,0:0:0:0:
140,287,29983,6,0,P|133:272|127:255,2,35,2|0|0,0:0|0:0|0:0,0:0:0:0:
202,196,30264,1,0,0:0:0:0:
202,196,30358,2,0,L|252:201,1,35,0|0,1:0|0:0,0:0:0:0:
113,168,30545,1,0,0:0:0:0:
113,168,30639,2,0,P|95:167|78:172,1,35,0|0,1:0|0:0,0:0:0:0:
187,109,30826,1,0,0:0:0:0:
187,109,30920,2,0,P|189:88|186:55,1,35,0|0,1:0|0:0,0:0:0:0:
290,135,31108,1,0,0:0:0:0:
290,135,31201,2,0,L|293:101,2,35,0|0|0,1:0|0:0|0:0,0:0:0:0:
383,78,31483,5,2,0:0:0:0:
396,79,31576,1,4,0:0:0:0:
408,86,31670,1,4,0:0:0:0:
418,95,31764,1,2,0:0:0:0:
415,81,31858,1,4,0:0:0:0:
413,67,31951,1,4,0:0:0:0:
416,53,32045,1,2,0:0:0:0:
402,54,32139,1,4,0:0:0:0:
388,52,32233,1,4,0:0:0:0:
374,47,32326,1,2,0:0:0:0:
359,46,32420,1,4,0:0:0:0:
345,49,32514,1,4,0:0:0:0:
332,56,32608,2,0,P|308:61|283:60,3,35,2|2|4|2,0:0|0:0|0:0|0:0,0:0:0:0:
212,125,32983,5,4,0:0:0:0:
226,134,33076,1,4,0:0:0:0:
242,139,33170,1,2,0:0:0:0:
258,145,33264,1,2,0:0:0:0:
272,155,33358,1,2,0:0:0:0:
282,168,33451,1,2,0:0:0:0:
290,183,33545,1,2,0:0:0:0:
293,200,33639,1,2,0:0:0:0:
286,237,33733,5,4,0:0:0:0:
269,233,33826,1,4,0:0:0:0:
252,237,33920,1,4,0:0:0:0:
237,247,34014,1,2,0:0:0:0:
225,260,34108,1,4,0:0:0:0:
219,276,34201,1,4,0:0:0:0:
218,293,34295,1,6,0:0:0:0:
223,309,34389,1,4,0:0:0:0:
186,295,34483,5,4,0:0:0:0:
200,285,34576,1,4,0:0:0:0:
217,281,34670,1,4,0:0:0:0:
234,281,34764,1,4,0:0:0:0:
250,288,34858,2,4,P|273:288|295:279,2,35,2|4|4,0:0|0:0|0:0,0:0:0:0:
267,180,35139,2,4,P|258:204|258:227,2,35,6|4|4,0:0|0:0|0:0,0:0:0:0:
172,206,35420,2,4,P|155:211|137:212,2,35,6|4|4,0:0|0:0|0:0,0:0:0:0:
198,122,35701,2,4,L|203:82,2,35,6|4|4,0:0|0:0|0:0,0:0:0:0:
115,120,35983,6,0,P|86:119|68:115,1,35,4|0,0:0|0:0,0:0:0:0:
33,62,36170,2,0,L|88:41,3,35,2|0|0|0,0:0|0:0|0:0|0:0,0:0:0:0:
226,27,36545,2,0,L|236:77,1,35,4|0,0:0|0:0,0:0:0:0:
305,109,36733,2,0,L|311:58,3,35,2|0|0|0,0:0|0:0|0:0|0:0,0:0:0:0:
202,180,37108,6,0,L|164:186,1,35,4|0,0:0|0:0,0:0:0:0:
134,257,37295,2,0,L|189:270,3,35,2|0|0|0,0:0|0:0|0:0|0:0,0:0:0:0:
300,326,37670,2,0,L|303:285,1,35,4|0,0:0|0:0,0:0:0:0:
360,238,37858,2,0,L|355:182,3,35,2|0|0|0,0:0|0:0|0:0|0:0,0:0:0:0:
273,215,38233,5,4,0:0:0:0:
255,213,38326,1,4,0:0:0:0:
234,231,38420,1,2,0:0:0:0:
216,234,38514,1,2,0:0:0:0:
168,161,38608,5,4,0:0:0:0:
185,157,38701,1,4,0:0:0:0:
203,154,38795,1,4,0:0:0:0:
221,151,38889,1,4,0:0:0:0:
238,146,38983,6,0,P|251:135|260:120,1,35,4|0,0:0|0:0,0:0:0:0:
249,56,39170,2,0,P|250:91|254:104,3,35,2|0|0|0,0:0|0:0|0:0|0:0,0:0:0:0:
370,169,39545,2,0,P|354:201|354:221,1,35,4|0,0:0|0:0,0:0:0:0:
372,249,39733,2,0,P|371:215|361:184,3,35,2|0|0|0,0:0|0:0|0:0|0:0,0:0:0:0:
265,278,40108,6,0,P|251:267|240:253,1,35,4|0,0:0|0:0,0:0:0:0:
187,248,40295,2,0,P|228:246|250:255,3,35,2|0|0|0,0:0|0:0|0:0|0:0,0:0:0:0:
399,312,40670,2,0,P|392:344|382:368,1,35,4|0,0:0|0:0,0:0:0:0:
426,374,40858,2,0,P|393:371|368:374,3,35,2|0|0|0,0:0|0:0|0:0|0:0,0:0:0:0:
225,353,41233,5,4,0:0:0:0:
231,336,41326,1,4,0:0:0:0:
255,331,41420,1,2,0:0:0:0:
269,320,41514,1,2,0:0:0:0:
312,256,41608,5,4,0:0:0:0:
296,248,41701,1,4,0:0:0:0:
278,245,41795,1,4,0:0:0:0:
260,246,41889,1,4,0:0:0:0:
190,226,41983,5,4,0:0:0:0:
198,210,42076,1,4,0:0:0:0:
176,187,42170,1,2,0:0:0:0:
173,169,42264,1,2,0:0:0:0:
200,154,42358,2,4,P|204:133|204:112,1,35
92,114,42545,5,4,0:0:0:0:
92,114,42639,1,4,0:0:0:0:
75,83,42733,1,2,0:0:0:0:
75,83,42826,1,2,0:0:0:0:
104,60,42920,2,4,P|118:58|143:62,1,35
227,56,43108,5,4,0:0:0:0:
240,51,43201,1,4,0:0:0:0:
263,73,43295,1,2,0:0:0:0:
275,78,43389,1,2,0:0:0:0:
298,55,43483,2,4,P|325:44|337:32,1,35
362,140,43670,5,4,0:0:0:0:
362,140,43764,1,4,0:0:0:0:
380,167,43858,1,2,0:0:0:0:
380,167,43951,1,2,0:0:0:0:
359,197,44045,2,4,P|349:223|348:236,1,35
407,311,44233,5,4,0:0:0:0:
419,304,44326,1,4,0:0:0:0:
428,293,44420,1,2,0:0:0:0:
434,280,44514,1,2,0:0:0:0:
439,266,44608,1,4,0:0:0:0:
440,252,44701,1,4,0:0:0:0:
438,237,44795,1,4,0:0:0:0:
461,217,44889,5,2,0:0:0:0:
431,209,44983,5,6,0:0:0:0:
424,196,45076,1,4,0:0:0:0:
441,170,45170,1,2,0:0:0:0:
445,156,45264,1,2,0:0:0:0:
416,136,45358,2,4,L|408:95,1,35
309,93,45545,5,4,0:0:0:0:
309,93,45639,1,4,0:0:0:0:
288,125,45733,1,2,0:0:0:0:
288,125,45826,1,2,0:0:0:0:
314,151,45920,2,4,L|312:203,1,35
232,233,46108,5,4,0:0:0:0:
220,225,46201,1,4,0:0:0:0:
190,237,46295,1,2,0:0:0:0:
176,239,46389,1,2,0:0:0:0:
153,221,46483,2,4,L|98:215,1,35
184,118,46670,5,4,0:0:0:0:
196,126,46763,1,4,0:0:0:0:
226,114,46857,1,2,0:0:0:0:
240,112,46951,1,2,0:0:0:0:
263,130,47045,2,4,L|318:136,1,35
352,217,47233,5,4,0:0:0:0:
342,228,47326,1,4,0:0:0:0:
329,235,47420,1,2,0:0:0:0:
315,238,47514,1,2,0:0:0:0:
301,237,47608,1,4,0:0:0:0:
313,231,47701,1,4,0:0:0:0:
321,219,47795,1,4,0:0:0:0:
324,205,47889,1,4,0:0:0:0:
320,191,47983,6,0,P|316:170|310:157,1,35,4|4,1:2|0:0,0:0:0:0:
287,128,48170,2,0,P|285:162|287:176,3,35,2|2|4|0,0:0|0:0|0:0|0:0,0:0:0:0:
204,256,48545,6,4,P|198:230|198:207,1,35
213,152,48733,2,0,P|220:184|218:198,3,35,2|2|4|0,0:0|0:0|0:0|0:0,0:0:0:0:
335,302,49108,6,4,P|337:261|331:237,1,35
318,156,49295,2,0,P|320:195|326:213,3,35,2|2|4|0,0:0|0:0|0:0|0:0,0:0:0:0:
173,321,49670,6,4,P|167:285|169:260,1,35
174,126,49858,2,0,P|167:153|167:173,3,35,2|2|4|0,0:0|0:0|0:0|0:0,0:0:0:0:
278,173,50233,5,4,0:0:0:0:
278,173,50326,1,4,0:0:0:0:
278,173,50420,1,2,0:0:0:0:
278,173,50514,1,2,0:0:0:0:
278,173,50608,1,4,0:0:0:0:
297,166,50701,1,4,0:0:0:0:
309,149,50795,1,4,0:0:0:0:
308,127,50889,1,4,0:0:0:0:
291,113,50983,6,0,P|284:93|286:68,5,35,4|4|2|2|4|0,1:2|0:0|0:0|0:0|0:0|0:0,0:0:0:0:
385,172,51545,2,0,P|401:167|418:164,5,35,4|4|2|2|4|0,0:0|0:0|0:0|0:0|0:0|0:0,0:0:0:0:
197,234,52108,6,0,P|155:241|135:240,5,35,4|4|2|2|4|0,0:0|0:0|0:0|0:0|0:0|0:0,0:0:0:0:
291,325,52670,2,0,P|287:342|280:357,5,35,4|4|2|2|4|0,0:0|0:0|0:0|0:0|0:0|0:0,0:0:0:0:
425,315,53233,5,4,0:0:0:0:
425,315,53326,1,4,0:0:0:0:
425,315,53420,1,2,0:0:0:0:
425,315,53514,1,2,0:0:0:0:
425,315,53608,1,4,0:0:0:0:
440,291,53701,1,4,0:0:0:0:
432,264,53795,1,4,0:0:0:0:
408,248,53889,1,4,0:0:0:0:
381,257,53983,6,0,L|375:216,1,35,4|0,1:2|0:0,0:0:0:0:
370,149,54170,1,0,1:0:0:0:
370,149,54358,1,0,1:0:0:0:
370,149,54545,1,0,1:0:0:0:
370,149,54733,2,0,L|308:151,1,35,4|0,0:0|0:0,0:0:0:0:
250,162,54920,1,0,1:0:0:0:
250,162,55108,1,0,1:0:0:0:
250,162,55295,1,0,1:0:0:0:
250,162,55483,6,0,L|249:106,1,35,4|0,0:0|0:0,0:0:0:0:
167,89,55670,1,0,1:0:0:0:
167,89,55858,1,0,1:0:0:0:
167,89,56045,1,0,1:0:0:0:
167,89,56233,2,0,L|169:156,1,35,4|0,0:0|0:0,0:0:0:0:
74,182,56420,1,0,1:0:0:0:
73,181,56608,2,0,L|74:146,1,35,4|0,0:0|0:0,0:0:0:0:
80,45,56795,1,4,0:0:0:0:
315,171,56983,6,0,L|264:188,1,35,4|4,0:0|0:0,0:0:0:0:
210,211,57170,1,2,0:0:0:0:
210,211,57264,1,2,0:0:0:0:
193,187,57358,1,4,0:0:0:0:
190,159,57451,1,4,0:0:0:0:
202,134,57545,2,0,L|263:124,1,35,4|4,0:0|0:0,0:0:0:0:
313,63,57733,5,2,0:0:0:0:
313,63,57826,1,2,0:0:0:0:
292,82,57920,1,4,0:0:0:0:
263,83,58014,1,4,0:0:0:0:
242,63,58108,2,4,P|233:45|231:27,1,35
94,127,58295,5,2,0:0:0:0:
94,127,58389,1,2,0:0:0:0:
118,140,58483,1,4,0:0:0:0:
144,130,58576,1,4,0:0:0:0:
154,104,58670,2,4,P|148:87|134:71,1,35
228,144,58858,5,2,0:0:0:0:
228,144,58951,1,2,0:0:0:0:
208,162,59045,1,4,0:0:0:0:
208,191,59139,1,4,0:0:0:0:
219,216,59233,6,4,P|225:236|225:262,1,35
304,284,59420,2,0,P|300:303|288:327,1,35,2|2,0:0|0:0,0:0:0:0:
173,337,59608,2,4,P|208:350|226:349,3,35
222,264,59983,5,4,0:0:0:0:
208,248,60076,1,4,0:0:0:0:
188,240,60170,1,6,0:0:0:0:
167,236,60264,1,6,0:0:0:0:
146,241,60358,1,4,0:0:0:0:
125,245,60451,1,4,0:0:0:0:
103,245,60545,1,4,0:0:0:0:
82,238,60639,1,4,0:0:0:0:
64,225,60733,5,6,0:0:0:0:
84,221,60826,1,6,0:0:0:0:
103,212,60920,1,4,0:0:0:0:
118,197,61014,1,4,0:0:0:0:
123,176,61108,1,4,0:0:0:0:
118,155,61201,1,4,0:0:0:0:
105,137,61295,1,6,0:0:0:0:
91,120,61389,1,6,0:0:0:0:
82,100,61483,1,4,0:0:0:0:
84,79,61576,1,4,0:0:0:0:
93,60,61670,1,4,0:0:0:0:
110,48,61764,1,4,0:0:0:0:
130,51,61858,5,6,0:0:0:0:
110,37,61951,1,6,0:0:0:0:
117,13,62045,1,4,0:0:0:0:
142,12,62139,1,4,0:0:0:0:
154,32,62233,1,4,0:0:0:0:
149,51,62326,1,4,0:0:0:0:
138,69,62420,1,6,0:0:0:0:
135,89,62514,1,6,0:0:0:0:
143,108,62608,1,4,0:0:0:0:
158,121,62701,1,4,0:0:0:0:
178,123,62795,2,4,P|207:120|226:129,1,35
343,209,62983,5,4,0:0:0:0:
331,187,63076,1,4,0:0:0:0:
310,172,63170,1,6,0:0:0:0:
285,170,63264,1,6,0:0:0:0:
262,179,63358,1,4,0:0:0:0:
244,195,63451,1,4,0:0:0:0:
224,210,63545,1,4,0:0:0:0:
199,213,63639,1,4,0:0:0:0:
175,205,63733,5,6,0:0:0:0:
195,192,63826,1,6,0:0:0:0:
219,192,63920,1,4,0:0:0:0:
241,200,64014,1,4,0:0:0:0:
262,211,64108,1,4,0:0:0:0:
285,218,64201,1,4,0:0:0:0:
309,216,64295,1,6,0:0:0:0:
331,206,64389,1,6,0:0:0:0:
347,187,64483,1,4,0:0:0:0:
353,163,64576,1,4,0:0:0:0:
349,138,64670,1,4,0:0:0:0:
336,117,64764,1,4,0:0:0:0:
315,104,64858,5,6,0:0:0:0:
294,117,64951,1,6,0:0:0:0:
280,137,65045,1,4,0:0:0:0:
278,161,65139,1,4,0:0:0:0:
283,185,65233,1,4,0:0:0:0:
294,206,65326,1,4,0:0:0:0:
299,229,65420,1,6,0:0:0:0:
297,253,65514,1,6,0:0:0:0:
286,275,65608,1,4,0:0:0:0:
267,290,65701,1,4,0:0:0:0:
242,292,65795,2,4,P|201:289|183:295,1,35
84,282,65983,5,4,0:0:0:0:
108,294,66076,1,4,0:0:0:0:
135,289,66170,1,6,0:0:0:0:
157,272,66264,1,6,0:0:0:0:
169,246,66358,1,4,0:0:0:0:
165,218,66451,1,4,0:0:0:0:
144,199,66545,1,4,0:0:0:0:
117,189,66639,1,4,0:0:0:0:
89,194,66733,5,6,0:0:0:0:
111,177,66826,1,6,0:0:0:0:
138,169,66920,1,4,0:0:0:0:
165,164,67014,1,4,0:0:0:0:
192,166,67108,1,4,0:0:0:0:
217,177,67201,1,4,0:0:0:0:
239,193,67295,1,6,0:0:0:0:
260,210,67389,1,6,0:0:0:0:
286,219,67483,1,4,0:0:0:0:
312,225,67576,1,4,0:0:0:0:
339,221,67670,1,4,0:0:0:0:
362,206,67764,1,4,0:0:0:0:
381,185,67858,5,6,0:0:0:0:
357,197,67951,1,6,0:0:0:0:
330,192,68045,1,4,0:0:0:0:
308,175,68139,1,4,0:0:0:0:
296,149,68233,1,4,0:0:0:0:
300,121,68326,1,4,0:0:0:0:
321,102,68420,1,6,0:0:0:0:
348,92,68514,1,6,0:0:0:0:
376,97,68608,1,4,0:0:0:0:
397,114,68701,1,4,0:0:0:0:
406,140,68795,2,4,P|409:171|408:203,1,35
434,270,68983,5,4,0:0:0:0:
405,250,69076,1,4,0:0:0:0:
369,249,69170,1,6,0:0:0:0:
341,270,69264,1,6,0:0:0:0:
335,304,69358,1,4,0:0:0:0:
351,334,69451,1,4,0:0:0:0:
380,350,69545,2,4,P|393:330|391:305,1,35
259,303,69733,5,6,0:0:0:0:
236,276,69826,1,6,0:0:0:0:
229,241,69920,1,4,0:0:0:0:
237,206,70014,1,4,0:0:0:0:
252,174,70108,2,4,P|258:157|258:140,1,35
114,124,70295,2,4,P|97:129|81:136,1,35,6|6,0:0|0:0,0:0:0:0:
252,174,70483,6,0,P|308:195|391:179,1,78.7500030040742,2|0,1:0|0:0,0:0:0:0:
356,193,70670,2,0,P|280:189|246:172,1,78.7500030040742,4|0,0:0|0:0,0:0:0:0:
183,213,70858,6,0,P|165:256|121:288,1,78.7500030040742,2|0,1:0|0:0,0:0:0:0:
112,289,71045,2,0,P|165:256|183:214,1,78.7500030040742,4|0,0:0|0:0,0:0:0:0:
272,224,71233,6,0,P|282:261|305:293,1,78.7500030040742,2|0,1:0|0:0,0:0:0:0:
330,309,71420,2,0,P|291:277|276:239,1,78.7500030040742,4|0,0:0|0:0,0:0:0:0:
271,128,71608,2,2,B|280:118|301:112|314:136|304:155|278:160|278:160|256:167|217:174|184:200|178:231|190:244|190:244|197:252|208:253,1,236.250009012223,2|0,1:0|0:0,0:0:0:0:
206,253,71983,6,0,P|175:194|109:198,1,140,4|2,1:2|0:0,0:0:0:0:
286,191,72264,5,4,0:0:0:0:
286,190,72358,2,0,L|355:184,1,52.5000020027161,0|0,1:0|0:0,0:0:0:0:
287,94,72545,1,4,0:0:0:0:
287,94,72639,1,4,0:0:0:0:
287,94,72733,6,0,B|246:84|219:112|219:112|195:72|144:76,2,157.500006008148,2|2|0,0:0|0:2|1:0,0:0:0:0:
287,94,73295,6,0,P|318:97|345:92,1,52.5000020027161,4|0,0:0|0:0,0:0:0:0:
437,165,73483,6,0,P|400:152|362:162,1,78.7500030040742,0|2,0:0|0:0,0:0:0:0:
240,249,73670,1,0,0:0:0:0:
239,248,73858,6,0,P|287:275|276:220,1,140,2|0,0:0|0:0,0:0:0:0:
277,208,74139,2,0,P|304:227|308:265,1,70,2|0,0:0|0:0,0:0:0:0:
404,360,74326,6,0,P|386:330|400:299,1,70
440,304,74608,6,2,B|355:341|343:265|249:309,1,192.500001835823,2|0,1:0|0:0,0:0:0:0:
157,351,74889,1,0,0:0:0:0:
157,351,74983,6,0,P|214:318|208:252,1,140,4|2,1:2|0:0,0:0:0:0:
112,188,75264,1,4,0:0:0:0:
112,188,75358,2,0,P|138:187|161:175,1,52.5000020027161,0|0,1:0|0:0,0:0:0:0:
215,87,75545,1,4,0:0:0:0:
215,87,75639,1,0,1:0:0:0:
215,87,75733,6,0,B|159:79|159:79|115:89|115:89|60:81,2,157.500006008148,2|2|0,0:0|0:2|1:0,0:0:0:0:
215,87,76295,6,0,L|206:150,1,52.5000020027161,4|0,0:0|0:0,0:0:0:0:
215,232,76483,6,0,P|168:213|145:307,1,157.500006008148,4|2,0:0|0:0,0:0:0:0:
128,304,76858,2,0,P|115:280|114:254,1,52.5000020027161,0|2,1:0|0:0,0:0:0:0:
158,148,77045,2,0,P|184:149|208:140,1,52.5000020027161,10|0,0:0|0:0,0:0:0:0:
250,266,77233,1,4,0:0:0:0:
243,252,77326,1,4,0:0:0:0:
236,237,77420,2,0,P|201:238|176:255,1,52.5000020027161,10|4,0:0|0:0,0:0:0:0:
305,166,77608,2,0,P|331:165|361:174,1,52.5000020027161,0|4,0:0|0:0,0:0:0:0:
273,66,77795,2,0,P|254:84|229:93,1,52.5000020027161,10|0,1:3|0:0,0:0:0:0:
134,52,77983,6,0,P|178:102|246:99,1,140,4|2,1:2|0:0,0:0:0:0:
217,185,78264,1,0,0:0:0:0:
217,184,78358,2,0,P|189:185|162:175,1,52.5000020027161,0|0,1:0|0:0,0:0:0:0:
299,145,78545,6,0,B|329:223|265:225|300:296,2,157.500006008148,4|2|2,0:0|0:0|2:0,0:0:0:0:
383,262,79014,5,4,0:0:0:0:
383,262,79108,2,0,L|469:272,1,52.5000020027161,0|0,1:0|0:0,0:0:0:0:
296,310,79295,6,0,P|283:287|287:224,1,78.7500030040742,4|0,0:0|0:0,0:0:0:0:
214,164,79483,6,0,P|174:157|142:176,1,52.5000020027161,4|2,0:0|0:0,0:0:0:0:
111,228,79670,1,8,0:0:0:0:
111,228,79858,6,0,P|105:173|66:213,1,140,2|0,1:3|0:0,0:0:0:0:
56,219,80139,2,0,P|56:185|84:160,1,70,2|0,1:3|0:0,0:0:0:0:
222,49,80326,6,0,P|191:62|158:50,1,70
171,36,80608,6,2,B|161:30|137:34|136:55|148:69|148:69|185:101|185:101|202:119|194:150|161:161|141:146|141:146|110:119|110:119,1,236.250009012223,2|0,1:0|0:0,0:0:0:0:
59,217,80983,6,0,P|118:188|113:122,1,140,4|2,1:2|0:0,0:0:0:0:
237,158,81264,1,4,0:0:0:0:
236,157,81358,2,0,P|262:163|288:163,1,52.5000020027161,0|0,1:0|0:0,0:0:0:0:
383,135,81545,6,0,P|327:108|331:206,1,140,4|2,0:0|0:0,0:0:0:0:
289,323,81826,1,4,0:0:0:0:
289,323,81920,2,0,L|282:270,1,52.5000020027161,4|0,0:0|0:0,0:0:0:0:
280,257,82108,2,0,P|253:256|228:262,1,52.5000020027161,0|0,1:0|0:0,0:0:0:0:
380,204,82295,2,0,P|406:203|431:209,1,52.5000020027161,4|0,0:0|0:0,0:0:0:0:
303,162,82483,6,0,P|382:166|320:118,1,210,4|2,0:0|0:0,0:0:0:0:
229,111,82858,6,0,P|218:136|216:162,1,52.5000020027161,0|2,1:0|0:0,0:0:0:0:
162,278,83045,1,2,0:0:0:0:
162,277,83139,6,0,P|223:247|289:265,1,140,4|0,0:0|0:0,0:0:0:0:
142,167,83420,1,6,0:0:0:0:
142,167,83514,1,4,0:0:0:0:
142,167,83608,2,0,L|89:161,1,52.5000020027161,0|0,1:0|0:0,0:0:0:0:
181,70,83795,5,2,1:3:0:0:
185,83,83889,1,0,1:0:0:0:
254,123,83983,5,2,0:0:0:0:
295,115,84077,1,4,0:0:0:0:
331,134,84170,1,4,0:0:0:0:
389,210,84264,6,0,P|414:193|452:177,2,43.75,2|0|0,0:3|0:0|0:0,0:0:0:0:
300,230,84545,1,6,0:0:0:0:
305,220,84639,1,4,0:0:0:0:
310,210,84733,5,4,0:0:0:0:
310,237,84826,1,4,0:0:0:0:
299,261,84920,1,4,0:0:0:0:
300,288,85014,1,4,0:0:0:0:
227,224,85108,5,4,0:0:0:0:
227,197,85201,1,4,0:0:0:0:
216,173,85295,1,4,0:0:0:0:
217,146,85389,1,4,0:0:0:0:
144,137,85483,6,4,P|125:149|101:160,2,43.75,6|0|4,0:0|0:0|0:0,0:0:0:0:
144,237,85764,2,4,P|142:258|143:286,2,43.75,2|4|0,0:3|0:0|0:0,0:0:0:0:
40,221,86045,1,6,0:0:0:0:
40,221,86139,2,0,P|8:208|-21:202,2,43.75,4|2|2,0:0|0:0|0:0,0:0:0:0:
127,101,86420,5,4,0:0:0:0:
149,72,86514,1,4,0:0:0:0:
188,64,86608,1,4,0:0:0:0:
174,83,86701,1,4,0:0:0:0:
155,87,86795,1,4,0:0:0:0:
148,78,86889,1,4,0:0:0:0:
149,72,86983,6,0,B|195:75|195:75|213:81|213:81|279:81|279:81|297:80|311:75|311:75|284:97|283:128,1,210,4|2,1:2|0:0,0:0:0:0:
250,193,87358,5,0,0:0:0:0:
250,193,87451,2,0,P|256:219|260:252,2,43.75,4|6|0,0:0|0:0|0:0,0:0:0:0:
364,245,87732,5,4,0:0:0:0:
386,231,87826,1,0,0:0:0:0:
411,235,87920,1,0,0:0:0:0:
432,220,88014,1,0,0:0:0:0:
473,115,88108,5,0,0:0:0:0:
452,130,88202,1,0,0:0:0:0:
427,126,88296,1,0,0:0:0:0:
405,140,88390,1,4,0:0:0:0:
325,98,88483,6,4,P|336:75|348:20,2,43.75,6|4|4,0:0|0:0|0:0,0:0:0:0:
209,198,88764,2,4,P|219:217|228:237,2,43.75,6|4|4,0:0|0:0|0:0,0:0:0:0:
103,119,89045,6,4,B|152:164|152:164|271:170|271:170|237:132,1,236.250009012223,6|4,0:0|0:0,0:0:0:0:
131,53,89420,5,4,0:0:0:0:
96,47,89514,1,4,0:0:0:0:
63,59,89608,2,4,L|55:124,1,43.75,0|4,1:0|0:0,0:0:0:0:
186,194,89795,1,4,0:0:0:0:
186,194,89889,1,0,1:0:0:0:
186,194,89983,6,4,P|196:167|196:142,2,43.75,4|6|4,1:2|0:0|0:0,0:0:0:0:
301,217,90264,6,4,P|305:302|333:380,1,140,6|4,0:0|0:0,0:0:0:0:
215,298,90545,2,4,P|193:294|168:292,1,43.75,6|4,0:0|0:0,0:0:0:0:
197,153,90733,6,4,P|222:149|241:155,1,43.75
255,149,90920,2,4,P|233:140|211:140,1,43.75
351,249,91108,6,4,P|368:230|380:161,1,78.7500030040742
390,167,91295,2,4,P|383:224|371:242,1,78.7500030040742
443,306,91483,6,4,P|448:327|458:346,2,43.75,4|6|4,1:2|0:0|0:0,0:0:0:0:
300,176,91764,6,4,P|233:167|155:183,1,140,6|4,0:0|0:0,0:0:0:0:
223,79,92045,6,4,P|226:58|227:36,1,43.75,6|4,0:0|0:0,0:0:0:0:
300,176,92233,5,4,0:0:0:0:
297,210,92326,1,4,0:0:0:0:
282,242,92420,1,6,0:0:0:0:
254,263,92514,1,4,0:0:0:0:
288,258,92608,1,4,0:0:0:0:
321,266,92701,1,4,0:0:0:0:
353,280,92795,1,6,0:0:0:0:
374,307,92889,1,4,0:0:0:0:
386,339,92983,6,4,B|356:285|369:227|423:188|423:188|377:208|326:176|307:134,1,262.5,4|6,1:2|0:0,0:0:0:0:
397,96,93358,6,4,P|426:137|421:189,1,105.000004005432,4|6,0:0|0:0,0:0:0:0:
301,252,93639,1,4,0:0:0:0:
301,251,93733,2,4,P|265:252|244:260,1,52.5000020027161
150,128,93920,2,4,P|183:178|199:185,1,52.5000020027161
250,340,94108,2,4,P|255:311|252:280,1,52.5000020027161,0|4,1:0|0:0,0:0:0:0:
300,106,94295,2,4,P|295:135|298:166,1,52.5000020027161
307,282,94483,6,4,B|254:279|254:279|205:289|205:289|149:286|149:286|168:218|168:218|200:220,1,262.5,4|6,1:2|0:0,0:0:0:0:
200,220,94858,6,0,L|202:176,1,43.75,4|0,0:0|0:0,0:0:0:0:
196,162,95045,2,0,L|193:205,1,43.75,2|0,0:0|0:0,0:0:0:0:
317,223,95233,6,0,L|325:145,1,78.7500030040742,4|0,0:0|0:0,0:0:0:0:
336,135,95420,2,0,L|327:213,1,78.7500030040742,2|0,0:0|0:0,0:0:0:0:
222,93,95608,5,0,1:0:0:0:
213,81,95701,1,4,0:0:0:0:
180,62,95795,5,0,1:0:0:0:
228,52,95889,1,0,1:0:0:0:
276,42,95983,6,0,P|222:83|231:149,1,140,4|0,1:2|0:0,0:0:0:0:
292,206,96264,5,0,0:0:0:0:
291,205,96358,2,0,P|266:204|244:217,1,52.5000020027161,2|0,0:0|0:0,0:0:0:0:
295,290,96545,2,0,L|375:297,1,52.5000020027161,4|0,0:0|0:0,0:0:0:0:
228,351,96733,5,2,0:0:0:0:
175,344,96826,1,2,0:0:0:0:
123,337,96920,1,2,0:0:0:0:
70,329,97014,1,2,0:0:0:0:
121,207,97108,5,4,0:0:0:0:
123,220,97201,1,4,0:0:0:0:
125,235,97295,1,4,0:0:0:0:
127,250,97389,1,4,0:0:0:0:
153,259,97483,6,4,L|143:187,2,52.5000020027161
279,293,97764,1,2,0:0:0:0:
277,292,97858,2,0,P|303:296|329:293,1,52.5000020027161,4|0,0:0|0:0,0:0:0:0:
334,187,98045,2,0,L|320:124,1,52.5000020027161,2|0,0:0|0:0,0:0:0:0:
175,51,98233,1,2,0:0:0:0:
175,51,98326,6,0,B|196:158|196:158|208:129,1,140,4|0,0:0|0:0,0:0:0:0:
106,104,98608,6,0,B|184:91|184:91|201:95|201:95|281:82|281:82|294:73|294:73|343:67|343:67|370:81|370:81|381:121,1,288.750002753735,8|0,0:0|0:0,0:0:0:0:
406,207,98983,6,0,P|377:136|302:155,1,140,4|0,1:2|0:0,0:0:0:0:
240,207,99264,5,0,0:0:0:0:
240,206,99358,2,0,P|244:182|240:145,1,52.5000020027161,2|0,0:0|0:0,0:0:0:0:
330,36,99545,2,0,L|399:41,1,52.5000020027161,4|0,0:0|0:0,0:0:0:0:
223,81,99733,5,2,0:0:0:0:
171,75,99827,1,2,0:0:0:0:
119,69,99921,1,2,0:0:0:0:
68,63,100014,1,2,0:0:0:0:
113,186,100108,5,4,0:0:0:0:
112,170,100201,1,4,0:0:0:0:
113,155,100295,1,4,0:0:0:0:
114,140,100389,1,4,0:0:0:0:
88,126,100483,6,4,L|87:187,2,52.5000020027161
204,216,100764,1,2,0:0:0:0:
204,216,100858,2,4,L|206:143,1,52.5000020027161,4|0,0:0|0:0,0:0:0:0:
259,282,101045,6,0,B|281:303|281:303|233:300|233:300|218:305|218:305|171:301|171:301|156:293|156:293|124:289,1,192.500001835823,2|0,0:0|0:0,0:0:0:0:
396,285,101326,5,2,0:0:0:0:
396,285,101420,2,4,L|450:293,1,52.5000020027161
408,203,101608,1,2,1:3:0:0:
393,200,101702,1,4,0:0:0:0:
377,200,101795,1,4,0:0:0:0:
361,203,101889,1,2,1:3:0:0:
347,210,101983,6,0,P|308:257|359:354,1,157.500006008148,4|0,1:2|0:0,0:0:0:0:
226,320,102264,5,2,0:0:0:0:
226,320,102358,2,0,P|193:315|167:318,1,52.5000020027161,0|4,0:0|0:0,0:0:0:0:
245,207,102545,2,0,P|263:174|270:148,1,52.5000020027161,2|0,0:0|0:0,0:0:0:0:
344,229,102733,5,4,0:0:0:0:
356,237,102826,1,4,0:0:0:0:
370,242,102920,1,4,0:0:0:0:
385,243,103014,1,0,0:0:0:0:
295,319,103108,5,2,0:0:0:0:
286,267,103201,1,4,0:0:0:0:
277,214,103295,1,4,0:0:0:0:
269,161,103389,1,4,0:0:0:0:
255,152,103483,6,0,B|219:139|219:139|145:151|145:151|121:148|109:125|113:104|133:89|133:89|173:83,1,236.250009012223,4|2,1:2|0:0,0:0:0:0:
262,71,103858,2,0,P|286:57|313:48,1,52.5000020027161,4|0,0:0|0:0,0:0:0:0:
213,216,104045,1,2,0:0:0:0:
214,216,104139,2,0,P|205:240|199:287,1,52.5000020027161,4|0,0:0|0:0,0:0:0:0:
52,165,104326,6,0,B|4:109|4:109|9:53|9:53|27:74,1,157.500006008148,2|0,0:0|0:0,0:0:0:0:
53,77,104608,5,0,1:0:0:0:
84,80,104701,1,4,0:0:0:0:
115,83,104795,1,0,1:0:0:0:
146,86,104889,1,0,1:0:0:0:
177,89,104983,6,0,B|162:68|162:68|30:57,1,157.500006008148,4|0,1:2|0:0,0:0:0:0:
164,166,105264,5,2,0:0:0:0:
164,166,105358,2,0,P|201:165|222:155,1,52.5000020027161,4|0,0:0|0:0,0:0:0:0:
309,38,105545,2,0,P|330:53|341:76,1,52.5000020027161,2|0,0:0|0:0,0:0:0:0:
300,150,105733,5,4,0:0:0:0:
285,141,105826,1,4,0:0:0:0:
273,129,105920,1,4,0:0:0:0:
267,113,106014,1,4,0:0:0:0:
389,52,106108,5,2,0:0:0:0:
386,103,106201,1,4,0:0:0:0:
385,155,106295,1,4,0:0:0:0:
384,207,106389,1,4,0:0:0:0:
383,242,106483,6,0,B|419:244|419:244|435:249|435:249|447:249|447:249|447:237|447:237|440:221|440:221|440:179|440:179|448:164|448:164|448:148|448:148|434:148|434:148|417:156|417:156|349:153,1,236.250009012223,4|0,1:2|0:0,2:0:0:0:
305,211,106858,6,0,L|260:208,1,43.75,4|0,0:0|0:0,0:0:0:0:
249,196,107045,2,0,L|292:198,1,43.75,6|0,0:0|0:0,0:0:0:0:
237,110,107233,1,2,0:0:0:0:
199,109,107326,1,4,0:0:0:0:
187,123,107420,6,0,L|193:30,1,78.7500030040742,2|0,0:0|0:0,0:0:0:0:
183,31,107608,2,0,L|176:115,1,78.7500030040742,6|0,0:0|0:0,0:0:0:0:
306,199,107795,1,0,1:0:0:0:
325,191,107889,1,0,1:0:0:0:
343,184,107983,6,4,P|350:213|348:237,3,35,4|4|4|4,1:2|0:0|0:0|0:0,0:0:0:0:
363,304,108358,5,6,0:0:0:0:
339,289,108451,1,4,0:0:0:0:
313,278,108545,1,4,0:0:0:0:
284,277,108639,1,4,0:0:0:0:
256,283,108733,1,4,0:0:0:0:
281,271,108826,1,4,0:0:0:0:
309,270,108920,1,4,0:0:0:0:
336,276,109014,1,4,0:0:0:0:
363,281,109108,1,4,0:0:0:0:
390,283,109201,1,6,0:0:0:0:
417,279,109295,1,4,0:0:0:0:
444,272,109389,1,4,0:0:0:0:
468,257,109483,6,4,P|473:228|474:214,3,35,2|4|4|6,0:0|0:0|0:0|0:0,0:0:0:0:
432,123,109858,5,4,0:0:0:0:
460,128,109951,1,4,0:0:0:0:
477,151,110045,1,6,0:0:0:0:
482,178,110139,1,4,0:0:0:0:
472,204,110233,1,4,0:0:0:0:
452,223,110326,1,4,0:0:0:0:
424,226,110420,1,4,0:0:0:0:
397,217,110514,1,4,0:0:0:0:
375,199,110608,1,4,0:0:0:0:
348,189,110701,1,4,0:0:0:0:
319,188,110795,1,4,0:0:0:0:
293,200,110889,1,4,0:0:0:0:
275,222,110983,6,4,P|274:255|286:287,3,35
195,186,111358,5,6,0:0:0:0:
182,160,111452,1,4,0:0:0:0:
179,132,111546,1,4,0:0:0:0:
185,104,111640,1,4,0:0:0:0:
201,81,111733,5,6,0:0:0:0:
200,109,111827,1,4,0:0:0:0:
195,136,111921,1,4,0:0:0:0:
180,160,112015,1,6,0:0:0:0:
164,183,112108,1,4,0:0:0:0:
154,209,112202,1,4,0:0:0:0:
154,237,112296,1,6,0:0:0:0:
163,263,112390,1,4,0:0:0:0:
184,280,112483,1,4,0:0:0:0:
211,285,112577,1,6,0:0:0:0:
238,280,112671,1,4,0:0:0:0:
264,271,112765,1,4,0:0:0:0:
291,267,112858,2,4,P|308:267|325:271,3,35,6|4|4|4,0:0|0:0|0:0|0:0,0:0:0:0:
374,187,113233,5,4,0:0:0:0:
349,200,113326,1,4,0:0:0:0:
322,191,113420,1,4,0:0:0:0:
305,168,113514,1,4,0:0:0:0:
316,193,113608,1,4,0:0:0:0:
318,220,113701,1,4,0:0:0:0:
310,247,113795,1,4,0:0:0:0:
291,267,113889,1,4,0:0:0:0:
245,211,113983,5,4,0:0:0:0:
226,173,114076,1,4,0:0:0:0:
207,135,114170,1,4,0:0:0:0:
188,97,114264,1,4,0:0:0:0:
169,59,114358,2,4,L|211:80,1,35
278,102,114545,5,6,0:0:0:0:
255,137,114638,1,4,0:0:0:0:
218,157,114732,1,6,0:0:0:0:
175,155,114826,1,4,0:0:0:0:
137,136,114920,1,4,0:0:0:0:
98,119,115014,1,6,0:0:0:0:
55,119,115108,2,4,P|30:146|28:160,3,35,4|4|6|4,0:0|0:0|0:0|0:0,0:0:0:0:
29,250,115483,5,4,0:0:0:0:
60,276,115576,1,4,0:0:0:0:
101,280,115670,1,4,0:0:0:0:
139,263,115764,1,4,0:0:0:0:
156,224,115858,5,6,0:0:0:0:
143,207,115951,1,4,0:0:0:0:
121,206,116045,1,4,0:0:0:0:
104,218,116139,1,4,0:0:0:0:
98,238,116233,1,6,0:0:0:0:
117,229,116326,1,4,0:0:0:0:
137,226,116420,1,4,0:0:0:0:
157,229,116514,1,6,0:0:0:0:
175,239,116608,5,4,0:0:0:0:
212,221,116701,1,4,0:0:0:0:
233,184,116795,1,6,0:0:0:0:
233,141,116889,1,4,0:0:0:0:
184,88,116983,5,4,0:0:0:0:
219,110,117076,1,4,0:0:0:0:
245,142,117170,1,4,0:0:0:0:
252,183,117264,1,4,0:0:0:0:
251,225,117358,6,4,L|234:299,1,52.5000020027161,4|4,1:2|0:0,0:0:0:0:
249,290,117545,2,4,L|261:239,1,52.5000020027161
343,165,117733,5,4,0:0:0:0:
313,135,117826,1,4,0:0:0:0:
272,122,117920,1,4,0:0:0:0:
229,124,118014,1,4,0:0:0:0:
190,140,118108,6,0,P|174:147|129:149,1,52.5000020027161,4|0,1:2|0:0,0:0:0:0:
126,160,118295,2,4,P|151:164|180:157,1,52.5000020027161
241,51,118483,5,4,0:0:0:0:
217,16,118576,1,4,0:0:0:0:
175,12,118670,1,4,0:0:0:0:
138,33,118764,1,4,0:0:0:0:
129,74,118858,6,4,L|139:142,1,52.5000020027161,4|4,1:0|0:0,0:0:0:0:
130,147,119045,2,4,L|122:95,1,52.5000020027161
228,130,119233,5,4,0:0:0:0:
269,127,119326,1,4,0:0:0:0:
313,154,119420,1,0,1:0:0:0:
313,154,119514,1,0,1:0:0:0:
313,154,119608,2,4,P|306:197|297:213,1,52.5000020027161,4|4,1:0|0:0,0:0:0:0:
397,200,119795,2,4,P|448:189|468:192,1,52.5000020027161,4|4,1:0|0:0,0:0:0:0:
374,101,119983,5,4,0:0:0:0:
346,132,120076,1,4,0:0:0:0:
304,135,120170,1,4,0:0:0:0:
275,104,120264,1,4,0:0:0:0:
271,61,120358,2,0,P|291:44|316:39,1,52.5000020027161,0|0,1:0|0:0,0:0:0:0:
325,257,120545,5,4,0:0:0:0:
325,257,120639,2,0,P|311:213|311:196,1,52.5000020027161,8|0,0:0|0:0,0:0:0:0:
186,213,120826,1,4,0:0:0:0:
186,213,120920,2,0,P|194:163|202:142,1,52.5000020027161,8|4,0:0|0:0,0:0:0:0:
354,109,121108,2,0,P|330:119|304:125,1,52.5000020027161,0|0,1:0|0:0,0:0:0:0:
165,23,121295,2,0,P|198:43|213:60,1,52.5000020027161,4|0,0:0|0:0,0:0:0:0:
249,170,121483,5,4,0:0:0:0:
208,176,121576,1,4,0:0:0:0:
186,213,121670,1,4,0:0:0:0:
205,251,121764,1,4,0:0:0:0:
248,256,121858,2,0,L|321:249,1,52.5000020027161,0|0,1:0|0:0,0:0:0:0:
428,172,122045,5,4,0:0:0:0:
428,172,122139,2,0,P|381:149|347:138,1,52.5000020027161,8|4,0:0|0:0,0:0:0:0:
265,19,122326,1,4,0:0:0:0:
265,19,122420,2,0,P|241:63|239:92,1,52.5000020027161,8|0,0:0|0:0,0:0:0:0:
228,171,122608,1,0,1:0:0:0:
240,211,122701,1,4,0:0:0:0:
212,244,122795,1,4,0:0:0:0:
224,284,122889,1,4,0:0:0:0:
198,317,122983,6,4,P|157:322|130:308,2,52.5000020027161
313,330,123264,1,4,0:0:0:0:
313,330,123358,1,0,1:0:0:0:
313,330,123451,2,0,P|315:357|327:393,1,52.5000020027161,8|0,0:0|0:0,0:0:0:0:
421,295,123639,5,4,0:0:0:0:
421,295,123733,2,0,L|408:228,1,52.5000020027161,2|0,0:0|0:0,0:0:0:0:
320,232,123920,1,4,0:0:0:0:
320,232,124014,2,0,L|307:165,1,52.5000020027161,2|0,0:0|0:0,0:0:0:0:
398,155,124201,1,4,0:0:0:0:
398,155,124295,2,0,L|385:88,1,52.5000020027161,2|0,0:0|0:0,0:0:0:0:
196,84,124483,6,4,P|222:88|248:83,3,52.5000020027161,4|8|4|4,0:0|0:0|0:0|0:0,0:0:0:0:
306,183,124858,2,8,P|259:175|235:161,3,52.5000020027161,8|4|4|8,0:0|0:0|0:0|0:0,0:0:0:0:
192,253,125233,5,4,0:0:0:0:
189,273,125326,1,4,0:0:0:0:
187,293,125420,1,4,0:0:0:0:
185,313,125514,1,4,0:0:0:0:
167,331,125608,5,4,1:0:0:0:
168,299,125701,1,4,0:0:0:0:
169,267,125795,1,4,0:0:0:0:
170,235,125889,1,4,0:0:0:0:
172,203,125983,5,0,1:0:0:0:
204,228,126076,1,4,0:0:0:0:
245,231,126170,1,4,0:0:0:0:
285,219,126264,1,4,0:0:0:0:
313,187,126358,1,4,0:0:0:0:
315,145,126451,1,4,0:0:0:0:
298,106,126545,5,6,0:0:0:0:
279,143,126639,1,4,0:0:0:0:
282,184,126733,1,6,0:0:0:0:
298,222,126826,1,4,0:0:0:0:
317,259,126920,1,4,0:0:0:0:
319,301,127014,1,6,0:0:0:0:
302,339,127108,1,4,0:0:0:0:
266,360,127201,1,4,0:0:0:0:
224,356,127295,1,6,0:0:0:0:
201,320,127389,1,4,0:0:0:0:
213,279,127483,6,4,P|220:264|221:208,3,52.5000020027161,4|2|4|4,0:0|0:0|0:0|0:0,0:0:0:0:
382,193,127858,2,4,P|437:186|521:198,1,105.000004005432,2|4,0:0|0:0,0:0:0:0:
305,108,128139,2,4,P|241:113|155:96,1,105.000004005432,2|6,0:0|0:0,0:0:0:0:
336,88,128420,5,4,0:0:0:0:
340,119,128514,1,4,0:0:0:0:
344,150,128608,1,4,0:0:0:0:
348,180,128701,1,4,0:0:0:0:
351,210,128795,2,4,P|350:237|345:262,1,52.5000020027161
152,229,128983,5,4,0:0:0:0:
169,191,129076,1,4,0:0:0:0:
208,177,129170,1,4,0:0:0:0:
249,190,129264,1,4,0:0:0:0:
263,228,129358,6,4,P|266:254|257:278,1,52.5000020027161,4|4,1:2|0:0,0:0:0:0:
151,346,129545,5,4,0:0:0:0:
178,314,129639,1,4,0:0:0:0:
218,301,129733,1,4,0:0:0:0:
259,301,129826,1,4,0:0:0:0:
298,315,129920,1,4,0:0:0:0:
336,333,130014,1,4,0:0:0:0:
378,335,130108,6,4,P|395:307|402:266,1,52.5000020027161,4|4,1:2|0:0,0:0:0:0:
337,181,130295,5,4,0:0:0:0:
337,181,130389,1,4,0:0:0:0:
337,181,130483,1,4,0:0:0:0:
357,217,130576,1,4,0:0:0:0:
398,223,130670,1,4,0:0:0:0:
434,202,130764,1,4,0:0:0:0:
443,160,130858,6,4,P|442:132|433:80,1,52.5000020027161,4|4,1:0|0:0,0:0:0:0:
237,70,131045,5,4,0:0:0:0:
237,70,131139,1,4,0:0:0:0:
237,70,131233,2,4,P|161:57|149:60,1,52.5000020027161,6|6,0:0|0:0,0:0:0:0:
274,202,131420,2,4,L|285:134,2,52.5000020027161,0|4|2,1:0|0:0|1:3,0:0:0:0:
186,305,131701,1,4,0:0:0:0:
186,305,131795,2,4,P|210:294|236:292,1,52.5000020027161,2|0,1:3|1:0,0:0:0:0:
310,291,131983,6,0,P|316:268|317:229,2,52.5000020027161
310,291,132545,1,0,0:0:0:0:
317,298,132733,1,0,0:0:0:0:
325,303,132920,1,0,0:0:0:0:
335,304,133108,1,0,0:0:0:0:
345,301,133295,1,0,0:0:0:0:
353,295,133483,1,0,0:0:0:0:
360,287,133670,1,0,0:0:0:0:
364,277,133858,1,0,0:0:0:0:
367,267,134045,1,0,0:0:0:0:
366,256,134233,1,0,0:0:0:0:
362,246,134420,1,0,0:0:0:0:
356,237,134608,1,0,0:0:0:0:
270,217,134795,6,0,P|260:186|265:142,2,52.5000020027161
273,226,135358,1,0,0:0:0:0:
272,236,135546,1,0,0:0:0:0:
268,245,135733,1,0,0:0:0:0:
262,253,135921,1,0,0:0:0:0:
254,260,136108,1,0,0:0:0:0:
244,265,136296,1,0,0:0:0:0:
234,269,136483,1,0,0:0:0:0:
223,271,136671,1,0,0:0:0:0:
212,272,136858,1,0,0:0:0:0:
201,272,137046,1,0,0:0:0:0:
190,270,137233,1,0,0:0:0:0:
179,267,137421,1,0,0:0:0:0:
169,263,137608,1,0,0:0:0:0:
108,161,137795,5,2,0:0:0:0:
107,161,137983,2,0,P|138:148|170:161,1,70,4|4,0:0|0:0,0:0:0:0:
201,228,138358,2,0,P|242:239|284:213,5,70,0|2|0|2|0|2,0:0|0:0|0:0|0:0|0:0|0:0,0:0:0:0:
319,178,139483,6,0,P|366:173|392:193,1,70,0|2,0:0|0:0,0:0:0:0:
271,124,139858,2,0,P|266:89|279:57,5,70,0|2|0|2|0|2,0:0|0:0|0:0|0:0|0:0|0:0,0:0:0:0:
278,56,140983,5,0,0:0:0:0:
278,56,141170,1,2,0:0:0:0:
278,56,141358,1,0,0:0:0:0:
278,56,141545,1,2,0:0:0:0:
278,56,141733,1,0,0:0:0:0:
278,56,141920,1,2,0:0:0:0:
278,56,142108,1,0,0:0:0:0:
278,56,142295,1,2,0:0:0:0:
398,180,142483,5,0,0:0:0:0:
391,182,142670,1,2,0:0:0:0:
385,185,142858,2,0,P|395:224|392:270,5,70,0|2|0|2|0|2,0:0|0:0|0:0|0:0|0:0|0:0,0:0:0:0:
299,290,143983,6,0,P|250:272|211:276,1,70,4|2,0:0|0:0,0:0:0:0:
272,120,144358,2,0,L|283:208,1,70,4|4,0:0|0:0,0:0:0:0:
174,186,144733,1,2,0:0:0:0:
283,204,144920,1,4,0:0:0:0:
217,282,145108,1,2,0:0:0:0:
283,204,145295,1,4,0:0:0:0:
310,199,145389,1,4,0:0:0:0:
337,196,145483,5,2,0:0:0:0:
321,108,145670,1,4,0:0:0:0:
301,295,145858,1,4,0:0:0:0:
301,295,146045,1,4,0:0:0:0:
406,273,146233,1,2,0:0:0:0:
337,196,146420,1,4,0:0:0:0:
408,266,146608,1,2,0:0:0:0:
309,300,146795,1,4,0:0:0:0:
281,295,146889,1,4,0:0:0:0:
253,289,146983,5,6,0:0:0:0:
203,199,147170,1,4,0:0:0:0:
153,250,147358,1,0,0:0:0:0:
156,264,147545,1,0,0:0:0:0:
119,73,147733,5,6,0:0:0:0:
205,108,147920,1,4,0:0:0:0:
148,155,148108,1,0,0:0:0:0:
142,165,148295,1,0,0:0:0:0:
251,360,148483,5,6,0:0:0:0:
331,333,148670,1,4,0:0:0:0:
279,269,148858,1,0,0:0:0:0:
273,258,149045,1,0,0:0:0:0:
353,153,149233,5,6,0:0:0:0:
447,127,149420,1,4,0:0:0:0:
284,77,149608,5,10,0:0:0:0:
455,106,149795,1,4,0:0:0:0:
239,200,149983,5,6,0:0:0:0:
270,300,150170,1,4,0:0:0:0:
312,236,150358,1,0,0:0:0:0:
301,231,150545,1,0,0:0:0:0:
109,337,150733,5,6,0:0:0:0:
81,230,150920,1,4,0:0:0:0:
24,289,151108,1,0,0:0:0:0:
37,284,151295,1,0,0:0:0:0:
243,171,151483,5,6,0:0:0:0:
191,78,151670,1,4,0:0:0:0:
134,137,151858,1,0,0:0:0:0:
141,151,152045,1,0,0:0:0:0:
290,93,152233,5,6,0:0:0:0:
118,65,152420,1,4,0:0:0:0:
316,221,152608,5,10,0:0:0:0:
92,243,152795,1,4,0:0:0:0:
207,138,152983,5,6,0:0:0:0:
206,137,153170,2,0,P|216:152|231:161,2,35,4|0|0,0:0|0:0|0:0,0:0:0:0:
340,191,153733,2,0,P|323:197|311:210,2,35
286,123,154295,1,0,0:0:0:0:
286,123,154389,1,0,0:0:0:0:
286,123,154483,6,0,B|290:154|290:154|298:166|298:166|307:224|307:224|303:237|303:237|310:290|310:290|318:303|318:303|323:330,1,210,6|0,0:0|0:0,0:0:0:0:
395,302,155795,6,0,L|388:267,1,35,2|0,0:2|0:0,0:0:0:0:
219,183,155983,6,0,L|227:236,1,52.5000020027161,2|0,0:0|0:0,0:0:0:0:
240,316,156170,2,0,L|187:320,1,52.5000020027161,12|0,0:0|0:0,0:0:0:0:
89,330,156358,1,4,0:0:0:0:
89,330,156545,1,4,0:0:0:0:
62,202,156733,6,0,L|121:198,1,52.5000020027161,2|0,0:0|0:0,0:0:0:0:
200,108,156920,2,0,L|141:103,1,52.5000020027161,12|0,0:0|0:0,0:0:0:0:
49,99,157108,1,4,0:0:0:0:
49,99,157295,1,4,0:0:0:0:
343,71,157483,6,0,L|285:65,1,52.5000020027161,2|0,0:0|0:0,0:0:0:0:
191,56,157670,2,0,L|200:108,1,52.5000020027161,12|0,0:0|0:0,0:0:0:0:
220,195,157858,1,4,0:0:0:0:
220,195,158045,1,4,0:0:0:0:
258,161,158233,6,0,P|222:192|217:215,1,52.5000020027161,2|0,0:0|0:0,0:0:0:0:
219,318,158420,1,4,0:0:0:0:
219,318,158608,2,0,P|207:273|193:249,1,52.5000020027161,12|0,0:0|0:0,0:0:0:0:
110,208,158795,1,4,0:0:0:0:
110,208,158983,6,0,B|148:211|148:211|160:206|160:206|230:213|230:213|240:221|240:221|280:225,2,175,4|4|8,1:2|1:2|0:0,0:0:0:0:
138,287,159545,5,4,0:0:0:0:
225,127,159733,2,0,L|216:63,2,52.5000020027161,2|0|0,0:0|0:0|0:0,0:0:0:0:
390,179,160108,1,2,0:0:0:0:
302,70,160295,1,4,0:0:0:0:
302,70,160483,6,0,B|310:129|310:129|302:178|302:178|313:243,2,175,4|4|8,1:2|1:2|0:0,0:0:0:0:
390,179,161045,5,0,0:0:0:0:
225,127,161233,2,0,P|199:131|171:127,2,52.5000020027161,2|0|0,0:0|0:0|0:0,0:0:0:0:
389,80,161608,1,2,0:0:0:0:
414,325,161795,1,12,0:0:0:0:
414,325,161983,6,0,B|236:249|201:385|61:320|61:320|106:338|154:332|192:302|197:257,1,525,4|2,1:2|0:0,0:0:0:0:
115,240,163295,5,2,0:0:0:0:
115,240,163389,1,2,0:0:0:0:
114,240,163483,6,4,P|123:224|130:208,6,35
228,257,163858,6,8,P|232:282|240:307,6,52.5000020027161
236,156,164233,1,2,0:0:0:0:
256,146,164326,1,4,0:0:0:0:
273,137,164420,6,4,L|309:143,20,30.6250002920628
106,233,167983,6,0,B|95:208|95:208|111:161|111:161|96:120|96:120|104:111|104:111|100:95|100:95|113:101|113:101|123:93|123:93|190:107|190:107|195:118|195:118|210:118|210:118|199:130|199:130|202:142|202:142|174:173|174:173|179:233|179:233,1,367.500003504753
189,247,168920,6,0,B|155:278|108:266|108:266|94:201|94:201|147:210|146:176|183:177|183:177|219:179|220:147|272:159|272:159|259:98|259:98|225:75|180:108,1,490.000004673004
179,108,169389,1,0,0:0:0:0:
185,115,169483,6,0,B|150:149|84:146|84:146|220:172|220:102|356:146|356:146|300:136|254:162,1,490.000004673004
254,161,169951,1,0,0:0:0:0:
258,169,170045,6,0,B|286:226|260:283|260:283|351:135|304:97|304:97|261:136|319:214|417:201,1,490.000004673004
392,203,170514,1,0,0:0:0:0:
398,202,170608,6,0,B|471:195|499:132|499:132|368:121|299:276|299:276|319:216|291:167,1,490.000004673004
358,283,188983,5,0,0:0:0:0:
358,283,189076,1,0,0:0:0:0:
358,283,189170,1,0,0:0:0:0:
328,326,189264,1,0,0:0:0:0:
276,337,189358,2,0,P|244:326|220:302,1,52.5000020027161
111,258,189545,2,0,P|137:251|158:237,1,52.5000020027161
200,140,189733,5,0,0:0:0:0:
196,104,189826,1,0,0:0:0:0:
160,46,189920,1,0,0:0:0:0:
157,83,190014,1,0,0:0:0:0:
101,142,190108,5,0,0:0:0:0:
35,125,190201,1,0,0:0:0:0:
101,142,190295,1,0,0:0:0:0:
35,125,190389,1,0,0:0:0:0:
101,218,190483,5,0,0:0:0:0:
110,218,190576,1,0,0:0:0:0:
121,216,190670,1,0,0:0:0:0:
224,164,190764,5,0,0:0:0:0:
202,133,190858,1,0,0:0:0:0:
200,169,190951,1,0,0:0:0:0:
209,262,191045,5,0,0:0:0:0:
209,262,191139,1,0,0:0:0:0:
209,262,191233,1,0,0:0:0:0:
260,273,191326,1,0,0:0:0:0:
308,251,191420,1,0,0:0:0:0:
322,201,191514,1,0,0:0:0:0:
303,153,191608,2,0,P|281:138|255:133,1,52.5000020027161
189,104,191795,2,0,P|163:107|138:116,1,52.5000020027161
164,308,191983,6,0,B|160:345|160:345|171:355|171:355|214:361|214:361|225:353|225:353|236:280|236:280|245:263|245:263|253:203,1,262.5
179,240,192358,6,0,P|153:237|129:246,1,52.5000020027161
297,362,192545,2,0,P|305:337|304:310,1,52.5000020027161
382,240,192733,5,0,0:0:0:0:
415,236,192826,1,0,0:0:0:0:
471,199,192920,1,0,0:0:0:0:
438,203,193013,1,0,0:0:0:0:
359,169,193108,5,0,0:0:0:0:
366,102,193202,1,0,0:0:0:0:
359,169,193296,1,0,0:0:0:0:
366,102,193389,1,0,0:0:0:0:
273,172,193483,5,0,0:0:0:0:
275,184,193577,1,0,0:0:0:0:
279,195,193670,1,0,0:0:0:0:
278,294,193764,5,0,0:0:0:0:
243,284,193857,1,0,0:0:0:0:
277,272,193951,1,0,0:0:0:0:
363,264,194045,5,0,0:0:0:0:
363,264,194139,1,0,0:0:0:0:
363,264,194233,1,0,0:0:0:0:
346,296,194326,1,0,0:0:0:0:
311,305,194420,1,0,0:0:0:0:
278,294,194514,1,0,0:0:0:0:
245,275,194608,1,0,0:0:0:0:
208,277,194701,1,0,0:0:0:0:
177,296,194795,1,0,0:0:0:0:
170,332,194889,1,0,0:0:0:0:
189,363,194983,6,0,B|142:345|132:278|177:242|219:242|219:242|160:235|150:163,1,262.5
232,165,195358,6,0,P|295:149|327:117,1,105.000004005432
340,218,195639,1,0,0:0:0:0:
340,218,195733,2,0,P|343:243|353:268,1,52.5000020027161
193,279,195920,2,0,P|230:268|252:267,1,52.5000020027161
337,335,196108,5,0,0:0:0:0:
297,322,196201,1,0,0:0:0:0:
261,345,196295,1,0,0:0:0:0:
301,357,196389,1,0,0:0:0:0:
417,342,196483,6,0,P|419:306|407:266,2,52.5000020027161
509,199,196764,1,0,0:0:0:0:
509,198,196858,2,0,P|502:224|500:250,1,52.5000020027161
451,140,197045,2,0,P|441:166|434:195,1,52.5000020027161
414,271,197233,6,0,B|375:257|375:257|370:249|370:249|329:233|329:233|321:235|321:235|296:225|296:225|309:291|309:291|326:255,1,210
371,168,197608,6,0,B|364:154|364:154|364:162|364:162|348:139|348:139|348:146|348:146|325:129|325:129|326:135|326:135|298:125|298:125|300:131|300:131|276:125|276:125|279:131|279:131|255:132|255:132|259:136|259:136|234:143|234:143|240:145|240:145|217:157|217:157|224:158|224:158|206:173|206:173|212:173|212:173|200:195|200:195|206:191|204:192,1,315.000012016297
237,318,197983,6,0,P|234:283|212:245,1,52.5000020027161
104,310,198170,1,0,0:0:0:0:
104,310,198264,1,0,0:0:0:0:
104,310,198358,2,0,B|129:317|129:317|154:309,1,52.5000020027161
254,191,198545,2,0,B|229:184|229:184|204:192,1,52.5000020027161
92,205,198733,5,0,0:0:0:0:
92,205,198826,1,0,0:0:0:0:
92,205,198920,2,0,P|91:178|95:152,1,52.5000020027161
133,54,199108,1,0,0:0:0:0:
106,29,199201,1,0,0:0:0:0:
72,41,199295,1,0,0:0:0:0:
99,66,199389,1,0,0:0:0:0:
217,48,199483,6,0,B|240:175|240:175|179:253|179:253|158:150,1,315.000012016297
302,108,199858,6,0,P|314:88|318:56,6,35
319,189,200233,2,0,P|323:201|336:220,6,35
220,85,200608,5,0,0:0:0:0:
229,71,200701,1,0,0:0:0:0:
249,149,200795,1,0,0:0:0:0:
171,171,200889,1,0,0:0:0:0:
148,92,200983,6,0,B|130:57|130:57|88:115|88:115|81:127|81:127|87:139|87:139|99:146|99:146|129:204|129:204|127:218|127:218|132:229|132:229|173:168,1,315.000012016297
304,94,201358,5,0,0:0:0:0:
334,98,201451,1,0,0:0:0:0:
357,174,201545,5,0,0:0:0:0:
359,197,201639,1,0,0:0:0:0:
360,216,201733,6,0,B|361:217|361:217|364:229|364:229|350:227|350:227|343:220|343:220|297:214|297:214|290:220|290:220|274:218|274:218|270:209|270:209|273:200|273:200|265:177|265:177|257:171|257:171|254:163|254:163|268:165|268:165|275:173|275:173|324:177|324:177|335:173|335:173|359:175,1,280
464,184,202014,5,0,0:0:0:0:
464,184,202108,2,0,B|465:212|465:212|436:230|436:230|430:152,1,140
363,71,202295,6,0,B|362:115|362:115|355:131|355:131|357:174,1,105.000004005432
281,242,202483,5,0,0:0:0:0:
268,242,202577,1,0,0:0:0:0:
255,240,202670,1,0,0:0:0:0:
269,121,202764,5,0,0:0:0:0:
308,136,202858,1,0,0:0:0:0:
268,149,202951,1,0,0:0:0:0:
174,147,203045,5,0,0:0:0:0:
165,143,203139,1,0,0:0:0:0:
156,139,203233,1,0,0:0:0:0:
174,101,203326,1,0,0:0:0:0:
217,99,203420,1,0,0:0:0:0:
247,129,203514,1,0,0:0:0:0:
290,126,203608,5,0,0:0:0:0:
305,84,203701,1,0,0:0:0:0:
299,136,203795,1,0,0:0:0:0:
294,73,203889,1,0,0:0:0:0:
205,22,203983,6,0,B|179:23|154:34|154:34|161:40|161:40|123:69|123:69|129:69|129:69|103:119|103:119|113:116|113:116|107:179|107:179|117:168|117:168|123:195|141:217,1,315.000012016297
83,187,230701,5,0,0:0:0:0:
