osu file format v14

[General]
AudioFilename: Leviathan.mp3
AudioLeadIn: 0
PreviewTime: 62491
Countdown: 1
SampleSet: Normal
StackLeniency: 0.7
Mode: 1
LetterboxInBreaks: 0
WidescreenStoryboard: 1

[Editor]
Bookmarks: 9833,18613,27394,36174,44955,53710,58101,62507,71271,80052,88857,106416,123979,141540,159101,203004,238416
DistanceSpacing: 1
BeatDivisor: 4
GridSize: 32
TimelineZoom: 1.399999

[Metadata]
Title:Leviathan
TitleUnicode:Leviathan
Artist:ziki_7
ArtistUnicode:ziki_7
Creator:yassu-
Version:Oni
Source:東方地霊殿 ~ Subterranean Animism.
Tags:Dungeon&Danger and Dust_Box_49 緑眼のジェラシー 水橋 パルスィ green eyed jealousy 東方project touhou zun remix parsee mizuhashi tjbc #11 japanese beatmap contest electronic instrumental
BeatmapID:2188042
BeatmapSetID:1013884

[Difficulty]
HPDrainRate:5
CircleSize:5
OverallDifficulty:6
ApproachRate:10
SliderMultiplier:1.4
SliderTickRate:1

[Events]
//Background and Video events
0,0,"bg.jpg",0,0
//Break Periods
2,108588,114076
//Storyboard Layer 0 (Background)
//Storyboard Layer 1 (Fail)
//Storyboard Layer 2 (Pass)
//Storyboard Layer 3 (Foreground)
//Storyboard Layer 4 (Overlay)
//Storyboard Sound Samples

[TimingPoints]
1028,365.853658536585,3,1,0,20,1,0
1028,-111.111111111111,3,1,0,20,0,0
1851,-100,3,1,0,40,0,0
18588,-100,3,1,0,40,0,0
18863,-97.0873786407767,3,1,0,40,0,0
27643,-94.3396226415094,3,1,0,40,0,0
36149,-94.3396226415094,3,1,0,60,0,1
36424,-90.9090909090909,3,1,0,60,0,1
44930,-90.9090909090909,3,1,0,60,0,0
45204,-95.2380952380952,3,1,0,40,0,0
49686,-100,3,1,0,40,0,0
54076,-105.263157894737,3,1,0,40,0,0
58467,-111.111111111111,3,1,0,40,0,0
60204,-102.040816326531,3,1,0,50,0,0
61210,-94.3396226415094,3,1,0,50,0,0
62491,-86.9565217391304,3,1,0,60,0,1
79320,-86.9565217391304,3,1,0,30,0,0
80052,-86.9565217391304,3,1,0,60,0,1
88832,-86.9565217391304,3,1,0,50,0,0
89381,-90.9090909090909,3,1,0,50,0,0
89930,-95.2380952380952,3,1,0,50,0,0
90479,-100,3,1,0,50,0,0
91210,-105.263157894737,3,1,0,50,0,0
107125,-117.647058823529,3,1,0,40,0,0
108588,-133.333333333333,3,1,0,30,0,0
115174,-117.647058823529,3,1,0,30,0,0
123954,-100,3,1,0,60,0,1
139320,-97.0873786407767,3,1,0,60,0,0
139869,-94.3396226415094,3,1,0,60,0,0
140418,-91.743119266055,3,1,0,60,0,0
140967,-89.2857142857143,3,1,0,60,0,0
141515,-86.9565217391304,3,1,0,60,0,1
159076,365.853658536585,4,1,0,60,1,0
159076,-86.9565217391304,4,1,0,60,0,0
159624,-100,4,1,0,40,0,0

[HitObjects]
244,199,1028,5,0,0:0:0:0:
244,199,1302,1,0,0:0:0:0:
253,205,1576,1,2,0:0:0:0:
251,186,1851,1,0,0:0:0:0:
244,189,1942,1,0,0:0:0:0:
244,190,2034,1,0,0:0:0:0:
265,202,2125,5,2,0:0:0:0:
273,202,2491,1,0,0:0:0:0:
272,203,2674,1,0,0:0:0:0:
269,188,2857,1,2,0:0:0:0:
273,207,2948,1,2,0:0:0:0:
265,202,3223,1,0,0:0:0:0:
279,184,3406,1,0,0:0:0:0:
304,199,3588,1,2,0:0:0:0:
279,184,3771,1,0,0:0:0:0:
283,192,4137,1,0,0:0:0:0:
276,197,4320,1,2,0:0:0:0:
272,203,4503,1,0,0:0:0:0:
276,194,4686,1,0,0:0:0:0:
279,169,4777,1,0,0:0:0:0:
272,203,4869,1,0,0:0:0:0:
279,184,5052,1,2,0:0:0:0:
277,238,5418,1,2,0:0:0:0:
272,203,5509,1,2,0:0:0:0:
269,207,5784,1,0,0:0:0:0:
282,180,5875,1,0,0:0:0:0:
283,179,5967,1,2,0:0:0:0:
274,195,6149,1,2,0:0:0:0:
280,188,6332,1,0,0:0:0:0:
280,190,6515,1,0,0:0:0:0:
272,203,6881,1,0,0:0:0:0:
273,207,7064,1,0,0:0:0:0:
257,195,7247,1,2,0:0:0:0:
263,235,7338,1,2,0:0:0:0:
261,197,7613,1,0,0:0:0:0:
272,192,7796,1,0,0:0:0:0:
272,195,7979,1,2,0:0:0:0:
281,192,8162,1,2,0:0:0:0:
268,197,8527,1,0,0:0:0:0:
261,199,8710,1,2,0:0:0:0:
274,204,8893,1,2,0:0:0:0:
274,204,9076,1,0,0:0:0:0:
274,204,9442,1,2,0:0:0:0:
273,192,9625,1,2,0:0:0:0:
266,212,9808,1,0,0:0:0:0:
293,218,9991,1,0,0:0:0:0:
274,193,10082,1,0,0:0:0:0:
280,190,10174,1,2,0:0:0:0:
274,193,10357,1,0,0:0:0:0:
261,196,10540,1,2,0:0:0:0:
268,197,10631,1,2,0:0:0:0:
261,196,10906,1,0,0:0:0:0:
274,193,11088,1,2,0:0:0:0:
274,204,11271,1,0,0:0:0:0:
261,196,11454,1,0,0:0:0:0:
274,193,11546,1,0,0:0:0:0:
274,204,11820,1,0,0:0:0:0:
263,190,12003,1,2,0:0:0:0:
269,184,12369,1,2,0:0:0:0:
232,207,12552,1,2,0:0:0:0:
278,199,12735,5,0,0:0:0:0:
293,218,12918,1,0,0:0:0:0:
276,195,13009,1,0,0:0:0:0:
245,225,13101,1,2,0:0:0:0:
278,197,13192,1,2,0:0:0:0:
278,199,13467,1,0,0:0:0:0:
278,199,13558,1,0,0:0:0:0:
277,192,13649,1,2,0:0:0:0:
263,188,13832,5,2,0:0:0:0:
252,203,14015,1,0,0:0:0:0:
242,222,14381,1,2,0:0:0:0:
270,185,14564,1,0,0:0:0:0:
209,115,14747,1,0,0:0:0:0:
272,205,14930,1,2,0:0:0:0:
242,222,15021,1,2,0:0:0:0:
272,205,15113,1,2,0:0:0:0:
263,188,15296,1,0,0:0:0:0:
246,182,15479,1,2,0:0:0:0:
269,160,15662,1,0,0:0:0:0:
269,160,15753,1,0,0:0:0:0:
239,194,15845,1,2,0:0:0:0:
266,182,16027,1,2,0:0:0:0:
247,182,16210,1,0,0:0:0:0:
241,182,16393,5,6,0:0:0:0:
241,176,16759,1,4,0:0:0:0:
239,175,17125,1,6,0:0:0:0:
242,192,17308,1,0,0:0:0:0:
241,176,17491,1,6,0:0:0:0:
233,175,17674,1,0,0:0:0:0:
256,175,17765,1,0,0:0:0:0:
244,197,17857,1,2,0:0:0:0:
244,216,18040,1,2,0:0:0:0:
249,216,18223,1,2,0:0:0:0:
242,192,18314,1,0,0:0:0:0:
242,195,18406,1,0,0:0:0:0:
261,193,18588,5,6,0:0:0:0:
242,192,19137,1,2,0:0:0:0:
261,193,19412,1,0,0:0:0:0:
242,195,19595,1,0,0:0:0:0:
261,193,19686,1,2,0:0:0:0:
265,203,19960,1,0,0:0:0:0:
265,203,20235,1,2,0:0:0:0:
261,193,20509,1,0,0:0:0:0:
173,182,20692,1,0,0:0:0:0:
261,193,20784,1,2,0:0:0:0:
265,203,21058,1,0,0:0:0:0:
229,196,21149,1,2,0:0:0:0:
261,193,21515,1,0,0:0:0:0:
238,191,21698,1,0,0:0:0:0:
266,203,21790,1,0,0:0:0:0:
229,196,21881,1,2,0:0:0:0:
265,203,22156,1,0,0:0:0:0:
251,184,22430,1,2,0:0:0:0:
241,193,22704,1,0,0:0:0:0:
266,203,22796,1,0,0:0:0:0:
242,205,22979,1,2,0:0:0:0:
250,181,23527,1,2,0:0:0:0:
250,184,23802,1,0,0:0:0:0:
254,172,23985,1,0,0:0:0:0:
240,203,24076,1,2,0:0:0:0:
250,181,24351,1,0,0:0:0:0:
252,173,24625,1,2,0:0:0:0:
250,184,24899,1,0,0:0:0:0:
252,173,25082,1,0,0:0:0:0:
238,199,25174,1,2,0:0:0:0:
229,182,25448,1,0,0:0:0:0:
238,199,25540,1,2,0:0:0:0:
250,184,25906,1,0,0:0:0:0:
238,199,26088,1,0,0:0:0:0:
229,182,26180,1,0,0:0:0:0:
238,199,26271,1,2,0:0:0:0:
259,205,26546,1,0,0:0:0:0:
241,197,26820,1,2,0:0:0:0:
241,190,27095,1,0,0:0:0:0:
238,199,27186,1,0,0:0:0:0:
254,203,27277,1,0,0:0:0:0:
257,202,27369,1,2,0:0:0:0:
259,206,27918,1,2,0:0:0:0:
250,189,28192,1,0,0:0:0:0:
257,202,28375,1,0,0:0:0:0:
237,199,28467,1,2,0:0:0:0:
228,182,28649,1,2,0:0:0:0:
238,199,28832,1,0,0:0:0:0:
242,197,29107,1,2,0:0:0:0:
250,189,29198,1,0,0:0:0:0:
243,195,29473,1,0,0:0:0:0:
244,202,29564,1,2,0:0:0:0:
264,198,29838,1,0,0:0:0:0:
242,197,30113,1,2,0:0:0:0:
245,187,30387,1,0,0:0:0:0:
247,195,30570,1,0,0:0:0:0:
257,190,30662,1,2,0:0:0:0:
228,181,30845,1,0,0:0:0:0:
235,199,31027,1,2,0:0:0:0:
250,195,31302,1,2,0:0:0:0:
257,190,31393,1,0,0:0:0:0:
250,195,31668,1,0,0:0:0:0:
252,172,31759,1,2,0:0:0:0:
257,190,32369,1,2,0:0:0:0:
267,223,32582,1,0,0:0:0:0:
259,201,32765,1,0,0:0:0:0:
253,168,32857,1,2,0:0:0:0:
267,223,33040,1,2,0:0:0:0:
272,179,33223,1,0,0:0:0:0:
258,195,33497,1,2,0:0:0:0:
267,223,33588,1,0,0:0:0:0:
259,200,33863,1,0,0:0:0:0:
263,197,33954,1,2,0:0:0:0:
260,202,34229,1,0,0:0:0:0:
263,203,34503,1,2,0:0:0:0:
259,218,34777,1,0,0:0:0:0:
263,208,34960,1,0,0:0:0:0:
263,192,35052,1,2,0:0:0:0:
259,218,35235,1,0,0:0:0:0:
263,192,35418,1,2,0:0:0:0:
260,208,35692,1,2,0:0:0:0:
272,179,35784,1,0,0:0:0:0:
283,175,35875,1,0,0:0:0:0:
263,192,35967,1,0,0:0:0:0:
263,192,36149,1,6,0:0:0:0:
261,190,36698,1,2,0:0:0:0:
283,175,36973,1,0,0:0:0:0:
258,213,37156,1,0,0:0:0:0:
257,212,37247,1,2,0:0:0:0:
253,188,37430,1,2,0:0:0:0:
289,179,37613,1,0,0:0:0:0:
273,181,37796,1,2,0:0:0:0:
241,163,37887,1,2,0:0:0:0:
289,179,37979,1,0,0:0:0:0:
239,157,38253,1,0,0:0:0:0:
256,192,38345,1,2,0:0:0:0:
252,157,38619,1,0,0:0:0:0:
274,150,38710,1,0,0:0:0:0:
243,158,38893,1,2,0:0:0:0:
266,171,39168,1,0,0:0:0:0:
244,160,39351,1,0,0:0:0:0:
245,161,39442,1,2,0:0:0:0:
259,188,39625,1,2,0:0:0:0:
275,177,39808,1,0,0:0:0:0:
260,180,39899,1,0,0:0:0:0:
266,191,39991,1,2,0:0:0:0:
258,179,40174,1,0,0:0:0:0:
255,192,40540,1,2,0:0:0:0:
272,153,40723,1,0,0:0:0:0:
252,210,40814,1,2,0:0:0:0:
267,176,40906,1,0,0:0:0:0:
259,188,41088,1,2,0:0:0:0:
269,179,41271,1,0,0:0:0:0:
273,151,41363,1,2,0:0:0:0:
257,183,41637,1,2,0:0:0:0:
262,191,41820,1,0,0:0:0:0:
256,189,41912,1,2,0:0:0:0:
259,188,42003,1,0,0:0:0:0:
259,188,42095,1,0,0:0:0:0:
262,183,42186,1,2,0:0:0:0:
272,205,42369,1,0,0:0:0:0:
262,183,42735,1,2,0:0:0:0:
272,182,42918,1,0,0:0:0:0:
266,192,43009,1,2,0:0:0:0:
256,207,43101,1,0,0:0:0:0:
237,195,43284,1,2,0:0:0:0:
259,192,43467,1,0,0:0:0:0:
259,199,43558,1,2,0:0:0:0:
265,213,43741,1,0,0:0:0:0:
266,192,43832,1,2,0:0:0:0:
237,195,44015,1,2,0:0:0:0:
245,178,44107,1,2,0:0:0:0:
265,213,44198,1,0,0:0:0:0:
257,193,44290,1,2,0:0:0:0:
247,182,44381,1,2,0:0:0:0:
171,130,44564,1,0,0:0:0:0:
265,213,44747,1,2,0:0:0:0:
283,145,44838,1,2,0:0:0:0:
283,145,44930,1,4,0:0:0:0:
242,217,45479,1,2,0:0:0:0:
245,180,45753,1,2,0:0:0:0:
245,180,45936,1,2,0:0:0:0:
254,198,46027,1,0,0:0:0:0:
248,201,46210,1,2,0:0:0:0:
252,199,46393,1,0,0:0:0:0:
261,194,46576,1,0,0:0:0:0:
254,198,46759,1,2,0:0:0:0:
278,201,46942,1,2,0:0:0:0:
249,181,47034,1,2,0:0:0:0:
254,198,47125,1,0,0:0:0:0:
241,175,47399,1,2,0:0:0:0:
242,218,47491,1,0,0:0:0:0:
254,198,47674,1,0,0:0:0:0:
254,194,47857,1,2,0:0:0:0:
275,197,48040,1,2,0:0:0:0:
241,176,48131,1,2,0:0:0:0:
254,196,48223,1,0,0:0:0:0:
252,205,48406,1,2,0:0:0:0:
268,194,48588,1,0,0:0:0:0:
254,196,48771,1,2,0:0:0:0:
260,201,48954,1,0,0:0:0:0:
250,194,49046,1,2,0:0:0:0:
252,205,49137,1,2,0:0:0:0:
254,196,49320,1,0,0:0:0:0:
207,193,49869,1,2,0:0:0:0:
248,201,50143,1,2,0:0:0:0:
268,194,50326,1,2,0:0:0:0:
256,198,50418,1,0,0:0:0:0:
251,177,50601,1,2,0:0:0:0:
254,179,50784,1,2,0:0:0:0:
259,181,50967,1,0,0:0:0:0:
256,198,51149,1,2,0:0:0:0:
268,194,51332,1,2,0:0:0:0:
309,194,51424,1,2,0:0:0:0:
256,198,51515,1,0,0:0:0:0:
309,194,51790,1,2,0:0:0:0:
246,187,51881,1,0,0:0:0:0:
309,194,52064,1,0,0:0:0:0:
244,192,52247,1,2,0:0:0:0:
237,182,52430,5,2,0:0:0:0:
244,192,52521,1,2,0:0:0:0:
254,196,52613,1,0,0:0:0:0:
254,179,52796,1,2,0:0:0:0:
262,190,52979,1,0,0:0:0:0:
254,196,53162,1,2,0:0:0:0:
261,194,53436,1,2,0:0:0:0:
254,179,53527,1,2,0:0:0:0:
262,190,53619,1,2,0:0:0:0:
254,196,53710,1,0,0:0:0:0:
228,203,54259,1,2,0:0:0:0:
254,179,54534,1,2,0:0:0:0:
261,176,54717,1,2,0:0:0:0:
255,194,54808,1,0,0:0:0:0:
260,194,54991,1,2,0:0:0:0:
255,200,55174,1,0,0:0:0:0:
259,176,55448,1,2,0:0:0:0:
248,194,55540,1,0,0:0:0:0:
259,176,55814,1,0,0:0:0:0:
257,193,55906,1,2,0:0:0:0:
259,176,56180,1,0,0:0:0:0:
228,203,56454,1,2,0:0:0:0:
243,181,56729,1,2,0:0:0:0:
259,176,56912,1,2,0:0:0:0:
248,194,57003,1,0,0:0:0:0:
243,181,57186,1,0,0:0:0:0:
243,181,57369,1,2,0:0:0:0:
259,176,57643,1,0,0:0:0:0:
248,194,57735,1,2,0:0:0:0:
259,176,58009,1,2,0:0:0:0:
257,193,58101,1,0,0:0:0:0:
255,200,58649,1,2,0:0:0:0:
243,181,58924,1,2,0:0:0:0:
259,176,59107,1,2,0:0:0:0:
249,194,59198,1,0,0:0:0:0:
260,194,59381,1,2,0:0:0:0:
255,200,59564,1,0,0:0:0:0:
259,176,59838,1,2,0:0:0:0:
249,194,59930,1,0,0:0:0:0:
259,176,60204,1,0,0:0:0:0:
257,193,60296,1,2,0:0:0:0:
257,177,60479,1,0,0:0:0:0:
238,189,60570,1,0,0:0:0:0:
245,188,60662,1,2,0:0:0:0:
249,194,60845,1,2,0:0:0:0:
248,174,61119,1,2,0:0:0:0:
259,176,61302,1,2,0:0:0:0:
263,194,61393,1,0,0:0:0:0:
248,175,61576,1,0,0:0:0:0:
263,194,61759,1,2,0:0:0:0:
260,176,61942,1,0,0:0:0:0:
263,194,62034,1,2,0:0:0:0:
260,178,62125,1,0,0:0:0:0:
259,176,62217,1,0,0:0:0:0:
267,209,62308,1,2,0:0:0:0:
263,194,62491,1,4,0:0:0:0:
259,186,62857,1,2,0:0:0:0:
248,198,63040,1,0,0:0:0:0:
248,175,63314,1,2,0:0:0:0:
239,192,63406,1,2,0:0:0:0:
255,206,63497,1,2,0:0:0:0:
250,191,63588,1,0,0:0:0:0:
252,184,63771,1,2,0:0:0:0:
252,184,63954,1,0,0:0:0:0:
261,184,64229,1,2,0:0:0:0:
250,191,64320,1,0,0:0:0:0:
248,177,64503,1,0,0:0:0:0:
250,191,64686,1,2,0:0:0:0:
226,173,64777,1,2,0:0:0:0:
252,184,64869,1,0,0:0:0:0:
229,165,65052,1,2,0:0:0:0:
250,191,65235,1,0,0:0:0:0:
241,190,65509,1,0,0:0:0:0:
257,171,65601,1,2,0:0:0:0:
257,171,65692,1,2,0:0:0:0:
250,191,65784,1,0,0:0:0:0:
270,173,65967,1,2,0:0:0:0:
250,191,66149,1,0,0:0:0:0:
241,190,66332,1,2,0:0:0:0:
250,191,66515,1,0,0:0:0:0:
262,185,66607,1,0,0:0:0:0:
250,191,66698,1,2,0:0:0:0:
262,186,66790,1,0,0:0:0:0:
250,191,66881,1,2,0:0:0:0:
217,188,67247,1,2,0:0:0:0:
250,191,67430,1,0,0:0:0:0:
267,187,67613,1,2,0:0:0:0:
266,164,67704,1,2,0:0:0:0:
267,187,67796,1,2,0:0:0:0:
250,191,67887,1,2,0:0:0:0:
264,184,67979,1,0,0:0:0:0:
250,191,68162,1,2,0:0:0:0:
250,191,68345,1,0,0:0:0:0:
239,177,68619,1,2,0:0:0:0:
506,252,68710,1,0,0:0:0:0:
241,179,68893,1,0,0:0:0:0:
241,179,68985,1,0,0:0:0:0:
252,192,69076,1,2,0:0:0:0:
240,176,69259,1,0,0:0:0:0:
239,177,69442,1,2,0:0:0:0:
239,177,69625,1,0,0:0:0:0:
241,179,69899,1,0,0:0:0:0:
266,195,69991,1,2,0:0:0:0:
252,192,70174,1,0,0:0:0:0:
246,208,70265,1,0,0:0:0:0:
239,208,70357,1,0,0:0:0:0:
239,208,70448,1,0,0:0:0:0:
252,192,70540,1,2,0:0:0:0:
267,194,70723,1,2,0:0:0:0:
252,192,70906,1,2,0:0:0:0:
243,168,70997,1,0,0:0:0:0:
252,192,71088,1,2,0:0:0:0:
262,171,71180,1,2,0:0:0:0:
243,168,71271,1,0,0:0:0:0:
239,208,71637,1,2,0:0:0:0:
233,204,71820,1,0,0:0:0:0:
259,196,72095,1,2,0:0:0:0:
248,186,72186,1,2,0:0:0:0:
233,204,72277,1,2,0:0:0:0:
249,184,72369,1,0,0:0:0:0:
259,196,72552,1,2,0:0:0:0:
252,192,72735,1,0,0:0:0:0:
254,190,72918,1,0,0:0:0:0:
249,184,73101,1,2,0:0:0:0:
229,188,73375,1,2,0:0:0:0:
244,199,73467,1,0,0:0:0:0:
261,199,73741,1,0,0:0:0:0:
248,187,73832,1,2,0:0:0:0:
246,189,74015,1,0,0:0:0:0:
268,194,74198,1,2,0:0:0:0:
259,196,74290,1,2,0:0:0:0:
250,188,74381,1,2,0:0:0:0:
268,194,74473,1,2,0:0:0:0:
244,199,74564,1,0,0:0:0:0:
254,200,74747,1,2,0:0:0:0:
244,199,74930,1,0,0:0:0:0:
252,201,75021,1,0,0:0:0:0:
254,200,75113,1,0,0:0:0:0:
250,199,75296,1,2,0:0:0:0:
247,205,75479,1,2,0:0:0:0:
250,199,75662,1,0,0:0:0:0:
242,177,76027,1,2,0:0:0:0:
254,201,76210,1,0,0:0:0:0:
254,200,76485,1,2,0:0:0:0:
246,189,76576,1,2,0:0:0:0:
250,199,76668,1,2,0:0:0:0:
246,196,76759,1,0,0:0:0:0:
252,202,76942,1,0,0:0:0:0:
224,149,77034,1,2,0:0:0:0:
224,149,77125,1,0,0:0:0:0:
224,149,77217,1,0,0:0:0:0:
224,149,77308,1,2,0:0:0:0:
246,196,77491,1,2,0:0:0:0:
250,176,77582,1,2,0:0:0:0:
250,176,77674,1,2,0:0:0:0:
246,196,77857,1,0,0:0:0:0:
226,203,78040,1,0,0:0:0:0:
226,203,78131,1,0,0:0:0:0:
246,189,78223,1,2,0:0:0:0:
246,189,78406,1,0,0:0:0:0:
232,194,78588,1,2,0:0:0:0:
250,176,78680,1,2,0:0:0:0:
248,203,78771,1,2,0:0:0:0:
242,192,78863,1,2,0:0:0:0:
246,197,78954,1,0,0:0:0:0:
250,176,79137,1,0,0:0:0:0:
248,179,79229,1,0,0:0:0:0:
256,192,79320,12,0,79869,0:0:0:0:
246,197,80052,5,4,0:0:0:0:
246,197,80235,1,4,0:0:0:0:
246,197,80601,1,4,0:0:0:0:
263,194,80784,1,2,0:0:0:0:
263,194,80875,1,2,0:0:0:0:
263,194,80967,1,2,0:0:0:0:
246,197,81149,1,0,0:0:0:0:
263,194,81332,1,2,0:0:0:0:
255,200,81515,1,0,0:0:0:0:
256,199,81698,1,0,0:0:0:0:
246,197,81881,1,2,0:0:0:0:
256,197,82064,1,2,0:0:0:0:
276,168,82156,1,2,0:0:0:0:
246,197,82247,1,0,0:0:0:0:
263,194,82613,1,2,0:0:0:0:
263,194,82796,1,0,0:0:0:0:
276,168,82979,1,2,0:0:0:0:
263,194,83070,1,2,0:0:0:0:
246,197,83162,1,2,0:0:0:0:
276,168,83253,1,2,0:0:0:0:
246,197,83345,1,0,0:0:0:0:
263,194,83527,1,2,0:0:0:0:
244,203,83710,1,0,0:0:0:0:
263,194,83802,1,0,0:0:0:0:
246,197,83893,1,0,0:0:0:0:
241,192,84076,1,2,0:0:0:0:
264,195,84259,1,2,0:0:0:0:
244,192,84442,1,0,0:0:0:0:
277,171,84717,1,2,0:0:0:0:
256,206,84808,1,0,0:0:0:0:
274,172,85082,1,2,0:0:0:0:
256,195,85174,1,0,0:0:0:0:
250,199,85357,1,0,0:0:0:0:
249,189,85540,1,2,0:0:0:0:
277,171,85723,1,0,0:0:0:0:
277,171,85814,1,0,0:0:0:0:
250,199,85906,1,2,0:0:0:0:
243,182,86088,1,0,0:0:0:0:
235,165,86180,1,2,0:0:0:0:
244,186,86271,1,2,0:0:0:0:
250,173,86546,1,2,0:0:0:0:
229,182,86637,1,0,0:0:0:0:
265,194,86820,1,0,0:0:0:0:
250,199,87003,1,2,0:0:0:0:
244,184,87186,1,0,0:0:0:0:
248,185,87277,1,0,0:0:0:0:
229,182,87369,1,0,0:0:0:0:
248,184,87552,1,0,0:0:0:0:
250,187,87643,1,0,0:0:0:0:
229,182,87735,1,2,0:0:0:0:
233,162,87918,1,0,0:0:0:0:
233,156,88009,1,2,0:0:0:0:
248,184,88101,1,2,0:0:0:0:
229,182,88284,1,2,0:0:0:0:
229,182,88467,1,2,0:0:0:0:
235,164,88558,1,0,0:0:0:0:
256,181,88649,1,2,0:0:0:0:
235,164,88741,1,2,0:0:0:0:
256,195,88832,1,4,0:0:0:0:
250,160,89381,1,0,0:0:0:0:
244,179,89930,1,4,0:0:0:0:
242,194,90113,1,4,0:0:0:0:
250,203,90479,1,0,0:0:0:0:
231,208,90662,1,2,0:0:0:0:
242,189,90845,1,0,0:0:0:0:
239,189,90936,1,0,0:0:0:0:
244,179,91027,1,2,0:0:0:0:
239,189,91576,1,0,0:0:0:0:
244,179,91759,1,2,0:0:0:0:
244,173,91851,1,2,0:0:0:0:
245,177,92125,1,6,0:0:0:0:
243,189,92308,1,6,0:0:0:0:
244,173,92674,1,0,0:0:0:0:
252,171,92857,1,2,0:0:0:0:
255,173,93040,1,2,0:0:0:0:
245,177,93223,1,4,0:0:0:0:
243,187,93406,1,4,0:0:0:0:
245,177,93588,1,4,0:0:0:0:
245,177,93954,1,2,0:0:0:0:
252,175,94320,1,2,0:0:0:0:
265,187,94503,1,0,0:0:0:0:
260,176,94595,1,0,0:0:0:0:
265,187,94869,1,0,0:0:0:0:
252,171,95052,1,2,0:0:0:0:
246,172,95235,1,0,0:0:0:0:
246,175,95418,1,4,0:0:0:0:
246,172,95784,1,6,0:0:0:0:
246,171,95967,1,0,0:0:0:0:
246,172,96149,1,2,0:0:0:0:
246,172,96241,1,2,0:0:0:0:
246,175,96515,1,6,0:0:0:0:
244,182,96698,1,2,0:0:0:0:
246,175,96881,1,4,0:0:0:0:
249,168,97064,1,0,0:0:0:0:
250,187,97247,1,6,0:0:0:0:
250,187,97613,1,2,0:0:0:0:
244,177,98345,1,2,0:0:0:0:
250,168,98527,1,2,0:0:0:0:
257,194,98710,1,4,0:0:0:0:
260,199,98893,1,4,0:0:0:0:
261,182,99259,1,0,0:0:0:0:
246,194,99442,1,2,0:0:0:0:
251,188,99717,1,0,0:0:0:0:
248,177,99808,1,2,0:0:0:0:
260,199,99991,1,6,0:0:0:0:
257,194,100174,1,6,0:0:0:0:
258,224,100357,1,6,0:0:0:0:
246,194,100540,1,0,0:0:0:0:
246,194,100631,1,0,0:0:0:0:
257,194,100906,1,2,0:0:0:0:
265,208,101088,1,0,0:0:0:0:
265,210,101271,1,2,0:0:0:0:
252,171,101637,1,0,0:0:0:0:
257,194,102003,1,6,0:0:0:0:
257,194,102552,1,2,0:0:0:0:
257,194,103101,1,2,0:0:0:0:
254,181,103284,1,0,0:0:0:0:
244,177,103467,1,0,0:0:0:0:
257,194,103649,1,2,0:0:0:0:
257,194,104198,1,4,0:0:0:0:
249,184,104564,1,0,0:0:0:0:
257,194,104930,1,2,0:0:0:0:
249,184,105021,1,2,0:0:0:0:
256,175,105113,1,0,0:0:0:0:
244,177,105296,1,0,0:0:0:0:
276,175,105479,1,0,0:0:0:0:
252,173,105570,1,0,0:0:0:0:
244,177,105662,1,2,0:0:0:0:
244,177,105845,1,0,0:0:0:0:
249,184,106027,1,2,0:0:0:0:
259,201,106210,1,0,0:0:0:0:
257,194,106393,1,6,0:0:0:0:
251,196,107308,1,2,0:0:0:0:
254,184,107491,1,2,0:0:0:0:
254,193,115174,5,2,0:0:0:0:
257,196,115906,1,0,0:0:0:0:
254,185,116088,1,2,0:0:0:0:
263,197,116271,1,2,0:0:0:0:
266,194,116637,1,0,0:0:0:0:
265,192,117369,1,0,0:0:0:0:
257,196,118101,1,0,0:0:0:0:
261,184,118284,1,0,0:0:0:0:
264,197,118467,1,2,0:0:0:0:
256,183,118649,1,2,0:0:0:0:
264,197,118832,1,0,0:0:0:0:
256,180,119198,1,2,0:0:0:0:
265,192,119564,1,0,0:0:0:0:
257,196,120296,1,0,0:0:0:0:
265,194,120662,1,2,0:0:0:0:
256,180,120845,1,0,0:0:0:0:
263,184,121027,1,0,0:0:0:0:
256,190,121759,1,0,0:0:0:0:
257,196,122491,1,0,0:0:0:0:
263,184,122674,1,0,0:0:0:0:
251,185,122857,1,2,0:0:0:0:
262,185,123040,1,0,0:0:0:0:
251,191,123131,1,0,0:0:0:0:
252,184,123223,1,2,0:0:0:0:
246,188,123406,1,0,0:0:0:0:
262,185,123497,1,2,0:0:0:0:
256,179,123680,1,0,0:0:0:0:
262,185,123771,1,0,0:0:0:0:
263,190,123954,1,6,0:0:0:0:
246,188,124320,1,0,0:0:0:0:
261,206,124503,1,0,0:0:0:0:
246,203,124686,5,2,0:0:0:0:
257,209,124777,1,2,0:0:0:0:
280,207,124869,1,0,0:0:0:0:
246,188,125052,1,0,0:0:0:0:
274,195,125418,1,2,0:0:0:0:
267,201,125601,1,2,0:0:0:0:
255,207,125784,1,0,0:0:0:0:
246,188,125967,1,0,0:0:0:0:
255,207,126149,1,2,0:0:0:0:
255,207,126515,1,0,0:0:0:0:
255,188,126698,1,2,0:0:0:0:
260,161,126881,1,0,0:0:0:0:
272,197,126973,1,0,0:0:0:0:
265,203,127064,1,0,0:0:0:0:
248,189,127247,1,2,0:0:0:0:
244,189,127338,1,0,0:0:0:0:
247,190,127613,1,2,0:0:0:0:
248,187,127704,1,0,0:0:0:0:
247,190,127796,1,2,0:0:0:0:
248,189,127979,1,2,0:0:0:0:
257,185,128162,1,0,0:0:0:0:
257,185,128253,1,0,0:0:0:0:
262,184,128345,1,2,0:0:0:0:
247,190,128710,1,0,0:0:0:0:
256,166,128893,1,0,0:0:0:0:
272,194,129076,1,2,0:0:0:0:
248,189,129168,1,2,0:0:0:0:
215,195,129259,1,0,0:0:0:0:
248,184,129442,1,0,0:0:0:0:
254,190,129625,1,0,0:0:0:0:
248,176,129717,1,2,0:0:0:0:
272,194,129808,1,0,0:0:0:0:
267,186,129991,1,0,0:0:0:0:
248,184,130174,1,2,0:0:0:0:
248,184,130540,1,0,0:0:0:0:
250,190,130906,1,2,0:0:0:0:
251,169,131088,1,2,0:0:0:0:
248,184,131271,1,0,0:0:0:0:
259,171,131363,1,0,0:0:0:0:
259,181,131454,1,0,0:0:0:0:
224,186,131637,1,2,0:0:0:0:
251,169,132003,1,0,0:0:0:0:
242,180,132186,1,2,0:0:0:0:
226,188,132369,1,2,0:0:0:0:
257,197,132643,1,2,0:0:0:0:
226,188,132735,1,2,0:0:0:0:
257,202,133101,1,0,0:0:0:0:
254,168,133284,1,0,0:0:0:0:
241,179,133467,1,2,0:0:0:0:
250,190,133558,1,2,0:0:0:0:
250,190,133649,1,0,0:0:0:0:
254,197,133832,1,0,0:0:0:0:
231,175,133924,1,2,0:0:0:0:
232,176,134107,1,2,0:0:0:0:
241,179,134198,1,0,0:0:0:0:
252,169,134381,1,2,0:0:0:0:
254,197,134564,1,0,0:0:0:0:
231,175,134747,1,0,0:0:0:0:
254,197,134930,1,2,0:0:0:0:
252,169,135296,1,0,0:0:0:0:
254,197,135479,1,2,0:0:0:0:
261,186,135662,1,2,0:0:0:0:
252,169,135753,1,2,0:0:0:0:
246,153,135845,1,0,0:0:0:0:
254,197,136027,1,0,0:0:0:0:
242,146,136119,1,2,0:0:0:0:
242,146,136210,1,0,0:0:0:0:
251,169,136393,1,0,0:0:0:0:
242,147,136485,1,0,0:0:0:0:
261,186,136576,1,2,0:0:0:0:
254,197,136759,1,0,0:0:0:0:
242,146,136942,1,2,0:0:0:0:
242,146,137034,1,0,0:0:0:0:
254,197,137125,1,2,0:0:0:0:
264,178,137491,1,0,0:0:0:0:
224,138,137674,1,0,0:0:0:0:
262,178,137857,1,2,0:0:0:0:
242,146,137948,1,2,0:0:0:0:
242,146,138040,1,0,0:0:0:0:
250,199,138223,1,0,0:0:0:0:
251,169,138314,1,0,0:0:0:0:
251,169,138406,1,0,0:0:0:0:
242,147,138497,1,2,0:0:0:0:
265,184,138588,1,0,0:0:0:0:
270,189,138771,1,0,0:0:0:0:
248,184,138954,1,2,0:0:0:0:
242,147,139137,1,0,0:0:0:0:
250,199,139320,1,6,0:0:0:0:
230,199,139686,5,0,0:0:0:0:
250,199,139869,1,6,0:0:0:0:
225,188,140052,1,0,0:0:0:0:
226,190,140143,1,0,0:0:0:0:
244,202,140235,1,0,0:0:0:0:
250,199,140418,1,6,0:0:0:0:
233,199,140784,1,0,0:0:0:0:
250,199,140967,1,6,0:0:0:0:
246,179,141149,1,0,0:0:0:0:
250,199,141515,1,6,0:0:0:0:
252,205,141881,1,0,0:0:0:0:
242,204,142064,1,2,0:0:0:0:
254,180,142430,1,0,0:0:0:0:
251,207,142613,1,2,0:0:0:0:
248,188,142796,1,0,0:0:0:0:
248,192,142887,1,2,0:0:0:0:
242,204,142979,1,0,0:0:0:0:
244,205,143162,1,2,0:0:0:0:
255,194,143253,1,0,0:0:0:0:
242,207,143345,1,2,0:0:0:0:
263,201,143527,1,0,0:0:0:0:
247,212,143710,1,6,0:0:0:0:
257,194,143893,1,0,0:0:0:0:
248,191,144076,1,0,0:0:0:0:
242,207,144259,1,2,0:0:0:0:
218,183,144625,1,0,0:0:0:0:
248,212,144808,1,2,0:0:0:0:
242,182,144991,1,2,0:0:0:0:
239,210,145082,1,2,0:0:0:0:
242,207,145174,1,0,0:0:0:0:
244,206,145357,1,0,0:0:0:0:
248,212,145540,1,2,0:0:0:0:
231,206,145814,1,0,0:0:0:0:
248,212,145906,1,2,0:0:0:0:
221,197,146088,1,0,0:0:0:0:
221,197,146271,1,0,0:0:0:0:
246,207,146454,1,2,0:0:0:0:
246,207,146820,1,0,0:0:0:0:
251,208,147003,1,2,0:0:0:0:
252,191,147186,1,0,0:0:0:0:
246,190,147277,1,2,0:0:0:0:
252,211,147369,1,0,0:0:0:0:
246,207,147552,1,2,0:0:0:0:
240,173,147643,1,0,0:0:0:0:
259,195,147735,1,2,0:0:0:0:
263,201,147918,1,0,0:0:0:0:
263,193,148101,1,6,0:0:0:0:
246,190,148284,1,0,0:0:0:0:
252,192,148467,1,0,0:0:0:0:
264,214,148649,1,2,0:0:0:0:
246,190,149015,1,0,0:0:0:0:
261,194,149198,1,2,0:0:0:0:
252,192,149381,1,2,0:0:0:0:
252,192,149473,1,2,0:0:0:0:
252,192,149564,1,0,0:0:0:0:
261,200,149747,1,0,0:0:0:0:
261,200,149930,1,2,0:0:0:0:
267,192,150021,1,0,0:0:0:0:
252,192,150204,1,0,0:0:0:0:
270,183,150296,1,2,0:0:0:0:
254,210,150479,1,0,0:0:0:0:
262,207,150662,1,0,0:0:0:0:
261,200,150845,1,2,0:0:0:0:
274,202,151210,1,0,0:0:0:0:
270,183,151393,1,2,0:0:0:0:
262,197,151576,1,0,0:0:0:0:
283,197,151668,1,2,0:0:0:0:
285,202,151759,1,0,0:0:0:0:
285,202,151942,1,2,0:0:0:0:
283,199,152034,1,0,0:0:0:0:
283,199,152125,1,2,0:0:0:0:
252,192,152308,1,0,0:0:0:0:
270,183,152491,1,2,0:0:0:0:
276,220,152582,1,2,0:0:0:0:
272,187,152674,1,0,0:0:0:0:
276,220,152857,1,0,0:0:0:0:
276,220,153040,1,2,0:0:0:0:
285,201,153223,1,0,0:0:0:0:
283,164,153314,1,2,0:0:0:0:
270,183,153406,1,0,0:0:0:0:
270,183,153588,1,2,0:0:0:0:
273,188,153771,1,2,0:0:0:0:
252,192,153863,1,2,0:0:0:0:
272,187,153954,1,2,0:0:0:0:
282,177,154137,1,0,0:0:0:0:
282,177,154320,1,2,0:0:0:0:
265,179,154686,1,2,0:0:0:0:
254,173,154869,1,2,0:0:0:0:
265,179,155052,1,0,0:0:0:0:
243,187,155418,1,0,0:0:0:0:
264,184,155601,1,0,0:0:0:0:
248,191,155692,1,0,0:0:0:0:
243,187,155784,1,2,0:0:0:0:
248,192,155967,1,0,0:0:0:0:
248,192,156058,1,2,0:0:0:0:
248,192,156241,1,0,0:0:0:0:
259,160,156332,1,2,0:0:0:0:
254,164,156515,1,0,0:0:0:0:
206,183,156607,1,2,0:0:0:0:
248,182,156698,1,0,0:0:0:0:
263,184,156881,1,2,0:0:0:0:
248,182,156973,1,0,0:0:0:0:
251,179,157156,1,2,0:0:0:0:
244,164,157247,1,0,0:0:0:0:
251,179,157430,1,2,0:0:0:0:
263,184,157521,1,0,0:0:0:0:
248,182,157613,1,0,0:0:0:0:
248,182,157704,1,2,0:0:0:0:
247,175,157796,1,0,0:0:0:0:
234,176,157979,1,2,0:0:0:0:
251,179,158162,1,0,0:0:0:0:
246,178,158253,1,2,0:0:0:0:
243,187,158345,1,0,0:0:0:0:
252,171,158527,1,2,0:0:0:0:
248,182,158619,1,0,0:0:0:0:
257,189,158710,1,2,0:0:0:0:
248,182,158802,1,2,0:0:0:0:
252,171,158893,1,0,0:0:0:0:
245,204,159076,1,6,0:0:0:0:
239,212,159625,1,0,0:0:0:0:
260,211,159808,1,0,0:0:0:0:
261,189,161088,1,0,0:0:0:0:
260,211,161271,1,0,0:0:0:0:
254,175,161820,1,0,0:0:0:0:
261,189,162003,1,2,0:0:0:0:
273,177,162186,1,2,0:0:0:0:
261,189,162552,1,0,0:0:0:0:
239,197,162735,1,0,0:0:0:0:
259,190,164015,1,0,0:0:0:0:
265,163,164198,1,0,0:0:0:0:
265,163,164747,1,0,0:0:0:0:
259,190,164930,1,2,0:0:0:0:
271,195,165113,1,2,0:0:0:0:
259,190,165479,1,0,0:0:0:0:
254,175,165662,1,0,0:0:0:0:
259,190,166027,1,2,0:0:0:0:
259,190,166576,1,2,0:0:0:0:
246,205,166668,1,2,0:0:0:0:
259,190,166942,1,0,0:0:0:0:
256,179,167125,1,0,0:0:0:0:
256,179,167674,1,0,0:0:0:0:
259,190,167857,1,2,0:0:0:0:
267,183,168040,1,2,0:0:0:0:
259,190,168406,1,0,0:0:0:0:
256,179,168588,1,0,0:0:0:0:
259,190,168954,1,2,0:0:0:0:
259,190,169869,1,0,0:0:0:0:
256,179,170052,1,0,0:0:0:0:
257,179,170601,1,0,0:0:0:0:
259,190,170784,1,2,0:0:0:0:
252,171,170875,1,2,0:0:0:0:
252,171,170967,1,2,0:0:0:0:
252,171,171058,1,2,0:0:0:0:
