osu file format v14

[General]
AudioFilename: Leviathan.mp3
AudioLeadIn: 0
PreviewTime: 62491
Countdown: 1
SampleSet: Normal
StackLeniency: 0.7
Mode: 1
LetterboxInBreaks: 0
WidescreenStoryboard: 1

[Editor]
Bookmarks: 9833,18613,27394,36174,44955,53710,58101,62507,71271,80052,88857,106416,123979,141540,159101,203004,238416
DistanceSpacing: 1
BeatDivisor: 2
GridSize: 32
TimelineZoom: 0.6999993

[Metadata]
Title:Leviathan
TitleUnicode:Leviathan
Artist:ziki_7
ArtistUnicode:ziki_7
Creator:yassu-
Version:Kantan
Source:東方地霊殿 ~ Subterranean Animism.
Tags:Dungeon&Danger and Dust_Box_49 緑眼のジェラシー 水橋 パルスィ green eyed jealousy 東方project touhou zun remix parsee mizuhashi tjbc #11 japanese beatmap contest electronic instrumental
BeatmapID:2158406
BeatmapSetID:1013884

[Difficulty]
HPDrainRate:7
CircleSize:5
OverallDifficulty:3
ApproachRate:10
SliderMultiplier:1.4
SliderTickRate:1

[Events]
//Background and Video events
0,0,"bg.jpg",0,0
//Break Periods
2,108588,114076
//Storyboard Layer 0 (Background)
//Storyboard Layer 1 (Fail)
//Storyboard Layer 2 (Pass)
//Storyboard Layer 3 (Foreground)
//Storyboard Layer 4 (Overlay)
//Storyboard Sound Samples

[TimingPoints]
1028,365.853658536585,3,1,0,20,1,0
1851,-100,3,1,0,40,0,0
36149,-100,3,1,0,60,0,1
44930,-100,3,1,0,60,0,0
45204,-100,3,1,0,40,0,0
60204,-100,3,1,0,50,0,0
62491,-100,3,1,0,60,0,1
79320,-100,3,1,0,30,0,0
80052,-100,3,1,0,60,0,1
88832,-100,3,1,0,50,0,0
107125,-100,3,1,0,40,0,0
108588,-100,3,1,0,30,0,0
123954,-100,3,1,0,60,0,1
139320,-100,3,1,0,60,0,0
141515,-100,3,1,0,60,0,1
159076,365.853658536585,4,1,0,60,1,0
159624,-100,3,1,0,40,0,0

[HitObjects]
265,202,2125,5,2,0:0:0:0:
269,188,2857,1,2,0:0:0:0:
265,202,3223,1,0,0:0:0:0:
304,199,3588,1,2,0:0:0:0:
276,197,4320,1,2,0:0:0:0:
270,210,5052,1,0,0:0:0:0:
256,196,5418,1,0,0:0:0:0:
274,195,6149,1,2,0:0:0:0:
257,195,7247,1,2,0:0:0:0:
261,197,7613,1,0,0:0:0:0:
272,195,7979,1,2,0:0:0:0:
261,199,8710,1,2,0:0:0:0:
270,195,9442,1,0,0:0:0:0:
266,212,9808,1,0,0:0:0:0:
261,196,10540,1,2,0:0:0:0:
261,196,10906,1,0,0:0:0:0:
263,190,12003,1,2,0:0:0:0:
269,184,12369,1,2,0:0:0:0:
278,199,12735,5,0,0:0:0:0:
278,199,13467,1,0,0:0:0:0:
263,188,13832,5,2,0:0:0:0:
270,185,14564,1,0,0:0:0:0:
263,188,15296,1,0,0:0:0:0:
266,182,16027,1,0,0:0:0:0:
241,182,16393,5,2,0:0:0:0:
239,175,17125,1,2,0:0:0:0:
241,176,17491,1,2,0:0:0:0:
261,193,18588,5,6,0:0:0:0:
261,193,19686,1,2,0:0:0:0:
261,193,20784,1,2,0:0:0:0:
229,196,21149,1,2,0:0:0:0:
229,196,21881,1,2,0:0:0:0:
242,205,22430,1,0,0:0:0:0:
242,205,22979,1,2,0:0:0:0:
240,203,24076,1,2,0:0:0:0:
238,199,25174,1,2,0:0:0:0:
238,199,25540,1,2,0:0:0:0:
238,199,26271,1,2,0:0:0:0:
238,199,26820,1,0,0:0:0:0:
238,199,27369,1,2,0:0:0:0:
237,199,28467,1,2,0:0:0:0:
238,199,28832,1,0,0:0:0:0:
244,202,29564,1,2,0:0:0:0:
235,199,30113,1,0,0:0:0:0:
257,190,30662,1,2,0:0:0:0:
235,199,31027,1,0,0:0:0:0:
252,172,31759,1,2,0:0:0:0:
253,168,32857,1,2,0:0:0:0:
272,179,33223,1,0,0:0:0:0:
263,197,33954,1,2,0:0:0:0:
272,179,34503,1,0,0:0:0:0:
263,192,35052,1,2,0:0:0:0:
263,192,35418,1,2,0:0:0:0:
272,179,35784,1,0,0:0:0:0:
263,192,36149,1,6,0:0:0:0:
256,192,37247,1,2,0:0:0:0:
256,192,37796,1,2,0:0:0:0:
256,192,38345,1,2,0:0:0:0:
256,192,38710,1,2,0:0:0:0:
255,192,39442,1,2,0:0:0:0:
255,192,39991,1,0,0:0:0:0:
255,192,40540,1,2,0:0:0:0:
257,183,41637,1,2,0:0:0:0:
262,183,42186,1,2,0:0:0:0:
262,183,42735,1,2,0:0:0:0:
266,192,43101,1,2,0:0:0:0:
266,192,43832,1,2,0:0:0:0:
245,178,44198,1,2,0:0:0:0:
171,130,44564,1,0,0:0:0:0:
253,180,44930,1,4,0:0:0:0:
254,198,46027,1,0,0:0:0:0:
254,198,46759,1,2,0:0:0:0:
254,198,47125,1,0,0:0:0:0:
244,192,47857,1,2,0:0:0:0:
254,196,48223,1,0,0:0:0:0:
254,196,48771,1,2,0:0:0:0:
254,196,49320,1,0,0:0:0:0:
256,198,50418,1,0,0:0:0:0:
256,198,51149,1,2,0:0:0:0:
256,198,51515,1,0,0:0:0:0:
244,192,52247,1,2,0:0:0:0:
254,196,52613,1,0,0:0:0:0:
254,196,53162,1,2,0:0:0:0:
254,196,53710,1,0,0:0:0:0:
255,194,54808,1,0,0:0:0:0:
248,194,55540,1,0,0:0:0:0:
257,193,55906,1,2,0:0:0:0:
248,194,57003,1,0,0:0:0:0:
248,194,57735,1,2,0:0:0:0:
257,193,58101,1,0,0:0:0:0:
249,194,59198,1,0,0:0:0:0:
249,194,59930,1,0,0:0:0:0:
257,193,60296,1,2,0:0:0:0:
249,194,60845,1,2,0:0:0:0:
263,194,61393,1,0,0:0:0:0:
263,194,61759,1,2,0:0:0:0:
263,194,62125,1,2,0:0:0:0:
263,194,62491,1,4,0:0:0:0:
250,191,63588,1,0,0:0:0:0:
250,191,64320,1,0,0:0:0:0:
250,191,64686,1,2,0:0:0:0:
250,191,65235,1,2,0:0:0:0:
250,191,65784,1,0,0:0:0:0:
250,191,66515,1,0,0:0:0:0:
250,191,66881,1,2,0:0:0:0:
252,192,67979,1,2,0:0:0:0:
252,192,68710,1,0,0:0:0:0:
252,192,69076,1,2,0:0:0:0:
252,192,69625,1,2,0:0:0:0:
252,192,70174,1,0,0:0:0:0:
252,192,70540,1,2,0:0:0:0:
252,192,70906,1,2,0:0:0:0:
252,192,71271,1,4,0:0:0:0:
249,184,72369,1,0,0:0:0:0:
249,184,73101,1,2,0:0:0:0:
244,199,73467,1,0,0:0:0:0:
244,199,74564,1,0,0:0:0:0:
244,199,74930,1,0,0:0:0:0:
250,199,75296,1,2,0:0:0:0:
250,199,75662,1,0,0:0:0:0:
246,196,76759,1,0,0:0:0:0:
246,196,77125,1,2,0:0:0:0:
246,196,77491,1,2,0:0:0:0:
246,196,77857,1,0,0:0:0:0:
246,197,78954,1,0,0:0:0:0:
246,197,79320,1,2,0:0:0:0:
246,197,80052,1,4,0:0:0:0:
246,197,80601,1,4,0:0:0:0:
246,197,81149,1,0,0:0:0:0:
246,197,81881,1,2,0:0:0:0:
246,197,82247,1,0,0:0:0:0:
246,197,83345,1,0,0:0:0:0:
244,203,83710,1,0,0:0:0:0:
241,192,84076,1,2,0:0:0:0:
244,192,84442,1,0,0:0:0:0:
256,195,85174,1,0,0:0:0:0:
249,189,85540,1,2,0:0:0:0:
244,186,86271,1,2,0:0:0:0:
229,182,86637,1,0,0:0:0:0:
229,182,87369,1,0,0:0:0:0:
229,182,87735,1,2,0:0:0:0:
229,182,88101,1,2,0:0:0:0:
229,182,88467,1,2,0:0:0:0:
256,195,88832,1,4,0:0:0:0:
244,179,89930,1,0,0:0:0:0:
244,179,91027,1,2,0:0:0:0:
245,177,92125,1,2,0:0:0:0:
245,177,93223,1,0,0:0:0:0:
245,177,93588,1,0,0:0:0:0:
245,177,94320,1,2,0:0:0:0:
246,175,95418,1,0,0:0:0:0:
246,175,95784,1,0,0:0:0:0:
246,175,96515,1,2,0:0:0:0:
250,187,97247,1,2,0:0:0:0:
250,187,97613,1,2,0:0:0:0:
257,194,98710,1,0,0:0:0:0:
257,194,99808,1,2,0:0:0:0:
257,194,100174,1,2,0:0:0:0:
257,194,100906,1,0,0:0:0:0:
257,194,102003,1,2,0:0:0:0:
257,194,102552,1,2,0:0:0:0:
257,194,103101,1,0,0:0:0:0:
257,194,103649,1,2,0:0:0:0:
257,194,104198,1,0,0:0:0:0:
257,194,104930,1,2,0:0:0:0:
257,194,106393,1,6,0:0:0:0:
254,193,115174,5,2,0:0:0:0:
265,192,117369,1,0,0:0:0:0:
265,192,119564,1,0,0:0:0:0:
256,190,121759,1,0,0:0:0:0:
263,190,123954,1,6,0:0:0:0:
255,207,125052,1,0,0:0:0:0:
255,207,125784,1,0,0:0:0:0:
255,207,126149,1,2,0:0:0:0:
255,207,126515,1,0,0:0:0:0:
248,189,127247,1,0,0:0:0:0:
248,189,127979,1,2,0:0:0:0:
248,189,128345,1,0,0:0:0:0:
248,184,129442,1,0,0:0:0:0:
248,184,130174,1,2,0:0:0:0:
248,184,130540,1,0,0:0:0:0:
248,184,131271,1,0,0:0:0:0:
224,186,131637,1,2,0:0:0:0:
226,188,132369,1,2,0:0:0:0:
226,188,132735,1,0,0:0:0:0:
254,197,133832,1,0,0:0:0:0:
254,197,134564,1,0,0:0:0:0:
254,197,134930,1,2,0:0:0:0:
254,197,135479,1,2,0:0:0:0:
254,197,136027,1,0,0:0:0:0:
254,197,136759,1,0,0:0:0:0:
254,197,137125,1,2,0:0:0:0:
250,199,138223,1,0,0:0:0:0:
250,199,139320,1,2,0:0:0:0:
250,199,139869,1,2,0:0:0:0:
250,199,140418,1,2,0:0:0:0:
250,199,140967,1,2,0:0:0:0:
250,199,141515,1,6,0:0:0:0:
251,207,142613,1,2,0:0:0:0:
247,212,143162,1,0,0:0:0:0:
247,212,143710,1,2,0:0:0:0:
248,212,144808,1,2,0:0:0:0:
248,212,145540,1,0,0:0:0:0:
248,212,145906,1,2,0:0:0:0:
251,208,147003,1,2,0:0:0:0:
251,208,147552,1,0,0:0:0:0:
263,193,148101,1,2,0:0:0:0:
261,194,149198,1,2,0:0:0:0:
261,194,149564,1,0,0:0:0:0:
261,194,149930,1,0,0:0:0:0:
270,183,150296,1,2,0:0:0:0:
270,183,151393,1,2,0:0:0:0:
270,183,151942,1,0,0:0:0:0:
270,183,152491,1,2,0:0:0:0:
270,183,153040,1,0,0:0:0:0:
270,183,153588,1,2,0:0:0:0:
265,179,154686,1,2,0:0:0:0:
265,179,155052,1,0,0:0:0:0:
243,187,155418,1,0,0:0:0:0:
243,187,155784,1,2,0:0:0:0:
248,201,156515,1,0,0:0:0:0:
248,201,156881,1,2,0:0:0:0:
245,204,157613,1,0,0:0:0:0:
254,174,157979,1,2,0:0:0:0:
243,187,158345,1,0,0:0:0:0:
253,201,158710,1,0,0:0:0:0:
245,204,159076,1,6,0:0:0:0:
239,212,159807,1,0,0:0:0:0:
261,189,161271,1,0,0:0:0:0:
261,189,162003,1,2,0:0:0:0:
261,189,162734,1,0,0:0:0:0:
259,190,164197,1,0,0:0:0:0:
259,190,164930,1,2,0:0:0:0:
259,190,165661,1,0,0:0:0:0:
259,190,166027,1,2,0:0:0:0:
259,190,166576,1,2,0:0:0:0:
259,190,167124,1,0,0:0:0:0:
259,190,167857,1,2,0:0:0:0:
259,190,168588,1,0,0:0:0:0:
259,190,168954,1,2,0:0:0:0:
259,190,170051,1,0,0:0:0:0:
259,190,170784,1,2,0:0:0:0:
