osu file format v14

[General]
AudioFilename: Leviathan.mp3
AudioLeadIn: 0
PreviewTime: 62491
Countdown: 1
SampleSet: Normal
StackLeniency: 0.7
Mode: 1
LetterboxInBreaks: 0
WidescreenStoryboard: 0

[Editor]
Bookmarks: 9833,18613,27394,36174,44955,53710,58101,62507,71271,80052,88857,106416,123979,141540,159101,203004,238416
DistanceSpacing: 1
BeatDivisor: 8
GridSize: 32
TimelineZoom: 0.9999994

[Metadata]
Title:Leviathan
TitleUnicode:Leviathan
Artist:ziki_7
ArtistUnicode:ziki_7
Creator:yassu-
Version:Inner Oni
Source:東方地霊殿 ~ Subterranean Animism.
Tags:Dungeon&Danger and Dust_Box_49 緑眼のジェラシー 水橋 パルスィ green eyed jealousy 東方project touhou zun remix parsee mizuhashi tjbc #11 japanese beatmap contest electronic instrumental
BeatmapID:2122025
BeatmapSetID:1013884

[Difficulty]
HPDrainRate:6
CircleSize:5
OverallDifficulty:6.5
ApproachRate:10
SliderMultiplier:1.4
SliderTickRate:1

[Events]
//Background and Video events
0,0,"bg.jpg",0,0
//Break Periods
2,108588,114076
//Storyboard Layer 0 (Background)
//Storyboard Layer 1 (Fail)
//Storyboard Layer 2 (Pass)
//Storyboard Layer 3 (Foreground)
//Storyboard Layer 4 (Overlay)
//Storyboard Sound Samples

[TimingPoints]
1028,365.853658536585,3,1,0,20,1,0
1028,-133.333333333333,3,1,0,20,0,0
1851,-100,3,1,0,40,0,0
18863,-97.0873786407767,3,1,0,40,0,0
19137,-94.3396226415094,3,1,0,40,0,0
27643,-91.743119266055,3,1,0,40,0,0
27918,-89.2857142857143,3,1,0,40,0,0
36149,-89.2857142857143,3,1,0,60,0,1
36332,-83.3333333333333,3,1,0,60,0,1
44930,-83.3333333333333,3,1,0,60,0,0
45204,-86.9565217391304,3,1,0,40,0,0
45479,-90.9090909090909,3,1,0,40,0,0
49595,-95.2380952380952,3,1,0,40,0,0
49869,-100,3,1,0,40,0,0
53985,-105.263157894737,3,1,0,40,0,0
54259,-111.111111111111,3,1,0,40,0,0
58375,-117.647058823529,3,1,0,40,0,0
58649,-125,3,1,0,40,0,0
60204,-111.111111111111,3,1,0,50,0,0
60845,-100,3,1,0,50,0,0
61576,-90.9090909090909,3,1,0,50,0,0
62491,-80,3,1,0,60,0,1
79320,-66.6666666666667,3,1,0,30,0,0
80052,-71.4285714285714,3,1,0,60,0,1
80235,-74.0740740740741,3,1,0,60,0,1
80601,-79.9999999999999,3,1,0,60,0,1
88832,-79.9999999999999,3,1,0,50,0,0
89381,-89.2857142857143,3,1,0,50,0,0
89930,-100,3,1,0,50,0,0
90479,-111.111111111111,3,1,0,50,0,0
92125,-100,3,1,0,50,0,0
92674,-111.111111111111,3,1,0,50,0,0
93406,-100,3,1,0,50,0,0
93771,-111.111111111111,3,1,0,50,0,0
95418,-100,3,1,0,50,0,0
95967,-111.111111111111,3,1,0,50,0,0
96515,-100,3,1,0,50,0,0
96698,-111.111111111111,3,1,0,50,0,0
96881,-100,3,1,0,50,0,0
97064,-111.111111111111,3,1,0,50,0,0
97247,-100,3,1,0,50,0,0
97430,-111.111111111111,3,1,0,50,0,0
98710,-100,3,1,0,50,0,0
99259,-111.111111111111,3,1,0,50,0,0
99991,-100,3,1,0,50,0,0
100540,-111.111111111111,3,1,0,50,0,0
102003,-100,3,1,0,50,0,0
102369,-111.111111111111,3,1,0,50,0,0
104198,-100,3,1,0,50,0,0
104564,-111.111111111111,3,1,0,50,0,0
106393,-100,3,1,0,50,0,0
107125,-133.333333333333,3,1,0,40,0,0
108588,-200,3,1,0,30,0,0
115174,-142.857142857143,3,1,0,30,0,0
123954,-100,3,1,0,60,0,1
139320,-95.2380952380952,3,1,0,60,0,0
139869,-90.9090909090909,3,1,0,60,0,0
140418,-86.9565217391304,3,1,0,60,0,0
140967,-83.3333333333333,3,1,0,60,0,0
141515,-79.9999999999999,3,1,0,60,0,1
159076,365.853658536585,4,1,0,60,1,0
159076,-79.9999999999999,3,1,0,60,0,0
159624,-100,3,1,0,40,0,0

[HitObjects]
257,183,1028,5,0,0:0:0:0:
254,191,1302,1,0,0:0:0:0:
259,190,1576,1,2,0:0:0:0:
250,191,1851,1,2,0:0:0:0:
271,192,1942,1,0,0:0:0:0:
268,194,2034,1,0,0:0:0:0:
276,200,2125,1,2,0:0:0:0:
271,201,2217,1,2,0:0:0:0:
277,187,2308,1,2,0:0:0:0:
276,221,2399,1,2,0:0:0:0:
276,216,2491,1,0,0:0:0:0:
256,192,2674,1,0,0:0:0:0:
258,181,2857,1,2,0:0:0:0:
258,181,2948,1,2,0:0:0:0:
221,201,3040,1,0,0:0:0:0:
257,178,3223,1,0,0:0:0:0:
252,182,3588,1,2,0:0:0:0:
258,181,3771,1,2,0:0:0:0:
251,177,4137,1,0,0:0:0:0:
251,177,4320,1,2,0:0:0:0:
248,171,4503,1,0,0:0:0:0:
258,181,4686,1,2,0:0:0:0:
258,181,4747,1,2,0:0:0:0:
258,181,4808,1,2,0:0:0:0:
242,189,4869,1,0,0:0:0:0:
251,177,5052,1,2,0:0:0:0:
242,177,5143,1,0,0:0:0:0:
258,181,5418,1,0,0:0:0:0:
241,177,5509,1,2,0:0:0:0:
249,178,5601,1,0,0:0:0:0:
240,170,5784,1,0,0:0:0:0:
260,177,5875,1,0,0:0:0:0:
241,179,5967,1,2,0:0:0:0:
256,179,6149,1,2,0:0:0:0:
255,203,6195,1,2,0:0:0:0:
249,177,6332,1,0,0:0:0:0:
251,195,6515,1,0,0:0:0:0:
241,179,6881,1,0,0:0:0:0:
255,185,7064,1,0,0:0:0:0:
241,179,7247,1,2,0:0:0:0:
276,181,7293,1,2,0:0:0:0:
248,189,7338,1,2,0:0:0:0:
248,189,7613,1,0,0:0:0:0:
259,177,7704,1,0,0:0:0:0:
257,160,7796,1,0,0:0:0:0:
233,168,7887,1,2,0:0:0:0:
229,176,7979,1,0,0:0:0:0:
222,164,8162,1,2,0:0:0:0:
265,185,8253,1,0,0:0:0:0:
248,189,8527,1,0,0:0:0:0:
248,189,8710,1,2,0:0:0:0:
253,173,8893,1,0,0:0:0:0:
240,171,9076,1,0,0:0:0:0:
246,179,9396,1,2,0:0:0:0:
248,189,9442,1,0,0:0:0:0:
222,182,9625,1,2,0:0:0:0:
229,186,9808,1,0,0:0:0:0:
240,171,9991,1,0,0:0:0:0:
230,169,10082,1,0,0:0:0:0:
238,175,10174,1,2,0:0:0:0:
210,177,10357,1,0,0:0:0:0:
229,186,10540,1,2,0:0:0:0:
229,186,10631,1,2,0:0:0:0:
231,179,10723,1,0,0:0:0:0:
229,186,10906,1,2,0:0:0:0:
242,204,11088,1,0,0:0:0:0:
242,204,11271,1,2,0:0:0:0:
253,184,11454,1,0,0:0:0:0:
244,202,11546,1,2,0:0:0:0:
228,181,11820,1,0,0:0:0:0:
248,203,12003,1,2,0:0:0:0:
259,192,12277,1,0,0:0:0:0:
239,196,12369,1,2,0:0:0:0:
248,203,12552,1,2,0:0:0:0:
249,196,12735,1,0,0:0:0:0:
249,196,12826,1,0,0:0:0:0:
226,177,12918,1,2,0:0:0:0:
226,175,13009,1,2,0:0:0:0:
194,192,13101,1,0,0:0:0:0:
242,195,13192,1,2,0:0:0:0:
250,219,13467,1,0,0:0:0:0:
253,213,13558,1,0,0:0:0:0:
242,195,13649,1,2,0:0:0:0:
255,202,13832,1,0,0:0:0:0:
256,199,13878,1,2,0:0:0:0:
244,175,14015,1,2,0:0:0:0:
243,175,14107,1,2,0:0:0:0:
251,188,14198,1,0,0:0:0:0:
251,188,14290,1,0,0:0:0:0:
243,186,14381,1,2,0:0:0:0:
242,195,14564,1,0,0:0:0:0:
245,184,14747,1,2,0:0:0:0:
233,199,14838,1,0,0:0:0:0:
242,195,14930,1,2,0:0:0:0:
225,195,15021,1,2,0:0:0:0:
233,199,15113,1,0,0:0:0:0:
226,194,15296,1,2,0:0:0:0:
248,186,15387,1,2,0:0:0:0:
235,199,15479,1,0,0:0:0:0:
238,199,15570,1,2,0:0:0:0:
235,211,15662,1,0,0:0:0:0:
257,210,15753,1,0,0:0:0:0:
257,210,15845,1,0,0:0:0:0:
250,200,16027,1,2,0:0:0:0:
279,197,16073,1,2,0:0:0:0:
272,193,16119,5,2,0:0:0:0:
226,194,16210,1,0,0:0:0:0:
235,196,16393,1,6,0:0:0:0:
260,175,16576,1,2,0:0:0:0:
311,269,16759,1,4,0:0:0:0:
263,178,16942,1,0,0:0:0:0:
283,191,17125,1,6,0:0:0:0:
262,180,17308,1,0,0:0:0:0:
283,191,17399,1,0,0:0:0:0:
289,191,17491,1,2,0:0:0:0:
253,199,17674,1,0,0:0:0:0:
254,186,17765,1,0,0:0:0:0:
254,186,17857,1,2,0:0:0:0:
232,203,17948,1,0,0:0:0:0:
283,191,18040,1,2,0:0:0:0:
289,191,18223,1,2,0:0:0:0:
248,181,18314,1,0,0:0:0:0:
269,194,18406,1,0,0:0:0:0:
269,192,18467,1,0,0:0:0:0:
261,192,18527,1,0,0:0:0:0:
257,201,18588,1,2,0:0:0:0:
260,188,18863,1,0,0:0:0:0:
255,196,19137,1,2,0:0:0:0:
269,194,19412,1,0,0:0:0:0:
261,189,19503,1,0,0:0:0:0:
260,190,19595,1,0,0:0:0:0:
255,196,19686,1,2,0:0:0:0:
248,179,19960,1,0,0:0:0:0:
255,196,20235,1,2,0:0:0:0:
248,177,20509,1,0,0:0:0:0:
248,177,20601,1,0,0:0:0:0:
248,177,20692,1,0,0:0:0:0:
255,196,20784,1,2,0:0:0:0:
257,187,21058,1,0,0:0:0:0:
263,195,21149,1,2,0:0:0:0:
257,187,21515,1,0,0:0:0:0:
258,185,21698,1,0,0:0:0:0:
259,183,21790,1,0,0:0:0:0:
263,195,21881,1,2,0:0:0:0:
254,178,22156,1,0,0:0:0:0:
256,192,22430,1,2,0:0:0:0:
264,208,22521,1,0,0:0:0:0:
258,185,22704,1,2,0:0:0:0:
257,197,22796,1,0,0:0:0:0:
257,197,22887,1,0,0:0:0:0:
256,192,22979,1,2,0:0:0:0:
260,183,23253,1,0,0:0:0:0:
256,192,23527,1,2,0:0:0:0:
261,195,23802,1,0,0:0:0:0:
261,195,23893,1,0,0:0:0:0:
261,195,23985,1,0,0:0:0:0:
247,186,24076,1,2,0:0:0:0:
260,195,24351,1,0,0:0:0:0:
259,218,24625,1,2,0:0:0:0:
261,195,24899,1,0,0:0:0:0:
276,259,24991,1,0,0:0:0:0:
276,259,25082,1,0,0:0:0:0:
259,218,25174,1,2,0:0:0:0:
262,223,25448,1,0,0:0:0:0:
259,218,25540,1,2,0:0:0:0:
264,222,25906,1,0,0:0:0:0:
269,221,26088,1,0,0:0:0:0:
298,249,26180,1,0,0:0:0:0:
263,254,26271,1,2,0:0:0:0:
270,234,26546,1,0,0:0:0:0:
263,254,26820,1,2,0:0:0:0:
285,244,26912,1,0,0:0:0:0:
252,240,27095,1,2,0:0:0:0:
261,227,27186,1,0,0:0:0:0:
282,215,27277,1,0,0:0:0:0:
272,222,27338,1,0,0:0:0:0:
285,218,27399,1,2,0:0:0:0:
266,179,27643,1,0,0:0:0:0:
267,195,27918,1,2,0:0:0:0:
267,195,28192,1,2,0:0:0:0:
267,195,28284,1,0,0:0:0:0:
265,186,28375,1,0,0:0:0:0:
263,184,28467,1,2,0:0:0:0:
267,184,28649,1,0,0:0:0:0:
267,184,28832,1,2,0:0:0:0:
267,184,29107,1,0,0:0:0:0:
267,183,29198,1,2,0:0:0:0:
276,176,29290,1,0,0:0:0:0:
263,184,29473,1,0,0:0:0:0:
267,184,29564,1,2,0:0:0:0:
263,175,29838,1,0,0:0:0:0:
261,173,30113,1,2,0:0:0:0:
276,176,30296,1,0,0:0:0:0:
257,169,30387,1,2,0:0:0:0:
257,167,30479,1,0,0:0:0:0:
272,167,30570,1,0,0:0:0:0:
256,162,30662,1,2,0:0:0:0:
255,160,30845,1,0,0:0:0:0:
255,160,31027,1,2,0:0:0:0:
255,160,31302,1,0,0:0:0:0:
267,169,31393,1,2,0:0:0:0:
276,176,31485,1,0,0:0:0:0:
265,169,31668,1,0,0:0:0:0:
263,169,31759,1,2,0:0:0:0:
261,164,32034,1,0,0:0:0:0:
263,168,32369,1,2,0:0:0:0:
258,170,32582,1,2,0:0:0:0:
265,169,32674,1,0,0:0:0:0:
263,169,32765,1,0,0:0:0:0:
262,170,32857,1,2,0:0:0:0:
262,170,33040,1,0,0:0:0:0:
263,168,33223,1,2,0:0:0:0:
263,163,33497,1,0,0:0:0:0:
263,163,33588,1,2,0:0:0:0:
276,176,33680,1,0,0:0:0:0:
263,162,33863,1,0,0:0:0:0:
250,188,33954,1,2,0:0:0:0:
272,160,34229,1,0,0:0:0:0:
272,161,34503,1,2,0:0:0:0:
248,167,34686,5,0,0:0:0:0:
243,167,34777,1,2,0:0:0:0:
243,167,34869,1,0,0:0:0:0:
243,167,34960,1,0,0:0:0:0:
248,167,35052,1,2,0:0:0:0:
243,167,35235,1,0,0:0:0:0:
237,167,35326,1,0,0:0:0:0:
243,167,35418,1,2,0:0:0:0:
243,167,35601,1,0,0:0:0:0:
243,167,35692,1,0,0:0:0:0:
243,167,35784,1,2,0:0:0:0:
255,161,35875,1,2,0:0:0:0:
243,167,35967,1,2,0:0:0:0:
241,169,36058,1,0,0:0:0:0:
243,167,36149,1,2,0:0:0:0:
243,167,36424,1,2,0:0:0:0:
246,172,36576,1,0,0:0:0:0:
243,167,36637,1,0,0:0:0:0:
243,167,36698,1,2,0:0:0:0:
248,171,36790,1,2,0:0:0:0:
243,167,36973,1,2,0:0:0:0:
246,170,37064,1,0,0:0:0:0:
248,170,37156,1,0,0:0:0:0:
243,167,37247,1,2,0:0:0:0:
248,171,37338,1,2,0:0:0:0:
248,171,37430,1,0,0:0:0:0:
246,172,37613,1,0,0:0:0:0:
247,172,37704,1,0,0:0:0:0:
242,171,37796,1,2,0:0:0:0:
247,172,37887,1,2,0:0:0:0:
231,189,37979,1,0,0:0:0:0:
252,182,38070,1,2,0:0:0:0:
256,183,38162,1,0,0:0:0:0:
248,186,38253,1,0,0:0:0:0:
242,171,38345,1,2,0:0:0:0:
248,186,38436,1,2,0:0:0:0:
248,186,38619,1,0,0:0:0:0:
242,171,38710,1,2,0:0:0:0:
248,186,38802,1,2,0:0:0:0:
248,186,38893,1,0,0:0:0:0:
248,186,39076,1,2,0:0:0:0:
241,179,39168,1,0,0:0:0:0:
259,175,39259,1,0,0:0:0:0:
253,174,39351,1,0,0:0:0:0:
242,171,39442,1,2,0:0:0:0:
250,170,39534,1,2,0:0:0:0:
242,168,39625,1,0,0:0:0:0:
242,171,39717,1,2,0:0:0:0:
242,148,39808,1,0,0:0:0:0:
242,148,39899,1,0,0:0:0:0:
242,148,39991,1,2,0:0:0:0:
248,171,40174,1,0,0:0:0:0:
243,163,40265,1,2,0:0:0:0:
246,168,40357,1,0,0:0:0:0:
248,168,40448,1,0,0:0:0:0:
242,170,40540,1,2,0:0:0:0:
247,169,40631,1,2,0:0:0:0:
247,169,40723,1,0,0:0:0:0:
247,169,40814,1,2,0:0:0:0:
254,181,40967,1,0,0:0:0:0:
254,182,41027,1,0,0:0:0:0:
249,181,41088,1,2,0:0:0:0:
241,178,41180,1,2,0:0:0:0:
241,179,41271,1,0,0:0:0:0:
241,179,41363,1,2,0:0:0:0:
241,179,41454,1,0,0:0:0:0:
241,179,41546,1,0,0:0:0:0:
263,189,41637,1,2,0:0:0:0:
261,195,41820,1,0,0:0:0:0:
263,192,41912,5,2,0:0:0:0:
259,195,42003,1,0,0:0:0:0:
259,195,42095,1,0,0:0:0:0:
274,193,42186,1,2,0:0:0:0:
257,194,42277,1,2,0:0:0:0:
256,194,42369,1,0,0:0:0:0:
274,193,42460,1,2,0:0:0:0:
255,192,42552,1,0,0:0:0:0:
255,192,42643,1,0,0:0:0:0:
274,193,42735,1,2,0:0:0:0:
263,192,42918,1,0,0:0:0:0:
274,193,43009,1,2,0:0:0:0:
274,193,43101,1,2,0:0:0:0:
284,198,43192,1,0,0:0:0:0:
237,182,43284,1,0,0:0:0:0:
274,193,43375,1,2,0:0:0:0:
246,180,43467,1,2,0:0:0:0:
247,181,43558,1,0,0:0:0:0:
274,193,43649,1,2,0:0:0:0:
278,170,43741,1,0,0:0:0:0:
274,193,43832,1,2,0:0:0:0:
278,170,43924,1,2,0:0:0:0:
280,164,44015,1,0,0:0:0:0:
274,193,44107,1,2,0:0:0:0:
282,164,44198,1,2,0:0:0:0:
282,164,44290,1,0,0:0:0:0:
280,190,44381,1,2,0:0:0:0:
282,192,44473,1,0,0:0:0:0:
280,191,44564,1,0,0:0:0:0:
265,183,44656,1,0,0:0:0:0:
278,195,44747,1,2,0:0:0:0:
274,193,44838,1,2,0:0:0:0:
274,193,44930,1,4,0:0:0:0:
255,185,45204,1,2,0:0:0:0:
255,185,45479,1,0,0:0:0:0:
247,188,45753,1,2,0:0:0:0:
249,187,45845,1,2,0:0:0:0:
226,171,45936,1,2,0:0:0:0:
253,196,46027,1,0,0:0:0:0:
245,186,46119,1,2,0:0:0:0:
250,195,46302,1,2,0:0:0:0:
255,185,46393,1,0,0:0:0:0:
253,196,46576,1,0,0:0:0:0:
259,197,46759,1,2,0:0:0:0:
253,196,46851,1,0,0:0:0:0:
258,193,46942,1,2,0:0:0:0:
259,192,47034,1,2,0:0:0:0:
259,192,47125,1,0,0:0:0:0:
263,187,47399,1,2,0:0:0:0:
259,192,47491,1,0,0:0:0:0:
259,197,47674,1,2,0:0:0:0:
264,189,47857,1,0,0:0:0:0:
267,192,47948,1,0,0:0:0:0:
265,189,48040,1,2,0:0:0:0:
263,189,48131,1,2,0:0:0:0:
269,189,48223,1,0,0:0:0:0:
251,205,48314,1,2,0:0:0:0:
270,189,48497,1,2,0:0:0:0:
237,188,48588,1,0,0:0:0:0:
269,186,48771,1,0,0:0:0:0:
263,194,48863,1,2,0:0:0:0:
260,193,48954,1,2,0:0:0:0:
276,204,49046,1,0,0:0:0:0:
269,186,49137,1,2,0:0:0:0:
269,189,49229,1,2,0:0:0:0:
270,189,49320,1,0,0:0:0:0:
276,204,49595,1,2,0:0:0:0:
276,204,49869,1,0,0:0:0:0:
276,204,50143,1,2,0:0:0:0:
283,206,50235,1,2,0:0:0:0:
289,217,50326,1,2,0:0:0:0:
289,217,50418,1,0,0:0:0:0:
252,205,50509,1,2,0:0:0:0:
295,216,50692,1,2,0:0:0:0:
287,216,50784,1,0,0:0:0:0:
295,213,50967,1,0,0:0:0:0:
259,216,51149,1,2,0:0:0:0:
295,212,51241,1,0,0:0:0:0:
293,211,51332,1,2,0:0:0:0:
289,217,51424,1,2,0:0:0:0:
289,213,51515,1,0,0:0:0:0:
260,208,51790,1,2,0:0:0:0:
260,208,51881,1,0,0:0:0:0:
259,201,52064,1,2,0:0:0:0:
264,201,52247,1,0,0:0:0:0:
264,201,52338,1,0,0:0:0:0:
265,199,52430,1,2,0:0:0:0:
272,199,52521,1,2,0:0:0:0:
276,199,52613,1,0,0:0:0:0:
252,205,52704,1,2,0:0:0:0:
260,201,52887,1,2,0:0:0:0:
272,205,52979,1,0,0:0:0:0:
264,201,53162,1,0,0:0:0:0:
272,192,53253,1,2,0:0:0:0:
272,192,53345,1,2,0:0:0:0:
265,199,53436,1,0,0:0:0:0:
263,197,53497,1,2,0:0:0:0:
269,192,53558,1,2,0:0:0:0:
269,192,53619,1,2,0:0:0:0:
269,192,53710,1,0,0:0:0:0:
265,192,53985,1,2,0:0:0:0:
265,192,54259,1,0,0:0:0:0:
255,190,54534,1,2,0:0:0:0:
252,192,54625,1,2,0:0:0:0:
252,192,54717,1,2,0:0:0:0:
252,192,54808,1,0,0:0:0:0:
251,192,54991,1,2,0:0:0:0:
251,190,55174,1,0,0:0:0:0:
255,190,55448,1,2,0:0:0:0:
255,190,55540,1,0,0:0:0:0:
252,192,55814,1,2,0:0:0:0:
237,190,55906,1,0,0:0:0:0:
237,181,55997,1,2,0:0:0:0:
236,192,56180,1,2,0:0:0:0:
232,190,56454,1,0,0:0:0:0:
237,181,56546,1,2,0:0:0:0:
235,190,56729,1,2,0:0:0:0:
222,192,56820,1,2,0:0:0:0:
222,192,56912,1,2,0:0:0:0:
222,192,57003,1,0,0:0:0:0:
222,192,57186,1,2,0:0:0:0:
222,192,57369,1,0,0:0:0:0:
237,181,57460,1,2,0:0:0:0:
222,192,57643,1,2,0:0:0:0:
224,192,57735,1,0,0:0:0:0:
257,192,58009,1,2,0:0:0:0:
257,192,58101,1,0,0:0:0:0:
263,197,58375,1,2,0:0:0:0:
263,197,58649,1,0,0:0:0:0:
263,197,58924,1,2,0:0:0:0:
263,196,59015,1,2,0:0:0:0:
263,196,59107,1,2,0:0:0:0:
263,197,59198,1,0,0:0:0:0:
263,197,59381,1,2,0:0:0:0:
263,197,59564,1,0,0:0:0:0:
263,197,59838,1,2,0:0:0:0:
263,197,59930,1,0,0:0:0:0:
263,197,60204,1,2,0:0:0:0:
263,197,60296,1,0,0:0:0:0:
263,186,60387,1,2,0:0:0:0:
253,187,60479,1,0,0:0:0:0:
265,184,60570,1,0,0:0:0:0:
253,187,60662,1,2,0:0:0:0:
265,184,60845,1,0,0:0:0:0:
264,184,60936,1,2,0:0:0:0:
267,186,61027,1,0,0:0:0:0:
250,186,61119,1,2,0:0:0:0:
249,188,61210,1,0,0:0:0:0:
249,188,61302,1,0,0:0:0:0:
248,190,61393,1,2,0:0:0:0:
248,190,61576,1,0,0:0:0:0:
258,199,61668,1,0,0:0:0:0:
250,190,61759,1,2,0:0:0:0:
250,190,61820,1,0,0:0:0:0:
250,190,61881,1,0,0:0:0:0:
235,189,61942,1,0,0:0:0:0:
239,189,62034,1,2,0:0:0:0:
241,190,62125,1,0,0:0:0:0:
242,190,62186,1,0,0:0:0:0:
243,190,62247,1,0,0:0:0:0:
248,190,62308,1,2,0:0:0:0:
241,194,62399,1,2,0:0:0:0:
248,190,62491,1,4,0:0:0:0:
249,184,62765,1,0,0:0:0:0:
262,188,62857,1,2,0:0:0:0:
260,193,63040,1,0,0:0:0:0:
268,181,63131,1,0,0:0:0:0:
257,192,63314,1,2,0:0:0:0:
257,192,63406,1,2,0:0:0:0:
257,192,63497,1,2,0:0:0:0:
257,192,63588,1,0,0:0:0:0:
256,191,63771,1,2,0:0:0:0:
256,189,63954,1,0,0:0:0:0:
260,193,64046,1,0,0:0:0:0:
263,193,64229,1,0,0:0:0:0:
272,188,64320,1,2,0:0:0:0:
269,184,64503,1,0,0:0:0:0:
247,177,64595,1,0,0:0:0:0:
263,181,64686,1,2,0:0:0:0:
269,183,64777,1,2,0:0:0:0:
242,173,64869,1,0,0:0:0:0:
246,184,65052,1,2,0:0:0:0:
259,175,65235,1,2,0:0:0:0:
260,178,65326,1,2,0:0:0:0:
261,175,65418,1,0,0:0:0:0:
263,187,65509,1,2,0:0:0:0:
265,191,65601,1,0,0:0:0:0:
269,194,65692,1,0,0:0:0:0:
269,194,65784,1,2,0:0:0:0:
251,182,65967,1,2,0:0:0:0:
272,189,66149,1,0,0:0:0:0:
287,208,66332,1,2,0:0:0:0:
287,208,66424,1,2,0:0:0:0:
263,187,66515,1,0,0:0:0:0:
231,186,66607,1,0,0:0:0:0:
261,190,66698,1,2,0:0:0:0:
250,191,66790,1,0,0:0:0:0:
291,213,66835,1,0,0:0:0:0:
263,185,66881,1,2,0:0:0:0:
267,186,66973,1,0,0:0:0:0:
236,203,67156,1,0,0:0:0:0:
263,187,67247,1,2,0:0:0:0:
291,186,67430,1,0,0:0:0:0:
255,196,67521,1,0,0:0:0:0:
249,201,67613,1,2,0:0:0:0:
255,196,67704,1,0,0:0:0:0:
251,186,67796,1,2,0:0:0:0:
251,186,67887,1,2,0:0:0:0:
244,194,67979,1,0,0:0:0:0:
253,191,68162,1,2,0:0:0:0:
222,197,68345,1,0,0:0:0:0:
257,184,68436,1,2,0:0:0:0:
242,209,68619,1,2,0:0:0:0:
244,212,68710,1,0,0:0:0:0:
246,209,68802,1,0,0:0:0:0:
244,209,68985,1,0,0:0:0:0:
244,209,69076,1,2,0:0:0:0:
250,208,69168,1,2,0:0:0:0:
249,220,69259,1,0,0:0:0:0:
240,219,69442,1,2,0:0:0:0:
242,209,69625,1,0,0:0:0:0:
246,207,69717,1,2,0:0:0:0:
248,199,69899,1,0,0:0:0:0:
258,195,69991,1,2,0:0:0:0:
254,187,70082,1,2,0:0:0:0:
251,190,70174,1,0,0:0:0:0:
251,190,70265,1,0,0:0:0:0:
250,190,70357,1,2,0:0:0:0:
250,190,70448,1,0,0:0:0:0:
250,197,70540,1,2,0:0:0:0:
250,196,70631,1,2,0:0:0:0:
250,195,70723,1,2,0:0:0:0:
250,195,70814,1,2,0:0:0:0:
248,199,70906,1,0,0:0:0:0:
257,179,70997,1,0,0:0:0:0:
254,201,71088,1,2,0:0:0:0:
262,210,71180,1,2,0:0:0:0:
244,202,71226,1,2,0:0:0:0:
253,208,71271,1,0,0:0:0:0:
261,193,71546,1,0,0:0:0:0:
263,191,71637,1,2,0:0:0:0:
263,189,71820,1,0,0:0:0:0:
259,196,71912,1,0,0:0:0:0:
265,199,72095,1,2,0:0:0:0:
270,199,72186,1,2,0:0:0:0:
270,199,72277,1,2,0:0:0:0:
274,199,72369,1,0,0:0:0:0:
271,205,72552,1,2,0:0:0:0:
271,205,72735,1,0,0:0:0:0:
266,210,72826,1,0,0:0:0:0:
271,205,72918,1,2,0:0:0:0:
270,205,73009,1,0,0:0:0:0:
271,205,73101,1,2,0:0:0:0:
269,206,73192,1,2,0:0:0:0:
269,206,73375,1,2,0:0:0:0:
271,205,73467,1,0,0:0:0:0:
265,210,73649,1,0,0:0:0:0:
272,219,73741,1,0,0:0:0:0:
272,219,73832,1,2,0:0:0:0:
272,219,74015,1,0,0:0:0:0:
241,223,74107,1,0,0:0:0:0:
276,220,74198,1,2,0:0:0:0:
253,200,74290,1,0,0:0:0:0:
259,198,74381,1,2,0:0:0:0:
259,197,74473,1,2,0:0:0:0:
259,197,74564,1,0,0:0:0:0:
259,194,74747,1,2,0:0:0:0:
265,193,74930,1,0,0:0:0:0:
268,186,75021,1,0,0:0:0:0:
268,190,75113,1,0,0:0:0:0:
268,190,75204,1,0,0:0:0:0:
268,190,75296,1,2,0:0:0:0:
268,190,75479,1,0,0:0:0:0:
271,193,75570,1,2,0:0:0:0:
259,194,75662,1,0,0:0:0:0:
274,197,75753,1,0,0:0:0:0:
274,190,75936,1,0,0:0:0:0:
274,190,76027,1,2,0:0:0:0:
272,190,76210,1,0,0:0:0:0:
272,190,76302,1,0,0:0:0:0:
268,190,76485,1,2,0:0:0:0:
271,184,76576,1,2,0:0:0:0:
271,184,76668,1,2,0:0:0:0:
268,185,76759,1,0,0:0:0:0:
290,168,76942,1,0,0:0:0:0:
291,170,77034,1,2,0:0:0:0:
277,171,77125,1,0,0:0:0:0:
290,168,77217,1,0,0:0:0:0:
287,165,77308,1,2,0:0:0:0:
270,160,77399,1,0,0:0:0:0:
271,166,77491,1,2,0:0:0:0:
275,166,77582,1,2,0:0:0:0:
270,147,77674,1,2,0:0:0:0:
278,147,77765,1,2,0:0:0:0:
269,146,77857,1,0,0:0:0:0:
273,152,78040,1,0,0:0:0:0:
271,152,78131,1,0,0:0:0:0:
265,151,78223,1,2,0:0:0:0:
264,149,78406,1,0,0:0:0:0:
264,148,78497,1,0,0:0:0:0:
245,145,78588,1,2,0:0:0:0:
246,136,78680,1,0,0:0:0:0:
252,132,78771,1,2,0:0:0:0:
252,132,78863,1,2,0:0:0:0:
252,140,78954,1,0,0:0:0:0:
285,173,79046,1,0,0:0:0:0:
254,130,79137,1,2,0:0:0:0:
255,132,79229,1,2,0:0:0:0:
256,192,79320,12,2,79869,0:0:0:0:
274,197,80052,5,4,0:0:0:0:
244,189,80235,1,4,0:0:0:0:
244,189,80601,1,4,0:0:0:0:
231,182,80784,1,0,0:0:0:0:
244,189,80875,1,2,0:0:0:0:
254,194,80967,1,2,0:0:0:0:
250,192,81058,1,2,0:0:0:0:
249,192,81149,1,0,0:0:0:0:
248,208,81332,1,2,0:0:0:0:
239,194,81515,1,0,0:0:0:0:
239,194,81607,1,0,0:0:0:0:
241,194,81698,1,2,0:0:0:0:
241,192,81790,1,0,0:0:0:0:
251,188,81881,1,2,0:0:0:0:
254,188,81973,1,2,0:0:0:0:
256,200,82064,1,0,0:0:0:0:
263,173,82125,1,0,0:0:0:0:
259,182,82186,1,0,0:0:0:0:
262,182,82247,1,0,0:0:0:0:
226,185,82430,1,0,0:0:0:0:
253,188,82521,1,0,0:0:0:0:
279,187,82613,1,2,0:0:0:0:
261,184,82796,1,0,0:0:0:0:
261,184,82887,1,0,0:0:0:0:
255,177,82979,1,2,0:0:0:0:
255,176,83070,1,0,0:0:0:0:
257,179,83162,1,2,0:0:0:0:
257,179,83253,1,2,0:0:0:0:
257,179,83345,1,0,0:0:0:0:
263,185,83527,1,2,0:0:0:0:
276,170,83710,1,0,0:0:0:0:
276,170,83771,1,2,0:0:0:0:
276,170,83832,1,0,0:0:0:0:
275,172,83893,1,2,0:0:0:0:
263,201,83985,1,0,0:0:0:0:
263,201,84076,1,2,0:0:0:0:
249,202,84259,1,0,0:0:0:0:
258,203,84351,1,2,0:0:0:0:
257,199,84442,1,0,0:0:0:0:
257,183,84534,1,0,0:0:0:0:
264,181,84717,1,2,0:0:0:0:
265,178,84808,1,0,0:0:0:0:
265,177,84899,1,0,0:0:0:0:
265,177,85082,1,2,0:0:0:0:
265,175,85174,1,0,0:0:0:0:
261,170,85265,1,2,0:0:0:0:
263,168,85357,1,0,0:0:0:0:
259,175,85448,1,2,0:0:0:0:
272,172,85540,1,2,0:0:0:0:
271,181,85723,1,0,0:0:0:0:
274,182,85814,1,2,0:0:0:0:
283,182,85906,1,2,0:0:0:0:
271,181,86088,1,0,0:0:0:0:
271,177,86180,1,2,0:0:0:0:
271,176,86271,1,2,0:0:0:0:
266,178,86363,1,0,0:0:0:0:
266,177,86454,1,0,0:0:0:0:
266,177,86546,1,2,0:0:0:0:
262,178,86637,1,0,0:0:0:0:
261,178,86820,1,0,0:0:0:0:
258,164,86912,1,2,0:0:0:0:
257,164,87003,1,0,0:0:0:0:
257,164,87186,1,0,0:0:0:0:
256,164,87277,1,2,0:0:0:0:
224,199,87369,1,0,0:0:0:0:
244,170,87460,1,0,0:0:0:0:
282,188,87552,1,2,0:0:0:0:
256,179,87643,1,2,0:0:0:0:
261,178,87735,1,0,0:0:0:0:
267,174,87826,1,2,0:0:0:0:
269,173,87918,1,0,0:0:0:0:
270,173,88009,1,0,0:0:0:0:
270,168,88101,1,2,0:0:0:0:
271,181,88192,1,2,0:0:0:0:
271,181,88284,1,0,0:0:0:0:
273,184,88375,1,2,0:0:0:0:
263,203,88436,1,0,0:0:0:0:
269,205,88497,1,0,0:0:0:0:
269,205,88558,1,2,0:0:0:0:
269,203,88619,1,2,0:0:0:0:
267,195,88680,1,0,0:0:0:0:
267,195,88741,1,2,0:0:0:0:
267,195,88832,1,4,0:0:0:0:
278,199,89381,1,0,0:0:0:0:
269,197,89930,1,4,0:0:0:0:
269,197,90113,1,4,0:0:0:0:
260,206,90479,1,0,0:0:0:0:
260,206,90662,1,2,0:0:0:0:
260,206,90845,1,0,0:0:0:0:
259,205,90936,1,0,0:0:0:0:
259,205,91027,1,2,0:0:0:0:
274,171,91576,1,0,0:0:0:0:
265,171,91759,1,2,0:0:0:0:
267,171,91851,1,2,0:0:0:0:
265,174,92125,1,6,0:0:0:0:
267,172,92308,1,6,0:0:0:0:
265,171,92674,1,0,0:0:0:0:
267,171,92857,1,2,0:0:0:0:
270,173,93040,1,0,0:0:0:0:
270,173,93131,1,2,0:0:0:0:
267,172,93223,1,0,0:0:0:0:
265,171,93406,1,4,0:0:0:0:
265,171,93588,1,4,0:0:0:0:
267,184,93771,1,0,0:0:0:0:
280,175,93863,1,0,0:0:0:0:
278,175,93954,1,2,0:0:0:0:
255,169,94320,1,0,0:0:0:0:
255,169,94412,1,2,0:0:0:0:
255,169,94503,1,0,0:0:0:0:
255,169,94595,1,0,0:0:0:0:
255,167,94869,1,2,0:0:0:0:
252,161,95052,1,0,0:0:0:0:
252,161,95235,1,2,0:0:0:0:
248,158,95418,1,4,0:0:0:0:
258,180,95784,5,6,0:0:0:0:
257,173,95967,1,0,0:0:0:0:
269,186,96149,1,2,0:0:0:0:
266,182,96241,1,2,0:0:0:0:
265,182,96332,1,0,0:0:0:0:
262,185,96515,1,6,0:0:0:0:
260,188,96698,1,2,0:0:0:0:
257,180,96881,1,4,0:0:0:0:
265,159,97064,1,0,0:0:0:0:
265,158,97247,1,6,0:0:0:0:
265,158,97430,1,0,0:0:0:0:
265,158,97521,1,0,0:0:0:0:
265,156,97613,1,2,0:0:0:0:
264,190,98345,1,2,0:0:0:0:
264,190,98527,1,2,0:0:0:0:
264,190,98710,1,4,0:0:0:0:
264,190,98893,1,4,0:0:0:0:
254,189,99259,1,0,0:0:0:0:
254,190,99442,1,2,0:0:0:0:
253,190,99717,1,0,0:0:0:0:
253,199,99808,1,2,0:0:0:0:
254,197,99991,1,6,0:0:0:0:
269,200,100174,1,6,0:0:0:0:
269,200,100357,1,6,0:0:0:0:
269,200,100540,1,0,0:0:0:0:
269,200,100631,1,0,0:0:0:0:
269,200,100723,1,2,0:0:0:0:
265,188,100906,1,2,0:0:0:0:
265,189,101088,1,0,0:0:0:0:
263,188,101271,1,2,0:0:0:0:
260,196,101637,1,0,0:0:0:0:
261,195,101820,1,0,0:0:0:0:
261,203,102003,1,6,0:0:0:0:
254,208,102369,1,0,0:0:0:0:
261,203,102552,1,2,0:0:0:0:
254,201,102918,1,0,0:0:0:0:
259,195,103101,1,2,0:0:0:0:
259,195,103192,1,2,0:0:0:0:
248,208,103284,1,0,0:0:0:0:
254,208,103375,1,2,0:0:0:0:
254,208,103467,1,0,0:0:0:0:
254,208,103649,1,2,0:0:0:0:
253,202,104015,1,2,0:0:0:0:
266,217,104198,1,4,0:0:0:0:
254,216,104564,1,2,0:0:0:0:
271,222,104747,1,0,0:0:0:0:
263,216,104930,1,2,0:0:0:0:
252,216,105021,1,2,0:0:0:0:
251,216,105113,1,0,0:0:0:0:
249,218,105296,1,0,0:0:0:0:
249,218,105387,1,0,0:0:0:0:
264,210,105479,1,2,0:0:0:0:
231,214,105570,1,2,0:0:0:0:
259,214,105662,1,0,0:0:0:0:
259,214,105707,1,2,0:0:0:0:
254,214,105845,1,2,0:0:0:0:
243,214,105890,1,0,0:0:0:0:
252,216,106027,1,0,0:0:0:0:
251,216,106073,1,2,0:0:0:0:
249,218,106210,1,2,0:0:0:0:
249,218,106256,1,0,0:0:0:0:
249,218,106393,1,6,0:0:0:0:
255,197,107125,1,0,0:0:0:0:
259,184,107308,1,2,0:0:0:0:
261,187,107491,1,2,0:0:0:0:
270,199,115174,5,2,0:0:0:0:
254,194,115906,1,0,0:0:0:0:
269,213,116088,1,2,0:0:0:0:
269,213,116271,1,2,0:0:0:0:
269,212,116637,1,0,0:0:0:0:
255,194,117003,1,2,0:0:0:0:
269,212,117369,1,0,0:0:0:0:
262,207,118101,1,0,0:0:0:0:
272,223,118192,1,0,0:0:0:0:
272,221,118284,1,0,0:0:0:0:
271,201,118467,1,2,0:0:0:0:
271,201,118649,1,2,0:0:0:0:
248,205,118832,1,0,0:0:0:0:
253,210,119198,1,2,0:0:0:0:
255,210,119564,1,0,0:0:0:0:
248,181,120296,1,0,0:0:0:0:
248,181,120662,1,2,0:0:0:0:
248,181,120845,1,0,0:0:0:0:
253,182,121027,1,0,0:0:0:0:
257,183,121393,1,2,0:0:0:0:
273,199,121759,1,0,0:0:0:0:
260,194,122491,1,0,0:0:0:0:
270,184,122582,1,0,0:0:0:0:
265,188,122674,1,0,0:0:0:0:
265,188,122857,1,2,0:0:0:0:
261,186,123040,1,0,0:0:0:0:
263,188,123131,1,2,0:0:0:0:
263,190,123223,1,0,0:0:0:0:
260,194,123314,1,0,0:0:0:0:
274,183,123406,1,2,0:0:0:0:
274,182,123497,1,0,0:0:0:0:
270,184,123588,1,0,0:0:0:0:
274,182,123680,1,2,0:0:0:0:
265,188,123771,1,0,0:0:0:0:
269,191,123954,1,6,0:0:0:0:
270,200,124137,1,0,0:0:0:0:
270,200,124229,1,2,0:0:0:0:
270,200,124320,1,0,0:0:0:0:
281,206,124503,1,0,0:0:0:0:
268,195,124686,1,2,0:0:0:0:
263,195,124777,1,2,0:0:0:0:
283,196,124869,1,0,0:0:0:0:
261,199,125052,1,4,0:0:0:0:
261,199,125326,1,0,0:0:0:0:
257,207,125418,1,2,0:0:0:0:
257,207,125601,1,0,0:0:0:0:
257,207,125784,1,2,0:0:0:0:
247,206,125967,1,0,0:0:0:0:
257,195,126149,1,6,0:0:0:0:
264,195,126515,1,2,0:0:0:0:
264,195,126698,1,2,0:0:0:0:
256,190,126881,1,0,0:0:0:0:
263,184,126973,1,0,0:0:0:0:
244,213,127064,1,0,0:0:0:0:
264,202,127247,1,2,0:0:0:0:
265,201,127338,1,0,0:0:0:0:
272,191,127613,1,2,0:0:0:0:
264,195,127704,1,0,0:0:0:0:
264,194,127796,1,2,0:0:0:0:
270,190,127979,1,2,0:0:0:0:
270,168,128162,1,0,0:0:0:0:
276,174,128253,1,2,0:0:0:0:
276,174,128345,1,2,0:0:0:0:
278,197,128527,1,0,0:0:0:0:
276,184,128710,1,2,0:0:0:0:
267,179,128893,1,0,0:0:0:0:
270,186,129076,1,2,0:0:0:0:
267,186,129168,1,2,0:0:0:0:
270,188,129259,1,0,0:0:0:0:
255,187,129442,1,0,0:0:0:0:
258,187,129488,1,0,0:0:0:0:
258,186,129534,1,0,0:0:0:0:
271,177,129625,1,2,0:0:0:0:
271,177,129717,1,2,0:0:0:0:
267,179,129808,1,0,0:0:0:0:
235,146,129991,1,0,0:0:0:0:
254,156,130128,1,0,0:0:0:0:
283,161,130174,1,2,0:0:0:0:
255,160,130357,1,0,0:0:0:0:
256,150,130540,1,6,0:0:0:0:
249,167,130906,1,0,0:0:0:0:
261,164,131088,1,2,0:0:0:0:
245,177,131271,1,0,0:0:0:0:
263,164,131363,1,0,0:0:0:0:
269,158,131454,1,0,0:0:0:0:
271,172,131592,1,2,0:0:0:0:
298,184,131637,1,0,0:0:0:0:
258,160,131820,1,0,0:0:0:0:
259,157,132003,1,0,0:0:0:0:
261,155,132186,1,2,0:0:0:0:
259,154,132369,1,2,0:0:0:0:
259,154,132643,1,2,0:0:0:0:
259,154,132735,1,2,0:0:0:0:
244,195,132918,1,2,0:0:0:0:
250,195,133101,1,0,0:0:0:0:
245,171,133284,1,0,0:0:0:0:
271,196,133467,1,2,0:0:0:0:
254,182,133558,1,2,0:0:0:0:
259,182,133649,1,0,0:0:0:0:
249,175,133832,1,2,0:0:0:0:
254,169,133878,1,2,0:0:0:0:
254,182,133924,1,2,0:0:0:0:
254,182,134015,1,0,0:0:0:0:
254,182,134107,1,2,0:0:0:0:
252,173,134198,1,0,0:0:0:0:
259,166,134381,1,2,0:0:0:0:
248,160,134564,1,0,0:0:0:0:
254,167,134747,1,2,0:0:0:0:
259,166,134930,1,6,0:0:0:0:
266,164,135296,1,2,0:0:0:0:
243,168,135479,1,0,0:0:0:0:
261,174,135662,1,0,0:0:0:0:
259,175,135753,1,0,0:0:0:0:
259,166,135845,1,2,0:0:0:0:
264,180,136027,1,0,0:0:0:0:
252,196,136119,1,2,0:0:0:0:
246,171,136210,1,0,0:0:0:0:
252,184,136302,1,0,0:0:0:0:
250,181,136393,1,2,0:0:0:0:
243,168,136485,1,2,0:0:0:0:
249,160,136576,1,0,0:0:0:0:
247,205,136668,1,2,0:0:0:0:
247,192,136759,1,0,0:0:0:0:
253,212,136942,1,2,0:0:0:0:
254,197,137034,1,0,0:0:0:0:
227,204,137125,1,2,0:0:0:0:
261,201,137308,1,0,0:0:0:0:
249,196,137491,1,2,0:0:0:0:
302,188,137674,1,0,0:0:0:0:
291,201,137857,1,2,0:0:0:0:
291,201,137948,1,2,0:0:0:0:
291,203,138040,1,0,0:0:0:0:
278,203,138223,1,0,0:0:0:0:
278,203,138268,1,0,0:0:0:0:
278,201,138314,1,0,0:0:0:0:
278,201,138406,1,2,0:0:0:0:
270,207,138497,1,2,0:0:0:0:
270,207,138588,1,0,0:0:0:0:
279,207,138771,1,0,0:0:0:0:
267,214,138909,1,0,0:0:0:0:
282,220,138954,1,2,0:0:0:0:
283,214,139137,1,0,0:0:0:0:
281,207,139320,1,6,0:0:0:0:
279,207,139686,1,0,0:0:0:0:
279,205,139869,1,6,0:0:0:0:
278,205,140052,1,0,0:0:0:0:
278,205,140143,1,2,0:0:0:0:
281,207,140235,1,0,0:0:0:0:
280,207,140418,1,6,0:0:0:0:
279,205,140784,1,0,0:0:0:0:
278,205,140967,1,6,0:0:0:0:
278,205,141149,1,0,0:0:0:0:
261,197,141424,1,0,0:0:0:0:
259,199,141515,1,6,0:0:0:0:
248,203,141698,1,0,0:0:0:0:
248,204,141881,1,0,0:0:0:0:
258,199,142064,1,2,0:0:0:0:
248,204,142430,1,0,0:0:0:0:
251,195,142613,1,2,0:0:0:0:
251,190,142659,1,2,0:0:0:0:
254,190,142796,1,0,0:0:0:0:
256,199,142887,1,2,0:0:0:0:
237,190,142979,1,0,0:0:0:0:
242,188,143162,1,2,0:0:0:0:
252,194,143253,1,0,0:0:0:0:
250,197,143345,1,2,0:0:0:0:
251,195,143527,1,0,0:0:0:0:
243,194,143573,1,0,0:0:0:0:
248,200,143710,1,6,0:0:0:0:
267,203,143893,1,0,0:0:0:0:
244,201,144076,1,0,0:0:0:0:
243,196,144259,1,2,0:0:0:0:
248,200,144625,1,0,0:0:0:0:
243,196,144808,1,2,0:0:0:0:
244,210,144854,1,0,0:0:0:0:
244,201,144991,1,2,0:0:0:0:
233,210,145082,1,2,0:0:0:0:
239,218,145174,1,0,0:0:0:0:
234,206,145296,1,2,0:0:0:0:
238,197,145357,1,0,0:0:0:0:
231,187,145448,1,0,0:0:0:0:
221,191,145540,1,2,0:0:0:0:
222,198,145723,1,2,0:0:0:0:
222,190,145814,1,0,0:0:0:0:
239,194,145906,1,2,0:0:0:0:
252,194,146088,1,0,0:0:0:0:
241,195,146271,1,0,0:0:0:0:
211,160,146454,1,2,0:0:0:0:
240,195,146820,1,0,0:0:0:0:
211,160,147003,1,2,0:0:0:0:
248,210,147049,1,2,0:0:0:0:
231,166,147186,1,0,0:0:0:0:
253,186,147277,1,2,0:0:0:0:
257,212,147369,1,0,0:0:0:0:
256,200,147552,1,2,0:0:0:0:
241,183,147643,1,0,0:0:0:0:
252,195,147735,1,2,0:0:0:0:
244,204,147918,1,0,0:0:0:0:
265,187,147963,1,0,0:0:0:0:
253,186,148101,1,6,0:0:0:0:
253,186,148284,1,0,0:0:0:0:
250,183,148467,1,0,0:0:0:0:
256,200,148649,1,2,0:0:0:0:
253,186,149015,1,0,0:0:0:0:
256,200,149198,1,2,0:0:0:0:
260,198,149244,1,0,0:0:0:0:
259,198,149381,1,2,0:0:0:0:
254,179,149473,1,2,0:0:0:0:
252,182,149564,1,0,0:0:0:0:
256,200,149686,1,2,0:0:0:0:
267,188,149747,1,0,0:0:0:0:
257,177,149838,1,0,0:0:0:0:
257,179,149930,1,2,0:0:0:0:
257,181,150021,1,0,0:0:0:0:
252,177,150204,1,0,0:0:0:0:
251,173,150296,1,2,0:0:0:0:
263,189,150479,1,0,0:0:0:0:
272,199,150662,1,0,0:0:0:0:
269,187,150845,1,2,0:0:0:0:
279,201,151027,1,0,0:0:0:0:
284,185,151119,1,2,0:0:0:0:
267,195,151210,1,0,0:0:0:0:
267,195,151393,1,2,0:0:0:0:
280,207,151439,1,2,0:0:0:0:
286,206,151576,1,0,0:0:0:0:
280,169,151668,1,2,0:0:0:0:
261,178,151759,1,0,0:0:0:0:
261,178,151942,1,2,0:0:0:0:
281,182,152034,1,0,0:0:0:0:
281,182,152125,1,2,0:0:0:0:
287,185,152217,1,2,0:0:0:0:
252,197,152308,1,0,0:0:0:0:
251,196,152354,1,0,0:0:0:0:
266,193,152491,1,2,0:0:0:0:
222,199,152582,1,0,0:0:0:0:
244,216,152674,1,0,0:0:0:0:
243,192,152765,1,2,0:0:0:0:
248,211,152857,1,2,0:0:0:0:
233,210,152948,1,0,0:0:0:0:
236,212,153040,1,2,0:0:0:0:
232,204,153223,1,0,0:0:0:0:
220,206,153314,1,2,0:0:0:0:
218,210,153406,1,0,0:0:0:0:
218,208,153497,1,0,0:0:0:0:
218,208,153588,1,2,0:0:0:0:
259,197,153680,1,0,0:0:0:0:
215,203,153771,1,2,0:0:0:0:
215,203,153863,1,2,0:0:0:0:
221,206,153954,1,2,0:0:0:0:
221,206,154046,1,0,0:0:0:0:
221,206,154137,1,0,0:0:0:0:
221,215,154229,1,2,0:0:0:0:
229,212,154320,1,0,0:0:0:0:
233,209,154412,1,0,0:0:0:0:
259,192,154503,1,2,0:0:0:0:
234,193,154564,1,0,0:0:0:0:
259,189,154625,1,0,0:0:0:0:
259,192,154686,1,2,0:0:0:0:
248,195,154869,1,0,0:0:0:0:
239,195,154960,1,2,0:0:0:0:
244,190,155052,1,0,0:0:0:0:
231,190,155143,1,0,0:0:0:0:
237,182,155235,1,2,0:0:0:0:
236,182,155326,1,2,0:0:0:0:
234,193,155418,1,0,0:0:0:0:
237,178,155509,1,0,0:0:0:0:
231,172,155601,1,2,0:0:0:0:
252,186,155692,1,0,0:0:0:0:
254,195,155784,1,2,0:0:0:0:
256,190,155829,1,2,0:0:0:0:
244,198,155967,1,0,0:0:0:0:
244,198,156058,1,2,0:0:0:0:
246,200,156104,1,2,0:0:0:0:
248,213,156241,1,0,0:0:0:0:
246,214,156332,1,2,0:0:0:0:
222,210,156424,1,0,0:0:0:0:
249,192,156515,1,0,0:0:0:0:
222,197,156607,1,2,0:0:0:0:
250,192,156698,1,0,0:0:0:0:
247,195,156744,1,0,0:0:0:0:
246,178,156881,1,2,0:0:0:0:
245,176,156973,1,0,0:0:0:0:
245,176,157018,1,0,0:0:0:0:
245,176,157156,1,2,0:0:0:0:
245,176,157247,1,0,0:0:0:0:
252,162,157338,1,0,0:0:0:0:
274,160,157430,1,2,0:0:0:0:
256,173,157521,1,0,0:0:0:0:
247,171,157613,1,0,0:0:0:0:
274,172,157704,1,2,0:0:0:0:
252,185,157796,1,0,0:0:0:0:
222,173,157887,1,0,0:0:0:0:
224,177,157979,1,2,0:0:0:0:
257,174,158070,1,0,0:0:0:0:
245,166,158162,1,2,0:0:0:0:
282,154,158253,1,2,0:0:0:0:
265,150,158345,1,0,0:0:0:0:
282,161,158436,1,2,0:0:0:0:
276,164,158527,1,2,0:0:0:0:
220,192,158619,1,0,0:0:0:0:
267,164,158710,1,2,0:0:0:0:
270,162,158802,1,2,0:0:0:0:
295,162,158893,1,0,0:0:0:0:
296,161,158985,1,0,0:0:0:0:
251,186,159076,1,6,0:0:0:0:
270,187,159625,1,0,0:0:0:0:
280,173,159808,1,0,0:0:0:0:
283,166,161088,1,0,0:0:0:0:
283,166,161271,1,0,0:0:0:0:
239,160,161820,1,0,0:0:0:0:
278,158,162003,1,2,0:0:0:0:
278,175,162186,1,2,0:0:0:0:
268,175,162552,1,0,0:0:0:0:
269,174,162735,1,0,0:0:0:0:
269,174,164015,1,0,0:0:0:0:
271,181,164198,1,0,0:0:0:0:
269,174,164747,1,0,0:0:0:0:
269,174,164930,1,2,0:0:0:0:
269,186,165113,1,2,0:0:0:0:
265,191,165479,1,0,0:0:0:0:
265,168,165662,1,0,0:0:0:0:
265,168,166027,1,2,0:0:0:0:
267,174,166088,1,2,0:0:0:0:
257,156,166576,1,2,0:0:0:0:
255,166,166637,1,2,0:0:0:0:
255,166,166698,1,2,0:0:0:0:
242,173,166759,1,2,0:0:0:0:
258,168,166942,1,0,0:0:0:0:
271,168,167125,1,0,0:0:0:0:
274,168,167674,1,0,0:0:0:0:
275,168,167857,1,2,0:0:0:0:
271,168,168040,1,2,0:0:0:0:
274,168,168406,1,0,0:0:0:0:
282,168,168588,1,0,0:0:0:0:
284,168,168954,1,2,0:0:0:0:
277,166,169015,1,2,0:0:0:0:
284,168,169869,5,0,0:0:0:0:
284,168,170052,1,0,0:0:0:0:
284,168,170601,1,0,0:0:0:0:
262,190,170784,5,2,0:0:0:0:
262,190,170845,1,2,0:0:0:0:
262,190,170906,1,2,0:0:0:0:
262,190,170967,1,2,0:0:0:0:
262,190,171027,1,2,0:0:0:0:
262,190,171088,1,2,0:0:0:0:
