osu file format v14

[General]
AudioFilename: audio.mp3
AudioLeadIn: 0
PreviewTime: -1
Countdown: 0
SampleSet: None
StackLeniency: 0.2
Mode: 0
LetterboxInBreaks: 0
WidescreenStoryboard: 0

[Editor]
Bookmarks: 68761,201175
DistanceSpacing: 3.4
BeatDivisor: 8
GridSize: 32
TimelineZoom: 1.8

[Metadata]
Title:Emotional bigwave
TitleUnicode:Emotional bigwave
Artist:ziki_7
ArtistUnicode:ziki_7
Creator:faygo
Version:Catharsis
Source:
Tags:
BeatmapID:1890876
BeatmapSetID:906060

[Difficulty]
HPDrainRate:4
CircleSize:5
OverallDifficulty:8
ApproachRate:9.2
SliderMultiplier:1.75
SliderTickRate:1

[Events]
//Background and Video events
0,0,"sd.jpg",0,0
//Break Periods
2,46892,56812
2,89478,200605
2,201548,219916
//Storyboard Layer 0 (Background)
//Storyboard Layer 1 (Fail)
//Storyboard Layer 2 (Pass)
//Storyboard Layer 3 (Foreground)
//Storyboard Sound Samples

[TimingPoints]
1865,344.827586206897,4,1,0,35,1,0
1865,-80,4,1,0,35,0,0
2555,344.827586206897,4,1,0,35,1,0
4279,-133.333333333333,4,1,0,35,0,0
4796,-400,4,1,0,35,0,0
5486,-80,4,1,0,35,0,0
6175,-200,4,1,0,35,0,0
6865,-400,4,1,0,35,0,0
8072,-66.6666666666667,4,1,0,35,0,0
8934,-400,4,1,0,35,0,0
9623,-133.333333333333,4,1,0,35,0,0
10313,-400,4,1,0,35,0,0
12899,-80,4,1,0,35,0,0
13589,-66.6666666666667,4,1,0,35,0,0
14451,-400,4,1,0,35,0,0
15141,-133.333333333333,4,1,0,35,0,0
15830,-400,4,1,0,35,0,0
16520,-80,4,1,0,35,0,0
17210,-200,4,1,0,35,0,0
17899,-400,4,1,0,35,0,0
19106,-66.6666666666667,4,1,0,35,0,0
19968,-400,4,1,0,35,0,0
20658,-133.333333333333,4,1,0,35,0,0
21348,-400,4,1,0,35,0,0
24623,-66.6666666666667,4,1,0,35,0,0
25141,-100,4,1,0,35,0,0
26175,-133.333333333333,4,1,0,35,0,0
27382,-100,4,1,0,35,0,0
30141,-66.6666666666667,4,1,0,35,0,0
30658,-100,4,1,0,35,0,0
31692,-133.333333333333,4,1,0,35,0,0
34968,-80,4,1,0,35,0,0
36175,-100,4,1,0,35,0,0
37210,-133.333333333333,4,1,0,35,0,0
38417,-100,4,1,0,35,0,0
41175,-66.6666666666667,4,1,0,35,0,0
41692,-100,4,1,0,35,0,0
42727,-133.333333333333,4,1,0,35,0,0
43934,-1000,4,1,0,35,0,0
45313,-200,4,1,0,35,0,0
46003,-133.333333333333,4,1,0,35,0,0
57382,-200,4,1,0,35,0,0
57727,-133.333333333333,4,1,0,35,0,0
66003,-1000,4,1,0,35,0,0
67210,-80,4,1,0,35,0,0
68244,-57.1428571428571,4,1,0,35,0,0
69279,-66.6666666666667,4,1,0,35,0,0
70313,-80,4,1,0,35,0,0
70744,-57.1428571428571,4,1,0,35,0,0
71175,-52.6315789473684,4,1,0,35,0,0
71520,-80,4,1,0,35,0,0
73589,-400,4,1,0,35,0,0
74279,-57.1428571428571,4,1,0,35,0,0
74796,-66.6666666666667,4,1,0,35,0,0
75830,-80,4,1,0,35,0,0
76348,-57.1428571428571,4,1,0,35,0,0
77037,-44.4444444444445,4,1,0,35,0,0
79796,-57.1428571428571,4,1,0,35,0,0
80313,-66.6666666666667,4,1,0,35,0,0
81348,-80,4,1,0,35,0,0
81779,-57.1428571428571,4,1,0,35,0,0
82210,-52.6315789473684,4,1,0,35,0,0
82555,-80,4,1,0,35,0,0
84623,-400,4,1,0,35,0,0
85313,-57.1428571428571,4,1,0,35,0,0
85830,-66.6666666666667,4,1,0,35,0,0
86865,-80,4,1,0,35,0,0
87382,-57.1428571428571,4,1,0,35,0,0
88072,-1000,4,1,0,35,0,0
223244,-1000,4,1,0,35,0,0
234279,-666.666666666667,4,1,0,35,0,0
237037,-500,4,1,0,35,0,0
239796,-400,4,1,0,35,0,0
242555,-200,4,1,0,35,0,0

[Colours]
Combo1 : 53,255,255
Combo2 : 128,0,255
Combo3 : 0,208,208
Combo4 : 179,102,255

[HitObjects]
40,328,1865,6,0,B|3:328|-26:293|-8:230|36:215|95:220|141:282|128:348|92:375|92:375|120:342|103:302,1,382.8125
176,276,2554,1,0,0:0:0:0:
441,64,4279,6,0,L|428:-15,1,65.6250025033952
438,172,4796,2,0,B|470:173|470:173|491:203,1,65.625
490,201,5486,2,0,L|516:69,1,109.375
506,29,6175,6,0,L|457:-13,2,43.75
502,160,6865,2,0,L|434:173,1,65.625
434,103,7555,2,0,L|380:113,1,54.6875
437,172,8072,6,0,B|460:215|460:215|478:136|478:136|438:94|438:94|458:3,1,262.500010013581
6,112,8934,6,0,L|41:106,1,32.8125
37,114,9279,1,0,0:0:0:0:
0,13,9623,1,0,0:0:0:0:
7,13,9796,2,0,L|79:24,1,65.6250025033952
10,213,10313,6,0,L|18:183,2,21.875
85,166,10830,1,0,0:0:0:0:
85,166,12037,1,0,0:0:0:0:
103,164,12123,1,0,0:0:0:0:
120,170,12210,1,0,0:0:0:0:
512,235,12899,6,0,B|411:209|435:320|343:314|343:314|407:309|426:367|426:367|408:321|433:284,1,382.8125
492,313,13589,5,0,0:0:0:0:
359,383,13761,1,0,0:0:0:0:
371,359,13934,1,0,0:0:0:0:
352,242,14106,1,0,0:0:0:0:
56,381,14451,6,0,L|92:375,1,32.8125
90,368,14796,1,0,0:0:0:0:
0,310,15141,1,0,0:0:0:0:
4,318,15313,2,0,L|22:248,1,65.6250025033952
39,191,15572,2,0,L|9:164,2,32.8125012516976
20,254,15830,2,0,L|70:300,1,65.625
68,298,16520,2,0,P|97:252|165:250,1,109.375,0|0,0:0|0:0,3:0:0:0:
184,308,16865,5,0,0:0:0:0:
184,308,16951,1,0,0:0:0:0:
184,308,17037,1,0,0:0:0:0:
184,308,17210,2,0,L|176:359,2,43.75
76,372,17899,2,0,L|144:363,1,65.625
183,307,18589,2,0,L|238:323,1,54.6875
177,384,19106,6,0,B|90:358|90:358|95:276|95:276|0:240,1,262.500010013581
132,219,19623,1,0,0:0:0:0:
375,9,19968,6,0,L|384:40,1,32.8125
382,48,20313,1,0,0:0:0:0:
484,9,20658,1,0,0:0:0:0:
476,18,20830,2,0,L|456:87,1,65.6250025033952
435,147,21089,2,0,L|404:135,2,32.8125012516976
502,138,21348,6,0,L|507:159,2,21.875
479,227,21865,1,0,0:0:0:0:
479,227,23072,1,0,0:0:0:0:
461,232,23158,1,0,0:0:0:0:
448,245,23245,1,0,0:0:0:0:
479,227,23934,2,0,P|496:265|493:302,1,76.5625
428,273,24623,6,0,B|490:285|501:356|501:356|446:278|351:318,1,262.500010013581,0|0,0:0|3:0,0:0:0:0:
142,371,25141,2,0,L|146:346,1,21.875
142,371,25486,1,0,0:0:0:0:
70,380,25658,1,0,0:0:0:0:
154,283,25830,1,0,0:0:0:0:
47,294,26175,5,0,0:0:0:0:
52,303,26348,2,0,L|64:227,1,65.6250025033952
74,171,26606,2,0,L|80:134,2,32.8125012516976
7,195,26865,1,0,0:0:0:0:
131,215,27037,1,0,0:0:0:0:
5,193,27210,1,0,0:0:0:0:
4,184,27296,1,0,0:0:0:0:
3,175,27382,6,0,L|-4:130,3,43.75
13,241,27727,2,0,L|6:196,3,43.75
80,214,28072,6,0,L|73:169,3,43.75
90,280,28417,2,0,L|83:235,3,43.75
157,248,28761,6,0,L|150:203,3,43.75
167,314,29106,2,0,L|160:269,3,43.75
226,253,29451,1,0,0:0:0:0:
226,253,29796,1,0,0:0:0:0:
167,314,29968,1,0,0:0:0:0:
174,317,30055,1,0,0:0:0:0:
180,320,30141,6,0,B|184:357|152:379|115:379|87:357|75:290|123:250|123:250|102:273|107:296,1,262.500010013581
47,55,30658,2,0,L|24:38,1,21.875
47,55,31003,1,0,0:0:0:0:
101,1,31175,1,0,0:0:0:0:
75,125,31348,1,0,0:0:0:0:
168,68,31692,5,0,0:0:0:0:
171,79,31865,2,0,L|182:7,1,65.6250025033952
109,24,32123,2,0,L|72:32,2,32.8125012516976
121,136,32382,1,0,0:0:0:0:
9,47,32555,1,0,0:0:0:0:
28,113,32727,1,0,0:0:0:0:
26,120,32813,1,0,0:0:0:0:
24,127,32899,5,0,0:0:0:0:
24,127,33417,1,0,0:0:0:0:
24,127,33934,1,0,0:0:0:0:
48,195,34106,1,0,0:0:0:0:
46,202,34192,1,0,0:0:0:0:
44,209,34278,5,0,0:0:0:0:
4,356,34796,1,0,0:0:0:0:
44,209,34968,2,0,B|13:215|-7:248|4:291|30:313|72:310|95:285|99:283|99:283|104:278|118:268|146:248|187:247|228:286|220:332|175:376|127:341,1,382.8125
84,371,35658,5,0,0:0:0:0:
414,56,36175,2,0,L|411:78,1,21.875
414,56,36520,1,0,0:0:0:0:
483,85,36692,1,0,0:0:0:0:
356,125,36865,1,0,0:0:0:0:
454,214,37037,1,0,0:0:0:0:
433,142,37210,5,0,0:0:0:0:
439,135,37382,2,0,L|456:58,1,65.6250025033952
469,6,37641,2,0,L|501:0,2,32.8125012516976
512,110,37899,1,0,0:0:0:0:
380,50,38072,1,0,0:0:0:0:
512,110,38244,1,0,0:0:0:0:
504,112,38330,1,0,0:0:0:0:
497,114,38417,6,0,L|444:104,3,43.75
429,103,38761,2,0,L|376:93,3,43.75
394,165,39106,6,0,L|447:175,3,43.75
462,176,39450,2,0,L|515:186,3,43.75
472,247,39796,6,0,L|419:237,3,43.75
404,236,40140,2,0,L|351:226,3,43.75
460,315,40486,1,0,0:0:0:0:
414,384,40658,1,0,0:0:0:0:
460,315,40830,1,0,0:0:0:0:
414,384,41003,1,0,0:0:0:0:
411,376,41090,1,0,0:0:0:0:
408,368,41175,6,0,B|462:362|462:362|314:321|314:321|369:315,1,262.500010013581
162,182,41692,2,0,L|154:208,1,21.875
162,182,42037,1,0,0:0:0:0:
199,121,42210,1,0,0:0:0:0:
81,174,42382,1,0,0:0:0:0:
4,72,42555,1,0,0:0:0:0:
78,93,42727,5,0,0:0:0:0:
71,100,42899,2,0,L|88:27,1,65.6250025033952
157,20,43158,2,0,L|147:65,2,32.8125012516976
71,100,43417,1,0,0:0:0:0:
200,155,43589,2,0,L|124:162,1,65.6250025033952
127,163,43848,1,0,0:0:0:0:
119,164,43934,6,0,P|109:202|119:226,1,65.625
123,233,45313,6,0,P|57:261|37:342,1,153.125
36,346,46003,6,0,P|59:281|32:88,1,262.500010013581
477,16,57382,6,0,L|467:11,7,10.9375
467,11,57727,6,0,L|456:75,1,65.6250025033952
373,13,58072,2,0,L|383:77,1,65.6250025033952
469,78,58417,6,0,L|458:146,1,65.6250025033952
371,81,58762,2,0,L|382:149,1,65.6250025033952
472,154,59106,6,0,L|460:225,1,65.6250025033952
369,157,59451,2,0,L|380:228,1,65.6250025033952
474,228,59796,6,0,L|461:302,1,65.6250025033952
365,231,60141,2,0,L|377:305,1,65.6250025033952
467,369,60486,6,0,L|477:304,1,65.6250025033952
373,372,60831,2,0,L|362:307,1,65.6250025033952
479,296,61175,6,0,L|491:221,1,65.6250025033952
361,298,61520,2,0,L|348:223,1,65.6250025033952
490,222,61865,6,0,L|502:147,1,65.6250025033952
349,226,62210,2,0,L|336:151,1,65.6250025033952
502,148,62555,6,0,L|514:73,1,65.6250025033952
336,153,62899,2,0,L|323:78,1,65.6250025033952
330,17,63244,5,0,0:0:0:0:
259,196,63417,1,0,0:0:0:0:
261,26,63589,5,0,0:0:0:0:
211,151,63762,1,0,0:0:0:0:
191,26,63934,5,0,0:0:0:0:
156,113,64107,1,0,0:0:0:0:
123,18,64279,5,0,0:0:0:0:
98,78,64452,1,0,0:0:0:0:
52,26,64623,5,0,0:0:0:0:
59,22,64710,1,0,0:0:0:0:
67,19,64796,1,0,0:0:0:0:
74,16,64882,1,0,0:0:0:0:
82,13,64969,1,0,0:0:0:0:
89,10,65055,1,0,0:0:0:0:
97,6,65141,1,0,0:0:0:0:
105,4,65227,1,0,0:0:0:0:
113,5,65313,5,0,0:0:0:0:
125,8,65399,1,0,0:0:0:0:
143,12,65486,1,0,0:0:0:0:
166,18,65572,1,0,0:0:0:0:
198,25,65658,1,0,0:0:0:0:
239,36,65744,1,0,0:0:0:0:
292,49,65830,1,0,0:0:0:0:
357,67,65917,1,0,0:0:0:0:
437,87,66003,6,0,L|449:27,1,61.25
468,11,67296,5,0,0:0:0:0:
470,4,67382,2,0,L|407:13,1,54.6875
342,38,67555,2,0,L|275:48,2,54.6875
452,162,67899,5,0,0:0:0:0:
444,159,67986,1,0,0:0:0:0:
437,156,68072,2,0,L|423:222,1,54.6875
488,249,68244,2,0,B|385:208|405:336|310:331|310:331|391:345|407:271,1,328.125012516976
321,255,68761,6,0,B|352:378|352:378|389:388,2,153.125001460314
22,73,69279,2,0,L|56:63,1,32.8125012516976
0,10,69623,1,0,0:0:0:0:
115,25,69796,1,0,0:0:0:0:
0,153,69968,1,0,0:0:0:0:
2,146,70055,1,0,0:0:0:0:
3,139,70141,1,0,0:0:0:0:
67,217,70313,5,0,0:0:0:0:
86,98,70486,2,0,L|69:212,1,109.375
136,272,70744,5,0,0:0:0:0:
142,266,70830,1,0,0:0:0:0:
148,259,70917,2,0,P|117:258|92:317,1,76.5625007301569
86,98,71175,2,0,P|106:134|169:127,1,83.1249977803231
211,75,71348,2,0,P|200:35|138:25,1,83.1249977803231
16,25,71520,5,8,0:0:0:0:
1,53,71606,1,8,0:0:0:0:
0,85,71692,1,8,0:0:0:0:
11,116,71778,1,8,0:0:0:0:
30,142,71864,1,8,0:0:0:0:
43,171,71951,1,8,0:0:0:0:
46,205,72037,1,8,0:0:0:0:
37,236,72123,1,8,0:0:0:0:
39,245,72210,6,0,P|6:221|1:196,3,54.6875
0,138,72555,2,0,P|23:105|48:100,3,54.6875
105,90,72899,2,0,P|138:114|143:138,3,54.6875
158,40,73244,1,0,0:0:0:0:
158,40,73330,1,0,0:0:0:0:
158,40,73417,1,0,0:0:0:0:
158,40,73503,1,0,0:0:0:0:
158,40,73589,6,0,L|175:11,1,32.8125
183,32,73934,1,0,0:0:0:0:
176,96,74020,1,0,0:0:0:0:
170,161,74106,1,0,0:0:0:0:
163,225,74192,1,0,0:0:0:0:
157,290,74279,6,0,B|79:272|107:365|18:347,2,153.125001460314
496,372,74796,2,0,L|488:335,1,32.8125012516976
425,384,75141,1,0,0:0:0:0:
475,276,75313,1,0,0:0:0:0:
319,348,75486,1,0,0:0:0:0:
326,346,75573,1,0,0:0:0:0:
333,344,75659,1,0,0:0:0:0:
321,244,75830,5,0,0:0:0:0:
438,268,76003,2,0,B|308:241,1,109.375
333,331,76261,5,0,0:0:0:0:
325,339,76348,2,0,P|340:308|404:308,1,76.5625007301569
489,339,76520,1,0,0:0:0:0:
420,187,76692,1,0,0:0:0:0:
423,177,76779,1,0,0:0:0:0:
425,166,76865,1,0,0:0:0:0:
428,156,76952,1,0,0:0:0:0:
415,91,77037,6,0,B|468:83|493:136|493:136|542:81|499:12|499:12|517:59|482:90,1,295.312511265278
511,201,77382,1,0,0:0:0:0:
511,201,77641,6,0,B|453:249|479:328|479:328|501:286|461:251,1,196.875007510186
332,347,77899,2,0,P|359:313|418:319,1,98.4375037550928,8|0,0:0|0:0,0:0:0:0:
512,384,78072,1,0,0:0:0:0:
512,384,78330,6,0,B|412:402|465:255|341:290,1,196.875007510186
316,228,78589,1,0,0:0:0:0:
363,285,78675,2,0,P|393:248|369:177,1,98.4375037550928
388,199,79020,5,0,0:0:0:0:
378,198,79106,2,0,P|397:274|537:281,1,196.875007510186
481,377,79365,1,0,0:0:0:0:
477,384,79451,2,0,P|382:367|396:185,1,295.312511265278
449,228,79796,6,0,B|459:178|459:178|433:142|433:142|449:61,2,153.125001460314
100,280,80313,2,0,L|137:289,1,32.8125012516976
144,221,80658,1,0,0:0:0:0:
30,256,80830,1,0,0:0:0:0:
149,375,81003,1,0,3:0:0:0:
145,367,81090,1,0,3:0:0:0:
142,361,81176,1,0,3:0:0:0:
42,384,81348,5,0,0:0:0:0:
58,274,81520,2,0,P|67:326|41:374,1,109.375,0|0,3:3|0:0,0:0:0:0:
142,361,81779,5,0,3:0:0:0:
146,366,81865,1,0,3:0:0:0:
151,374,81952,2,0,P|120:368|109:304,1,76.5625007301569,0|0,3:0|3:0,3:0:0:0:
9,159,82210,2,0,P|60:145|63:90,1,83.1249977803231
160,139,82382,2,0,P|169:100|144:70,1,83.1249977803231,0|8,3:0|0:0,0:0:0:0:
15,0,82555,5,0,0:0:0:0:
36,22,82641,1,0,0:0:0:0:
53,49,82727,1,0,0:0:0:0:
66,78,82813,1,0,0:0:0:0:
73,109,82899,1,0,0:0:0:0:
75,141,82986,1,0,0:0:0:0:
71,173,83072,1,0,0:0:0:0:
61,204,83158,1,0,0:0:0:0:
52,208,83244,6,0,L|11:263,3,54.6875
155,265,83589,2,8,L|127:200,3,54.6875
55,323,83934,2,0,L|124:330,3,54.6875
69,246,84279,5,0,0:0:0:0:
69,246,84365,1,0,0:0:0:0:
69,246,84451,1,0,0:0:0:0:
69,246,84537,1,0,0:0:0:0:
69,246,84623,6,0,L|71:258,3,10.9375
85,230,84968,1,0,0:0:0:0:
137,267,85054,1,0,0:0:0:0:
190,304,85140,1,0,0:0:0:0:
241,343,85226,1,0,0:0:0:0:
295,380,85313,6,0,B|350:379|350:379|382:344|382:344|458:339,2,153.125001460314
450,65,85830,2,0,L|435:23,1,32.8125012516976
498,121,86175,1,0,0:0:0:0:
384,103,86348,1,0,0:0:0:0:
512,0,86520,1,0,3:0:0:0:
503,2,86607,1,0,3:0:0:0:
497,3,86693,1,0,3:0:0:0:
512,103,86865,5,0,0:0:0:0:
395,81,87037,2,0,L|511:101,1,109.375
486,186,87296,5,0,0:0:0:0:
496,182,87382,2,0,P|474:143|418:136,1,76.5625007301569
383,233,87555,1,0,0:0:0:0:
328,73,87727,1,0,0:0:0:0:
328,73,87813,1,0,0:0:0:0:
328,73,87899,1,0,0:0:0:0:
328,73,87986,1,0,0:0:0:0:
328,73,88072,6,0,L|336:12,1,61.25
149,162,201175,5,0,0:0:0:0:
174,53,201348,1,0,0:0:0:0:
256,192,220486,12,0,223158,0:0:0:0:
356,279,223244,6,0,P|401:306|409:383,1,135.625
408,383,226003,2,0,P|435:338|512:330,1,135.625
512,330,228761,2,0,P|467:303|459:226,1,135.625
459,225,231520,2,0,P|432:270|355:277,1,135.625
354,277,234279,6,0,P|338:188|392:219,1,203.43749379158
391,217,237037,2,0,P|439:263|432:152,1,271.25
432,151,239796,2,0,P|354:95|491:89,1,339.0625
491,85,242555,2,0,P|418:37|431:151,1,262.5
