osu file format v14

[General]
AudioFilename: audio.mp3
AudioLeadIn: 0
PreviewTime: 24126
Countdown: 0
SampleSet: None
StackLeniency: 0.2
Mode: 0
LetterboxInBreaks: 0
WidescreenStoryboard: 0

[Editor]
DistanceSpacing: 0.6
BeatDivisor: 4
GridSize: 32
TimelineZoom: 1

[Metadata]
Title:Romantic Children
TitleUnicode:Romantic Children
Artist:zetoban
ArtistUnicode:zetoban
Creator:BarkingMadDog
Version:ekusuuTARAA AYAYA
Source:東方Project
Tags:GENSOKYO HIGH SPEED DREAM ZUN Touhou Electronic Super Eurobeat Hardcore 東方怪綺談 ~ Mystic Square Alice Margatroid アリス・マーガトロイド
BeatmapID:1647042
BeatmapSetID:784476

[Difficulty]
HPDrainRate:7
CircleSize:5
OverallDifficulty:10
ApproachRate:9
SliderMultiplier:2
SliderTickRate:1

[Events]
//Background and Video events
0,0,"alice.jpg",0,0
//Break Periods
//Storyboard Layer 0 (Background)
//Storyboard Layer 1 (Fail)
//Storyboard Layer 2 (Pass)
//Storyboard Layer 3 (Foreground)
//Storyboard Sound Samples

[TimingPoints]
1539,352.941176470588,4,2,1,35,1,0
1539,-166.666666666667,4,2,1,35,0,0
12303,-83.3333333333333,4,2,1,35,0,0
12833,-111.111111111111,4,2,1,43,0,0
24127,-83.3333333333333,4,2,1,56,0,1
35421,-111.111111111111,4,2,1,53,0,0
58009,-83.3333333333333,4,2,1,56,0,1
69303,-166.666666666667,4,2,1,66,0,0
69656,-166.666666666667,4,2,1,5,0,0
69833,-166.666666666667,4,2,1,35,0,0
70009,-166.666666666667,4,2,1,45,0,0
70715,-166.666666666667,4,2,2,45,0,0
81303,-166.666666666667,4,2,1,45,0,0
81656,-166.666666666667,4,2,2,45,0,0
82009,-111.111111111111,4,2,1,53,0,0
93303,-83.3333333333333,4,2,1,56,0,1
104597,-111.111111111111,4,2,1,53,0,0
127186,-83.3333333333333,4,2,1,56,0,1
137068,-83.3333333333333,4,2,1,56,0,0
141303,-166.666666666667,4,2,1,56,0,0
141656,-166.666666666667,4,2,1,45,0,0
142009,-166.666666666667,4,2,1,33,0,0
142362,-166.666666666667,4,2,1,22,0,0
142715,-166.666666666667,4,2,1,15,0,0
143068,-166.666666666667,4,2,1,55,0,0
143686,-166.666666666667,4,2,1,5,0,0

[HitObjects]
56,57,1539,6,0,P|113:40|164:73,1,119.999996337891
151,165,2068,2,0,P|94:182|43:149,1,119.999996337891
166,9,2597,2,0,L|161:70,1,59.9999981689454
247,244,2950,6,0,L|239:122,1,119.999996337891
316,179,3480,2,0,L|309:60,1,119.999996337891
390,218,4009,2,0,L|394:158,1,59.9999981689454
512,351,4362,6,0,P|483:355|450:345,1,59.9999981689454
347,271,4715,2,0,P|329:246|323:217,1,59.9999981689454
455,231,5068,2,0,P|442:258|420:278,1,59.9999981689454
303,329,5421,2,0,P|273:331|244:322,1,59.9999981689454
138,249,5774,5,0,0:0:0:0:
138,249,5950,1,0,0:0:0:0:
192,286,6127,1,0,0:0:0:0:
144,184,6303,1,0,0:0:0:0:
74,342,6480,5,0,0:0:0:0:
199,221,6656,1,0,0:0:0:0:
32,174,6833,5,0,0:0:0:0:
77,349,7009,1,0,0:0:0:0:
190,100,7186,6,0,B|150:77|150:77|78:89,1,119.999996337891
32,174,7715,2,0,B|72:197|72:197|144:185,1,119.999996337891
263,17,8244,2,0,L|204:26,1,59.9999981689454
185,243,8597,6,0,P|214:192|197:137,1,119.999996337891
113,249,9127,2,0,P|141:299|198:312,1,119.999996337891
144,184,9656,2,0,P|113:177|80:185,1,59.9999981689454
198,312,10009,5,0,0:0:0:0:
281,201,10186,1,0,0:0:0:0:
207,232,10362,1,0,0:0:0:0:
207,232,10538,1,0,0:0:0:0:
335,328,10715,5,0,0:0:0:0:
269,320,10891,1,0,0:0:0:0:
443,283,11068,1,0,0:0:0:0:
403,336,11244,1,0,0:0:0:0:
253,136,11421,5,0,0:0:0:0:
335,328,11597,1,0,0:0:0:0:
337,334,11686,1,0,0:0:0:0:
418,222,11862,1,0,0:0:0:0:
420,216,11951,1,0,0:0:0:0:
505,288,12127,5,2,0:1:0:0:
505,288,12215,1,2,0:1:0:0:
505,288,12303,2,0,L|500:347,1,59.9999981689454,2|2,0:1|0:1,0:0:0:0:
418,222,12480,2,0,L|413:155,1,59.9999981689454,2|2,0:1|0:1,0:0:0:0:
335,328,12656,1,2,0:1:0:0:
194,195,12833,6,0,L|289:203,1,89.9999972534181,6|0,0:0|0:0,0:0:0:0:
199,310,13186,2,0,L|104:318,1,89.9999972534181,2|0,0:0|0:0,0:0:0:0:
245,121,13538,5,2,0:0:0:0:
283,202,13715,1,0,0:0:0:0:
297,48,13891,1,2,0:0:0:0:
157,114,14068,1,0,0:0:0:0:
423,136,14244,6,0,L|430:46,1,89.9999972534181,2|0,0:0|0:0,0:0:0:0:
503,97,14597,1,2,0:0:0:0:
425,228,14774,6,0,L|418:139,1,89.9999972534181,0|2,0:0|0:0,0:0:0:0:
430,46,15127,1,0,0:0:0:0:
424,315,15303,6,0,L|431:225,1,89.9999972534181,2|0,0:0|0:0,0:0:0:0:
178,176,15656,6,0,B|168:220|168:220|188:268,1,89.9999972534181,2|0,0:0|0:0,0:0:0:0:
219,346,16009,1,2,0:0:0:0:
248,126,16186,6,0,B|214:95|214:95|163:88,1,89.9999972534181,0|2,0:0|0:0,0:0:0:0:
81,81,16538,1,0,0:0:0:0:
256,211,16715,5,2,0:0:0:0:
248,126,16891,1,0,0:0:0:0:
178,176,17068,5,2,0:0:0:0:
334,245,17244,1,0,0:0:0:0:
248,126,17421,1,2,0:0:0:0:
187,260,17597,1,0,0:0:0:0:
395,111,17774,5,2,0:0:0:0:
162,7,17950,1,2,0:0:0:0:
264,296,18127,5,2,0:0:0:0:
368,63,18303,1,2,0:0:0:0:
31,192,18480,6,0,L|39:284,1,89.9999972534181,2|0,0:0|0:0,0:0:0:0:
256,384,18833,2,0,L|263:294,1,89.9999972534181,2|0,0:0|0:0,0:0:0:0:
164,64,19186,1,2,0:0:0:0:
150,244,19362,1,2,0:0:0:0:
150,244,19715,2,0,L|146:288,1,44.999998626709
313,167,19891,5,2,0:0:0:0:
164,64,20068,1,0,0:0:0:0:
402,174,20244,5,2,0:0:0:0:
402,174,20332,1,0,0:0:0:0:
402,174,20420,1,0,0:0:0:0:
231,206,20597,5,2,0:0:0:0:
415,18,20774,1,2,0:0:0:0:
415,18,21127,2,0,L|411:62,1,44.999998626709,2|0,0:0|0:0,0:0:0:0:
402,174,21303,5,2,0:0:0:0:
411,62,21480,1,0,0:0:0:0:
411,197,21656,1,2,0:0:0:0:
420,85,21833,1,0,0:0:0:0:
332,322,22009,5,2,0:0:0:0:
340,209,22186,1,0,0:0:0:0:
319,343,22362,1,2,0:0:0:0:
327,231,22539,1,0,0:0:0:0:
419,293,22715,5,6,0:0:0:0:
319,343,22891,1,0,0:0:0:0:
225,281,23068,1,0,0:0:0:0:
327,231,23244,1,0,0:0:0:0:
254,340,23421,5,2,0:1:0:0:
251,344,23509,1,2,0:1:0:0:
131,219,23686,1,2,0:1:0:0:
128,215,23774,5,2,0:1:0:0:
87,161,23862,1,2,0:1:0:0:
110,97,23950,1,2,0:1:0:0:
175,81,24038,1,2,0:1:0:0:
225,126,24127,6,0,L|91:116,1,119.999996337891,6|8,0:0|0:0,0:0:0:0:
306,16,24480,1,2,0:0:0:0:
157,225,24656,2,0,L|23:235,1,119.999996337891,8|2,0:0|0:0,0:0:0:0:
361,142,25009,1,8,0:0:0:0:
52,25,25186,2,0,L|172:17,1,119.999996337891,2|8,0:0|0:0,0:0:0:0:
401,298,25538,5,2,0:0:0:0:
299,360,25715,2,0,B|274:305|274:305|291:247,1,119.999996337891,8|2,0:0|0:0,0:0:0:0:
503,236,26068,2,0,B|528:291|528:291|510:348,1,119.999996337891,8|2,0:0|0:0,0:0:0:0:
292,361,26421,2,0,B|267:306|267:306|284:248,1,119.999996337891,8|2,0:0|0:0,0:0:0:0:
328,136,26774,1,8,0:0:0:0:
70,319,26950,6,0,L|190:311,1,119.999996337891,2|8,0:0|0:0,0:0:0:0:
331,132,27303,1,2,0:0:0:0:
122,211,27480,2,0,L|2:203,1,119.999996337891,8|2,0:0|0:0,0:0:0:0:
189,311,27833,1,8,0:0:0:0:
54,94,28009,2,0,L|174:102,1,119.999996337891,2|8,0:0|0:0,0:0:0:0:
416,345,28362,5,2,0:0:0:0:
495,145,28538,2,0,P|510:202|487:255,1,119.999996337891,8|2,0:0|0:0,0:0:0:0:
270,72,28891,2,0,P|247:125|262:182,1,119.999996337891,8|2,0:0|0:0,0:0:0:0:
321,280,29244,5,2,0:0:0:0:
262,296,29333,1,0,0:0:0:0:
210,281,29421,1,2,0:0:0:0:
173,249,29509,1,0,0:0:0:0:
140,223,29597,1,2,0:0:0:0:
103,224,29686,1,0,0:0:0:0:
77,240,29774,6,0,L|85:362,1,119.999996337891,6|8,0:0|0:0,0:0:0:0:
69,120,30127,1,2,0:0:0:0:
184,293,30303,2,0,L|191:173,1,119.999996337891,8|2,0:0|0:0,0:0:0:0:
84,359,30656,1,8,0:0:0:0:
283,119,30833,2,0,L|290:238,1,119.999996337891,2|8,0:0|0:0,0:0:0:0:
451,236,31186,5,2,0:0:0:0:
182,323,31362,2,0,B|240:306|240:306|293:331,1,119.999996337891,8|2,0:0|0:0,0:0:0:0:
502,163,31715,2,0,B|444:146|444:146|391:171,1,119.999996337891,8|2,0:0|0:0,0:0:0:0:
181,329,32068,2,0,B|239:312|239:312|292:337,1,119.999996337891,8|2,0:0|0:0,0:0:0:0:
405,384,32421,1,8,0:0:0:0:
445,147,32597,6,0,L|437:27,1,119.999996337891,2|8,0:0|0:0,0:0:0:0:
452,266,32950,1,2,0:0:0:0:
337,93,33127,2,0,L|329:212,1,119.999996337891,8|2,0:0|0:0,0:0:0:0:
321,331,33480,1,8,0:0:0:0:
221,26,33656,2,0,L|228:145,1,119.999996337891,2|8,0:0|0:0,0:0:0:0:
235,264,34009,5,2,0:0:0:0:
21,157,34186,1,8,0:0:0:0:
235,264,34362,1,2,0:0:0:0:
28,274,34538,1,8,0:0:0:0:
221,26,34715,5,2,0:0:0:0:
135,329,34891,1,10,0:0:0:0:
135,329,35244,2,0,L|131:264,1,59.9999981689454,2|0,0:0|0:0,0:0:0:0:
123,98,35421,5,6,0:0:0:0:
122,80,35774,1,2,0:0:0:0:
121,62,36127,1,2,0:0:0:0:
120,44,36480,1,2,0:0:0:0:
389,98,36656,5,0,0:0:0:0:
389,98,37009,1,0,0:0:0:0:
243,204,37186,1,2,0:0:0:0:
243,204,37538,1,2,0:0:0:0:
407,277,37715,1,0,0:0:0:0:
347,193,37891,1,2,0:0:0:0:
347,193,38244,5,2,0:0:0:0:
139,215,38421,1,0,0:0:0:0:
243,204,38597,1,2,0:0:0:0:
78,131,38950,5,2,0:0:0:0:
78,131,39303,1,2,0:0:0:0:
200,299,39480,1,0,0:0:0:0:
200,299,39833,5,0,0:0:0:0:
451,182,40009,1,2,0:0:0:0:
451,182,40362,1,2,0:0:0:0:
120,36,40538,1,2,0:0:0:0:
261,384,40715,5,0,0:0:0:0:
390,98,40891,1,2,0:0:0:0:
35,226,41068,5,2,0:0:0:0:
99,354,41244,2,0,L|96:310,1,44.999998626709
142,170,41421,1,2,0:0:0:0:
142,170,41597,2,0,L|139:215,1,44.999998626709
203,343,41774,1,2,0:0:0:0:
203,343,41950,2,0,L|199:298,1,44.999998626709
245,159,42127,1,2,0:0:0:0:
245,159,42303,2,0,L|242:204,1,44.999998626709
306,332,42480,5,2,0:0:0:0:
304,309,42568,1,0,0:0:0:0:
302,287,42656,1,0,0:0:0:0:
347,193,42833,1,2,0:0:0:0:
405,276,43009,1,0,0:0:0:0:
199,298,43186,5,2,0:0:0:0:
199,298,43274,1,0,0:0:0:0:
199,298,43362,1,0,0:0:0:0:
242,203,43538,1,2,0:0:0:0:
405,276,43715,1,0,0:0:0:0:
291,19,43891,6,0,L|285:108,1,89.9999972534181,2|0,0:0|0:0,0:0:0:0:
452,183,44244,2,0,L|458:94,1,89.9999972534181,2|0,0:0|0:0,0:0:0:0:
287,15,44597,2,0,L|281:104,1,89.9999972534181,2|0,0:0|0:0,0:0:0:0:
448,178,44950,1,2,0:0:0:0:
454,89,45127,1,0,0:0:0:0:
273,193,45303,5,2,0:0:0:0:
42,87,45480,2,0,B|85:74|85:74|125:93,1,89.9999972534181,0|2,0:0|0:0,0:0:0:0:
273,193,45833,1,0,0:0:0:0:
113,272,46009,5,2,0:0:0:0:
227,99,46186,1,2,0:0:0:0:
227,99,46538,2,0,L|223:50,1,44.999998626709,2|0,0:0|0:0,0:0:0:0:
319,287,46715,6,0,B|362:300|362:300|402:280,1,89.9999972534181,6|0,0:0|0:0,0:0:0:0:
417,123,47068,2,0,B|384:153|384:153|380:198,1,89.9999972534181,2|0,0:0|0:0,0:0:0:0:
510,289,47421,2,0,B|499:245|499:245|462:219,1,89.9999972534181,2|0,0:0|0:0,0:0:0:0:
319,287,47774,1,2,0:0:0:0:
162,276,47950,6,0,L|61:270,1,89.9999972534181,0|2,0:0|0:0,0:0:0:0:
22,356,48303,1,0,0:0:0:0:
22,356,48480,2,0,L|111:350,1,89.9999972534181,2|0,0:0|0:0,0:0:0:0:
152,110,48833,1,2,0:0:0:0:
111,190,49009,2,0,L|22:196,1,89.9999972534181,0|2,0:0|0:0,0:0:0:0:
193,30,49362,1,0,0:0:0:0:
474,174,49538,5,2,0:0:0:0:
242,106,49714,1,0,0:0:0:0:
428,6,49891,2,0,L|422:95,1,89.9999972534181,2|0,0:0|0:0,0:0:0:0:
297,271,50244,2,0,L|291:182,1,89.9999972534181,2|0,0:0|0:0,0:0:0:0:
284,26,50597,1,2,0:0:0:0:
511,101,50774,6,0,L|422:95,1,89.9999972534181,0|2,0:0|0:0,0:0:0:0:
216,231,51127,1,0,0:0:0:0:
378,309,51303,1,2,0:0:0:0:
284,26,51480,1,0,0:0:0:0:
284,26,51568,1,0,0:0:0:0:
284,26,51656,5,2,0:0:0:0:
297,271,51833,1,2,0:0:0:0:
209,75,52009,1,0,0:0:0:0:
222,320,52186,1,2,0:0:0:0:
452,258,52362,5,2,0:0:0:0:
290,181,52538,2,0,L|287:136,1,44.999998626709
378,309,52715,1,2,0:0:0:0:
216,231,52891,2,0,L|218:186,1,44.999998626709
303,360,53068,1,2,0:0:0:0:
146,181,53244,2,0,L|143:136,1,44.999998626709
69,307,53421,1,2,0:0:0:0:
73,186,53597,2,0,L|70:230,1,44.999998626709
225,364,53774,5,2,0:0:0:0:
224,342,53862,1,0,0:0:0:0:
222,320,53950,1,0,0:0:0:0:
146,181,54127,1,2,0:0:0:0:
69,307,54303,1,0,0:0:0:0:
301,182,54480,5,2,0:0:0:0:
301,182,54568,1,0,0:0:0:0:
301,182,54656,1,0,0:0:0:0:
75,51,54833,1,2,0:0:0:0:
146,181,55009,1,0,0:0:0:0:
223,55,55186,5,2,0:0:0:0:
224,63,55274,1,0,0:0:0:0:
224,71,55362,2,0,L|226:115,1,44.999998626709
314,30,55538,1,2,0:0:0:0:
313,38,55626,1,0,0:0:0:0:
312,46,55714,2,0,L|309:90,1,44.999998626709
294,270,55891,5,2,0:0:0:0:
395,77,56068,1,0,0:0:0:0:
396,99,56156,1,0,0:0:0:0:
398,121,56244,1,2,0:0:0:0:
289,357,56421,1,0,0:0:0:0:
140,145,56597,5,6,0:0:0:0:
376,257,56774,1,0,0:0:0:0:
376,257,57127,1,0,0:0:0:0:
58,364,57303,5,2,0:1:0:0:
47,358,57391,1,2,0:1:0:0:
36,349,57480,1,2,0:1:0:0:
25,334,57568,1,2,0:1:0:0:
17,315,57656,1,2,0:1:0:0:
17,268,57744,1,2,0:1:0:0:
52,232,57833,1,2,0:1:0:0:
103,229,57921,1,2,0:1:0:0:
152,275,58009,6,0,B|211:291|211:291|265:266,1,119.999996337891,6|8,0:0|0:0,0:0:0:0:
369,204,58362,1,2,0:0:0:0:
65,166,58538,2,0,B|21:209|21:209|16:268,1,119.999996337891,8|2,0:0|0:0,0:0:0:0:
8,384,58891,1,8,0:0:0:0:
202,145,59068,2,0,B|186:85|186:85|137:51,1,119.999996337891,2|8,0:0|0:0,0:0:0:0:
371,326,59421,5,2,0:0:0:0:
474,142,59597,2,0,L|481:18,1,119.999996337891,8|2,0:0|0:0,0:0:0:0:
285,255,59950,2,0,L|278:131,1,119.999996337891,8|2,0:0|0:0,0:0:0:0:
460,381,60303,2,0,L|467:257,1,119.999996337891,8|2,0:0|0:0,0:0:0:0:
474,142,60656,1,8,0:0:0:0:
184,320,60833,6,0,P|127:337|73:313,1,119.999996337891,2|8,0:0|0:0,0:0:0:0:
0,220,61186,1,2,0:0:0:0:
192,160,61362,2,0,P|179:217|132:253,1,119.999996337891,8|2,0:0|0:0,0:0:0:0:
9,288,61715,1,8,0:0:0:0:
58,73,61891,2,0,P|101:113|108:172,1,119.999996337891,2|8,0:0|0:0,0:0:0:0:
19,355,62244,5,2,0:0:0:0:
248,243,62421,2,0,L|372:250,1,119.999996337891,8|2,0:0|0:0,0:0:0:0:
445,378,62774,2,0,L|321:385,1,119.999996337891,8|2,0:0|0:0,0:0:0:0:
136,297,63127,5,10,0:0:0:0:
122,238,63215,1,0,0:0:0:0:
138,186,63303,1,2,0:0:0:0:
168,149,63391,1,0,0:0:0:0:
179,108,63480,1,2,0:0:0:0:
172,72,63568,1,0,0:0:0:0:
153,46,63656,6,0,B|94:30|94:30|40:55,1,119.999996337891,2|8,0:0|0:0,0:0:0:0:
281,136,64009,1,2,0:0:0:0:
162,237,64186,2,0,B|104:259|104:259|48:239,1,119.999996337891,8|2,0:0|0:0,0:0:0:0:
400,129,64538,1,8,0:0:0:0:
41,148,64715,2,0,L|165:141,1,119.999996337891,2|8,0:0|0:0,0:0:0:0:
453,22,65068,5,2,0:0:0:0:
287,255,65244,2,0,L|280:131,1,119.999996337891,8|2,0:0|0:0,0:0:0:0:
458,19,65597,2,0,L|465:143,1,119.999996337891,8|2,0:0|0:0,0:0:0:0:
283,259,65950,2,0,L|276:135,1,119.999996337891,8|2,0:0|0:0,0:0:0:0:
270,20,66303,1,8,0:0:0:0:
367,249,66480,6,0,P|353:306|306:341,1,119.999996337891,2|8,0:0|0:0,0:0:0:0:
175,204,66833,1,2,0:0:0:0:
400,170,67009,2,0,P|442:210|449:268,1,119.999996337891,8|2,0:0|0:0,0:0:0:0:
182,324,67362,1,8,0:0:0:0:
349,103,67538,2,0,P|405:85|459:109,1,119.999996337891,2|8,0:0|0:0,0:0:0:0:
283,259,67891,5,2,0:0:0:0:
67,149,68068,1,8,0:0:0:0:
182,324,68244,1,2,0:0:0:0:
122,41,68421,1,8,0:0:0:0:
67,149,68597,5,2,0:0:0:0:
244,35,68774,1,2,0:0:0:0:
244,35,69127,2,0,L|240:95,1,59.9999981689454,2|0,0:0|0:0,0:0:0:0:
204,171,69303,6,0,B|302:207|282:113|383:146,1,179.999994506836,4|0,0:0|0:0,0:0:0:0:
453,103,70009,5,2,0:1:0:0:
453,103,70097,1,2,0:1:0:0:
447,193,70274,1,2,0:1:0:0:
447,193,70362,1,2,0:1:0:0:
444,283,70538,1,2,0:1:0:0:
364,325,70715,6,0,L|222:317,1,119.999996337891,6|0,0:0|0:0,0:0:0:0:
63,312,71421,1,10,0:1:0:0:
23,259,71597,1,2,0:0:0:0:
34,193,71950,1,2,0:0:0:0:
88,155,72127,1,2,0:0:0:0:
152,168,72656,1,2,0:0:0:0:
207,132,72833,1,10,0:0:0:0:
220,67,73009,1,0,0:0:0:0:
181,13,73538,5,2,0:0:0:0:
220,67,74068,1,2,0:0:0:0:
285,72,74244,1,8,0:0:0:0:
330,23,74597,1,2,0:0:0:0:
395,23,74950,1,2,0:0:0:0:
442,69,75127,1,2,0:0:0:0:
441,134,75480,1,2,0:0:0:0:
394,180,75656,1,10,0:0:0:0:
327,178,76009,1,10,0:0:0:0:
327,178,76186,1,8,0:0:0:0:
282,129,76362,6,0,B|225:110|225:110|165:138,1,119.999996337891,2|0,0:0|0:0,0:0:0:0:
9,217,77068,1,10,0:0:0:0:
74,215,77244,1,2,0:0:0:0:
120,261,77597,1,2,0:0:0:0:
75,372,77774,5,2,0:0:0:0:
122,326,78303,1,2,0:0:0:0:
188,327,78480,1,10,0:0:0:0:
233,374,78656,1,2,0:0:0:0:
299,374,79186,5,2,0:0:0:0:
346,327,79715,1,2,0:0:0:0:
344,260,79891,1,10,0:0:0:0:
296,214,80244,1,2,0:0:0:0:
230,219,80597,5,2,0:0:0:0:
230,219,80950,1,0,0:0:0:0:
230,219,81127,1,2,0:0:0:0:
186,267,81303,5,2,0:1:0:0:
190,271,81391,1,2,0:1:0:0:
197,275,81480,1,2,0:1:0:0:
207,280,81568,1,2,0:1:0:0:
221,283,81656,5,2,0:0:0:0:
241,283,81744,1,2,0:0:0:0:
266,273,81833,1,2,0:0:0:0:
288,248,81921,1,2,0:0:0:0:
292,203,82009,6,0,L|286:105,1,89.9999972534181,6|0,0:0|0:0,0:0:0:0:
381,18,82362,2,0,L|375:107,1,89.9999972534181,2|0,0:0|0:0,0:0:0:0:
205,251,82715,2,0,L|211:162,1,89.9999972534181,2|0,0:0|0:0,0:0:0:0:
456,67,83068,2,0,L|461:156,1,89.9999972534181,2|0,0:0|0:0,0:0:0:0:
472,337,83421,6,0,B|428:347|428:347|386:333,1,89.9999972534181,2|0,0:0|0:0,0:0:0:0:
341,253,83774,2,0,B|385:243|385:243|427:257,1,89.9999972534181,2|0,0:0|0:0,0:0:0:0:
126,333,84127,2,0,B|84:347|84:347|40:337,1,89.9999972534181,2|0,0:0|0:0,0:0:0:0:
166,257,84480,2,0,B|199:286|199:286|212:329,1,89.9999972534181,2|0,0:0|0:0,0:0:0:0:
72,149,84833,6,0,L|74:193,1,44.999998626709,2|0,0:0|0:0,0:0:0:0:
81,260,85009,1,0,0:0:0:0:
180,111,85186,6,0,L|177:155,1,44.999998626709,2|0,0:0|0:0,0:0:0:0:
170,225,85362,1,0,0:0:0:0:
67,144,85538,6,0,L|69:188,1,44.999998626709,2|0,0:0|0:0,0:0:0:0:
76,255,85714,1,0,0:0:0:0:
185,108,85891,6,0,L|182:152,1,44.999998626709,2|0,0:0|0:0,0:0:0:0:
176,219,86068,1,0,0:0:0:0:
61,140,86244,6,0,L|63:184,1,44.999998626709,2|0,0:0|0:0,0:0:0:0:
70,252,86421,1,0,0:0:0:0:
190,104,86597,6,0,L|183:193,1,89.9999972534181,2|0,0:0|0:0,0:0:0:0:
56,71,86950,1,2,0:0:0:0:
77,322,87127,1,2,0:0:0:0:
77,322,87480,2,0,L|81:373,1,44.999998626709,2|0,0:0|0:0,0:0:0:0:
282,311,87656,6,0,B|240:325|240:325|196:315,1,89.9999972534181,2|0,0:0|0:0,0:0:0:0:
340,185,88009,1,2,0:0:0:0:
282,316,88186,2,0,B|240:330|240:330|196:320,1,89.9999972534181,0|2,0:0|0:0,0:0:0:0:
340,185,88538,1,0,0:0:0:0:
448,230,88715,2,0,B|480:260|480:260|492:303,1,89.9999972534181,2|0,0:0|0:0,0:0:0:0:
232,140,89068,6,0,L|225:50,1,89.9999972534181,2|0,0:0|0:0,0:0:0:0:
282,316,89421,1,2,0:0:0:0:
237,145,89597,2,0,L|230:55,1,89.9999972534181,0|2,0:0|0:0,0:0:0:0:
340,185,89950,1,0,0:0:0:0:
105,272,90127,2,0,L|15:265,1,89.9999972534181,2|0,0:0|0:0,0:0:0:0:
340,185,90480,6,0,L|430:192,1,89.9999972534181,2|0,0:0|0:0,0:0:0:0:
392,109,90833,1,2,0:0:0:0:
289,273,91009,2,0,L|379:266,1,89.9999972534181,0|2,0:0|0:0,0:0:0:0:
249,192,91362,1,0,0:0:0:0:
339,347,91538,1,2,0:0:0:0:
339,347,91627,1,0,0:0:0:0:
339,347,91715,1,0,0:0:0:0:
429,191,91891,5,6,0:0:0:0:
261,303,92068,2,0,B|217:313|217:313|175:299,1,89.9999972534181,0|2,0:0|0:0,0:0:0:0:
89,264,92421,1,0,0:0:0:0:
164,162,92597,6,0,L|160:213,1,44.999998626709,2|0,0:0|0:0,0:0:0:0:
5,231,92774,2,0,L|1:186,1,44.999998626709,2|0,0:0|0:0,0:0:0:0:
105,68,92950,1,2,0:1:0:0:
169,50,93038,1,2,0:1:0:0:
232,73,93127,1,2,0:1:0:0:
269,129,93215,1,2,0:1:0:0:
270,196,93303,6,0,L|262:318,1,119.999996337891,6|8,0:0|0:0,0:0:0:0:
162,249,93656,1,2,0:0:0:0:
377,142,93833,2,0,L|369:264,1,119.999996337891,8|2,0:0|0:0,0:0:0:0:
262,315,94186,1,8,0:0:0:0:
484,88,94362,2,0,L|476:210,1,119.999996337891,2|8,0:0|0:0,0:0:0:0:
154,368,94715,5,2,0:0:0:0:
62,183,94891,2,0,B|119:163|119:163|171:190,1,119.999996337891,8|2,0:0|0:0,0:0:0:0:
371,322,95244,2,0,B|314:342|314:342|261:314,1,119.999996337891,8|2,0:0|0:0,0:0:0:0:
62,176,95597,2,0,B|119:156|119:156|171:183,1,119.999996337891,8|2,0:0|0:0,0:0:0:0:
372,329,95950,1,8,0:0:0:0:
171,177,96127,6,0,L|163:57,1,119.999996337891,2|8,0:0|0:0,0:0:0:0:
178,296,96480,1,2,0:0:0:0:
270,110,96656,2,0,L|262:229,1,119.999996337891,8|2,0:0|0:0,0:0:0:0:
353,42,97009,1,8,0:0:0:0:
368,281,97186,2,0,L|360:161,1,119.999996337891,2|8,0:0|0:0,0:0:0:0:
71,243,97538,5,2,0:0:0:0:
168,380,97715,2,0,P|220:368|263:313,1,119.999996337891,8|2,0:0|0:0,0:0:0:0:
3,191,98068,2,0,P|-13:242|12:306,1,119.999996337891,8|2,0:0|0:0,0:0:0:0:
249,142,98421,5,10,0:0:0:0:
261,80,98509,1,0,0:0:0:0:
227,39,98597,1,2,0:0:0:0:
180,27,98686,1,0,0:0:0:0:
142,47,98774,1,2,0:0:0:0:
122,76,98862,1,0,0:0:0:0:
120,105,98950,6,0,P|171:120|235:94,1,119.999996337891,2|8,0:0|0:0,0:0:0:0:
319,16,99303,1,2,0:0:0:0:
381,238,99480,2,0,P|382:184|340:128,1,119.999996337891,8|2,0:0|0:0,0:0:0:0:
231,98,99833,1,8,0:0:0:0:
313,291,100009,2,0,P|358:319|427:310,1,119.999996337891,2|8,0:0|0:0,0:0:0:0:
301,205,100362,5,2,0:0:0:0:
112,265,100538,2,0,L|232:257,1,119.999996337891,8|2,0:0|0:0,0:0:0:0:
59,372,100891,2,0,L|179:364,1,119.999996337891,8|2,0:0|0:0,0:0:0:0:
44,164,101244,2,0,L|164:156,1,119.999996337891,8|2,0:0|0:0,0:0:0:0:
350,247,101597,1,8,0:0:0:0:
451,119,101774,6,0,B|394:99|394:99|342:126,1,119.999996337891,2|8,0:0|0:0,0:0:0:0:
350,247,102127,1,2,0:0:0:0:
446,48,102303,2,0,B|389:28|389:28|336:55,1,119.999996337891,8|2,0:0|0:0,0:0:0:0:
352,268,102656,1,8,0:0:0:0:
228,2,102833,2,0,L|236:122,1,119.999996337891,2|8,0:0|0:0,0:0:0:0:
249,359,103186,5,2,0:0:0:0:
35,252,103362,1,8,0:0:0:0:
235,121,103538,1,2,0:0:0:0:
172,243,103715,6,0,L|175:302,1,59.9999981689454,8|0,0:0|0:0,0:0:0:0:
101,130,103891,2,0,L|97:70,1,59.9999981689454,2|0,0:0|0:0,0:0:0:0:
35,252,104068,1,10,0:0:0:0:
35,252,104421,2,0,L|38:311,1,59.9999981689454,2|0,0:0|0:0,0:0:0:0:
235,121,104597,5,6,0:0:0:0:
234,103,104950,1,2,0:0:0:0:
233,85,105303,1,2,0:0:0:0:
232,67,105656,1,2,0:0:0:0:
277,263,105833,5,0,0:0:0:0:
277,263,106186,1,0,0:0:0:0:
451,304,106362,1,2,0:0:0:0:
451,304,106715,1,2,0:0:0:0:
400,133,106891,1,0,0:0:0:0:
376,233,107068,1,2,0:0:0:0:
376,233,107421,5,2,0:0:0:0:
202,192,107597,1,0,0:0:0:0:
277,263,107774,1,2,0:0:0:0:
103,222,108127,5,2,0:0:0:0:
103,222,108480,1,2,0:0:0:0:
301,162,108656,1,0,0:0:0:0:
301,162,109009,1,0,0:0:0:0:
52,50,109186,1,2,0:0:0:0:
52,50,109538,5,2,0:0:0:0:
179,293,109715,1,2,0:0:0:0:
325,62,109891,5,0,0:0:0:0:
27,151,110068,1,2,0:0:0:0:
279,307,110244,5,2,0:0:0:0:
105,177,110421,2,0,L|101:238,1,44.999998626709
181,337,110597,1,2,0:0:0:0:
181,337,110774,2,0,L|178:292,1,44.999998626709
204,147,110950,1,2,0:0:0:0:
204,147,111127,2,0,L|200:208,1,44.999998626709
279,307,111303,1,2,0:0:0:0:
279,307,111480,2,0,L|276:262,1,44.999998626709
302,117,111656,5,2,0:0:0:0:
300,139,111744,1,0,0:0:0:0:
299,161,111832,1,0,0:0:0:0:
377,277,112009,1,2,0:0:0:0:
438,152,112186,1,0,0:0:0:0:
276,262,112362,5,2,0:0:0:0:
276,262,112450,1,0,0:0:0:0:
276,262,112538,1,0,0:0:0:0:
463,242,112715,1,2,0:0:0:0:
355,89,112891,1,0,0:0:0:0:
314,343,113068,6,0,L|224:335,1,89.9999972534181,2|0,0:0|0:0,0:0:0:0:
148,173,113421,2,0,L|238:181,1,89.9999972534181,2|0,0:0|0:0,0:0:0:0:
276,262,113774,2,0,L|186:254,1,89.9999972534181,2|0,0:0|0:0,0:0:0:0:
43,320,114127,1,2,0:0:0:0:
134,327,114303,1,0,0:0:0:0:
199,99,114480,5,2,0:0:0:0:
4,238,114656,2,0,L|11:148,1,89.9999972534181,0|2,0:0|0:0,0:0:0:0:
19,55,115009,1,0,0:0:0:0:
186,254,115186,5,2,0:0:0:0:
275,10,115362,1,2,0:0:0:0:
275,10,115715,2,0,L|271:61,1,44.999998626709,2|0,0:0|0:0,0:0:0:0:
237,157,115891,6,0,L|326:149,1,89.9999972534181,2|0,0:0|0:0,0:0:0:0:
454,60,116244,2,0,L|415:141,1,89.9999972534181,2|0,0:0|0:0,0:0:0:0:
430,297,116597,2,0,L|378:222,1,89.9999972534181,2|0,0:0|0:0,0:0:0:0:
237,157,116950,1,2,0:0:0:0:
199,238,117127,6,0,L|288:230,1,89.9999972534181,0|2,0:0|0:0,0:0:0:0:
109,247,117480,1,0,0:0:0:0:
249,326,117656,2,0,L|159:318,1,89.9999972534181,2|0,0:0|0:0,0:0:0:0:
59,174,118009,1,2,0:0:0:0:
26,343,118186,2,0,L|18:253,1,89.9999972534181,0|2,0:0|0:0,0:0:0:0:
98,96,118538,1,0,0:0:0:0:
288,230,118715,5,2,0:0:0:0:
59,174,118891,1,0,0:0:0:0:
192,0,119068,2,0,L|185:90,1,89.9999972534181,2|0,0:0|0:0,0:0:0:0:
66,263,119421,2,0,L|58:173,1,89.9999972534181,2|0,0:0|0:0,0:0:0:0:
50,24,119774,1,2,0:0:0:0:
146,168,119950,6,0,B|190:178|190:178|231:161,1,89.9999972534181,0|2,0:0|0:0,0:0:0:0:
431,58,120303,1,0,0:0:0:0:
418,282,120480,1,2,0:0:0:0:
317,83,120656,1,0,0:0:0:0:
317,83,120744,1,0,0:0:0:0:
317,83,120833,5,2,0:0:0:0:
457,173,121009,1,2,0:0:0:0:
231,160,121186,5,2,0:0:0:0:
431,58,121362,1,2,0:0:0:0:
291,275,121538,5,2,0:0:0:0:
231,160,121715,2,0,L|235:112,1,44.999998626709
360,165,121891,1,2,0:0:0:0:
164,193,122068,2,0,L|160:145,1,44.999998626709
291,275,122244,1,2,0:0:0:0:
88,220,122421,2,0,L|92:176,1,44.999998626709
77,335,122597,1,2,0:0:0:0:
15,148,122774,2,0,L|19:193,1,44.999998626709
178,350,122950,5,2,0:0:0:0:
180,328,123038,1,0,0:0:0:0:
182,306,123126,1,0,0:0:0:0:
77,335,123303,1,2,0:0:0:0:
291,275,123480,1,0,0:0:0:0:
133,120,123656,5,2,0:0:0:0:
133,120,123744,1,0,0:0:0:0:
133,120,123833,1,0,0:0:0:0:
77,335,124009,1,2,0:0:0:0:
212,196,124186,1,0,0:0:0:0:
365,348,124362,5,2,0:0:0:0:
436,244,124538,1,0,0:0:0:0:
414,246,124626,1,0,0:0:0:0:
392,248,124715,1,2,0:0:0:0:
449,170,124891,5,0,0:0:0:0:
405,174,124980,1,0,0:0:0:0:
360,180,125068,1,2,0:0:0:0:
465,95,125244,5,0,0:0:0:0:
397,102,125333,1,0,0:0:0:0:
330,110,125421,1,2,0:0:0:0:
388,29,125597,1,0,0:0:0:0:
414,246,125774,5,2,0:0:0:0:
214,161,125950,1,2,0:0:0:0:
208,157,126303,1,0,0:0:0:0:
40,294,126480,5,2,0:1:0:0:
50,300,126568,1,2,0:1:0:0:
63,305,126657,1,2,0:1:0:0:
82,307,126745,1,2,0:1:0:0:
102,305,126833,1,2,0:1:0:0:
143,281,126921,1,2,0:1:0:0:
157,233,127010,1,2,0:1:0:0:
134,187,127098,1,2,0:1:0:0:
70,168,127186,6,0,L|79:302,1,119.999996337891,6|8,0:0|0:0,0:0:0:0:
284,167,127538,1,2,0:0:0:0:
185,101,127715,2,0,L|176:235,1,119.999996337891,8|2,0:0|0:0,0:0:0:0:
185,343,128068,1,8,0:0:0:0:
284,167,128244,2,0,L|292:47,1,119.999996337891,2|8,0:0|0:0,0:0:0:0:
386,340,128597,5,2,0:0:0:0:
334,255,128774,2,0,B|391:235|391:235|444:262,1,119.999996337891,8|2,0:0|0:0,0:0:0:0:
185,343,129127,2,0,B|127:362|127:362|74:335,1,119.999996337891,8|2,0:0|0:0,0:0:0:0:
335,249,129480,2,0,B|392:229|392:229|445:256,1,119.999996337891,8|2,0:0|0:0,0:0:0:0:
274,318,129833,1,8,0:0:0:0:
178,166,130009,6,0,P|183:107|225:67,1,119.999996337891,2|8,0:0|0:0,0:0:0:0:
334,16,130362,1,2,0:0:0:0:
178,166,130538,2,0,P|124:190|68:173,1,119.999996337891,8|2,0:0|0:0,0:0:0:0:
225,67,130891,1,8,0:0:0:0:
360,263,131068,2,0,L|240:256,1,119.999996337891,2|8,0:0|0:0,0:0:0:0:
68,173,131421,5,2,0:0:0:0:
298,18,131597,2,0,B|317:75|317:75|290:128,1,119.999996337891,8|2,0:0|0:0,0:0:0:0:
7,233,131950,2,0,B|-20:180|-20:180|0:122,1,119.999996337891,8|2,0:0|0:0,0:0:0:0:
197,15,132303,5,10,0:0:0:0:
225,67,132391,1,0,0:0:0:0:
215,120,132480,1,2,0:0:0:0:
181,154,132568,1,0,0:0:0:0:
170,194,132656,1,2,0:0:0:0:
177,229,132744,1,0,0:0:0:0:
194,254,132833,6,0,P|247:278|303:261,1,119.999996337891,2|8,0:0|0:0,0:0:0:0:
208,125,133186,1,2,0:0:0:0:
0,236,133362,2,0,P|53:260|109:243,1,119.999996337891,8|2,0:0|0:0,0:0:0:0:
303,261,133715,1,8,0:0:0:0:
98,117,133891,2,0,P|154:100|208:125,1,119.999996337891,2|8,0:0|0:0,0:0:0:0:
351,330,134244,5,2,0:0:0:0:
393,134,134421,2,0,L|386:253,1,119.999996337891,8|2,0:0|0:0,0:0:0:0:
227,384,134774,2,0,L|220:264,1,119.999996337891,8|2,0:0|0:0,0:0:0:0:
398,130,135127,2,0,L|391:249,1,119.999996337891,8|2,0:0|0:0,0:0:0:0:
233,381,135480,1,8,0:0:0:0:
58,277,135656,6,0,B|31:224|31:224|50:166,1,119.999996337891,2|8,0:0|0:0,0:0:0:0:
99,59,136009,1,2,0:0:0:0:
52,278,136186,2,0,B|25:225|25:225|44:167,1,119.999996337891,8|2,0:0|0:0,0:0:0:0:
109,38,136538,1,8,0:0:0:0:
141,303,136715,2,0,B|108:352|108:352|49:365,1,119.999996337891,2|8,0:0|0:0,0:0:0:0:
355,143,137068,5,6,0:0:0:0:
420,243,137244,2,0,L|300:249,1,119.999996337891,8|2,0:0|0:0,0:0:0:0:
487,114,137597,2,0,L|368:121,1,119.999996337891,8|2,0:0|0:0,0:0:0:0:
218,131,137950,1,2,0:0:0:0:
461,61,138127,2,0,B|488:113|488:113|468:171,1,119.999996337891,2|10,0:0|0:0,0:0:0:0:
156,261,138480,5,2,0:0:0:0:
224,11,138656,2,0,L|218:131,1,119.999996337891,8|2,0:0|0:0,0:0:0:0:
54,326,139009,2,0,L|48:207,1,119.999996337891,8|2,0:0|0:0,0:0:0:0:
40,58,139362,1,8,0:0:0:0:
266,268,139538,2,0,B|208:287|208:287|155:260,1,119.999996337891,2|8,0:0|0:0,0:0:0:0:
409,84,139891,5,2,0:0:0:0:
409,84,139980,1,0,0:0:0:0:
409,84,140068,1,8,0:0:0:0:
266,268,140244,1,2,0:0:0:0:
359,12,140421,2,0,B|416:-7|416:-7|469:19,1,119.999996337891,8|2,0:0|0:0,0:0:0:0:
408,231,140774,1,10,0:0:0:0:
186,86,140950,2,0,B|133:58|133:58|75:78,1,119.999996337891,2|2,0:0|0:0,0:0:0:0:
172,351,141303,6,0,L|179:221,4,119.999996337891,6|0|0|0|0,0:0|0:0|0:0|0:0|0:0,0:0:0:0:
172,351,143068,5,6,0:0:0:0:
278,296,143244,1,6,0:0:0:0:
77,165,143421,1,6,0:0:0:0:
289,55,143597,1,6,0:0:0:0:
256,192,143686,12,0,146950,0:0:0:0:
