osu file format v14

[General]
AudioFilename: audio.mp3
AudioLeadIn: 0
PreviewTime: -1
Countdown: 0
SampleSet: None
StackLeniency: 0.2
Mode: 0
LetterboxInBreaks: 0
WidescreenStoryboard: 1

[Editor]
DistanceSpacing: 1
BeatDivisor: 4
GridSize: 16
TimelineZoom: 1.6

[Metadata]
Title:Santorini (Club version)
TitleUnicode:Santorini (Club version)
Artist:zero-project
ArtistUnicode:zero-project
Creator:abcd452
Version:test
Source:
Tags:
BeatmapID:2012360
BeatmapSetID:961231

[Difficulty]
HPDrainRate:5
CircleSize:4.4
OverallDifficulty:9
ApproachRate:9.4
SliderMultiplier:2.2
SliderTickRate:1

[Events]
//Background and Video events
//Break Periods
2,81597,96286
2,98740,112786
//Storyboard Layer 0 (Background)
//Storyboard Layer 1 (Fail)
//Storyboard Layer 2 (Pass)
//Storyboard Layer 3 (Foreground)
//Storyboard Sound Samples

[TimingPoints]
384,428.571428571429,4,1,0,40,1,0
826,428.571428571429,4,1,0,40,1,0
1990,-100,4,2,0,40,0,0
14097,-100,4,1,0,40,0,0
17847,-100,4,2,0,40,0,0
21383,-100,4,1,0,40,0,0
22883,-66.6666666666667,4,1,0,40,0,0
24812,-200,4,1,0,40,0,0
27276,-66.6666666666667,4,1,0,40,0,0
27704,-66.6666666666667,4,1,0,5,0,0
27812,-100,4,1,0,40,0,0
49240,-66.6666666666667,4,1,0,40,0,0
53526,-80,4,1,0,40,0,0
55669,-100,4,1,0,40,0,0
69383,-95.2380952380952,4,1,0,40,0,0
70240,-66.6666666666667,4,1,0,40,0,0
110526,-100,4,1,0,40,0,0
117276,-66.6666666666667,4,1,0,40,0,0

[HitObjects]
121,142,384,5,0,0:0:0:0:
73,234,491,1,0,0:0:0:0:
149,304,598,1,0,0:0:0:0:
243,261,705,1,0,0:0:0:0:
224,158,798,2,0,L|158:46,1,110
225,18,1133,1,0,0:0:0:0:
296,22,1240,2,0,L|297:132,1,110
297,184,1562,1,0,0:0:0:0:
369,158,1669,2,0,L|435:46,1,110
301,316,2097,5,8,0:0:0:0:
93,300,2540,2,0,B|198:245|223:369|309:310,3,220
212,69,4254,5,8,0:0:0:0:
316,84,4468,1,0,0:0:0:0:
419,84,4683,2,0,B|314:139|289:15|203:74,1,220
419,84,5540,1,8,0:0:0:0:
219,102,5968,2,0,B|296:155|321:31|426:86,3,220
88,299,7683,5,8,0:0:0:0:
164,298,8111,2,0,B|124:194|124:194|79:322,1,220
425,298,8968,5,8,0:0:0:0:
336,148,9397,2,0,B|324:207|324:207|363:253|410:237|410:237|433:333,1,220
104,242,10040,1,0,0:0:0:0:
193,92,10254,2,0,B|205:151|205:151|166:197|119:181|119:181|96:277,1,220
407,143,11111,5,8,0:0:0:0:
287,144,11540,2,0,P|356:69|395:169,1,220
287,144,12397,1,8,0:0:0:0:
131,141,12826,2,0,B|148:155|148:155|164:139|164:139|180:155|180:155|196:139|196:139|212:155|212:155|228:139|228:139|244:155|244:155|260:139|260:139|276:155|276:155|292:139|292:139|308:155,2,220
223,240,14111,6,0,L|255:297,1,55
315,377,14326,1,0,0:0:0:0:
403,312,14433,1,0,0:0:0:0:
339,223,14540,2,0,L|268:120,1,110
233,76,14861,1,0,0:0:0:0:
180,129,14968,2,0,L|251:232,1,110
286,276,15289,1,0,0:0:0:0:
339,223,15397,2,0,P|334:275|284:278,1,110
179,128,15826,5,8,0:0:0:0:
125,224,16254,2,0,L|190:109,1,110
125,224,16576,1,0,0:0:0:0:
70,319,16683,2,0,L|135:204,1,110
70,319,17004,1,0,0:0:0:0:
124,223,17111,2,0,L|59:338,2,110
388,223,17968,5,0,0:0:0:0:
388,223,18397,2,0,L|299:126,1,110
388,61,18718,1,0,0:0:0:0:
462,141,18826,2,0,L|388:223,1,110
125,222,19254,1,0,0:0:0:0:
202,109,19683,2,0,L|97:155,1,110
125,222,20004,1,0,0:0:0:0:
48,335,20111,2,0,L|153:289,1,110
125,222,20432,1,0,0:0:0:0:
80,121,20540,2,0,L|126:226,1,110
48,335,20861,1,0,0:0:0:0:
125,222,20968,1,0,0:0:0:0:
387,162,21397,6,0,L|289:67,1,110
211,32,21718,1,0,0:0:0:0:
207,142,21826,1,0,0:0:0:0:
298,202,21933,1,0,0:0:0:0:
349,312,22040,2,0,L|418:266,1,55
349,312,22254,2,0,P|305:251|230:273,1,110
255,356,22576,1,0,0:0:0:0:
387,162,22683,6,0,L|289:67,1,110
0,143,23111,2,0,B|104:49|158:193|309:85,3,330.000012588501
309,84,24826,5,0,0:0:0:0:
309,84,25254,2,0,L|336:159,1,55
204,83,25576,1,0,0:0:0:0:
414,85,25683,2,0,L|441:160,1,55
204,83,26111,1,0,0:0:0:0:
203,84,26540,2,0,L|176:159,1,55
308,83,26862,1,0,0:0:0:0:
98,85,26969,2,0,L|71:160,1,55
174,286,27397,6,0,P|247:176|197:80,1,247.500009441376
129,129,27826,5,0,0:0:0:0:
183,189,27933,1,0,0:0:0:0:
263,200,28040,1,0,0:0:0:0:
331,157,28147,1,0,0:0:0:0:
263,200,28254,6,0,P|256:204|225:322,1,110
341,146,28576,1,0,0:0:0:0:
263,200,28683,2,0,P|255:203|224:321,1,110
351,135,29004,1,0,0:0:0:0:
263,200,29111,2,0,P|251:202|224:321,1,110
213,289,29540,5,0,0:0:0:0:
105,268,29968,2,0,L|224:291,1,110
265,240,30290,1,0,0:0:0:0:
91,194,30397,2,0,L|210:217,1,110
251,166,30719,1,0,0:0:0:0:
77,120,30826,2,0,L|196:143,2,110
435,120,31683,5,0,0:0:0:0:
435,120,32111,2,0,B|448:181|448:181|419:239,1,110
316,239,32433,1,0,0:0:0:0:
370,143,32540,2,0,B|309:130|309:130|251:159,1,110
77,120,32968,5,0,0:0:0:0:
221,120,33397,1,0,0:0:0:0:
184,161,33504,1,0,0:0:0:0:
148,202,33611,2,0,L|93:266,1,55
184,161,33826,2,0,L|287:41,1,110
221,120,34147,1,0,0:0:0:0:
255,77,34254,1,0,0:0:0:0:
256,306,34468,1,0,0:0:0:0:
255,77,34683,1,0,0:0:0:0:
292,265,35111,5,0,0:0:0:0:
296,304,35540,2,0,P|257:285|317:294,1,220
191,290,36397,5,0,0:0:0:0:
191,290,36826,1,0,0:0:0:0:
89,247,36933,1,0,0:0:0:0:
113,139,37040,1,0,0:0:0:0:
222,129,37147,1,0,0:0:0:0:
271,227,37254,2,0,P|335:263|397:228,1,110
394,147,37576,1,0,0:0:0:0:
288,101,37683,6,0,P|300:149|358:215,2,110
224,283,38540,5,0,0:0:0:0:
166,192,38968,2,0,P|246:294|261:299,1,110
310,214,39290,1,0,0:0:0:0:
396,145,39397,2,0,P|316:43|301:38,1,110
252,123,39826,5,0,0:0:0:0:
59,203,40254,1,0,0:0:0:0:
103,266,40361,1,0,0:0:0:0:
147,330,40468,1,0,0:0:0:0:
453,203,40683,1,0,0:0:0:0:
409,266,40790,1,0,0:0:0:0:
365,330,40897,1,0,0:0:0:0:
147,330,41111,1,0,0:0:0:0:
256,281,41218,1,0,0:0:0:0:
365,330,41326,1,0,0:0:0:0:
256,77,41540,5,0,0:0:0:0:
177,154,41647,1,0,0:0:0:0:
335,154,41754,1,0,0:0:0:0:
98,231,41861,1,0,0:0:0:0:
414,231,41968,2,0,L|279:232,1,110
98,231,42397,2,0,L|233:232,1,110
414,231,42826,2,0,L|279:232,1,110
98,231,43254,5,0,0:0:0:0:
98,231,43683,2,0,P|97:225|135:124,1,110
170,201,44004,1,0,0:0:0:0:
271,170,44111,2,0,P|265:169|164:207,1,110
241,242,44432,1,0,0:0:0:0:
210,343,44540,2,0,P|209:337|247:236,2,110
302,41,45397,5,0,0:0:0:0:
302,41,45826,2,0,L|391:136,1,110
457,46,46147,1,0,0:0:0:0:
377,121,46254,2,0,L|288:216,1,110
135,121,46683,5,0,0:0:0:0:
135,121,47111,2,0,P|190:145|195:216,1,110
97,222,47433,1,0,0:0:0:0:
135,121,47540,2,0,P|190:145|195:216,1,110
68,283,47861,1,0,0:0:0:0:
135,121,47968,2,0,P|190:145|195:216,1,110
39,344,48290,1,0,0:0:0:0:
135,121,48397,2,0,P|190:145|195:216,1,110
377,121,48826,5,0,0:0:0:0:
377,121,49254,2,0,P|339:147|380:115,1,330.000012588501
331,93,49897,1,0,0:0:0:0:
331,93,50111,5,0,0:0:0:0:
379,115,50540,2,0,P|282:69|377:120,3,330.000012588501
328,97,52254,5,0,0:0:0:0:
166,74,52683,2,0,P|245:74|330:97,3,165.000006294251
188,288,53540,5,0,0:0:0:0:
51,67,53968,2,0,P|62:139|94:202,1,137.5
188,288,54290,1,0,0:0:0:0:
90,196,54397,2,0,P|135:252|194:291,1,137.5
319,318,54719,1,0,0:0:0:0:
188,288,54826,2,0,P|255:314|326:318,1,137.5
447,279,55148,1,0,0:0:0:0:
319,318,55254,2,0,P|390:307|454:275,1,137.5
256,68,55683,5,0,0:0:0:0:
74,191,55897,1,0,0:0:0:0:
313,27,56111,2,0,P|311:114|250:135,1,110
74,191,56540,1,0,0:0:0:0:
74,191,56968,6,0,L|142:96,1,110,8|0,0:0|0:0,0:0:0:0:
374,101,57397,2,0,L|306:196,1,110,4|0,0:0|0:0,0:0:0:0:
192,191,57718,1,0,0:0:0:0:
74,191,57826,2,0,L|142:96,1,110
256,101,58147,1,0,0:0:0:0:
374,101,58254,2,0,L|306:196,1,110
225,273,58576,1,0,0:0:0:0:
91,299,58683,5,0,0:0:0:0:
91,299,58897,1,0,0:0:0:0:
91,299,59111,2,0,L|69:246,1,55
225,273,59326,2,0,L|247:220,1,55
91,247,59540,2,0,L|78:190,1,55
225,221,59754,2,0,L|237:164,1,55
91,195,59968,2,0,P|73:138|86:73,2,110
421,195,60826,5,0,0:0:0:0:
230,86,61040,1,0,0:0:0:0:
374,251,61254,2,0,P|304:252|259:238,1,110
178,172,61576,1,0,0:0:0:0:
122,76,61683,2,0,P|192:74|237:89,1,110
310,160,62004,1,0,0:0:0:0:
374,251,62111,2,0,P|358:303|328:349,1,110
49,170,62540,5,0,0:0:0:0:
258,236,62754,1,0,0:0:0:0:
180,30,62968,2,0,P|252:62|274:99,1,110
336,173,63290,1,0,0:0:0:0:
249,240,63397,2,0,L|125:199,1,110
44,251,63718,1,0,0:0:0:0:
144,205,63826,5,0,0:0:0:0:
244,159,64041,1,0,0:0:0:0:
352,110,64254,2,0,P|398:159|380:216,1,110
138,314,64576,1,0,0:0:0:0:
180,98,64683,2,0,L|196:223,1,110
388,350,65004,1,0,0:0:0:0:
472,280,65111,1,0,0:0:0:0:
444,173,65218,1,0,0:0:0:0:
352,110,65326,1,0,0:0:0:0:
242,99,65433,1,0,0:0:0:0:
352,110,65540,6,0,P|352:173|343:231,1,110
147,314,65968,2,0,P|102:257|82:198,1,110
194,254,66290,1,0,0:0:0:0:
134,161,66397,2,0,P|216:186|246:220,1,110
201,95,66718,1,0,0:0:0:0:
288,163,66826,2,0,P|300:106|271:41,1,110
368,129,67147,1,0,0:0:0:0:
359,238,67254,2,0,P|285:254|252:294,1,110
68,98,67683,6,0,L|314:52,2,220
284,57,68968,2,0,P|301:122|308:169,1,110
268,249,69290,1,0,0:0:0:0:
187,290,69397,6,0,P|134:262|101:209,1,110
112,112,69718,1,0,0:0:0:0:
105,222,69826,2,0,P|138:265|187:290,1,110
342,317,70254,6,0,P|374:234|326:164,1,165.000006294251
262,225,70576,2,0,P|341:265|415:222,1,165.000006294251
340,173,70897,2,0,P|307:255|355:325,1,165.000006294251
340,173,71326,1,0,0:0:0:0:
172,173,71540,2,0,L|172:90,2,82.5000031471254
170,317,71968,6,0,P|137:234|185:164,1,165.000006294251
250,225,72290,2,0,P|170:265|96:222,1,165.000006294251
172,173,72611,2,0,P|204:255|156:325,1,165.000006294251
172,173,73040,1,0,0:0:0:0:
169,41,73254,1,0,0:0:0:0:
168,65,73361,1,0,0:0:0:0:
168,254,73683,6,0,P|238:298|308:229,1,165.000006294251
299,258,74004,2,0,P|229:214|159:283,1,165.000006294251
168,254,74326,2,0,P|238:298|308:229,1,165.000006294251
168,254,74754,1,0,0:0:0:0:
299,258,74968,2,0,L|406:256,2,82.5000031471254
168,254,75397,6,0,P|92:176|105:104,1,165.000006294251
108,125,75718,1,0,0:0:0:0:
127,137,75825,1,0,0:0:0:0:
244,177,76040,2,0,P|254:88|226:12,1,165.000006294251
230,272,76468,1,0,0:0:0:0:
230,19,76683,1,0,0:0:0:0:
234,40,76790,1,0,0:0:0:0:
138,325,77111,6,0,P|138:230|70:194,1,165.000006294251
214,214,77433,2,0,P|214:119|282:83,1,165.000006294251
114,59,77754,2,0,P|62:119|85:195,1,165.000006294251
214,214,78183,1,0,0:0:0:0:
343,233,78397,1,0,0:0:0:0:
408,243,78504,1,0,0:0:0:0:
228,49,78826,6,0,L|212:224,1,165.000006294251
223,44,79147,2,0,L|207:219,1,165.000006294251
223,44,79468,2,0,L|207:219,1,165.000006294251
84,194,79897,1,0,0:0:0:0:
203,315,80111,1,0,0:0:0:0:
138,325,80218,1,0,0:0:0:0:
107,132,80540,6,0,P|184:105|261:152,1,165.000006294251
241,176,80861,1,0,0:0:0:0:
219,212,80968,1,0,0:0:0:0:
400,132,81183,2,0,P|323:105|245:152,1,165.000006294251
65,310,96826,6,0,B|210:268|100:198|100:198|94:132|177:153|177:153|184:105|230:70,1,330.000012588501
447,310,97683,6,0,B|302:268|412:198|412:198|418:132|335:153|335:153|328:105|282:70,1,330.000012588501
255,117,98540,1,0,0:0:0:0:
76,108,113326,5,0,0:0:0:0:
436,200,113540,1,0,0:0:0:0:
76,251,113754,1,0,0:0:0:0:
76,108,113968,5,0,0:0:0:0:
130,112,114039,1,0,0:0:0:0:
185,116,114110,1,0,0:0:0:0:
240,120,114182,1,0,0:0:0:0:
76,108,114397,5,0,0:0:0:0:
436,200,114826,5,0,0:0:0:0:
381,195,114897,1,0,0:0:0:0:
326,191,114968,1,0,0:0:0:0:
271,187,115040,1,0,0:0:0:0:
436,200,115254,1,0,0:0:0:0:
76,251,115683,5,0,0:0:0:0:
130,255,115754,1,0,0:0:0:0:
185,259,115825,1,0,0:0:0:0:
240,263,115897,1,0,0:0:0:0:
76,251,116111,1,0,0:0:0:0:
256,192,116754,5,0,0:0:0:0:
87,47,116968,1,0,0:0:0:0:
257,339,117183,1,0,0:0:0:0:
425,47,117397,5,0,0:0:0:0:
370,50,117468,1,0,0:0:0:0:
315,53,117539,1,0,0:0:0:0:
260,56,117611,1,0,0:0:0:0:
425,47,117826,1,0,0:0:0:0:
270,221,118254,5,0,0:0:0:0:
266,166,118325,1,0,0:0:0:0:
263,111,118396,1,0,0:0:0:0:
260,56,118468,1,0,0:0:0:0:
270,221,118683,1,0,0:0:0:0:
106,231,119111,5,0,0:0:0:0:
160,227,119182,1,0,0:0:0:0:
215,224,119253,1,0,0:0:0:0:
270,221,119325,1,0,0:0:0:0:
106,231,119540,1,0,0:0:0:0:
406,153,120183,5,0,0:0:0:0:
406,153,120397,1,0,0:0:0:0:
406,153,120611,1,0,0:0:0:0:
105,152,120825,5,0,0:0:0:0:
156,132,120897,1,0,0:0:0:0:
197,96,120968,1,0,0:0:0:0:
223,48,121039,1,0,0:0:0:0:
106,153,121254,1,0,0:0:0:0:
406,153,121683,5,0,0:0:0:0:
355,173,121755,1,0,0:0:0:0:
314,209,121826,1,0,0:0:0:0:
289,258,121897,1,0,0:0:0:0:
406,153,122112,1,0,0:0:0:0:
106,153,122540,5,0,0:0:0:0:
406,153,122968,1,0,0:0:0:0:
