osu file format v14

[General]
AudioFilename: audio.mp3
AudioLeadIn: 0
PreviewTime: 39310
Countdown: 0
SampleSet: Normal
StackLeniency: 0.7
Mode: 1
LetterboxInBreaks: 0
WidescreenStoryboard: 1

[Editor]
DistanceSpacing: 0.4
BeatDivisor: 8
GridSize: 32
TimelineZoom: 1.2

[Metadata]
Title:Tidus no Hardcore Kimochiyosugi Daro!
TitleUnicode:ティーダのHardcore気持ちよすぎだろ!
Artist:Zenaka
ArtistUnicode:Zenaka
Creator:dtn
Version:Muzukashii
Source:
Tags:Dtnt0r コネクト ClariS connect japanese electronic 音mad oto-mad otomad hardcore hardstyle rawstyle otowakka おとわっか ヤマダ電機のテーマ Yamada electronic's theme yamada denki no thema Tidus' D*ck Feels Too Good! ティーダのチンポ気持ちよすぎだろ! Tidus no Chinpo Kimochiyosugi Daro!
BeatmapID:3893431
BeatmapSetID:1889531

[Difficulty]
HPDrainRate:6
CircleSize:5
OverallDifficulty:5
ApproachRate:5
SliderMultiplier:1.4
SliderTickRate:1

[Events]
//Background and Video events
0,0,"Wakka_Jacket.png",0,0
//Break Periods
//Storyboard Layer 0 (Background)
//Storyboard Layer 1 (Fail)
//Storyboard Layer 2 (Pass)
//Storyboard Layer 3 (Foreground)
//Storyboard Layer 4 (Overlay)
//Storyboard Sound Samples

[TimingPoints]
1311,333.333333333333,4,1,0,100,1,0
1311,-100,4,1,0,100,0,0
2644,-100,4,1,0,100,0,1
10644,-100,4,1,0,100,0,0
39977,-100,4,1,0,100,0,1
61310,-100,4,1,0,100,0,0

[HitObjects]
256,192,1311,5,8,0:0:0:0:
256,192,1422,1,8,0:0:0:0:
256,192,1533,1,8,0:0:0:0:
256,192,1644,1,8,0:0:0:0:
256,192,1866,1,8,0:0:0:0:
256,192,1977,1,0,0:0:0:0:
256,192,2644,1,12,0:0:0:0:
256,192,2810,1,0,0:0:0:0:
256,192,2894,1,0,0:0:0:0:
256,192,2977,1,0,0:0:0:0:
256,192,3144,1,8,0:0:0:0:
256,192,3310,1,0,0:0:0:0:
256,192,3477,1,8,0:0:0:0:
256,192,3644,1,0,0:0:0:0:
256,192,3977,1,0,0:0:0:0:
256,192,4144,1,8,0:0:0:0:
256,192,4227,1,8,0:0:0:0:
256,192,4310,1,8,0:0:0:0:
256,192,4477,1,0,0:0:0:0:
256,192,4644,1,8,0:0:0:0:
256,192,5310,1,8,0:0:0:0:
256,192,5394,1,8,0:0:0:0:
256,192,5477,1,8,0:0:0:0:
256,192,5644,1,8,0:0:0:0:
256,192,5810,1,0,0:0:0:0:
256,192,5977,1,8,0:0:0:0:
256,192,6144,1,0,0:0:0:0:
256,192,6310,1,8,0:0:0:0:
256,192,6644,1,8,0:0:0:0:
256,192,6810,1,0,0:0:0:0:
256,192,6894,1,0,0:0:0:0:
256,192,6977,1,0,0:0:0:0:
256,192,7144,1,0,0:0:0:0:
256,192,7310,1,8,0:0:0:0:
256,192,7810,1,8,0:0:0:0:
256,192,8144,1,8,0:0:0:0:
256,192,8310,1,0,0:0:0:0:
256,192,8477,1,8,0:0:0:0:
256,192,8644,1,8,0:0:0:0:
256,192,8810,1,0,0:0:0:0:
256,192,8894,1,0,0:0:0:0:
256,192,8977,1,0,0:0:0:0:
256,192,9144,1,8,0:0:0:0:
256,192,9477,1,12,0:0:0:0:
256,192,9810,1,12,0:0:0:0:
256,192,9977,1,12,0:0:0:0:
256,192,10310,1,12,0:0:0:0:
256,192,10477,1,12,0:0:0:0:
256,192,10644,1,0,0:0:0:0:
256,192,10977,1,8,0:0:0:0:
256,192,11477,1,8,0:0:0:0:
256,192,11810,1,8,0:0:0:0:
256,192,11894,1,8,0:0:0:0:
256,192,11977,1,8,0:0:0:0:
256,192,12644,1,8,0:0:0:0:
256,192,12810,1,8,0:0:0:0:
256,192,12977,1,0,0:0:0:0:
256,192,13144,1,0,0:0:0:0:
256,192,13310,1,12,0:0:0:0:
256,192,13810,1,0,0:0:0:0:
256,192,13977,1,8,0:0:0:0:
256,192,14144,1,8,0:0:0:0:
256,192,14477,1,0,0:0:0:0:
256,192,14644,1,8,0:0:0:0:
256,192,14810,1,0,0:0:0:0:
256,192,14977,1,0,0:0:0:0:
256,192,15144,1,8,0:0:0:0:
256,192,15477,1,0,0:0:0:0:
256,192,15810,1,8,0:0:0:0:
256,192,16310,1,8,0:0:0:0:
256,192,16477,1,0,0:0:0:0:
256,192,16644,1,8,0:0:0:0:
256,192,16810,1,8,0:0:0:0:
256,192,17144,1,0,0:0:0:0:
256,192,17310,1,8,0:0:0:0:
256,192,17477,1,0,0:0:0:0:
256,192,17644,1,0,0:0:0:0:
256,192,17810,1,8,0:0:0:0:
256,192,18144,1,0,0:0:0:0:
256,192,18310,1,8,0:0:0:0:
256,192,18477,1,0,0:0:0:0:
256,192,18644,1,12,0:0:0:0:
256,192,19144,1,0,0:0:0:0:
256,192,19310,1,8,0:0:0:0:
256,192,19477,1,8,0:0:0:0:
256,192,19810,1,0,0:0:0:0:
256,192,19977,1,8,0:0:0:0:
256,192,20144,1,0,0:0:0:0:
256,192,20310,1,0,0:0:0:0:
256,192,20477,1,8,0:0:0:0:
256,192,20810,1,0,0:0:0:0:
256,192,21144,1,8,0:0:0:0:
256,192,21477,1,0,0:0:0:0:
256,192,21644,1,8,0:0:0:0:
256,192,21810,1,0,0:0:0:0:
256,192,21977,1,8,0:0:0:0:
256,192,22144,1,0,0:0:0:0:
256,192,22310,1,8,0:0:0:0:
256,192,22477,1,8,0:0:0:0:
256,192,23310,1,0,0:0:0:0:
256,192,23477,1,0,0:0:0:0:
256,192,23644,1,8,0:0:0:0:
256,192,23810,1,8,0:0:0:0:
256,192,23977,1,4,0:0:0:0:
256,192,24310,1,8,0:0:0:0:
256,192,24477,1,0,0:0:0:0:
256,192,24644,1,8,0:0:0:0:
256,192,24810,1,8,0:0:0:0:
256,192,24977,1,0,0:0:0:0:
256,192,25144,1,0,0:0:0:0:
256,192,25310,1,8,0:0:0:0:
256,192,25644,1,0,0:0:0:0:
256,192,25810,1,8,0:0:0:0:
256,192,25977,1,0,0:0:0:0:
256,192,26144,1,8,0:0:0:0:
256,192,26310,1,0,0:0:0:0:
256,192,26477,1,0,0:0:0:0:
256,192,26644,1,8,0:0:0:0:
256,192,26977,1,0,0:0:0:0:
256,192,27144,1,0,0:0:0:0:
256,192,27310,1,8,0:0:0:0:
256,192,27477,1,8,0:0:0:0:
256,192,27644,1,0,0:0:0:0:
256,192,27810,1,0,0:0:0:0:
256,192,27977,1,8,0:0:0:0:
256,192,28310,1,0,0:0:0:0:
256,192,28477,1,8,0:0:0:0:
256,192,28644,1,0,0:0:0:0:
256,192,28810,1,0,0:0:0:0:
256,192,28977,1,8,0:0:0:0:
256,192,29310,1,12,0:0:0:0:
256,192,29977,1,0,0:0:0:0:
256,192,30144,1,0,0:0:0:0:
256,192,30310,1,8,0:0:0:0:
256,192,30644,1,12,0:0:0:0:
256,192,30977,1,0,0:0:0:0:
256,192,31144,1,8,0:0:0:0:
256,192,31310,1,0,0:0:0:0:
256,192,31477,1,8,0:0:0:0:
256,192,31810,1,0,0:0:0:0:
256,192,31977,1,8,0:0:0:0:
256,192,32060,1,8,0:0:0:0:
256,192,32144,1,8,0:0:0:0:
256,192,32310,1,8,0:0:0:0:
256,192,32477,1,0,0:0:0:0:
256,192,32644,1,8,0:0:0:0:
256,192,32727,1,8,0:0:0:0:
256,192,32810,1,8,0:0:0:0:
256,192,32977,1,0,0:0:0:0:
256,192,33144,1,8,0:0:0:0:
256,192,33310,1,0,0:0:0:0:
256,192,33477,12,0,34477,0:0:0:0:
256,192,34644,5,12,0:0:0:0:
256,192,34977,1,8,0:0:0:0:
256,192,35310,1,8,0:0:0:0:
256,192,35644,1,8,0:0:0:0:
256,192,35977,1,8,0:0:0:0:
256,192,36310,1,8,0:0:0:0:
256,192,36644,1,8,0:0:0:0:
256,192,36977,1,8,0:0:0:0:
256,192,37310,1,0,0:0:0:0:
256,192,37477,1,0,0:0:0:0:
256,192,37644,1,8,0:0:0:0:
256,192,37810,1,8,0:0:0:0:
256,192,37977,1,0,0:0:0:0:
256,192,38144,1,0,0:0:0:0:
256,192,38310,1,8,0:0:0:0:
256,192,38394,1,8,0:0:0:0:
256,192,38477,1,8,0:0:0:0:
256,192,38644,1,0,0:0:0:0:
256,192,38977,1,0,0:0:0:0:
256,192,39310,1,0,0:0:0:0:
256,192,39644,1,12,0:0:0:0:
256,192,39977,1,4,0:0:0:0:
256,192,40477,1,0,0:0:0:0:
256,192,40644,1,8,0:0:0:0:
256,192,40810,1,0,0:0:0:0:
256,192,40894,1,0,0:0:0:0:
256,192,40977,1,0,0:0:0:0:
256,192,41144,1,8,0:0:0:0:
256,192,41310,1,0,0:0:0:0:
256,192,41477,1,8,0:0:0:0:
256,192,41644,1,0,0:0:0:0:
256,192,41810,1,8,0:0:0:0:
256,192,42144,1,8,0:0:0:0:
256,192,42477,1,8,0:0:0:0:
256,192,42644,1,0,0:0:0:0:
256,192,42810,1,8,0:0:0:0:
256,192,42977,1,0,0:0:0:0:
256,192,43060,1,0,0:0:0:0:
256,192,43144,1,0,0:0:0:0:
256,192,43310,1,8,0:0:0:0:
256,192,43477,1,8,0:0:0:0:
256,192,43810,1,8,0:0:0:0:
256,192,43977,1,0,0:0:0:0:
256,192,44144,1,0,0:0:0:0:
256,192,44310,1,0,0:0:0:0:
256,192,44477,1,8,0:0:0:0:
256,192,44644,1,0,0:0:0:0:
256,192,44810,1,8,0:0:0:0:
256,192,44894,1,8,0:0:0:0:
256,192,44977,1,8,0:0:0:0:
256,192,45144,1,0,0:0:0:0:
256,192,45310,1,8,0:0:0:0:
256,192,45810,1,0,0:0:0:0:
256,192,45977,1,8,0:0:0:0:
256,192,46144,1,0,0:0:0:0:
256,192,46227,1,0,0:0:0:0:
256,192,46310,1,0,0:0:0:0:
256,192,46477,1,8,0:0:0:0:
256,192,46644,1,0,0:0:0:0:
256,192,46810,1,8,0:0:0:0:
256,192,46977,1,0,0:0:0:0:
256,192,47144,1,8,0:0:0:0:
256,192,47477,1,8,0:0:0:0:
256,192,47810,1,8,0:0:0:0:
256,192,47977,1,0,0:0:0:0:
256,192,48144,1,8,0:0:0:0:
256,192,48227,1,8,0:0:0:0:
256,192,48310,1,8,0:0:0:0:
256,192,48477,1,0,0:0:0:0:
256,192,48644,1,8,0:0:0:0:
256,192,48727,1,8,0:0:0:0:
256,192,48810,1,8,0:0:0:0:
256,192,48977,1,8,0:0:0:0:
256,192,49144,1,8,0:0:0:0:
256,192,49310,1,0,0:0:0:0:
256,192,49644,1,0,0:0:0:0:
256,192,49810,1,0,0:0:0:0:
256,192,49977,1,8,0:0:0:0:
256,192,50144,1,0,0:0:0:0:
256,192,50310,1,8,0:0:0:0:
256,192,50810,1,12,0:0:0:0:
256,192,50977,1,12,0:0:0:0:
256,192,51310,1,8,0:0:0:0:
256,192,51477,1,0,0:0:0:0:
256,192,51560,1,0,0:0:0:0:
256,192,51644,1,0,0:0:0:0:
256,192,51810,1,8,0:0:0:0:
256,192,51977,1,0,0:0:0:0:
256,192,52144,1,8,0:0:0:0:
256,192,52310,1,0,0:0:0:0:
256,192,52477,1,12,0:0:0:0:
256,192,52810,1,12,0:0:0:0:
256,192,53144,1,12,0:0:0:0:
256,192,53644,1,12,0:0:0:0:
256,192,53977,1,8,0:0:0:0:
256,192,54144,1,0,0:0:0:0:
256,192,54227,1,0,0:0:0:0:
256,192,54310,1,0,0:0:0:0:
256,192,54477,1,8,0:0:0:0:
256,192,54644,1,0,0:0:0:0:
256,192,54810,1,8,0:0:0:0:
256,192,54977,1,8,0:0:0:0:
256,192,55144,1,8,0:0:0:0:
256,192,55477,1,8,0:0:0:0:
256,192,55810,1,4,0:0:0:0:
256,192,56310,1,12,0:0:0:0:
256,192,56644,1,8,0:0:0:0:
256,192,56810,1,0,0:0:0:0:
256,192,56894,1,0,0:0:0:0:
256,192,56977,1,0,0:0:0:0:
256,192,57144,1,8,0:0:0:0:
256,192,57310,1,0,0:0:0:0:
256,192,57477,1,8,0:0:0:0:
256,192,57560,1,8,0:0:0:0:
256,192,57644,1,8,0:0:0:0:
256,192,57810,1,8,0:0:0:0:
256,192,58144,1,8,0:0:0:0:
256,192,58310,1,0,0:0:0:0:
256,192,58477,1,8,0:0:0:0:
256,192,58644,1,0,0:0:0:0:
256,192,58810,1,8,0:0:0:0:
256,192,58977,1,0,0:0:0:0:
256,192,59060,1,0,0:0:0:0:
256,192,59144,1,0,0:0:0:0:
256,192,59310,1,8,0:0:0:0:
256,192,59394,1,8,0:0:0:0:
256,192,59477,1,8,0:0:0:0:
256,192,59644,1,8,0:0:0:0:
256,192,59810,1,8,0:0:0:0:
256,192,59977,1,4,0:0:0:0:
256,192,60644,1,4,0:0:0:0:
256,192,61310,1,12,0:0:0:0:
