osu file format v14

[General]
AudioFilename: audio.mp3
AudioLeadIn: 0
PreviewTime: 74397
Countdown: 0
SampleSet: Soft
StackLeniency: 0.7
Mode: 0
LetterboxInBreaks: 0
WidescreenStoryboard: 1

[Editor]
Bookmarks: 20683,38969,57255,102969,121255
DistanceSpacing: 1.2
BeatDivisor: 4
GridSize: 16
TimelineZoom: 4.199998

[Metadata]
Title:Totemo Suteki na Rokugatsu Deshita
TitleUnicode:とても素敵な六月でした
Artist:zakuro
ArtistUnicode:柘榴
Creator:-Liban-
Version:?
Source:
Tags:
BeatmapID:2272870
BeatmapSetID:1086905

[Difficulty]
HPDrainRate:5
CircleSize:4
OverallDifficulty:8.5
ApproachRate:9.3
SliderMultiplier:1.7
SliderTickRate:1

[Events]
//Background and Video events
0,0,"74451722_p0.png",0,0
//Break Periods
2,103311,120701
2,196883,204415
//Storyboard Layer 0 (Background)
//Storyboard Layer 1 (Fail)
//Storyboard Layer 2 (Pass)
//Storyboard Layer 3 (Foreground)
//Storyboard Layer 4 (Overlay)
//Storyboard Sound Samples

[TimingPoints]
1255,285.714285714286,4,2,0,100,1,0
19969,-166.666666666667,4,2,0,100,0,0
20255,-90.9090909090909,4,2,0,100,0,0
21112,-100,4,2,0,100,0,0
22969,-90.9090909090909,4,2,0,100,0,0
23255,-100,4,2,0,100,0,0
25255,-90.9090909090909,4,2,0,100,0,0
25540,-100,4,2,0,100,0,0
27540,-90.9090909090909,4,2,0,100,0,0
27826,-100,4,2,0,100,0,0
29826,-90.9090909090909,4,2,0,100,0,0
30112,-100,4,2,0,100,0,0
32112,-90.9090909090909,4,2,0,100,0,0
32397,-100,4,2,0,100,0,0
36683,-90.9090909090909,4,2,0,100,0,0
36969,-100,4,2,0,100,0,0
37683,-90.9090909090909,4,2,0,100,0,0
37969,-100,4,2,0,100,0,0
39397,-125,4,2,0,100,0,0
56683,-105.263157894737,4,2,0,100,0,0
57255,-111.111111111111,4,2,0,100,0,0
74397,-90.9090909090909,4,2,0,100,0,0
74969,-66.6666666666667,4,2,0,100,0,0
75040,-90.9090909090909,4,2,0,100,0,0
75540,-90.9090909090909,4,2,0,100,0,0
77540,-111.111111111111,4,2,0,100,0,0
77826,-83.3333333333333,4,2,0,100,0,0
78112,-90.9090909090909,4,2,0,100,0,0
79826,-111.111111111111,4,2,0,100,0,0
80112,-83.3333333333333,4,2,0,100,0,0
80397,-90.9090909090909,4,2,0,100,0,0
82112,-111.111111111111,4,2,0,100,0,0
82326,-90.9090909090909,4,2,0,100,0,0
82397,-90.9090909090909,4,2,0,100,0,0
82612,-90.9090909090909,4,2,0,100,0,0
84683,-83.3333333333333,4,2,0,100,0,0
85255,-90.9090909090909,4,2,0,100,0,0
86683,-111.111111111111,4,2,0,100,0,0
86969,-83.3333333333333,4,2,0,100,0,0
87397,-90.9090909090909,4,2,0,100,0,0
88969,-111.111111111111,4,2,0,100,0,0
89183,-90.9090909090909,4,2,0,100,0,0
89255,-83.3333333333333,4,2,0,100,0,0
89540,-90.9090909090909,4,2,0,100,0,0
91540,-83.3333333333333,4,2,0,100,0,0
91755,-90.9090909090909,4,2,0,100,0,0
96112,-83.3333333333333,4,2,0,100,0,0
96326,-90.9090909090909,4,2,0,100,0,0
98397,-83.3333333333333,4,2,0,100,0,0
98612,-90.9090909090909,4,2,0,100,0,0
100683,-83.3333333333333,4,2,0,100,0,0
100897,-90.9090909090909,4,2,0,100,0,0
102683,-83.3333333333333,4,2,0,100,0,0
102897,-90.9090909090909,4,2,0,100,0,0
121255,-125,4,2,0,100,0,0
130397,-111.111111111111,4,2,0,100,0,0
148112,-99.9999999999999,4,2,0,100,0,0
148683,-111.111111111111,4,2,0,100,0,0
162397,-90.9090909090908,4,2,0,100,0,0
164683,-76.9230769230769,4,2,0,100,0,0
165540,-66.6666666666667,4,2,0,100,0,0
166397,-100,4,2,0,100,0,0
166969,-90.9090909090909,4,2,0,100,0,0
169255,-83.3333333333333,4,2,0,100,0,0
169469,-90.9090909090909,4,2,0,100,0,0
171255,-111.111111111111,4,2,0,100,0,0
171469,-90.9090909090909,4,2,0,100,0,0
171540,-83.3333333333333,4,2,0,100,0,0
171826,-90.9090909090909,4,2,0,100,0,0
173540,-111.111111111111,4,2,0,100,0,0
173755,-90.9090909090909,4,2,0,100,0,0
173826,-83.3333333333333,4,2,0,100,0,0
174040,-90.9090909090909,4,2,0,100,0,0
176112,-83.3333333333333,4,2,0,100,0,0
176326,-90.9090909090909,4,2,0,100,0,0
178397,-83.3333333333333,4,2,0,100,0,0
178612,-90.9090909090909,4,2,0,100,0,0
180683,-83.3333333333333,4,2,0,100,0,0
180897,-90.9090909090909,4,2,0,100,0,0
185255,-83.3333333333333,4,2,0,100,0,0
185540,-90.9090909090909,4,2,0,100,0,0
187255,-111.111111111111,4,2,0,100,0,0
187469,-90.9090909090909,4,2,0,100,0,0
187540,-83.3333333333333,4,2,0,100,0,0
187826,-90.9090909090909,4,2,0,100,0,0
189826,-83.3333333333333,4,2,0,100,0,0
190112,-90.9090909090909,4,2,0,100,0,0
191826,-111.111111111111,4,2,0,100,0,0
192040,-90.9090909090909,4,2,0,100,0,0
192112,-83.3333333333333,4,2,0,100,0,0
192397,-90.9090909090909,4,2,0,100,0,0
194397,-500,4,2,0,100,0,0
204969,-66.6666666666667,4,2,0,100,0,0
205826,-111.111111111111,4,2,0,100,0,0
214397,-66.6666666666667,4,2,0,100,0,0
214540,-111.111111111111,4,2,0,100,0,0
216112,-90.9090909090908,4,2,0,100,0,0
216397,-111.111111111111,4,2,0,100,0,0
218112,-142.857142857143,4,2,0,100,0,0
218397,-111.111111111111,4,2,0,100,0,0
219540,-90.9090909090909,4,2,0,100,0,0
224112,-76.9230769230769,4,2,0,100,0,0
224397,-90.9090909090909,4,2,0,100,0,0
226112,-111.111111111111,4,2,0,100,0,0
226326,-90.9090909090909,4,2,0,100,0,0
226397,-83.3333333333333,4,2,0,100,0,0
226612,-90.9090909090909,4,2,0,100,0,0
228683,-83.3333333333333,4,2,0,100,0,0
228897,-90.9090909090909,4,2,0,100,0,0
230683,-111.111111111111,4,2,0,100,0,0
230897,-90.9090909090909,4,2,0,100,0,0
230969,-83.3333333333333,4,2,0,100,0,0
231255,-90.9090909090909,4,2,0,100,0,0
232969,-111.111111111111,4,2,0,100,0,0
233183,-90.9090909090909,4,2,0,100,0,0
233255,-83.3333333333333,4,2,0,100,0,0
233540,-90.9090909090909,4,2,0,100,0,0
235540,-83.3333333333333,4,2,0,100,0,0
235826,-90.9090909090909,4,2,0,100,0,0
237826,-83.3333333333333,4,2,0,100,0,0
238040,-90.9090909090909,4,2,0,100,0,0
239826,-111.111111111111,4,2,0,100,0,0
240040,-90.9090909090909,4,2,0,100,0,0
240112,-83.3333333333333,4,2,0,100,0,0
240397,-90.9090909090909,4,2,0,100,0,0
242397,-83.3333333333333,4,2,0,100,0,0
242683,-90.9090909090909,4,2,0,100,0,0
244683,-83.3333333333333,4,2,0,100,0,0
244969,-90.9090909090909,4,2,0,100,0,0
246969,-83.3333333333333,4,2,0,100,0,0
247255,-90.9090909090909,4,2,0,100,0,0
249255,-83.3333333333333,4,2,0,100,0,0
249540,-90.9090909090909,4,2,0,100,0,0
251255,-76.9230769230769,4,2,0,100,0,0
251540,-90.9090909090909,4,2,0,100,0,0
253397,-76.9230769230769,4,2,0,100,0,0

[Colours]
Combo1 : 255,128,64
Combo2 : 157,0,0
Combo3 : 14,2,164

[HitObjects]
512,187,2397,5,0,0:0:0:0:
441,158,2540,1,0,0:0:0:0:
371,190,2683,1,0,0:0:0:0:
359,181,2826,1,0,0:0:0:0:
272,262,3112,5,0,0:0:0:0:
173,227,3255,1,0,0:0:0:0:
71,118,3540,5,0,0:0:0:0:
123,62,3683,1,0,0:0:0:0:
166,125,3826,1,0,0:0:0:0:
46,53,3969,2,0,L|28:136,1,85
28,136,4255,1,0,0:0:0:0:
83,214,4397,1,0,0:0:0:0:
11,365,4683,5,0,0:0:0:0:
76,324,4826,1,0,0:0:0:0:
146,352,4969,1,0,0:0:0:0:
152,367,5112,1,0,0:0:0:0:
247,285,5397,5,0,0:0:0:0:
318,324,5540,1,0,0:0:0:0:
479,340,5826,5,0,0:0:0:0:
409,372,5969,1,0,0:0:0:0:
474,268,6112,1,0,0:0:0:0:
388,190,6255,2,0,B|368:231|368:231|383:273,1,85,0|0,0:0|0:0,0:0:0:0:
381,268,6540,5,0,0:0:0:0:
469,172,6683,1,0,0:0:0:0:
332,44,6969,5,0,0:0:0:0:
272,91,7112,1,0,0:0:0:0:
203,56,7255,1,0,0:0:0:0:
183,65,7397,1,0,0:0:0:0:
63,137,7683,5,0,0:0:0:0:
0,86,7826,1,0,0:0:0:0:
146,131,8112,5,0,0:0:0:0:
157,209,8255,1,0,0:0:0:0:
6,316,8397,1,0,0:0:0:0:
56,216,8540,1,0,0:0:0:0:
97,277,8683,5,0,0:0:0:0:
106,293,8826,1,0,0:0:0:0:
209,356,8969,1,0,0:0:0:0:
349,271,9255,5,0,0:0:0:0:
419,299,9397,1,0,0:0:0:0:
360,348,9540,1,0,0:0:0:0:
404,221,9683,2,0,B|396:184|416:161|406:107,1,85
408,136,9969,1,0,0:0:0:0:
503,213,10112,1,0,0:0:0:0:
349,271,10397,5,0,0:0:0:0:
277,243,10540,1,0,0:0:0:0:
168,184,10683,1,0,0:0:0:0:
238,153,10826,2,0,P|281:135|322:122,1,85,0|0,0:0|0:0,0:0:0:0:
317,123,11112,1,0,0:0:0:0:
198,256,11255,1,0,0:0:0:0:
81,342,11540,5,0,0:0:0:0:
50,271,11683,1,0,0:0:0:0:
77,199,11826,1,0,0:0:0:0:
65,183,11969,1,0,0:0:0:0:
6,335,12255,5,0,0:0:0:0:
125,285,12397,1,0,0:0:0:0:
273,246,12683,5,0,0:0:0:0:
332,294,12826,1,0,0:0:0:0:
443,212,12969,1,0,0:0:0:0:
366,208,13112,1,0,0:0:0:0:
280,159,13255,5,0,0:0:0:0:
292,130,13397,1,0,0:0:0:0:
385,30,13540,1,0,0:0:0:0:
202,82,13826,5,0,0:0:0:0:
127,64,13969,1,0,0:0:0:0:
73,118,14112,1,0,0:0:0:0:
79,139,14255,1,0,0:0:0:0:
50,244,14540,5,0,0:0:0:0:
161,182,14683,1,0,0:0:0:0:
414,136,14969,5,0,0:0:0:0:
371,199,15112,1,0,0:0:0:0:
400,312,15255,1,0,0:0:0:0:
423,239,15397,2,0,B|316:229|356:299|252:277,1,170,0|0,0:0|0:0,0:0:0:0:
264,279,15826,1,0,0:0:0:0:
124,368,16112,5,0,0:0:0:0:
98,299,16255,1,0,0:0:0:0:
171,195,16397,1,0,0:0:0:0:
99,222,16540,1,0,0:0:0:0:
236,293,16826,5,0,0:0:0:0:
294,196,16969,1,0,0:0:0:0:
143,49,17255,5,0,0:0:0:0:
112,125,17397,1,0,0:0:0:0:
8,65,17540,1,0,0:0:0:0:
50,1,17683,1,0,0:0:0:0:
122,27,17826,5,0,0:0:0:0:
133,42,17969,1,0,0:0:0:0:
270,11,18112,1,0,0:0:0:0:
483,158,18397,5,0,0:0:0:0:
428,103,18540,1,0,0:0:0:0:
370,153,18683,1,0,0:0:0:0:
278,275,18826,2,0,P|328:248|451:234,1,170,0|0,0:0|0:0,0:0:0:0:
438,232,19255,1,0,0:0:0:0:
175,187,19540,5,0,0:0:0:0:
188,265,19683,1,0,0:0:0:0:
53,149,19826,5,0,0:0:0:0:
42,77,19969,2,0,P|59:124|52:150,1,76.4999976654053
104,144,20255,2,0,P|19:249|87:338,1,233.750007133484,0|0,0:0|0:0,0:0:0:0:
193,365,20683,6,0,B|179:330|179:330|232:231|232:231|214:190,1,187.000005706787,0|0,0:0|0:0,0:0:0:0:
392,48,21112,2,0,B|414:87|414:87|393:134,1,85,0|0,0:0|0:0,0:0:0:0:
397,123,21397,1,0,0:0:0:0:
275,240,21540,1,0,0:0:0:0:
297,155,21683,5,0,0:0:0:0:
416,262,21826,2,0,B|373:286,1,42.5,0|0,0:0|0:0,0:0:0:0:
378,282,21969,1,0,0:0:0:0:
37,161,22112,2,0,B|131:143|103:222|228:190,1,170,0|0,0:0|0:0,0:0:0:0:
60,318,22540,1,0,0:0:0:0:
197,196,22683,2,0,P|167:225|165:309,1,127.5,0|0,0:0|0:0,0:0:0:0:
173,377,22969,6,0,B|189:265|122:309|149:180,1,187.000005706787,0|0,0:0|0:0,0:0:0:0:
19,27,23397,6,0,P|47:79|160:95,1,170,0|0,0:0|0:0,0:0:0:0:
292,295,23826,1,0,0:0:0:0:
162,229,23969,2,0,P|178:185|302:201,1,170
402,295,24397,1,0,0:0:0:0:
512,198,24540,2,0,B|446:190|430:138|358:129,1,170
154,253,24969,2,0,P|138:298|131:334,1,85
286,178,25255,2,0,B|280:183|272:189|257:94|302:127|285:-4,1,187.000005706787
66,121,25683,6,0,B|48:159|48:159|138:165|138:165|122:120,1,170,0|0,0:0|0:0,0:0:0:0:
151,97,26040,1,0,0:0:0:0:
151,97,26112,2,0,P|105:231|103:284,1,170,0|0,0:0|0:0,0:0:0:0:
103,333,26540,1,0,0:0:0:0:
267,264,26683,2,0,P|323:270|354:375,1,170,0|0,0:0|0:0,0:0:0:0:
267,264,27112,1,0,0:0:0:0:
512,156,27255,2,0,B|478:150|478:150|454:136|454:136|404:126,1,85,0|0,0:0|0:0,0:0:0:0:
198,14,27540,6,0,B|272:19|272:19|263:138,1,187.000005706787,0|0,0:0|0:0,0:0:0:0:
90,188,27969,1,0,0:0:0:0:
160,121,28112,2,0,L|164:169,1,42.5
214,241,28255,1,0,0:0:0:0:
116,374,28397,1,0,0:0:0:0:
22,294,28540,2,0,B|115:277|107:355|193:326,1,170,0|0,0:0|0:0,0:0:0:0:
467,227,28969,2,0,B|428:237|428:237|388:216,1,85,0|0,0:0|0:0,0:0:0:0:
264,132,29255,5,0,0:0:0:0:
208,176,29397,1,0,0:0:0:0:
126,78,29540,1,0,0:0:0:0:
236,24,29683,5,0,0:0:0:0:
236,24,29755,1,0,0:0:0:0:
240,28,29826,2,0,B|223:60|223:60|265:163|265:163|249:205,1,187.000005706787,0|0,0:0|0:0,0:0:0:0:
130,374,30255,2,0,B|178:246|178:246|163:195,1,170,0|0,0:0|0:0,0:0:0:0:
51,106,30683,5,0,0:0:0:0:
180,62,30826,1,0,0:0:0:0:
133,198,30969,5,0,0:0:0:0:
241,282,31112,2,0,B|256:296|263:305|272:314,1,42.5,0|0,0:0|0:0,0:0:0:0:
424,210,31255,5,0,0:0:0:0:
297,222,31397,1,0,0:0:0:0:
254,59,31540,5,0,0:0:0:0:
128,120,31683,1,0,0:0:0:0:
271,77,31826,1,0,0:0:0:0:
51,88,32112,6,0,B|33:188|101:160|86:273,1,187.000005706787,0|0,0:0|0:0,0:0:0:0:
341,152,32540,2,0,P|432:169|522:191,1,170,0|0,0:0|0:0,0:0:0:0:
317,307,32969,5,0,0:0:0:0:
507,187,33112,2,0,P|443:248|458:357,1,170
249,197,33540,1,0,0:0:0:0:
136,319,33683,2,0,L|218:294,1,85,0|0,0:0|0:0,0:0:0:0:
157,164,33969,1,0,0:0:0:0:
38,225,34112,1,0,0:0:0:0:
148,62,34326,5,0,0:0:0:0:
148,62,34397,2,0,L|115:238,1,170,0|0,0:0|0:0,0:0:0:0:
304,337,34826,2,0,L|279:241,1,85,0|0,0:0|0:0,0:0:0:0:
282,254,35112,1,0,0:0:0:0:
230,86,35255,5,0,0:0:0:0:
159,232,35397,1,0,0:0:0:0:
297,147,35540,5,0,0:0:0:0:
421,248,35683,2,0,L|456:284,1,42.5,0|0,0:0|0:0,0:0:0:0:
510,159,35826,5,0,0:0:0:0:
364,197,35969,1,0,0:0:0:0:
302,68,36112,5,0,0:0:0:0:
151,40,36255,1,0,0:0:0:0:
314,35,36397,1,0,0:0:0:0:
77,77,36683,6,0,P|82:187|69:275,1,187.000005706787,0|0,0:0|0:0,0:0:0:0:
190,327,37112,2,0,B|86:301|126:384|1:356,1,170,0|0,0:0|0:0,0:0:0:0:
230,231,37540,1,0,0:0:0:0:
419,372,37683,2,0,L|439:184,1,187.000005706787,0|0,0:0|0:0,0:0:0:0:
291,97,38112,2,0,L|306:183,1,85,0|0,0:0|0:0,0:0:0:0:
318,207,38326,1,0,0:0:0:0:
324,239,38397,1,0,0:0:0:0:
252,264,38540,1,0,0:0:0:0:
27,147,38683,5,0,0:0:0:0:
67,104,38755,1,0,0:0:0:0:
126,100,38826,1,0,0:0:0:0:
177,130,38897,1,0,0:0:0:0:
169,147,38969,5,0,0:0:0:0:
243,158,39112,1,0,0:0:0:0:
302,110,39255,1,0,0:0:0:0:
298,40,39397,1,0,0:0:0:0:
298,40,39540,1,0,0:0:0:0:
298,40,39826,1,0,0:0:0:0:
222,230,40112,5,0,0:0:0:0:
261,293,40255,1,0,0:0:0:0:
226,358,40397,1,0,0:0:0:0:
338,279,40540,1,0,0:0:0:0:
338,279,40683,1,0,0:0:0:0:
338,279,40969,1,0,0:0:0:0:
355,122,41255,5,0,0:0:0:0:
429,135,41398,1,0,0:0:0:0:
382,193,41541,1,0,0:0:0:0:
407,63,41683,1,0,0:0:0:0:
407,63,41827,1,0,0:0:0:0:
407,63,42112,1,0,0:0:0:0:
146,150,42397,5,0,0:0:0:0:
185,88,42540,1,0,0:0:0:0:
242,135,42683,1,0,0:0:0:0:
158,23,42826,2,0,B|113:5|68:61|15:49,1,136,0|0,0:0|0:0,0:0:0:0:
27,50,43255,2,0,L|14:116,1,68
85,308,43540,5,0,0:0:0:0:
98,234,43683,1,0,0:0:0:0:
26,256,43826,1,0,0:0:0:0:
156,281,43969,1,0,0:0:0:0:
153,281,44112,1,0,0:0:0:0:
150,281,44397,1,0,0:0:0:0:
304,188,44683,5,0,0:0:0:0:
365,241,44826,1,0,0:0:0:0:
306,297,44969,1,0,0:0:0:0:
246,240,45112,1,0,0:0:0:0:
243,240,45255,1,0,0:0:0:0:
240,240,45540,1,0,0:0:0:0:
215,66,45826,5,0,0:0:0:0:
147,97,45969,1,0,0:0:0:0:
146,171,46112,1,0,0:0:0:0:
212,138,46255,2,0,P|266:127|358:121,1,136
346,120,46683,2,0,B|346:92|346:92|337:73|337:73|337:55,1,68
466,31,46969,5,0,0:0:0:0:
468,105,47112,1,0,0:0:0:0:
469,179,47255,1,0,0:0:0:0:
464,253,47397,2,0,B|419:235|374:291|321:279,1,136,0|0,0:0|0:0,0:0:0:0:
333,280,47826,2,0,L|320:346,1,68,0|0,0:0|0:0,0:0:0:0:
263,198,48112,5,0,0:0:0:0:
248,124,48255,1,0,0:0:0:0:
318,147,48397,1,0,0:0:0:0:
191,171,48540,1,0,0:0:0:0:
191,171,48683,1,0,0:0:0:0:
191,171,48969,1,0,0:0:0:0:
47,51,49255,5,0,0:0:0:0:
121,46,49397,1,0,0:0:0:0:
130,120,49540,1,0,0:0:0:0:
62,134,49683,1,0,0:0:0:0:
62,134,49826,1,0,0:0:0:0:
62,134,50112,1,0,0:0:0:0:
76,345,50397,5,0,0:0:0:0:
29,286,50540,1,0,0:0:0:0:
66,221,50683,1,0,0:0:0:0:
144,219,50826,1,0,0:0:0:0:
144,219,50969,1,0,0:0:0:0:
144,219,51255,1,0,0:0:0:0:
291,73,51540,5,0,0:0:0:0:
217,56,51683,1,0,0:0:0:0:
160,105,51826,1,0,0:0:0:0:
92,72,51969,2,0,L|251:79,1,136,0|0,0:0|0:0,0:0:0:0:
227,77,52397,2,0,B|238:113|238:113|221:144,1,68,0|0,0:0|0:0,0:0:0:0:
337,282,52683,5,0,0:0:0:0:
278,234,52826,1,0,0:0:0:0:
326,176,52969,1,0,0:0:0:0:
391,230,53112,1,0,0:0:0:0:
391,230,53255,1,0,0:0:0:0:
391,230,53540,1,0,0:0:0:0:
194,349,53826,5,0,0:0:0:0:
142,293,53969,1,0,0:0:0:0:
70,313,54112,1,0,0:0:0:0:
126,378,54255,1,0,0:0:0:0:
126,378,54397,1,0,0:0:0:0:
126,378,54683,1,0,0:0:0:0:
44,152,54969,5,0,0:0:0:0:
2,216,55112,1,0,0:0:0:0:
57,276,55255,1,0,0:0:0:0:
84,202,55397,2,0,B|93:126|40:157|48:62,1,136,0|0,0:0|0:0,0:0:0:0:
23,6,55826,6,0,B|16:42|16:42|33:21|55:10,1,68,0|0,0:0|0:0,0:0:0:0:
121,41,56112,2,0,B|270:2|205:133|352:125,1,238,0|0,0:0|0:0,0:0:0:0:
385,86,56683,6,0,P|347:109|410:311,1,282.624992453099,0|0,0:0|0:0,0:0:0:0:
469,247,57255,2,0,P|474:211|477:171,1,76.4999976654053,0|0,0:0|0:0,0:0:0:0:
477,170,57469,1,0,0:0:0:0:
477,170,57540,1,0,0:0:0:0:
423,123,57683,1,0,0:0:0:0:
279,86,57826,6,0,P|340:122|338:196,1,152.999995330811,0|0,0:0|0:0,0:0:0:0:
281,242,58255,1,0,0:0:0:0:
136,359,58397,2,0,B|135:317|147:274|147:274|106:277|71:264,1,152.999995330811,0|0,0:0|0:0,0:0:0:0:
24,216,58826,1,0,0:0:0:0:
92,131,58969,2,0,B|187:118|140:185|247:173,1,152.999995330811,0|0,0:0|0:0,0:0:0:0:
92,131,59397,5,0,0:0:0:0:
319,44,59540,2,0,B|340:78|340:78|330:119,1,76.4999976654053,0|0,0:0|0:0,0:0:0:0:
225,138,59826,2,0,B|204:104|204:104|213:62,1,76.4999976654053,0|0,0:0|0:0,0:0:0:0:
463,119,60112,2,0,P|459:159|376:211,1,114.749996498108,0|0,0:0|0:0,0:0:0:0:
406,207,60397,5,0,0:0:0:0:
331,186,60540,1,0,0:0:0:0:
209,320,60683,2,0,B|288:310|265:267|357:259,1,152.999995330811,0|0,0:0|0:0,0:0:0:0:
254,202,61112,1,0,0:0:0:0:
137,292,61255,6,0,P|125:335|114:388,1,76.4999976654053,0|0,0:0|0:0,0:0:0:0:
137,292,61540,1,0,0:0:0:0:
108,198,61683,1,0,0:0:0:0:
19,218,61826,2,0,P|4:97|11:54,1,152.999995330811,0|0,0:0|0:0,0:0:0:0:
129,28,62255,5,0,0:0:0:0:
200,66,62397,2,0,L|238:56,1,38.2499988327027,0|0,0:0|0:0,0:0:0:0:
236,56,62540,1,0,0:0:0:0:
170,156,62683,1,0,0:0:0:0:
125,99,62826,1,0,0:0:0:0:
252,136,62969,2,0,L|238:240,1,76.4999976654053,0|0,0:0|0:0,0:0:0:0:
241,213,63183,1,0,0:0:0:0:
241,213,63255,1,0,0:0:0:0:
377,300,63397,5,0,0:0:0:0:
296,378,63540,1,0,0:0:0:0:
145,290,63683,1,0,0:0:0:0:
243,310,63826,1,0,0:0:0:0:
330,188,63969,1,0,0:0:0:0:
173,88,64112,6,0,P|118:105|103:210,1,152.999995330811,0|0,0:0|0:0,0:0:0:0:
28,352,64540,5,0,0:0:0:0:
120,304,64683,1,0,0:0:0:0:
120,304,64826,1,0,0:0:0:0:
164,239,64969,1,0,0:0:0:0:
259,328,65112,1,0,0:0:0:0:
369,358,65255,6,0,B|333:308|333:308|354:191,1,152.999995330811,0|0,0:0|0:0,0:0:0:0:
349,218,65683,1,0,0:0:0:0:
472,146,65826,6,0,L|463:102,1,38.2499988327027,0|0,0:0|0:0,0:0:0:0:
464,108,66112,1,0,0:0:0:0:
497,269,66397,6,0,P|429:279|398:289,1,76.4999976654053,0|0,0:0|0:0,0:0:0:0:
421,281,66612,1,0,0:0:0:0:
421,281,66683,1,0,0:0:0:0:
338,268,66826,1,0,0:0:0:0:
260,348,66969,2,0,P|178:334|97:330,1,152.999995330811
191,261,67397,1,0,0:0:0:0:
2,279,67540,2,0,B|-13:246|-13:246|-1:208,1,76.4999976654053
104,190,67826,2,0,B|117:228|117:228|101:260,1,76.4999976654053
0,93,68112,2,0,P|122:75|159:68,1,152.999995330811,0|0,0:0|0:0,0:0:0:0:
328,165,68540,5,0,0:0:0:0:
254,110,68683,1,0,0:0:0:0:
323,49,68826,1,0,0:0:0:0:
323,49,68897,1,0,0:0:0:0:
323,49,68969,1,0,0:0:0:0:
391,110,69112,1,0,0:0:0:0:
254,110,69255,1,0,0:0:0:0:
217,200,69397,1,0,0:0:0:0:
369,199,69540,6,0,P|391:229|367:311,1,114.749996498108,0|0,0:0|0:0,0:0:0:0:
343,313,69826,2,0,B|400:314|400:314|451:290|451:290|502:299,1,152.999995330811,0|0,0:0|0:0,0:0:0:0:
490,296,70255,1,0,0:0:0:0:
287,238,70397,5,0,0:0:0:0:
173,262,70540,1,0,0:0:0:0:
49,293,70683,5,0,0:0:0:0:
167,357,70826,1,0,0:0:0:0:
35,318,70969,1,0,0:0:0:0:
469,90,74397,5,0,0:0:0:0:
395,47,74683,1,0,0:0:0:0:
395,47,74969,6,0,B|433:40|425:64|470:55,1,63.7500024318696
303,76,75255,1,0,0:0:0:0:
37,239,75540,6,0,L|191:183,1,140.25000428009
214,127,75826,2,0,B|168:125|168:125|90:183|183:275,1,187.000005706787
333,128,76255,1,0,0:0:0:0:
228,249,76397,2,0,B|307:255|281:295|356:309,1,140.25000428009,0|0,0:0|0:0,0:0:0:0:
398,361,76683,6,0,P|354:345|397:284,1,140.25000428009,0|0,0:0|0:0,0:0:0:0:
460,250,76969,1,0,0:0:0:0:
333,128,77112,1,0,0:0:0:0:
266,242,77255,1,0,0:0:0:0:
436,153,77397,2,0,B|431:136|431:136|434:121|434:121|424:92,1,46.7500014266968,0|0,0:0|0:0,0:0:0:0:
402,74,77540,2,0,B|400:91|400:91|433:139|433:139|434:185,1,114.749996498108,0|0,0:0|0:0,0:0:0:0:
355,255,77826,6,0,B|378:230|378:230|339:185|244:205,1,152.999995330811,0|0,0:0|0:0,0:0:0:0:
201,234,78112,1,0,0:0:0:0:
156,118,78255,1,0,0:0:0:0:
18,87,78397,2,0,B|1:196|74:153|44:280,1,187.000005706787,0|0,0:0|0:0,0:0:0:0:
0,324,78826,1,0,0:0:0:0:
208,178,78969,2,0,P|255:185|268:291,1,140.25000428009,0|0,0:0|0:0,0:0:0:0:
203,324,79255,2,0,B|175:330|175:330|136:356|136:356|92:361,1,93.5000028533936,0|0,0:0|0:0,0:0:0:0:
365,292,79540,6,0,P|422:305|457:320,1,93.5000028533936,0|0,0:0|0:0,0:0:0:0:
265,110,79826,2,0,P|218:119|211:184,1,114.749996498108
250,233,80112,6,0,B|261:146|193:184|218:68,1,152.999995330811
272,39,80397,2,0,P|316:41|345:98,1,93.5000028533936
440,303,80683,2,0,B|377:277|417:217|417:217|477:242,1,140.25000428009
477,248,80969,2,0,B|418:224|418:224|373:172|373:172|319:151,2,187.000005706787
477,248,81683,5,0,0:0:0:0:
361,332,81826,2,0,B|331:330|331:330|303:319|303:319|268:319,1,93.5000028533936,0|0,0:0|0:0,0:0:0:0:
256,352,82040,1,0,0:0:0:0:
256,352,82112,2,0,P|297:313|334:359,1,114.749996498108,0|0,0:0|0:0,0:0:0:0:
360,357,82397,6,0,B|341:336|341:336|363:252|363:252|338:210,1,140.25000428009,0|0,0:0|0:0,0:0:0:0:
349,160,82683,1,0,0:0:0:0:
242,197,82826,1,0,0:0:0:0:
164,301,82969,2,0,B|119:293|119:293|62:265|62:265|5:261,1,140.25000428009,0|0,0:0|0:0,0:0:0:0:
31,262,83255,1,0,0:0:0:0:
175,100,83397,5,0,0:0:0:0:
14,32,83540,2,0,B|43:101|-21:96|3:178,1,140.25000428009,0|0,0:0|0:0,0:0:0:0:
0,201,83826,2,0,B|-24:160|-24:160|14:109,1,93.5000028533936,0|0,0:0|0:0,0:0:0:0:
158,71,84112,6,0,B|233:53|228:111|307:92,1,140.25000428009,0|0,0:0|0:0,0:0:0:0:
292,94,84397,2,0,B|305:52|305:52|268:19,1,93.5000028533936
389,270,84683,6,0,B|352:138|438:203|405:69,2,203.999993774414,0|0|0,0:0|0:0|0:0,0:0:0:0:
389,270,85397,1,0,0:0:0:0:
219,165,85540,2,0,P|157:181|80:204,1,140.25000428009,0|0,0:0|0:0,0:0:0:0:
21,154,85826,6,0,P|60:149|105:248,1,140.25000428009,0|0,0:0|0:0,0:0:0:0:
40,290,86112,1,0,0:0:0:0:
154,91,86255,1,0,0:0:0:0:
219,165,86397,1,0,0:0:0:0:
317,158,86540,1,0,0:0:0:0:
447,51,86683,2,0,P|488:70|473:148,1,114.749996498108
450,196,86969,6,0,B|420:99|507:145|477:15,1,152.999995330811
483,54,87255,1,0,0:0:0:0:
350,104,87397,1,0,0:0:0:0:
252,43,87540,1,0,0:0:0:0:
252,43,87683,1,0,0:0:0:0:
164,148,87826,2,0,P|133:118|33:155,1,140.25000428009,0|0,0:0|0:0,0:0:0:0:
0,107,88112,6,0,B|75:69|80:166|159:156,1,140.25000428009,0|0,0:0|0:0,0:0:0:0:
164,221,88397,1,0,0:0:0:0:
363,315,88540,1,0,0:0:0:0:
278,375,88683,1,0,0:0:0:0:
263,258,88826,1,0,0:0:0:0:
429,245,88969,2,0,P|478:260|494:321,1,114.749996498108
479,354,89255,6,0,B|448:287|448:287|474:204,1,152.999995330811,0|0,0:0|0:0,0:0:0:0:
511,153,89540,1,0,0:0:0:0:
143,344,89826,6,0,B|235:327|194:386|295:367,1,140.25000428009,0|0,0:0|0:0,0:0:0:0:
397,307,90112,2,0,P|394:261|323:278,1,140.25000428009,0|0,0:0|0:0,0:0:0:0:
322,278,90397,2,0,B|331:234|331:234|296:172|296:172|299:131,1,140.25000428009,0|0,0:0|0:0,0:0:0:0:
258,83,90683,1,0,0:0:0:0:
159,110,90826,1,0,0:0:0:0:
79,17,90969,2,0,B|90:8|102:3|103:100|42:65|65:156,1,140.25000428009,0|0,0:0|0:0,0:0:0:0:
90,202,91255,1,0,0:0:0:0:
11,317,91397,5,0,0:0:0:0:
11,317,91469,1,0,0:0:0:0:
11,317,91540,2,0,L|166:348,1,152.999995330811,0|0,0:0|0:0,0:0:0:0:
227,306,91826,2,0,B|203:292|203:292|147:310|145:357|145:357|164:385,1,140.25000428009,0|0,0:0|0:0,0:0:0:0:
228,383,92112,1,0,0:0:0:0:
334,308,92255,1,0,0:0:0:0:
484,237,92397,6,0,B|447:228|447:228|401:188|401:188|356:179,1,140.25000428009,0|0,0:0|0:0,0:0:0:0:
280,217,92683,2,0,B|233:219|233:219|260:179,1,93.5000028533936,0|0,0:0|0:0,0:0:0:0:
322,122,92969,5,0,0:0:0:0:
456,67,93112,1,0,0:0:0:0:
494,154,93255,1,0,0:0:0:0:
344,14,93397,1,0,0:0:0:0:
253,52,93540,1,0,0:0:0:0:
214,69,93612,1,0,0:0:0:0:
172,69,93683,1,0,0:0:0:0:
126,40,93755,1,0,0:0:0:0:
152,26,93826,2,0,P|174:28|164:143,1,140.25000428009
201,123,94112,1,0,0:0:0:0:
0,238,94255,6,0,P|72:250|138:268,1,140.25000428009,0|0,0:0|0:0,0:0:0:0:
207,267,94540,1,0,0:0:0:0:
359,228,94683,1,0,0:0:0:0:
492,360,94826,2,0,B|469:332|469:332|494:249|494:249|473:219,1,140.25000428009,0|0,0:0|0:0,0:0:0:0:
434,173,95112,1,0,0:0:0:0:
316,159,95255,1,0,0:0:0:0:
297,70,95397,1,0,0:0:0:0:
350,14,95540,2,0,P|384:62|363:109,1,93.5000028533936,0|0,0:0|0:0,0:0:0:0:
233,208,95826,5,0,0:0:0:0:
28,120,95969,1,0,0:0:0:0:
28,120,96040,1,0,0:0:0:0:
28,120,96112,2,0,B|86:106|86:106|101:95|101:95|185:78,1,152.999995330811,0|0,0:0|0:0,0:0:0:0:
230,25,96397,5,0,0:0:0:0:
425,142,96540,2,0,P|370:96|323:151,1,140.25000428009,0|0,0:0|0:0,0:0:0:0:
325,131,96826,1,0,0:0:0:0:
441,324,96969,1,0,0:0:0:0:
320,328,97112,2,0,B|379:303|361:273|434:249,1,140.25000428009,0|0,0:0|0:0,0:0:0:0:
363,202,97397,1,0,0:0:0:0:
251,166,97540,1,0,0:0:0:0:
95,234,97683,1,0,0:0:0:0:
11,110,97826,2,0,P|77:112|120:172,1,140.25000428009,0|0,0:0|0:0,0:0:0:0:
174,217,98112,5,0,0:0:0:0:
412,25,98255,1,0,0:0:0:0:
412,25,98326,1,0,0:0:0:0:
412,25,98397,2,0,P|387:153|386:191,1,152.999995330811,0|0,0:0|0:0,0:0:0:0:
447,243,98683,5,0,0:0:0:0:
279,75,98826,2,0,B|205:89|206:119|152:139,1,140.25000428009
76,147,99112,1,0,0:0:0:0:
154,30,99255,1,0,0:0:0:0:
289,167,99397,2,0,B|303:197|303:197|272:276|272:276|283:318,1,140.25000428009,0|0,0:0|0:0,0:0:0:0:
332,345,99683,6,0,B|351:367|351:367|312:358,1,46.7500014266968,0|0,0:0|0:0,0:0:0:0:
132,271,99826,2,0,L|43:300,1,93.5000028533936,0|0,0:0|0:0,0:0:0:0:
0,45,100112,2,0,B|57:65|57:65|71:78|71:78|134:103,1,140.25000428009,0|0,0:0|0:0,0:0:0:0:
215,191,100397,6,0,B|194:184|194:184|207:129|207:129|234:137,1,93.5000028533936,0|0,0:0|0:0,0:0:0:0:
303,86,100612,1,0,0:0:0:0:
303,86,100683,2,0,B|249:141|249:141|284:254,1,152.999995330811,0|0,0:0|0:0,0:0:0:0:
327,274,100969,2,0,B|367:245|367:245|332:147,1,140.25000428009,0|0,0:0|0:0,0:0:0:0:
303,86,101255,5,0,0:0:0:0:
164,85,101397,1,0,0:0:0:0:
57,215,101540,1,0,0:0:0:0:
0,102,101683,2,0,L|43:117,1,46.7500014266968,0|0,0:0|0:0,0:0:0:0:
43,117,101826,5,0,0:0:0:0:
232,244,101969,1,0,0:0:0:0:
232,244,102040,1,0,0:0:0:0:
232,244,102112,2,0,P|210:263|184:275,1,46.7500014266968,0|0,0:0|0:0,0:0:0:0:
27,311,102255,2,0,P|85:316|137:335,1,93.5000028533936,0|0,0:0|0:0,0:0:0:0:
232,373,102540,1,0,0:0:0:0:
371,260,102683,6,0,P|450:265|453:352,1,152.999995330811,0|0,0:0|0:0,0:0:0:0:
467,326,102969,2,0,B|462:292|462:292|471:258|471:258|464:226,1,93.5000028533936,0|0,0:0|0:0,0:0:0:0:
81,45,121255,5,0,0:0:0:0:
141,98,121397,1,0,0:0:0:0:
99,166,121540,1,0,0:0:0:0:
90,184,121683,1,0,0:0:0:0:
15,128,121969,5,0,0:0:0:0:
28,106,122112,1,0,0:0:0:0:
225,37,122397,5,0,0:0:0:0:
306,37,122540,1,0,0:0:0:0:
312,118,122683,1,0,0:0:0:0:
230,121,122826,1,0,0:0:0:0:
324,17,123112,5,0,0:0:0:0:
352,16,123255,1,0,0:0:0:0:
464,225,123540,5,0,0:0:0:0:
432,158,123683,1,0,0:0:0:0:
469,93,123826,1,0,0:0:0:0:
482,107,123969,1,0,0:0:0:0:
336,195,124255,5,0,0:0:0:0:
297,178,124302,2,0,L|264:182,2,22.6666666666667
208,106,124683,5,0,0:0:0:0:
138,133,124826,1,0,0:0:0:0:
67,158,124969,1,0,0:0:0:0:
23,97,125112,2,0,P|79:112|153:152,1,136,0|0,0:0|0:0,0:0:0:0:
147,148,125540,2,0,L|142:244,1,68
20,356,125826,5,0,0:0:0:0:
87,324,125969,1,0,0:0:0:0:
157,349,126112,1,0,0:0:0:0:
174,344,126255,1,0,0:0:0:0:
271,321,126540,5,0,0:0:0:0:
292,331,126683,1,0,0:0:0:0:
448,196,126969,5,0,0:0:0:0:
488,267,127112,1,0,0:0:0:0:
414,303,127255,1,0,0:0:0:0:
379,229,127397,1,0,0:0:0:0:
385,148,127683,2,0,L|388:114,1,34,0|0,0:0|0:0,0:0:0:0:
388,114,127826,1,0,0:0:0:0:
142,32,128112,5,0,0:0:0:0:
218,61,128255,1,0,0:0:0:0:
157,104,128397,1,0,0:0:0:0:
72,190,128540,2,0,B|97:272|64:248|79:332,1,136,0|0,0:0|0:0,0:0:0:0:
77,324,128969,2,0,L|-15:345,1,68
174,218,129255,5,0,0:0:0:0:
247,229,129397,1,0,0:0:0:0:
293,288,129540,1,0,0:0:0:0:
352,347,129683,2,0,P|385:369|483:358,1,136
477,361,130040,1,0,0:0:0:0:
477,361,130112,6,0,L|483:310,1,34
412,271,130255,2,0,L|403:238,1,34
461,166,130397,5,0,0:0:0:0:
461,166,130540,1,0,0:0:0:0:
305,214,130683,1,0,0:0:0:0:
305,214,130826,1,0,0:0:0:0:
160,69,130969,1,0,0:0:0:0:
223,125,131255,1,0,0:0:0:0:
66,235,131540,2,0,P|115:215|226:207,1,152.999995330811,0|0,0:0|0:0,0:0:0:0:
211,191,131969,2,0,P|134:194|63:220,1,152.999995330811,0|0,0:0|0:0,0:0:0:0:
252,57,132397,2,0,P|303:54|346:139,1,152.999995330811,0|0,0:0|0:0,0:0:0:0:
335,228,132826,5,0,0:0:0:0:
301,295,132969,1,0,0:0:0:0:
404,288,133112,1,0,0:0:0:0:
454,347,133255,1,0,0:0:0:0:
454,347,133397,1,0,0:0:0:0:
478,267,133540,5,0,0:0:0:0:
458,233,133683,2,0,L|480:271,1,38.2499988327027,0|0,0:0|0:0,0:0:0:0:
364,147,133826,5,0,0:0:0:0:
416,91,133969,1,0,0:0:0:0:
480,131,134112,1,0,0:0:0:0:
374,236,134255,1,0,0:0:0:0:
272,105,134397,2,0,L|261:181,1,76.4999976654053,0|0,0:0|0:0,0:0:0:0:
187,305,134683,2,0,L|176:229,1,76.4999976654053,0|0,0:0|0:0,0:0:0:0:
38,122,134969,5,0,0:0:0:0:
38,122,135112,1,0,0:0:0:0:
107,68,135255,1,0,0:0:0:0:
170,109,135397,1,0,0:0:0:0:
235,69,135540,1,0,0:0:0:0:
175,21,135683,1,0,0:0:0:0:
248,173,135826,5,0,0:0:0:0:
344,71,135969,2,0,P|315:135|308:249,1,152.999995330811,0|0,0:0|0:0,0:0:0:0:
387,307,136397,1,0,0:0:0:0:
473,337,136540,2,0,B|390:313|404:369|325:352,1,152.999995330811,0|0,0:0|0:0,0:0:0:0:
245,378,136969,1,0,0:0:0:0:
182,329,137112,1,0,0:0:0:0:
197,184,137255,5,0,0:0:0:0:
231,252,137397,1,0,0:0:0:0:
152,243,137540,1,0,0:0:0:0:
125,170,137683,2,0,B|163:164|226:172|277:155,1,152.999995330811,0|0,0:0|0:0,0:0:0:0:
276,155,138112,2,0,B|268:117|269:91|265:59,1,76.4999976654053
95,41,138397,5,0,0:0:0:0:
104,116,138540,1,0,0:0:0:0:
38,155,138683,1,0,0:0:0:0:
24,79,138826,2,0,P|108:41|176:43,1,152.999995330811,0|0,0:0|0:0,0:0:0:0:
167,41,139255,2,0,B|159:79|160:105|156:137,1,76.4999976654053
158,116,139445,6,0,L|199:134,2,25.4999992218018
95,159,139683,1,0,0:0:0:0:
51,222,139826,1,0,0:0:0:0:
69,296,139969,1,0,0:0:0:0:
229,361,140112,5,0,0:0:0:0:
229,361,140397,1,0,0:0:0:0:
297,308,140683,2,0,B|307:273|307:273|273:209|273:209|286:167,1,152.999995330811,0|0,0:0|0:0,0:0:0:0:
266,163,141112,2,0,B|253:205|253:205|287:269|287:269|277:304,1,152.999995330811,0|0,0:0|0:0,0:0:0:0:
106,370,141540,2,0,P|89:339|129:293,1,76.4999976654053,0|0,0:0|0:0,0:0:0:0:
218,221,141826,5,0,0:0:0:0:
275,271,141969,1,0,0:0:0:0:
207,293,142112,1,0,0:0:0:0:
291,200,142255,1,0,0:0:0:0:
413,250,142397,1,0,0:0:0:0:
450,175,142540,1,0,0:0:0:0:
344,302,142683,2,0,P|329:251|320:199,1,76.4999976654053,0|0,0:0|0:0,0:0:0:0:
484,72,142969,5,0,0:0:0:0:
417,34,143112,1,0,0:0:0:0:
341,48,143255,1,0,0:0:0:0:
281,95,143397,2,0,P|207:129|125:113,1,152.999995330811,0|0,0:0|0:0,0:0:0:0:
138,119,143826,2,0,L|158:45,1,76.4999976654053,0|0,0:0|0:0,0:0:0:0:
161,287,144112,5,0,0:0:0:0:
107,232,144255,1,0,0:0:0:0:
48,306,144397,1,0,0:0:0:0:
194,221,144540,1,0,0:0:0:0:
142,163,144683,1,0,0:0:0:0:
422,323,144969,6,0,B|430:290|430:290|426:269|426:269|437:244,1,76.4999976654053,0|0,0:0|0:0,0:0:0:0:
437,218,145183,1,0,0:0:0:0:
437,218,145255,2,0,B|418:253|418:253|435:335|435:335|423:373,1,152.999995330811,0|0,0:0|0:0,0:0:0:0:
231,314,145683,2,0,L|117:354,1,114.749996498108,0|0,0:0|0:0,0:0:0:0:
23,128,146112,5,0,0:0:0:0:
99,127,146255,1,0,0:0:0:0:
164,164,146397,2,0,P|232:151|194:20,2,229.499992996216
0,377,147540,2,0,B|-14:266|97:231|97:231|116:329,1,267.749991828919
112,333,148112,2,0,B|128:267|128:267|45:114|45:114|61:42,1,297.5
135,28,148683,6,0,P|190:47|218:51,1,76.4999976654053,0|0,0:0|0:0,0:0:0:0:
208,51,148897,1,0,0:0:0:0:
208,51,148969,1,0,0:0:0:0:
118,101,149112,1,0,0:0:0:0:
304,12,149255,2,0,P|355:22|366:125,1,152.999995330811,0|0,0:0|0:0,0:0:0:0:
191,145,149683,1,0,0:0:0:0:
191,145,149826,2,0,P|278:161|366:179,1,152.999995330811,0|0,0:0|0:0,0:0:0:0:
423,214,150255,1,0,0:0:0:0:
484,347,150397,2,0,B|462:260|520:279|492:191,1,152.999995330811,0|0,0:0|0:0,0:0:0:0:
268,334,150826,5,0,0:0:0:0:
359,277,150969,1,0,0:0:0:0:
281,234,151112,1,0,0:0:0:0:
281,234,151183,1,0,0:0:0:0:
281,234,151255,1,0,0:0:0:0:
355,361,151397,1,0,0:0:0:0:
231,368,151540,6,0,B|194:381|194:381|161:364,1,76.4999976654053,0|0,0:0|0:0,0:0:0:0:
171,280,151826,2,0,B|204:263|204:263|241:277,1,76.4999976654053,0|0,0:0|0:0,0:0:0:0:
24,380,152112,2,0,L|8:208,1,152.999995330811,0|0,0:0|0:0,0:0:0:0:
9,227,152540,1,0,0:0:0:0:
109,108,152683,5,0,0:0:0:0:
188,93,152826,1,0,0:0:0:0:
291,199,152969,1,0,0:0:0:0:
229,162,153112,1,0,0:0:0:0:
397,28,153255,6,0,P|367:84|357:197,1,152.999995330811,0|0,0:0|0:0,0:0:0:0:
229,357,153683,2,0,P|236:318|236:255,1,76.4999976654053,0|0,0:0|0:0,0:0:0:0:
317,337,153969,1,0,0:0:0:0:
390,359,154112,1,0,0:0:0:0:
368,285,154255,1,0,0:0:0:0:
148,348,154397,2,0,P|70:322|-27:315,1,152.999995330811,0|0,0:0|0:0,0:0:0:0:
163,219,154826,5,0,0:0:0:0:
163,219,154969,2,0,L|171:181,1,38.2499988327027,0|0,0:0|0:0,0:0:0:0:
197,102,155112,1,0,0:0:0:0:
271,71,155255,1,0,0:0:0:0:
277,195,155397,5,0,0:0:0:0:
113,106,155540,2,0,B|188:92|177:58|279:49,1,152.999995330811,0|0,0:0|0:0,0:0:0:0:
435,30,155969,2,0,P|406:115|400:211,1,152.999995330811,0|0,0:0|0:0,0:0:0:0:
399,177,156326,1,0,0:0:0:0:
399,177,156397,1,0,0:0:0:0:
333,133,156540,1,0,0:0:0:0:
219,187,156683,6,0,L|131:170,1,76.4999976654053,0|0,0:0|0:0,0:0:0:0:
143,172,156897,1,0,0:0:0:0:
143,172,156969,1,0,0:0:0:0:
80,224,157112,1,0,0:0:0:0:
46,78,157255,6,0,L|36:42,1,38.2499988327027,0|0,0:0|0:0,0:0:0:0:
35,41,157540,1,0,0:0:0:0:
299,361,157826,6,0,L|319:265,1,76.4999976654053,0|0,0:0|0:0,0:0:0:0:
314,286,158040,1,0,0:0:0:0:
314,286,158112,1,0,0:0:0:0:
272,159,158255,1,0,0:0:0:0:
401,132,158397,2,0,B|348:163|348:163|262:120,1,152.999995330811,0|0,0:0|0:0,0:0:0:0:
266,122,158826,1,0,0:0:0:0:
54,67,158969,2,0,B|42:105|42:105|57:138,1,76.4999976654053,0|0,0:0|0:0,0:0:0:0:
152,164,159255,2,0,B|168:132|168:132|155:94,1,76.4999976654053,0|0,0:0|0:0,0:0:0:0:
0,279,159540,2,0,P|54:264|181:247,1,152.999995330811,0|0,0:0|0:0,0:0:0:0:
308,305,159969,5,0,0:0:0:0:
342,372,160112,1,0,0:0:0:0:
265,368,160255,1,0,0:0:0:0:
265,368,160326,1,0,0:0:0:0:
265,368,160397,1,0,0:0:0:0:
234,293,160540,1,0,0:0:0:0:
375,220,160683,2,0,P|390:272|391:295,1,76.4999976654053,0|0,0:0|0:0,0:0:0:0:
215,118,160969,6,0,P|282:104|286:37,1,114.749996498108,0|0,0:0|0:0,0:0:0:0:
290,61,161255,2,0,B|308:156|257:136|286:228,1,152.999995330811,0|0,0:0|0:0,0:0:0:0:
282,212,161683,1,0,0:0:0:0:
490,305,161826,2,0,B|445:290|445:290|389:335,1,114.749996498108,0|0,0:0|0:0,0:0:0:0:
392,332,162112,1,0,0:0:0:0:
0,260,162397,6,0,B|102:231|89:313|187:277,1,187.000005706787,0|0,0:0|0:0,0:0:0:0:
179,279,162826,1,0,0:0:0:0:
243,365,162969,1,0,0:0:0:0:
338,326,163112,1,0,0:0:0:0:
157,113,163255,2,0,B|125:100|125:100|55:129|96:193,1,140.25000428009,0|0,0:0|0:0,0:0:0:0:
102,206,163540,2,0,B|115:102|45:147|82:4,1,187.000005706787,0|0,0:0|0:0,0:0:0:0:
261,3,163969,5,0,0:0:0:0:
241,146,164112,2,0,B|314:148|327:86|413:90,1,140.25000428009,0|0,0:0|0:0,0:0:0:0:
369,94,164397,2,0,B|399:135|399:135|373:198,1,93.5000028533936,0|0,0:0|0:0,0:0:0:0:
86,360,164683,6,0,B|69:323|69:323|111:235|111:235|90:191,1,165.749992412568,0|0,0:0|0:0,0:0:0:0:
110,133,164969,6,0,P|30:173|5:98,1,165.749992412568,0|0,0:0|0:0,0:0:0:0:
131,40,165255,6,0,B|209:55|209:55|224:65|224:65|321:85,1,165.749992412568,0|0,0:0|0:0,0:0:0:0:
474,20,165540,6,0,B|419:96|419:96|472:190,1,191.250007295609,0|0,0:0|0:0,0:0:0:0:
220,273,165826,5,0,0:0:0:0:
373,186,165969,1,0,0:0:0:0:
373,186,166112,1,0,0:0:0:0:
456,273,166255,5,0,0:0:0:0:
212,137,166397,2,0,P|167:144|157:202,1,85,0|0,0:0|0:0,0:0:0:0:
69,359,166683,1,0,0:0:0:0:
96,317,166755,1,0,0:0:0:0:
95,266,166826,1,0,0:0:0:0:
66,225,166897,1,0,0:0:0:0:
47,223,166969,6,0,P|81:256|207:236,1,187.000005706787,0|0,0:0|0:0,0:0:0:0:
238,168,167397,1,0,0:0:0:0:
388,349,167540,2,0,B|377:260|420:297|407:197,1,140.25000428009,0|0,0:0|0:0,0:0:0:0:
409,213,167826,2,0,P|460:221|503:224,1,93.5000028533936,0|0,0:0|0:0,0:0:0:0:
281,35,168112,6,0,P|175:56|153:130,1,187.000005706787,0|0,0:0|0:0,0:0:0:0:
152,121,168540,5,0,0:0:0:0:
257,199,168683,1,0,0:0:0:0:
274,312,168826,5,0,0:0:0:0:
140,373,168969,1,0,0:0:0:0:
481,299,169255,6,0,P|442:339|339:322,1,152.999995330811,0|0,0:0|0:0,0:0:0:0:
343,358,169540,2,0,P|326:315|338:265,1,93.5000028533936,0|0,0:0|0:0,0:0:0:0:
242,198,169826,2,0,B|169:179|182:241|107:221,1,140.25000428009,0|0,0:0|0:0,0:0:0:0:
109,221,170112,2,0,P|101:283|94:326,1,93.5000028533936,0|0,0:0|0:0,0:0:0:0:
314,58,170397,6,0,P|341:102|426:123,1,140.25000428009,0|0,0:0|0:0,0:0:0:0:
478,65,170683,1,0,0:0:0:0:
394,40,170826,1,0,0:0:0:0:
495,225,170969,2,0,B|459:198|459:198|396:203,1,93.5000028533936,0|0,0:0|0:0,0:0:0:0:
201,102,171255,2,0,P|163:109|139:190,1,114.749996498108
85,216,171540,6,0,B|195:192|159:265|284:230,1,203.999993774414
282,230,171897,1,0,0:0:0:0:
282,230,171969,1,0,0:0:0:0:
130,378,172112,2,0,P|121:329|132:279,1,93.5000028533936
282,230,172397,2,0,P|289:275|280:321,1,93.5000028533936
0,197,172683,6,0,P|70:188|164:167,1,140.25000428009
193,122,172969,1,0,0:0:0:0:
253,27,173112,1,0,0:0:0:0:
388,14,173255,2,0,P|422:24|430:107,1,93.5000028533936,0|0,0:0|0:0,0:0:0:0:
305,222,173540,2,0,P|284:155|329:98,1,114.749996498108,0|0,0:0|0:0,0:0:0:0:
358,93,173826,6,0,B|269:97|304:42|186:50,1,152.999995330811
137,14,174112,2,0,L|26:45,1,93.5000028533936
45,226,174397,5,0,0:0:0:0:
77,161,174540,1,0,0:0:0:0:
196,109,174683,5,0,0:0:0:0:
242,227,174826,1,0,0:0:0:0:
121,320,174969,2,0,B|197:299|187:365|283:332,1,140.25000428009,0|0,0:0|0:0,0:0:0:0:
255,339,175255,2,0,L|164:361,1,93.5000028533936
354,181,175540,2,0,B|414:204|414:204|401:288,1,140.25000428009,0|0,0:0|0:0,0:0:0:0:
402,279,175826,2,0,L|532:295,1,93.5000028533936
317,106,176112,6,0,L|162:148,1,152.999995330811
169,146,176397,2,0,B|134:114|134:114|143:63,1,93.5000028533936
394,6,176683,2,0,B|382:96|421:63|401:161,1,140.25000428009
404,143,176969,2,0,L|506:119,1,93.5000028533936
281,315,177255,2,0,L|179:291,1,93.5000028533936,0|0,0:0|0:0,0:0:0:0:
18,106,177540,5,0,0:0:0:0:
142,185,177683,1,0,0:0:0:0:
197,63,177826,1,0,0:0:0:0:
334,29,177969,1,0,0:0:0:0:
406,11,178112,1,0,0:0:0:0:
134,384,178397,6,0,L|148:199,1,152.999995330811,0|0,0:0|0:0,0:0:0:0:
145,231,178683,2,0,B|111:203|111:203|43:207,1,93.5000028533936
224,48,178969,2,0,P|295:82|290:169,1,140.25000428009,0|0,0:0|0:0,0:0:0:0:
305,137,179255,2,0,L|431:123,1,93.5000028533936
511,311,179540,6,0,L|321:279,1,187.000005706787,0|0,0:0|0:0,0:0:0:0:
257,244,179969,1,0,0:0:0:0:
85,198,180112,1,0,0:0:0:0:
159,320,180255,1,0,0:0:0:0:
20,371,180397,2,0,B|-6:327|-6:327|25:272,1,93.5000028533936,0|0,0:0|0:0,0:0:0:0:
93,272,180683,6,0,B|192:267|151:323|245:313,1,152.999995330811,0|0,0:0|0:0,0:0:0:0:
293,368,180969,2,0,L|400:348,1,93.5000028533936,0|0,0:0|0:0,0:0:0:0:
258,207,181255,5,0,0:0:0:0:
372,130,181397,1,0,0:0:0:0:
393,241,181540,1,0,0:0:0:0:
243,111,181683,1,0,0:0:0:0:
384,65,181826,2,0,B|348:62|348:62|284:94|284:94|248:84,1,140.25000428009,0|0,0:0|0:0,0:0:0:0:
252,85,182112,2,0,B|226:127|226:127|244:178,1,93.5000028533936
92,226,182397,5,0,0:0:0:0:
247,311,182540,1,0,0:0:0:0:
67,375,182683,1,0,0:0:0:0:
151,310,182826,1,0,0:0:0:0:
169,197,182969,2,0,B|173:309|120:285|133:383,2,187.000005706787
169,197,183683,5,0,0:0:0:0:
44,87,183826,2,0,P|83:58|150:78,1,93.5000028533936,0|0,0:0|0:0,0:0:0:0:
336,190,184112,2,0,P|264:228|168:196,1,187.000005706787,0|0,0:0|0:0,0:0:0:0:
0,316,184540,5,0,0:0:0:0:
107,255,184683,1,0,0:0:0:0:
269,318,184826,1,0,0:0:0:0:
207,370,184969,1,0,0:0:0:0:
176,336,185040,1,0,0:0:0:0:
175,289,185112,1,0,0:0:0:0:
202,252,185183,1,0,0:0:0:0:
202,252,185255,6,0,B|302:225|258:182|379:155,1,203.999993774414,0|0,0:0|0:0,0:0:0:0:
512,303,185683,2,0,B|469:318|469:318|408:287,1,93.5000028533936
356,240,185969,1,0,0:0:0:0:
184,361,186112,1,0,0:0:0:0:
75,370,186255,2,0,P|64:315|99:240,1,140.25000428009,0|0,0:0|0:0,0:0:0:0:
173,247,186540,5,0,0:0:0:0:
274,183,186683,1,0,0:0:0:0:
131,92,186826,1,0,0:0:0:0:
19,187,186969,2,0,B|0:147|0:147|21:98,1,93.5000028533936,0|0,0:0|0:0,0:0:0:0:
246,27,187255,2,0,L|373:46,1,114.749996498108,0|0,0:0|0:0,0:0:0:0:
426,14,187540,6,0,B|418:61|418:61|310:98|310:98|312:149,1,203.999993774414,0|0,0:0|0:0,0:0:0:0:
122,290,187969,2,0,B|102:197|102:197|145:161,1,140.25000428009,0|0,0:0|0:0,0:0:0:0:
196,133,188255,1,0,0:0:0:0:
302,239,188397,1,0,0:0:0:0:
406,158,188540,2,0,B|466:144|466:144|536:192|509:258,1,187.000005706787,0|0,0:0|0:0,0:0:0:0:
273,348,188969,1,0,0:0:0:0:
367,264,189112,1,0,0:0:0:0:
441,375,189255,2,0,B|457:326|457:326|419:240|419:240|441:176,1,187.000005706787,0|0,0:0|0:0,0:0:0:0:
488,67,189755,5,0,0:0:0:0:
472,97,189826,2,0,B|370:69|378:142|261:115,1,203.999993774414,0|0,0:0|0:0,0:0:0:0:
214,34,190255,2,0,L|111:53,1,93.5000028533936,0|0,0:0|0:0,0:0:0:0:
15,154,190540,1,0,0:0:0:0:
168,276,190683,1,0,0:0:0:0:
77,376,190826,2,0,P|57:268|52:221,1,140.25000428009,0|0,0:0|0:0,0:0:0:0:
104,174,191112,5,0,0:0:0:0:
167,242,191255,1,0,0:0:0:0:
256,216,191397,1,0,0:0:0:0:
412,52,191540,2,0,P|461:71|471:126,1,93.5000028533936,0|0,0:0|0:0,0:0:0:0:
318,292,191826,2,0,P|303:227|337:163,1,114.749996498108,0|0,0:0|0:0,0:0:0:0:
406,160,192112,6,0,B|288:164|315:110|206:113,1,203.999993774414,0|0,0:0|0:0,0:0:0:0:
16,269,192540,2,0,B|-3:235|-3:235|22:183,1,93.5000028533936,0|0,0:0|0:0,0:0:0:0:
221,76,192826,2,0,L|215:128,1,46.7500014266968,0|0,0:0|0:0,0:0:0:0:
221,242,192969,1,0,0:0:0:0:
110,309,193112,1,0,0:0:0:0:
203,366,193255,5,0,0:0:0:0:
303,215,193397,1,0,0:0:0:0:
303,215,193469,1,0,0:0:0:0:
302,214,193540,2,0,L|323:257,1,46.7500014266968,0|0,0:0|0:0,0:0:0:0:
389,384,193683,2,0,L|405:274,1,93.5000028533936
308,135,193969,1,0,0:0:0:0:
388,45,194112,6,0,P|467:50|470:126,1,140.25000428009,0|0,0:0|0:0,0:0:0:0:
506,176,194397,2,0,L|392:158,1,110.5
335,101,195397,1,0,0:0:0:0:
335,101,195469,1,0,0:0:0:0:
335,101,195540,1,0,0:0:0:0:
174,312,195683,1,0,0:0:0:0:
244,370,195969,5,0,0:0:0:0:
105,120,196255,5,0,0:0:0:0:
351,186,196397,1,0,0:0:0:0:
70,351,196683,5,0,0:0:0:0:
93,48,204969,6,0,B|97:30|97:30|143:57,1,63.7500024318696,0|0,0:0|0:0,0:0:0:0:
137,53,205826,6,0,L|47:64,1,76.4999976654053,0|0,0:0|0:0,0:0:0:0:
24,86,206040,1,0,0:0:0:0:
24,86,206112,2,0,B|44:84|44:84|90:51|90:51|133:74|133:74|160:74,1,152.999995330811,0|0,0:0|0:0,0:0:0:0:
244,126,206540,1,0,0:0:0:0:
305,56,206683,2,0,B|301:40|301:40|366:48,1,76.4999976654053,0|0,0:0|0:0,0:0:0:0:
492,152,206969,2,0,B|496:168|496:168|431:160,1,76.4999976654053,0|0,0:0|0:0,0:0:0:0:
414,162,207183,1,0,0:0:0:0:
414,162,207255,6,0,P|416:113|507:73,1,152.999995330811,0|0,0:0|0:0,0:0:0:0:
414,162,207683,1,0,0:0:0:0:
321,142,207826,1,0,0:0:0:0:
443,264,207969,2,0,L|473:232,1,38.2499988327027
469,236,208112,6,0,P|423:247|382:263,1,76.4999976654053
366,273,208326,1,0,0:0:0:0:
366,273,208397,1,0,0:0:0:0:
278,332,208540,1,0,0:0:0:0:
176,266,208683,2,0,P|175:236|123:211,1,76.4999976654053,0|0,0:0|0:0,0:0:0:0:
27,160,208969,2,0,P|31:123|101:103,1,114.749996498108,0|0,0:0|0:0,0:0:0:0:
175,93,209255,6,0,B|97:91|127:47|14:45,1,152.999995330811,0|0,0:0|0:0,0:0:0:0:
209,27,209683,1,0,0:0:0:0:
297,122,209826,1,0,0:0:0:0:
376,80,209969,1,0,0:0:0:0:
452,225,210112,2,0,B|479:181|479:181|452:107,1,114.749996498108,0|0,0:0|0:0,0:0:0:0:
451,103,210397,6,0,B|441:199|484:159|472:265,1,152.999995330811,0|0,0:0|0:0,0:0:0:0:
512,330,210826,1,0,0:0:0:0:
356,302,210969,2,0,L|275:330,1,76.4999976654053,0|0,0:0|0:0,0:0:0:0:
133,371,211255,2,0,B|95:358|95:358|111:273,1,114.749996498108,0|0,0:0|0:0,0:0:0:0:
30,261,211540,6,0,B|71:278|99:302|99:302|136:280|184:264,1,152.999995330811,0|0,0:0|0:0,0:0:0:0:
366,370,211969,1,0,0:0:0:0:
283,384,212112,1,0,0:0:0:0:
346,258,212255,1,0,0:0:0:0:
411,298,212397,1,0,0:0:0:0:
363,162,212540,5,0,0:0:0:0:
500,79,212683,2,0,B|414:76|454:39|333:49,1,152.999995330811,0|0,0:0|0:0,0:0:0:0:
261,137,213112,1,0,0:0:0:0:
186,168,213255,1,0,0:0:0:0:
108,76,213397,1,0,0:0:0:0:
182,93,213540,1,0,0:0:0:0:
141,249,213683,6,0,B|134:267|134:267|101:281,1,38.2499988327027,0|0,0:0|0:0,0:0:0:0:
66,295,213826,2,0,L|163:305,1,76.4999976654053,0|0,0:0|0:0,0:0:0:0:
184,313,214040,1,0,0:0:0:0:
184,313,214112,1,0,0:0:0:0:
296,264,214255,1,0,0:0:0:0:
425,326,214397,6,0,L|497:310,1,63.7500024318696,0|0,0:0|0:0,0:0:0:0:
116,157,214969,6,0,P|157:154|220:246,1,152.999995330811
125,357,215397,1,0,0:0:0:0:
74,297,215540,1,0,0:0:0:0:
215,367,215683,1,0,0:0:0:0:
338,314,215826,2,0,B|357:317|357:317|399:310|399:310|439:330|439:330|461:331,1,114.749996498108,0|0,0:0|0:0,0:0:0:0:
443,246,216112,6,0,B|381:248|379:314|366:345|406:366|460:354|447:310,1,187.000005706787,0|0,0:0|0:0,0:0:0:0:
443,246,216540,1,0,0:0:0:0:
336,190,216683,2,0,B|320:171|320:171|332:101,1,76.4999976654053,0|0,0:0|0:0,0:0:0:0:
436,32,216969,2,0,B|468:56|468:56|477:98|477:98|445:139,1,114.749996498108,0|0,0:0|0:0,0:0:0:0:
447,163,217255,6,0,B|463:134|463:134|436:45|436:45|455:12,1,152.999995330811,0|0,0:0|0:0,0:0:0:0:
292,74,217683,1,0,0:0:0:0:
223,33,217826,1,0,0:0:0:0:
127,124,217969,1,0,0:0:0:0:
56,88,218112,2,0,P|45:50|88:67,1,89.2499972763062,0|0,0:0|0:0,0:0:0:0:
127,124,218397,6,0,L|110:231,1,76.4999976654053,0|0,0:0|0:0,0:0:0:0:
111,224,218612,1,0,0:0:0:0:
111,224,218683,1,0,0:0:0:0:
48,323,218826,1,0,0:0:0:0:
211,284,218969,5,0,0:0:0:0:
330,334,219112,1,0,0:0:0:0:
448,293,219255,2,0,B|417:259|417:259|413:214|450:208,1,114.749996498108,0|0,0:0|0:0,0:0:0:0:
503,260,219540,6,0,B|485:257|485:257|456:223|456:223|394:221|394:221|372:246|372:246|340:246,1,187.000005706787,0|0,0:0|0:0,0:0:0:0:
305,333,223469,5,0,0:0:0:0:
242,367,223755,1,0,0:0:0:0:
430,249,224112,6,0,B|311:251|374:157|228:163,1,220.999989883423,0|0,0:0|0:0,0:0:0:0:
238,162,224540,1,0,0:0:0:0:
355,40,224683,2,0,B|384:39|384:39|441:73|441:73|485:72,1,140.25000428009,0|0,0:0|0:0,0:0:0:0:
485,72,224969,2,0,B|433:85|433:85|409:134,1,93.5000028533936,0|0,0:0|0:0,0:0:0:0:
101,347,225255,6,0,B|91:283|91:283|95:267|95:267|86:204,1,140.25000428009,0|0,0:0|0:0,0:0:0:0:
91,213,225540,2,0,B|42:195|42:195|-13:212,1,93.5000028533936,0|0,0:0|0:0,0:0:0:0:
145,94,225826,1,0,0:0:0:0:
236,190,225969,1,0,0:0:0:0:
196,322,226112,2,0,B|282:278|282:278|313:310,1,114.749996498108,0|0,0:0|0:0,0:0:0:0:
376,246,226397,6,0,B|327:241|327:241|278:304|359:346,1,152.999995330811,0|0,0:0|0:0,0:0:0:0:
341,338,226683,2,0,L|441:356,1,93.5000028533936,0|0,0:0|0:0,0:0:0:0:
294,155,226969,2,0,P|260:158|216:246,1,140.25000428009,0|0,0:0|0:0,0:0:0:0:
215,243,227255,2,0,L|117:276,1,93.5000028533936,0|0,0:0|0:0,0:0:0:0:
26,51,227540,2,0,B|85:69|85:69|74:157,1,140.25000428009,0|0,0:0|0:0,0:0:0:0:
75,146,227826,2,0,B|135:106|135:106|161:120,1,93.5000028533936,0|0,0:0|0:0,0:0:0:0:
224,131,228112,5,0,0:0:0:0:
297,26,228255,1,0,0:0:0:0:
464,24,228397,2,0,B|498:8|498:8|522:39|522:39|511:89|474:92,1,140.25000428009,0|0,0:0|0:0,0:0:0:0:
429,171,228683,6,0,B|384:168|384:168|317:201|317:201|266:196,1,152.999995330811
283,197,228969,2,0,B|258:242|258:242|274:289,1,93.5000028533936
79,369,229255,5,0,0:0:0:0:
139,277,229397,1,0,0:0:0:0:
4,124,229540,2,0,L|164:143,1,140.25000428009,0|0,0:0|0:0,0:0:0:0:
143,140,229826,2,0,B|166:94|166:94|149:41,1,93.5000028533936
445,22,230112,2,0,B|430:116,1,93.5000028533936,0|0,0:0|0:0,0:0:0:0:
290,210,230397,2,0,B|301:188|301:188|379:206,1,93.5000028533936,0|0,0:0|0:0,0:0:0:0:
484,350,230683,2,0,B|447:346|447:346|399:318|399:318|366:338,1,114.749996498108,0|0,0:0|0:0,0:0:0:0:
360,358,230969,6,0,P|420:290|478:364,1,203.999993774414,0|0,0:0|0:0,0:0:0:0:
363,363,231397,1,0,0:0:0:0:
209,290,231540,2,0,L|103:307,1,93.5000028533936,0|0,0:0|0:0,0:0:0:0:
226,189,231826,1,0,0:0:0:0:
132,136,231969,1,0,0:0:0:0:
260,0,232112,2,0,P|299:1|317:105,1,140.25000428009,0|0,0:0|0:0,0:0:0:0:
337,83,232397,2,0,L|462:99,1,93.5000028533936,0|0,0:0|0:0,0:0:0:0:
502,206,232683,5,0,0:0:0:0:
397,167,232826,1,0,0:0:0:0:
292,306,232969,2,0,B|268:272|268:272|354:249,1,114.749996498108,0|0,0:0|0:0,0:0:0:0:
404,270,233255,6,0,B|358:279|358:279|268:237|268:237|218:270,1,203.999993774414,0|0,0:0|0:0,0:0:0:0:
219,268,233683,1,0,0:0:0:0:
49,168,233826,6,0,B|88:174|88:174|115:191|115:191|152:196,1,93.5000028533936,0|0,0:0|0:0,0:0:0:0:
291,94,234112,2,0,P|284:54|364:21,1,140.25000428009,0|0,0:0|0:0,0:0:0:0:
419,51,234397,2,0,B|313:62|360:-7|235:10,1,187.000005706787,0|0,0:0|0:0,0:0:0:0:
101,73,234826,1,0,0:0:0:0:
25,157,234969,2,0,P|13:110|31:58,1,93.5000028533936,0|0,0:0|0:0,0:0:0:0:
214,24,235255,2,0,P|225:68|213:113,1,93.5000028533936,0|0,0:0|0:0,0:0:0:0:
97,295,235540,6,0,B|66:300|66:300|58:259|58:259|206:235,1,203.999993774414,0|0,0:0|0:0,0:0:0:0:
278,281,235969,1,0,0:0:0:0:
354,381,236112,2,0,B|370:344|370:344|354:286,1,93.5000028533936,0|0,0:0|0:0,0:0:0:0:
273,157,236397,1,0,0:0:0:0:
398,53,236540,1,0,0:0:0:0:
286,43,236683,2,0,P|326:41|367:133,1,140.25000428009,0|0,0:0|0:0,0:0:0:0:
372,118,236969,2,0,L|488:141,1,93.5000028533936,0|0,0:0|0:0,0:0:0:0:
304,263,237255,6,0,B|294:214|294:214|325:157,1,93.5000028533936
508,345,237540,2,0,B|412:361|453:310|368:315,1,140.25000428009,0|0,0:0|0:0,0:0:0:0:
314,356,237826,2,0,B|341:311|416:312|416:312|432:351,1,152.999995330811,0|0,0:0|0:0,0:0:0:0:
429,362,238112,2,0,L|442:269,1,93.5000028533936,0|0,0:0|0:0,0:0:0:0:
332,146,238397,6,0,B|398:131|398:131|413:116|413:116|478:107,1,140.25000428009,0|0,0:0|0:0,0:0:0:0:
464,109,238683,2,0,B|486:67|486:67|459:24,1,93.5000028533936,0|0,0:0|0:0,0:0:0:0:
179,16,238969,2,0,P|124:18|101:118,1,140.25000428009,0|0,0:0|0:0,0:0:0:0:
89,92,239255,2,0,L|-16:125,1,93.5000028533936,0|0,0:0|0:0,0:0:0:0:
89,92,239540,1,0,0:0:0:0:
201,181,239683,1,0,0:0:0:0:
89,319,239826,2,0,P|65:275|104:204,1,114.749996498108,0|0,0:0|0:0,0:0:0:0:
120,165,240112,6,0,B|126:290|81:241|86:367,1,203.999993774414,0|0,0:0|0:0,0:0:0:0:
85,363,240540,1,0,0:0:0:0:
274,233,240683,5,0,0:0:0:0:
201,181,240826,1,0,0:0:0:0:
229,339,240969,5,0,0:0:0:0:
366,267,241112,1,0,0:0:0:0:
229,101,241255,5,0,0:0:0:0:
410,148,241397,1,0,0:0:0:0:
410,148,241540,1,0,0:0:0:0:
262,7,241683,2,0,P|289:30|295:184,1,187.000005706787,0|0,0:0|0:0,0:0:0:0:
58,279,242112,5,0,0:0:0:0:
92,230,242183,1,0,0:0:0:0:
147,204,242255,1,0,0:0:0:0:
207,209,242326,1,0,0:0:0:0:
218,226,242397,2,0,P|158:153|234:101,1,203.999993774414
374,246,242826,5,0,0:0:0:0:
308,298,242969,1,0,0:0:0:0:
400,165,243112,5,0,0:0:0:0:
477,218,243255,1,0,0:0:0:0:
292,107,243397,2,0,B|371:92|366:47|483:24,1,187.000005706787,0|0,0:0|0:0,0:0:0:0:
282,244,243826,1,0,0:0:0:0:
330,174,243969,1,0,0:0:0:0:
292,107,244112,1,0,0:0:0:0:
157,162,244255,1,0,0:0:0:0:
27,70,244397,1,0,0:0:0:0:
205,67,244612,5,0,0:0:0:0:
192,51,244683,2,0,B|206:90|206:90|156:197|156:197|169:241,1,203.999993774414,0|0,0:0|0:0,0:0:0:0:
9,341,245112,1,0,0:0:0:0:
76,276,245255,1,0,0:0:0:0:
203,341,245397,1,0,0:0:0:0:
426,242,245540,1,0,0:0:0:0:
273,184,245683,2,0,P|322:163|313:45,1,187.000005706787,0|0,0:0|0:0,0:0:0:0:
273,184,246112,5,0,0:0:0:0:
414,135,246255,2,0,B|448:137|448:137|474:149|474:149|509:152,1,93.5000028533936,0|0,0:0|0:0,0:0:0:0:
341,61,246540,1,0,0:0:0:0:
203,265,246683,5,0,0:0:0:0:
388,342,246897,1,0,0:0:0:0:
388,342,246969,2,0,B|280:333|319:282|196:264,1,203.999993774414,0|0,0:0|0:0,0:0:0:0:
422,171,247397,2,0,B|445:216|445:216|428:256,1,93.5000028533936,0|0,0:0|0:0,0:0:0:0:
289,163,247683,1,0,0:0:0:0:
128,255,247826,1,0,0:0:0:0:
197,61,247969,6,0,B|173:94|173:94|219:191|219:191|195:230,1,187.000005706787,0|0,0:0|0:0,0:0:0:0:
197,61,248397,1,0,0:0:0:0:
297,103,248540,1,0,0:0:0:0:
389,13,248683,2,0,B|421:55|421:55|402:116,1,93.5000028533936,0|0,0:0|0:0,0:0:0:0:
233,253,248969,6,0,B|220:214|220:214|335:190,1,140.25000428009,0|0,0:0|0:0,0:0:0:0:
371,213,249255,2,0,L|165:185,1,203.999993774414,0|0,0:0|0:0,0:0:0:0:
109,366,249683,1,0,0:0:0:0:
170,317,249826,1,0,0:0:0:0:
62,194,249969,1,0,0:0:0:0:
151,31,250112,5,0,0:0:0:0:
229,74,250255,2,0,B|213:101|213:101|179:106,1,46.7500014266968,0|0,0:0|0:0,0:0:0:0:
98,97,250397,1,0,0:0:0:0:
304,16,250540,1,0,0:0:0:0:
348,26,250612,1,0,0:0:0:0:
373,64,250683,1,0,0:0:0:0:
366,109,250755,1,0,0:0:0:0:
366,109,250826,2,0,B|359:175|385:144|381:219,1,93.5000028533936,0|0,0:0|0:0,0:0:0:0:
278,336,251112,1,0,0:0:0:0:
488,362,251255,2,0,P|512:315|422:266,1,165.749992412568,0|0,0:0|0:0,0:0:0:0:
434,259,251540,5,0,0:0:0:0:
361,278,251683,1,0,0:0:0:0:
306,227,251826,1,0,0:0:0:0:
335,158,251969,1,0,0:0:0:0:
212,108,252683,5,0,0:0:0:0:
146,68,252826,1,0,0:0:0:0:
39,100,252969,1,0,0:0:0:0:
85,30,253112,2,0,B|76:121|115:94|102:201,1,140.25000428009,0|0,0:0|0:0,0:0:0:0:
77,234,253397,2,0,P|128:151|324:176,1,276.249987354279,0|0,0:0|0:0,0:0:0:0:
349,195,253826,1,0,0:0:0:0:
