osu file format v14

[General]
AudioFilename: audio.mp3
AudioLeadIn: 0
PreviewTime: 58728
Countdown: 0
SampleSet: Soft
StackLeniency: 0.7
Mode: 0
LetterboxInBreaks: 0
WidescreenStoryboard: 0

[Editor]
DistanceSpacing: 1
BeatDivisor: 4
GridSize: 4
TimelineZoom: 1

[Metadata]
Title:Inochi ni Kirawarete Iru.
TitleUnicode:命に嫌われている。
Artist:zakuro
ArtistUnicode:柘榴
Creator:Mirash
Version:Hard
Source:
Tags:sing delis pandahero hated by life. hatsune miku 初音ミク kanzaki カンザキ utaite vocaloid cover
BeatmapID:1473794
BeatmapSetID:693727

[Difficulty]
HPDrainRate:5
CircleSize:4
OverallDifficulty:6
ApproachRate:8
SliderMultiplier:1.4
SliderTickRate:1

[Events]
//Background and Video events
0,0,"pills.jpg",0,0
//Break Periods
2,78203,86853
2,126203,134853
2,164453,172953
//Storyboard Layer 0 (Background)
//Storyboard Layer 1 (Fail)
//Storyboard Layer 2 (Pass)
//Storyboard Layer 3 (Foreground)
//Storyboard Sound Samples

[TimingPoints]
3,300,4,2,1,50,1,0
10803,-133.333333333333,4,2,1,50,0,0
39603,-133.333333333333,4,2,1,40,0,0
58803,-100,4,2,1,70,0,0
67803,-100,4,2,1,50,0,0
68403,-100,4,2,1,70,0,0
87603,-133.333333333333,4,2,1,60,0,0
106803,-125,4,2,1,60,0,0
126003,-200,4,2,1,40,0,0
135603,-133.333333333333,4,2,1,45,0,0
137853,-133.333333333333,4,2,1,50,0,0
140403,-133.333333333333,4,2,1,55,0,0
142803,-133.333333333333,4,2,1,60,0,0
144003,-133.333333333333,4,2,1,50,0,0
145203,-100,4,2,1,70,0,0
154203,-100,4,2,1,50,0,0
154803,-100,4,2,1,70,0,0
173703,-133.333333333333,4,2,1,40,0,0
202053,-133.333333333333,4,2,1,50,0,0
202203,-133.333333333333,4,2,1,55,0,0
202503,-133.333333333333,4,2,1,60,0,0
202803,-100,4,2,1,70,0,0
211803,-100,4,2,1,50,0,0
212403,-100,4,2,1,70,0,0
223203,-100,4,2,1,90,0,0
224403,-100,4,2,1,70,0,0
225603,-100,4,2,1,80,0,0
226803,-100,4,2,1,70,0,0
228003,-100,4,2,1,80,0,0
229203,-100,4,2,1,70,0,0
231003,-100,4,2,1,60,0,0
231603,-100,4,2,1,70,0,0
232803,-100,4,2,1,90,0,0
234003,-100,4,2,1,70,0,0
234903,-100,4,2,1,80,0,0
236403,-100,4,2,1,70,0,0
240603,-100,4,2,1,50,0,0

[Colours]
Combo1 : 255,94,55
Combo2 : 173,255,95
Combo3 : 17,254,176
Combo4 : 255,88,100

[HitObjects]
439,94,10803,6,0,P|430:153|473:296,1,210.000008010865,4|0,1:0|0:0,0:0:0:0:
472,294,11703,1,8,0:0:0:0:
379,343,12003,2,0,P|351:338|308:336,1,52.5000020027161,4|8,1:2|0:0,0:0:0:0:
171,361,12603,2,0,P|112:355|54:340,1,105.000004005432,0|8,1:0|1:2,0:0:0:0:
82,187,13203,6,0,P|46:264|-12:312,2,157.500006008148,4|8|8,0:0|0:0|0:0,0:0:0:0:
82,187,14553,1,8,0:0:0:0:
82,187,14703,1,0,0:0:0:0:
198,152,15003,1,0,1:0:0:0:
299,209,15303,1,0,1:0:0:0:
434,197,15603,6,0,P|443:126|322:70,1,210.000008010865,4|0,1:0|0:0,0:0:0:0:
230,54,16503,1,0,1:0:0:0:
148,120,16803,6,0,P|115:174|222:256,1,210.000008010865,0|0,1:0|0:0,0:0:0:0:
305,231,17703,1,0,1:0:0:0:
387,295,18003,1,4,0:0:0:0:
387,295,19203,5,0,0:0:0:0:
387,295,19503,1,2,0:0:0:0:
387,295,19803,1,2,0:0:0:0:
387,295,20103,1,2,0:0:0:0:
304,359,20403,6,0,P|236:335|148:343,1,157.500006008148,4|0,1:0|0:0,0:0:0:0:
103,360,21003,2,0,P|59:346|18:299,1,105.000004005432,0|0,1:0|0:0,0:0:0:0:
43,201,21603,6,0,P|101:199|153:231,1,105.000004005432,0|0,1:0|1:0,0:0:0:0:
191,237,22053,2,0,P|213:197|181:90,1,157.500006008148,0|2,0:0|0:0,0:0:0:0:
91,47,22803,6,0,P|161:18|392:77,1,315.000012016297,4|0,1:2|0:0,0:0:0:0:
427,167,24003,2,0,P|393:196|378:222,1,52.5000020027161,0|0,1:0|0:0,0:0:0:0:
361,247,24303,2,0,P|417:269|468:250,2,105.000004005432,0|0|0,1:0|1:0|1:0,0:0:0:0:
256,230,25203,6,0,P|117:217|61:362,1,315.000012016297,4|0,1:2|0:0,0:0:0:0:
164,343,26403,2,0,L|344:339,2,157.500006008148,0|0|0,1:0|0:0|1:0,0:0:0:0:
117,248,27603,6,0,P|99:187|62:158,1,105.000004005432,4|2,0:0|0:0,0:0:0:0:
63,108,28053,2,0,P|114:117|176:108,1,105.000004005432,4|2,0:0|0:0,0:0:0:0:
218,119,28503,2,0,P|185:172|166:226,1,105.000004005432,4|0,1:2|1:0,0:0:0:0:
255,273,29103,1,0,1:0:0:0:
255,273,29403,2,0,P|277:234|281:211,1,52.5000020027161,0|0,1:0|0:0,0:0:0:0:
265,176,29703,2,0,P|277:152|296:130,1,52.5000020027161,0|0,1:0|0:0,0:0:0:0:
342,113,30003,6,0,P|419:192|408:296,1,210.000008010865,4|0,1:0|1:0,0:0:0:0:
308,282,30903,1,2,0:0:0:0:
206,308,31203,2,0,P|166:325|141:339,1,52.5000020027161,0|0,1:0|0:0,0:0:0:0:
108,347,31503,2,0,P|96:283|69:226,2,105.000004005432,0|0|2,1:0|1:0|0:0,0:0:0:0:
169,261,32403,6,0,P|174:217|204:93,1,157.500006008148,4|0,1:2|0:0,0:0:0:0:
238,71,33003,2,0,P|276:78|312:85,1,52.5000020027161,0|0,1:0|0:0,0:0:0:0:
317,125,33303,2,0,P|384:136|441:123,1,105.000004005432,0|0,1:0|1:0,0:0:0:0:
472,123,33753,2,0,P|481:165|480:194,1,52.5000020027161,0|0,0:0|1:0,0:0:0:0:
419,259,34203,1,0,1:0:0:0:
316,238,34503,1,0,1:0:0:0:
217,275,34803,6,0,P|170:276|64:337,2,157.500006008148,0|0|0,1:0|0:0|1:0,0:0:0:0:
156,189,36003,2,0,P|108:163|56:59,2,157.500006008148,4|0|0,1:2|1:0|1:0,0:0:0:0:
260,185,37203,5,0,1:0:0:0:
271,196,38403,1,0,1:0:0:0:
271,196,38703,1,2,0:0:0:0:
271,196,39003,1,2,0:0:0:0:
271,196,39303,1,2,0:0:0:0:
361,250,39603,6,0,P|393:223|512:185,1,157.500006008148,4|0,0:0|1:0,0:0:0:0:
498,290,40353,1,0,1:0:0:0:
498,290,40503,1,8,1:0:0:0:
413,352,40803,2,0,P|352:336|250:338,1,157.500006008148,0|0,1:0|1:0,0:0:0:0:
159,300,41553,1,0,1:0:0:0:
108,315,41703,1,2,0:3:0:0:
58,331,41853,1,0,1:0:0:0:
9,310,42003,6,0,P|17:250|13:194,1,105.000004005432,4|0,1:0|0:0,0:0:0:0:
3,154,42453,2,0,P|6:110|24:43,1,105.000004005432,2|0,0:0|1:0,0:0:0:0:
70,35,42903,1,8,1:0:0:0:
174,36,43203,6,0,P|190:75|190:107,1,52.5000020027161,0|2,1:0|0:0,0:0:0:0:
153,182,43503,2,0,P|186:182|215:188,1,52.5000020027161,2|0,3:0|0:0,0:0:0:0:
316,155,43803,2,0,P|285:129|268:103,1,52.5000020027161,2|0,3:0|0:0,0:0:0:0:
286,37,44103,1,0,1:0:0:0:
399,58,44253,5,4,3:0:0:0:
399,58,44328,1,4,3:0:0:0:
399,58,44403,2,0,P|388:108|406:177,1,105.000004005432,4|0,1:2|0:0,0:0:0:0:
442,187,44853,2,0,P|421:239|314:283,1,157.500006008148,0|8,1:0|1:0,0:0:0:0:
241,236,45603,6,0,P|226:268|222:343,1,105.000004005432,0|0,1:0|1:0,0:0:0:0:
265,364,46053,2,0,L|331:357,1,52.5000020027161,0|0,0:0|1:0,0:0:0:0:
157,370,46353,2,0,L|95:355,1,52.5000020027161,0|0,1:0|0:0,0:0:0:0:
80,311,46653,1,0,1:0:0:0:
37,190,46803,6,0,P|102:195|145:283,1,157.500006008148,4|2,1:0|0:0,0:0:0:0:
8,300,47403,2,0,L|131:320,1,105.000004005432,0|8,1:0|1:1,0:0:0:0:
261,242,48003,5,0,1:0:0:0:
261,242,48153,1,0,1:0:0:0:
197,155,48303,2,0,P|182:197|177:228,1,52.5000020027161,0|0,0:0|1:0,0:0:0:0:
336,203,48603,2,0,P|329:177|319:153,1,52.5000020027161,2|0,0:3|1:0,0:0:0:0:
261,84,48903,1,8,1:0:0:0:
261,84,49053,1,2,0:0:0:0:
352,24,49203,6,0,P|346:55|345:94,1,52.5000020027161,4|0,1:0|0:0,0:0:0:0:
391,132,49503,2,0,P|446:124|511:113,2,105.000004005432,0|0|0,1:0|1:0|1:0,0:0:0:0:
326,165,50253,1,0,0:0:0:0:
345,235,50403,6,0,P|348:285|343:305,1,52.5000020027161,0|8,1:0|0:0,0:0:0:0:
291,335,50703,2,0,P|247:310|233:295,1,52.5000020027161,0|8,1:0|0:0,0:0:0:0:
224,238,51003,2,0,P|268:214|288:211,1,52.5000020027161,4|2,0:0|0:0,0:0:0:0:
415,208,51303,1,4,0:0:0:0:
495,316,51453,5,2,0:0:0:0:
495,316,51528,1,2,0:3:0:0:
495,316,51603,2,0,P|458:353|403:385,1,105.000004005432,4|0,3:1|1:0,0:0:0:0:
345,351,52053,1,0,0:0:0:0:
272,338,52203,2,0,P|241:341|215:347,1,52.5000020027161,0|0,1:0|0:0,0:0:0:0:
152,316,52503,2,0,P|113:311|83:301,1,52.5000020027161,0|2,1:0|0:0,0:0:0:0:
11,181,52803,6,0,P|51:186|82:249,2,105.000004005432,4|4|0,0:0|0:0|1:0,0:0:0:0:
18,107,53553,1,2,0:3:0:0:
90,118,53703,1,0,1:0:0:0:
95,44,53853,1,2,0:3:0:0:
179,100,54003,5,4,1:0:0:0:
179,100,54303,1,2,0:0:0:0:
179,100,54603,1,0,0:0:0:0:
179,100,54903,1,0,1:0:0:0:
243,157,55203,6,0,P|295:150|349:116,2,105.000004005432,0|0|0,1:0|1:0|1:0,0:0:0:0:
177,192,55953,1,0,0:0:0:0:
238,232,56103,1,0,1:0:0:0:
166,267,56253,1,0,0:0:0:0:
280,300,56403,6,0,P|321:292|395:283,1,105.000004005432,4|0,1:0|1:0,0:0:0:0:
452,309,56853,1,0,0:0:0:0:
394,354,57003,2,0,P|341:362|281:372,1,105.000004005432,0|0,1:0|1:0,0:0:0:0:
219,350,57453,1,8,0:0:0:0:
145,345,57603,6,0,P|129:350|110:358,7,26.2500010013581,8|8|8|8|8|8|8|8,1:0|1:0|1:0|1:0|1:0|1:0|1:0|1:0,0:0:0:0:
83,346,58203,6,0,P|72:323|68:304,7,26.2500010013581,4|4|4|4|4|4|4|4,3:0|3:0|3:0|3:0|3:0|3:0|3:0|3:0,0:0:0:0:
36,298,58803,6,0,P|39:238|59:201,1,70,4|0,1:0|0:0,0:0:0:0:
96,187,59103,2,0,P|138:182|180:193,1,70,8|0,1:0|0:0,0:0:0:0:
206,252,59403,1,0,1:0:0:0:
206,252,59553,1,0,1:0:0:0:
269,220,59703,2,0,P|316:217|370:220,1,70,0|8,0:0|1:0,0:0:0:0:
409,224,60003,6,0,P|390:156|320:129,1,140,0|8,0:0|1:0,0:0:0:0:
262,146,60453,1,0,0:0:0:0:
196,171,60603,2,0,P|154:156|119:151,2,70,0|2|8,1:0|1:2|1:0,0:0:0:0:
209,98,61053,1,0,0:0:0:0:
279,73,61203,6,0,B|357:68|329:29|429:27,2,140,4|8|0,1:0|1:0|1:0,0:0:0:0:
225,27,61953,2,0,P|176:23|128:34,1,70,0|8,1:0|1:0,0:0:0:0:
111,80,62253,1,0,0:0:0:0:
100,149,62403,6,0,P|63:181|23:198,1,70,4|0,1:0|0:0,0:0:0:0:
13,256,62703,1,8,1:0:0:0:
13,256,63003,5,8,1:0:0:0:
82,253,63153,1,0,0:0:0:0:
115,314,63303,1,8,1:0:0:0:
184,302,63453,1,8,1:0:0:0:
248,271,63603,6,0,P|299:276|340:291,1,70,4|2,1:0|0:0,0:0:0:0:
385,243,63903,2,0,P|349:197|336:160,1,70,8|0,1:0|1:0,0:0:0:0:
334,117,64203,1,0,1:0:0:0:
334,117,64353,1,0,0:0:0:0:
272,158,64503,2,0,P|236:187|192:207,1,70,0|8,1:0|1:0,0:0:0:0:
112,179,64803,2,0,P|137:154|190:135,1,70,0|0,1:0|0:0,0:0:0:0:
227,94,65103,6,0,P|183:45|45:63,1,210,8|2,1:0|1:2,0:0:0:0:
31,126,65703,2,0,P|18:174|-6:215,1,70,8|0,1:0|0:0,0:0:0:0:
17,262,66003,6,0,B|106:261|66:300|156:300,1,140,4|8,1:0|1:0,0:0:0:0:
210,332,66453,2,0,P|237:273|210:192,1,140,0|2,0:0|0:0,0:0:0:0:
189,139,66903,2,0,P|147:172|123:201,1,70,8|0,1:0|0:0,0:0:0:0:
262,147,67203,2,0,P|306:158|339:180,1,70,4|0,1:0|0:0,0:0:0:0:
233,81,67503,2,0,P|210:39|200:3,1,70,4|0,1:0|0:0,0:0:0:0:
306,33,67803,5,8,1:0:0:0:
314,35,67878,1,8,1:0:0:0:
322,37,67953,1,8,1:0:0:0:
330,39,68028,1,8,1:0:0:0:
341,44,68103,2,0,L|375:36,3,35,8|8|8|8,1:0|1:0|1:0|1:0,0:0:0:0:
375,35,68403,6,0,P|393:91|392:129,1,70,4|2,1:0|0:0,0:0:0:0:
448,144,68703,2,0,P|439:207|421:236,1,70,8|0,1:0|0:0,0:0:0:0:
447,281,69003,2,0,P|405:312|383:320,1,70,0|2,1:0|0:0,0:0:0:0:
321,338,69303,1,8,1:0:0:0:
321,338,69453,1,2,0:0:0:0:
245,315,69603,1,0,1:0:0:0:
245,315,69753,1,2,0:0:0:0:
171,327,69903,6,0,P|153:265|204:195,2,140,8|0|8,1:0|1:0|1:0,0:0:0:0:
242,317,70653,1,2,1:2:0:0:
297,269,70803,5,8,1:0:0:0:
297,269,70953,2,0,P|291:200|231:143,1,140,2|0,1:2|1:0,0:0:0:0:
178,126,71403,2,0,P|192:73|206:53,1,70,2|2,1:2|0:0,0:0:0:0:
269,60,71703,2,0,P|324:60|355:49,1,70,8|2,1:0|0:0,0:0:0:0:
404,31,72003,5,0,1:0:0:0:
401,100,72153,1,2,0:0:0:0:
398,169,72303,2,0,P|396:244|434:310,1,140,8|0,1:0|1:0,0:0:0:0:
425,300,72753,1,0,0:0:0:0:
377,351,72903,2,0,P|327:340|286:341,1,70,8|8,1:0|1:1,0:0:0:0:
239,356,73203,5,4,1:0:0:0:
239,356,73353,2,0,P|220:303|232:217,1,140,8|2,1:0|1:2,0:0:0:0:
286,178,73803,2,0,P|283:149|264:94,1,70,8|2,1:0|0:0,0:0:0:0:
201,112,74103,2,0,P|157:118|116:117,1,70,8|2,1:0|0:0,0:0:0:0:
61,107,74403,5,4,1:2:0:0:
74,175,74553,1,2,0:0:0:0:
84,244,74703,2,0,P|126:239|236:219,1,140,8|4,1:0|1:2,0:0:0:0:
291,228,75153,2,0,P|282:282|281:320,2,70,2|8|0,1:2|1:0|0:0,0:0:0:0:
344,181,75603,6,0,P|377:155|397:108,1,70,4|2,0:0|1:2,0:0:0:0:
390,61,75903,2,0,P|350:47|301:52,1,70,8|2,1:0|0:0,0:0:0:0:
259,76,76203,2,0,P|268:117|298:153,1,70,0|2,1:0|1:2,0:0:0:0:
422,201,76503,5,8,1:0:0:0:
422,201,76653,1,2,0:0:0:0:
383,259,76803,1,4,1:0:0:0:
383,259,76953,1,0,0:0:0:0:
404,325,77103,6,0,P|460:307|486:305,1,70,8|2,1:0|0:0,0:0:0:0:
331,311,77403,2,0,P|276:324|242:347,1,70,8|2,1:0|0:0,0:0:0:0:
198,306,77703,2,0,P|156:325|127:353,1,70,8|8,1:0|1:0,0:0:0:0:
69,353,78003,1,4,0:1:0:0:
8,194,87603,6,0,P|46:201|72:207,1,52.5000020027161,4|0,1:0|0:0,0:0:0:0:
114,253,87903,2,0,P|161:249|183:243,1,52.5000020027161,0|0,0:0|0:0,0:0:0:0:
207,186,88203,2,0,P|249:182|332:197,1,105.000004005432,0|0,0:0|0:0,0:0:0:0:
357,247,88653,1,0,0:0:0:0:
422,214,88803,6,0,P|424:179|426:148,2,52.5000020027161,0|0|0,1:0|0:0|0:0,0:0:0:0:
469,278,89253,1,0,0:0:0:0:
469,278,89403,2,0,P|458:327|460:384,1,105.000004005432,0|0,0:0|0:0,0:0:0:0:
386,377,89853,1,0,0:0:0:0:
312,378,90003,6,0,P|316:331|315:304,1,52.5000020027161,4|0,1:2|0:0,0:0:0:0:
262,274,90303,2,0,P|215:270|188:271,1,52.5000020027161,0|0,1:0|0:0,0:0:0:0:
141,299,90603,1,0,1:0:0:0:
141,299,90753,2,0,P|131:249|134:190,1,105.000004005432,0|0,0:0|0:0,0:0:0:0:
101,128,91203,6,0,P|97:81|83:17,1,105.000004005432,0|0,1:0|1:0,0:0:0:0:
12,13,91653,1,0,0:0:0:0:
12,13,91803,1,0,1:0:0:0:
157,30,92103,1,0,1:0:0:0:
301,55,92403,6,0,P|332:52|358:45,1,52.5000020027161,4|0,1:2|0:0,0:0:0:0:
424,60,92703,2,0,P|412:101|409:131,1,52.5000020027161,0|0,0:0|1:0,0:0:0:0:
344,141,93003,1,0,0:0:0:0:
344,141,93153,2,0,P|347:188|349:254,1,105.000004005432,0|0,0:0|0:0,0:0:0:0:
391,306,93603,6,0,P|423:310|450:315,2,52.5000020027161,0|0|0,1:0|0:0|0:0,0:0:0:0:
317,312,94053,1,0,1:0:0:0:
317,312,94203,2,0,P|271:311|214:335,1,105.000004005432,0|0,0:0|1:0,0:0:0:0:
217,332,94803,6,0,P|216:293|213:272,1,52.5000020027161,4|0,1:0|0:0,0:0:0:0:
164,225,95103,2,0,P|165:186|168:165,1,52.5000020027161,0|0,1:0|0:0,0:0:0:0:
214,116,95403,1,0,1:0:0:0:
214,116,95553,1,0,0:0:0:0:
214,116,95703,2,0,P|253:115|274:112,1,52.5000020027161,0|0,1:0|0:0,0:0:0:0:
325,69,96003,6,0,P|368:75|402:76,2,52.5000020027161,0|0|0,1:0|0:0|1:0,0:0:0:0:
272,17,96453,1,0,0:0:0:0:
272,17,96603,2,0,P|236:14|165:51,1,105.000004005432,0|4,1:0|0:0,0:0:0:0:
6,187,97203,5,4,1:0:0:0:
6,187,97353,1,0,0:0:0:0:
6,187,97503,2,0,P|10:234|11:261,1,52.5000020027161,0|0,1:0|0:0,0:0:0:0:
60,294,97803,2,0,P|105:283|179:270,1,105.000004005432,0|0,1:0|0:0,0:0:0:0:
220,318,98253,2,0,P|262:309|293:305,2,52.5000020027161,2|0|0,0:0|1:0|0:0,0:0:0:0:
230,235,98703,2,0,P|221:182|204:119,2,105.000004005432,0|0|0,1:0|1:0|0:0,0:0:0:0:
303,243,99453,1,2,0:0:0:0:
364,203,99603,6,0,P|409:197|430:187,1,52.5000020027161,4|0,1:2|0:0,0:0:0:0:
478,156,99903,2,0,P|509:199|504:261,1,105.000004005432,0|0,1:0|1:0,0:0:0:0:
459,304,100353,1,0,0:0:0:0:
459,304,100503,2,0,P|426:312|402:314,1,52.5000020027161,0|2,1:0|0:0,0:0:0:0:
335,296,100803,5,0,1:0:0:0:
335,296,101103,1,0,1:0:0:0:
262,307,101253,1,2,0:0:0:0:
189,319,101403,2,0,P|134:312|73:318,1,105.000004005432,0|0,1:0|1:0,0:0:0:0:
84,315,102003,6,0,P|68:273|59:261,1,52.5000020027161,4|0,1:0|0:0,0:0:0:0:
64,193,102303,2,0,P|103:194|123:192,1,52.5000020027161,0|0,1:0|0:0,0:0:0:0:
189,215,102603,1,0,1:0:0:0:
189,215,102753,1,0,0:0:0:0:
258,225,102903,2,0,P|281:205|294:179,1,52.5000020027161,0|0,1:0|1:0,0:0:0:0:
257,120,103203,5,4,1:2:0:0:
257,120,103353,1,2,0:0:0:0:
259,46,103503,2,0,P|298:44|377:33,2,105.000004005432,0|0|0,1:0|0:0|1:0,0:0:0:0:
113,23,104403,6,0,P|99:65|97:88,1,52.5000020027161,0|0,1:0|0:0,0:0:0:0:
142,131,104703,2,0,P|133:161|123:192,1,52.5000020027161,0|0,1:0|0:0,0:0:0:0:
61,215,105003,2,0,P|55:267|79:335,1,105.000004005432,0|0,1:0|0:0,0:0:0:0:
141,326,105453,1,2,0:0:0:0:
211,304,105603,6,0,P|258:307|283:311,1,52.5000020027161,0|0,1:0|0:0,0:0:0:0:
324,349,105903,1,0,1:0:0:0:
458,289,106203,1,0,1:0:0:0:
390,158,106503,1,0,1:0:0:0:
242,212,106803,6,0,P|238:144|211:90,1,112,4|0,1:0|1:0,0:0:0:0:
146,80,107253,1,2,0:0:0:0:
199,23,107403,2,0,P|238:25|280:21,1,56,0|0,1:0|0:0,0:0:0:0:
306,82,107703,2,0,P|345:84|387:80,1,56,0|2,1:0|1:2,0:0:0:0:
438,68,108003,6,0,P|450:128|451:204,1,112,0|0,1:0|1:0,0:0:0:0:
405,242,108453,1,2,0:0:0:0:
405,242,108603,2,0,P|349:240|290:259,1,112,0|0,1:0|1:0,0:0:0:0:
243,315,109053,1,2,0:0:0:0:
171,282,109203,6,0,P|125:287|68:329,2,112,4|0|0,1:2|1:0|1:0,0:0:0:0:
226,226,109953,1,2,0:0:0:0:
226,226,110103,2,0,P|222:181|221:162,1,56,0|2,1:0|0:0,0:0:0:0:
151,134,110403,6,0,P|148:89|136:17,2,112,4|2|4,1:2|0:0|1:2,0:0:0:0:
89,182,111153,1,0,1:0:0:0:
11,172,111303,2,0,P|17:216|19:246,1,56,4|0,1:2|1:0,0:0:0:0:
60,300,111603,5,4,1:0:0:0:
60,300,111753,1,0,0:0:0:0:
60,300,111903,2,0,P|103:300|120:300,1,56,0|2,1:0|0:0,0:0:0:0:
173,352,112203,1,0,1:0:0:0:
251,359,112353,1,2,0:0:0:0:
251,359,112503,2,0,P|254:314|254:297,1,56,0|2,1:0|0:0,0:0:0:0:
295,235,112803,6,0,P|336:240|372:242,2,56,4|0|2,1:2|1:0|0:0,0:0:0:0:
216,226,113253,1,0,1:0:0:0:
216,226,113403,2,0,P|214:167|185:113,1,112,0|0,1:0|1:0,0:0:0:0:
190,120,114003,6,0,P|230:118|254:116,1,56,4|0,1:2|1:0,0:0:0:0:
299,58,114303,2,0,P|346:60|373:62,1,56,2|0,0:0|1:0,0:0:0:0:
419,105,114603,2,0,P|451:101|481:96,2,56,0|0|2,1:0|1:0|0:0,0:0:0:0:
359,156,115053,1,0,1:0:0:0:
412,213,115203,6,0,P|411:250|413:288,1,56,0|0,1:0|1:0,0:0:0:0:
373,337,115503,1,0,1:0:0:0:
373,337,115653,1,0,1:0:0:0:
373,337,115803,2,0,P|333:334|256:333,1,112,0|2,1:0|0:0,0:0:0:0:
261,332,116403,6,0,P|229:314|203:291,1,56,4|0,0:3|1:0,0:0:0:0:
186,227,116703,2,0,P|183:177|187:151,1,56,8|0,0:3|0:0,0:0:0:0:
223,103,117003,1,0,1:0:0:0:
289,61,117153,1,0,0:0:0:0:
218,27,117303,2,0,P|176:26|151:28,1,56,4|0,0:3|0:0,0:0:0:0:
100,74,117603,6,0,P|53:89|21:85,2,56,4|0|0,0:3|1:0|0:0,0:0:0:0:
162,26,118053,1,0,0:0:0:0:
240,26,118203,2,0,P|290:34|368:56,1,112,0|0,1:0|1:0,0:0:0:0:
349,49,118803,6,0,P|343:101|339:182,1,112,4|8,0:3|0:3,0:0:0:0:
391,219,119253,1,0,0:0:0:0:
436,282,119403,2,0,P|425:331|424:353,2,56,0|0|4,1:0|0:0|0:3,0:0:0:0:
391,219,119853,1,0,0:0:0:0:
330,268,120003,6,0,P|286:266|257:268,1,56,4|0,0:3|1:0,0:0:0:0:
201,297,120303,2,0,P|165:298|130:299,1,56,8|0,0:3|0:0,0:0:0:0:
72,327,120603,2,0,P|68:271|52:197,1,112,0|0,1:0|1:0,0:0:0:0:
65,224,121203,5,4,0:3:0:0:
65,224,121353,1,0,0:0:0:0:
65,224,121503,2,0,P|69:178|69:163,1,56,8|0,0:3|0:0,0:0:0:0:
58,90,121803,2,0,P|122:88|195:90,1,112,0|4,1:0|0:3,0:0:0:0:
228,141,122253,1,0,0:0:0:0:
290,187,122403,6,0,P|336:181|391:138,1,112,4|8,0:3|0:3,0:0:0:0:
414,68,122853,2,0,P|465:91|497:137,1,112,0|0,1:0|1:0,0:0:0:0:
487,214,123303,2,0,P|477:257|474:292,1,56,0|0,1:0|0:0,0:0:0:0:
414,318,123603,5,2,0:0:0:0:
335,317,123753,1,0,1:0:0:0:
256,316,123903,1,0,1:0:0:0:
177,319,124053,1,2,0:0:0:0:
177,319,124203,1,0,1:0:0:0:
177,319,124353,1,0,1:0:0:0:
177,319,124503,2,0,P|175:278|172:257,1,56,0|2,1:0|0:0,0:0:0:0:
113,211,124803,5,0,1:0:0:0:
143,138,124953,2,0,P|141:179|138:200,1,56,0|0,1:0|0:0,0:0:0:0:
225,112,125253,1,2,0:0:0:0:
171,55,125403,2,0,P|130:53|109:50,1,56,0|0,1:0|1:0,0:0:0:0:
62,108,125703,2,0,P|21:106|0:103,1,56,0|0,1:0|1:0,0:0:0:0:
143,138,126003,5,4,1:0:0:0:
7,192,135603,5,4,1:0:0:0:
7,192,135753,1,0,0:0:0:0:
7,192,135903,2,0,P|59:188|75:187,1,52.5000020027161,0|0,1:0|0:0,0:0:0:0:
125,230,136203,1,0,0:0:0:0:
125,230,136353,2,0,P|186:233|236:229,1,105.000004005432,0|0,1:0|1:0,0:0:0:0:
285,181,136803,6,0,P|327:183|402:199,1,105.000004005432,4|0,1:2|1:0,0:0:0:0:
431,263,137253,1,0,0:0:0:0:
431,263,137403,2,0,P|424:299|420:320,1,52.5000020027161,0|0,1:0|0:0,0:0:0:0:
356,350,137703,1,0,1:0:0:0:
286,325,137853,5,2,3:0:0:0:
286,325,137928,1,2,3:0:0:0:
286,325,138003,2,0,P|239:320|209:319,1,52.5000020027161,0|0,1:0|0:0,0:0:0:0:
167,352,138303,2,0,P|127:354|110:351,1,52.5000020027161,0|0,1:0|0:0,0:0:0:0:
46,324,138603,1,0,1:0:0:0:
46,324,138753,1,0,0:0:0:0:
46,324,138903,2,0,P|42:283|36:256,1,52.5000020027161,0|0,0:0|1:0,0:0:0:0:
68,204,139203,6,0,P|82:156|93:134,1,52.5000020027161,0|0,1:0|1:0,0:0:0:0:
153,130,139503,2,0,P|187:166|201:186,1,52.5000020027161,0|0,1:0|0:0,0:0:0:0:
200,241,139803,1,2,1:3:0:0:
200,241,139953,1,0,1:0:0:0:
273,234,140103,1,2,1:3:0:0:
273,234,140253,1,0,1:0:0:0:
338,267,140403,5,4,1:0:0:0:
338,267,140553,2,0,P|331:216|332:153,1,105.000004005432,0|2,1:0|0:0,0:0:0:0:
372,101,141003,2,0,P|413:107|435:108,1,52.5000020027161,0|0,1:0|0:0,0:0:0:0:
343,33,141303,2,0,P|302:39|280:40,1,52.5000020027161,0|0,1:0|0:0,0:0:0:0:
237,90,141603,5,0,1:0:0:0:
237,90,141753,1,0,0:0:0:0:
164,78,141903,1,0,1:0:0:0:
164,78,142053,1,0,0:0:0:0:
99,42,142203,2,0,P|89:86|82:117,1,52.5000020027161,0|2,1:0|0:3,0:0:0:0:
30,139,142503,2,0,P|33:180|34:200,1,52.5000020027161,0|2,1:0|0:3,0:0:0:0:
73,253,142803,6,0,P|66:323|50:365,1,105.000004005432,4|0,1:2|0:0,0:0:0:0:
132,358,143253,1,0,1:0:0:0:
207,354,143403,2,0,P|204:302|205:283,1,52.5000020027161,4|2,1:2|0:0,0:0:0:0:
261,256,143703,1,2,0:0:0:0:
261,256,143853,1,4,1:2:0:0:
328,285,144003,6,0,P|344:288|371:298,7,26.2500010013581,8|8|8|8|8|8|8|8,1:0|1:0|1:0|1:0|1:0|1:0|1:0|1:0,0:0:0:0:
363,260,144603,6,0,P|376:257|389:255,7,26.2500010013581,4|4|4|4|4|4|4|4,1:3|1:3|1:3|1:3|1:3|1:3|1:3|1:3,0:0:0:0:
337,248,145203,6,0,P|340:188|338:157,1,70,4|2,1:0|0:0,0:0:0:0:
287,131,145503,1,8,1:0:0:0:
287,131,145653,1,0,0:0:0:0:
324,71,145803,2,0,P|384:74|415:72,1,70,0|0,1:0|1:0,0:0:0:0:
276,18,146103,2,0,P|216:21|185:19,1,70,0|8,0:0|1:0,0:0:0:0:
131,41,146403,6,0,P|112:94|108:187,1,140,0|8,0:0|1:0,0:0:0:0:
161,230,146853,1,0,0:0:0:0:
124,290,147003,2,0,P|130:335|132:365,1,70,0|2,1:0|1:2,0:0:0:0:
199,375,147303,2,0,P|234:347|259:330,1,70,8|0,1:0|0:0,0:0:0:0:
255,263,147603,6,0,P|299:261|338:261,1,70,0|0,1:0|0:0,0:0:0:0:
391,295,147903,1,8,1:0:0:0:
391,295,148053,1,0,0:0:0:0:
446,251,148203,2,0,P|444:207|444:168,1,70,0|0,1:0|1:0,0:0:0:0:
394,130,148503,2,0,P|396:86|396:47,1,70,8|0,1:0|0:0,0:0:0:0:
339,18,148803,5,4,1:2:0:0:
339,18,148953,1,2,0:0:0:0:
339,18,149103,2,0,P|301:17|177:39,1,140,4|8,1:2|1:0,0:0:0:0:
133,8,149553,1,0,1:0:0:0:
133,8,149703,2,0,P|127:58|126:82,1,70,8|0,1:0|1:0,0:0:0:0:
80,131,150003,6,0,P|28:159|23:242,2,140,4|8|0,1:0|1:0|1:0,0:0:0:0:
156,154,150753,1,0,1:0:0:0:
156,154,150903,2,0,P|206:148|233:142,1,70,0|8,0:0|1:0,0:0:0:0:
278,98,151203,6,0,P|326:94|392:162,1,140,0|8,1:0|1:0,0:0:0:0:
363,223,151653,1,0,0:0:0:0:
363,223,151803,2,0,P|368:272|378:295,1,70,0|2,1:0|1:2,0:0:0:0:
321,335,152103,2,0,P|271:310|246:302,1,70,8|0,1:0|0:0,0:0:0:0:
223,244,152403,6,0,P|176:248|93:302,1,140,4|8,1:0|1:0,0:0:0:0:
28,303,152853,1,2,0:0:0:0:
28,303,153003,2,0,P|26:260|20:223,1,70,8|2,1:0|0:0,0:0:0:0:
69,180,153303,2,0,P|71:137|77:100,1,70,8|2,1:0|0:0,0:0:0:0:
121,57,153603,5,12,1:0:0:0:
121,57,153753,1,0,0:0:0:0:
121,57,153903,2,0,P|176:64|221:68,1,70,4|0,1:2|0:0,0:0:0:0:
248,107,154203,2,0,L|289:99,7,35,8|8|8|8|8|8|8|8,1:0|1:0|1:0|1:0|1:0|1:0|1:0|1:0,0:0:0:0:
244,111,154803,6,0,P|242:160|240:198,1,70,12|0,1:0|0:0,0:0:0:0:
291,229,155103,2,0,P|293:278|295:316,1,70,8|2,1:0|0:0,0:0:0:0:
252,355,155403,1,0,1:0:0:0:
252,355,155553,1,2,0:0:0:0:
179,335,155703,2,0,P|130:337|92:339,1,70,8|2,1:0|0:0,0:0:0:0:
42,361,156003,6,0,P|18:308|39:220,1,140,0|8,1:0|1:0,0:0:0:0:
75,174,156453,1,2,0:0:0:0:
105,111,156603,2,0,P|96:70|76:30,1,70,0|2,1:0|0:0,0:0:0:0:
140,2,156903,2,0,P|176:15|209:19,1,70,8|2,1:0|0:0,0:0:0:0:
248,75,157203,6,0,P|300:72|335:62,1,70,4|0,1:0|0:0,0:0:0:0:
380,37,157503,1,8,1:0:0:0:
447,56,157653,1,2,0:0:0:0:
482,116,157803,2,0,P|469:167|467:198,1,70,0|2,1:0|0:0,0:0:0:0:
443,250,158103,2,0,P|456:301|458:332,1,70,8|2,1:0|0:0,0:0:0:0:
402,360,158403,6,0,P|356:354|324:339,1,70,4|2,1:0|0:0,0:0:0:0:
300,283,158703,2,0,P|239:285|150:317,1,140,8|0,1:0|1:0,0:0:0:0:
96,291,159153,1,0,0:0:0:0:
114,223,159303,2,0,P|110:154|106:133,1,70,8|0,1:0|0:0,0:0:0:0:
146,92,159603,5,4,1:0:0:0:
146,92,159753,1,0,1:0:0:0:
206,126,159903,2,0,L|285:132,1,70,8|2,1:0|0:0,0:0:0:0:
326,193,160203,5,0,1:0:0:0:
326,193,160353,1,0,1:0:0:0:
263,230,160503,2,0,L|184:236,1,70,8|2,1:0|0:0,0:0:0:0:
127,211,160803,5,4,1:2:0:0:
57,220,160953,1,0,1:0:0:0:
34,286,161103,1,8,1:0:0:0:
60,350,161253,1,0,1:0:0:0:
129,343,161403,2,0,L|211:352,1,70,8|0,1:0|0:0,0:0:0:0:
259,316,161703,2,0,L|341:325,1,70,8|0,1:0|1:0,0:0:0:0:
385,364,162003,5,4,1:0:0:0:
453,351,162153,1,2,1:2:0:0:
479,286,162303,1,8,1:0:0:0:
436,230,162453,1,2,1:2:0:0:
436,230,162603,2,0,P|437:172|442:139,1,70,0|2,1:0|1:2,0:0:0:0:
395,104,162903,2,0,P|337:103|304:98,1,70,8|2,1:0|1:2,0:0:0:0:
270,145,163203,6,0,P|214:141|146:94,2,140,4|4|2,1:0|1:0|1:2,0:0:0:0:
309,202,163953,1,2,0:3:0:0:
277,264,164103,2,0,P|270:313|271:344,1,70,2|2,1:2|0:3,0:0:0:0:
5,195,173703,6,0,P|51:187|74:179,1,52.5000020027161,0|0,1:0|0:0,0:0:0:0:
113,137,174003,2,0,P|153:141|177:144,1,52.5000020027161,0|2,1:0|0:0,0:0:0:0:
212,199,174303,2,0,P|260:193|332:167,1,105.000004005432,0|0,1:0|0:0,0:0:0:0:
313,175,174903,6,0,P|319:221|320:248,1,52.5000020027161,0|0,1:0|0:0,0:0:0:0:
286,293,175203,2,0,P|280:339|279:366,1,52.5000020027161,0|2,1:0|1:2,0:0:0:0:
211,373,175503,2,0,P|166:367|126:310,1,105.000004005432,0|0,1:0|0:0,0:0:0:0:
128,323,176103,6,0,P|134:282|136:260,1,52.5000020027161,0|2,1:0|0:0,0:0:0:0:
107,202,176403,2,0,P|103:160|109:86,1,105.000004005432,0|0,1:0|1:0,0:0:0:0:
106,97,177303,6,0,L|181:108,1,52.5000020027161,0|0,1:0|0:0,0:0:0:0:
200,164,177603,2,0,P|256:158|303:130,1,105.000004005432,0|0,1:0|1:0,0:0:0:0:
346,79,178053,1,2,0:0:0:0:
415,101,178203,2,0,P|424:137|425:157,1,52.5000020027161,0|0,0:0|0:0,0:0:0:0:
379,210,178503,2,0,P|376:256|381:283,1,52.5000020027161,0|0,1:0|0:0,0:0:0:0:
333,321,178803,6,0,P|296:318|228:320,1,105.000004005432,0|0,1:0|1:0,0:0:0:0:
165,358,179253,1,2,0:0:0:0:
98,327,179403,2,0,P|98:281|96:255,1,52.5000020027161
144,217,179703,2,0,P|196:222|258:219,1,105.000004005432,0|0,1:0|1:0,0:0:0:0:
296,163,180153,5,2,0:0:0:0:
296,163,180303,2,0,P|348:158|410:161,1,105.000004005432,0|0,1:0|0:0,0:0:0:0:
264,89,180903,1,0,0:0:0:0:
128,46,181203,6,0,P|75:49|62:50,1,52.5000020027161,0|0,1:0|0:0,0:0:0:0:
25,103,181503,2,0,P|28:156|29:169,1,52.5000020027161,0|0,1:0|0:0,0:0:0:0:
85,201,181803,2,0,P|138:198|151:197,1,52.5000020027161,0|2,1:0|0:0,0:0:0:0:
209,224,182103,1,0,1:0:0:0:
209,224,182253,1,0,0:0:0:0:
241,288,182403,6,0,P|291:297|354:280,1,105.000004005432,0|0,1:0|0:0,0:0:0:0:
357,213,182853,2,0,P|416:209|480:296,1,157.500006008148,0|2,1:0|0:0,0:0:0:0:
252,378,183603,5,4,1:2:0:0:
252,378,183903,1,0,0:0:0:0:
256,304,184053,2,0,P|254:260|249:187,1,105.000004005432,4|0,1:2|0:0,0:0:0:0:
203,141,184503,2,0,P|215:99|216:76,1,52.5000020027161,4|0,1:2|0:0,0:0:0:0:
262,33,184803,6,0,P|297:32|321:34,2,52.5000020027161,2|0|0,0:0|1:0|0:0,0:0:0:0:
188,21,185253,1,0,1:0:0:0:
188,21,185403,2,0,P|137:27|119:31,1,52.5000020027161,2|0,0:0|1:0,0:0:0:0:
62,20,185703,2,0,P|66:70|58:144,1,105.000004005432,4|4,1:2|1:2,0:0:0:0:
9,176,186153,5,0,0:0:0:0:
41,242,186303,2,0,P|44:299|43:317,1,52.5000020027161,0|4,1:0|0:0,0:0:0:0:
94,348,186603,2,0,P|151:345|169:346,1,52.5000020027161,0|4,1:0|0:0,0:0:0:0:
210,307,186903,2,0,P|236:307|262:310,1,52.5000020027161,0|0,1:0|0:0,0:0:0:0:
327,357,187203,5,4,1:2:0:0:
327,357,187353,1,0,0:0:0:0:
400,353,187503,1,0,1:0:0:0:
400,353,187653,1,6,0:0:0:0:
451,300,187803,2,0,P|443:245|353:206,1,157.500006008148,0|2,1:0|0:0,0:0:0:0:
298,160,188403,2,0,P|286:216|286:231,1,52.5000020027161,0|2,1:0|0:0,0:0:0:0:
153,275,188853,5,0,1:0:0:0:
84,249,189003,2,0,P|80:223|72:198,1,52.5000020027161,2|0,0:0|1:0,0:0:0:0:
124,60,189453,5,0,1:0:0:0:
193,86,189603,2,0,P|196:111|204:136,1,52.5000020027161,0|2,1:0|0:0,0:0:0:0:
328,215,190053,5,2,0:0:0:0:
259,241,190203,2,0,P|255:266|247:291,1,52.5000020027161,0|0,1:0|1:0,0:0:0:0:
381,352,190653,5,2,0:0:0:0:
439,308,190803,2,0,P|442:282|450:257,1,52.5000020027161,4|0,1:2|0:0,0:0:0:0:
425,187,191103,2,0,P|421:161|413:136,1,52.5000020027161,0|2,1:0|0:0,0:0:0:0:
425,63,191403,1,4,1:2:0:0:
425,63,191553,1,0,0:0:0:0:
353,44,191703,1,4,1:2:0:0:
353,44,191853,1,0,1:0:0:0:
294,89,192003,6,0,P|246:89|222:90,1,52.5000020027161,4|2,1:2|0:0,0:0:0:0:
174,58,192303,2,0,P|125:58|101:52,1,52.5000020027161,0|2,1:0|1:2,0:0:0:0:
52,32,192603,2,0,P|47:67|42:141,1,105.000004005432,4|0,1:2|1:0,0:0:0:0:
42,136,193203,6,0,P|84:138|104:141,1,52.5000020027161,0|0,1:0|0:0,0:0:0:0:
215,222,193653,1,0,0:0:0:0:
215,222,193803,2,0,P|265:220|282:217,1,52.5000020027161,0|0,1:0|1:0,0:0:0:0:
409,179,194253,1,8,0:0:0:0:
409,179,194403,2,0,P|459:181|476:184,1,52.5000020027161,0|0,0:0|1:0,0:0:0:0:
378,113,194703,2,0,P|328:115|311:118,1,52.5000020027161,8|0,0:0|0:0,0:0:0:0:
267,69,195003,1,0,1:0:0:0:
267,69,195153,1,0,1:0:0:0:
267,69,195303,2,0,P|217:71|200:74,1,52.5000020027161,8|0,0:0|0:0,0:0:0:0:
147,39,195603,6,0,P|136:81|134:97,1,52.5000020027161,0|0,1:0|0:0,0:0:0:0:
145,163,195903,2,0,P|156:205|158:221,1,52.5000020027161,8|0,0:0|0:0,0:0:0:0:
139,285,196203,1,0,1:0:0:0:
139,285,196353,1,0,1:0:0:0:
211,297,196503,1,0,0:0:0:0:
211,297,196653,1,0,1:0:0:0:
257,354,196803,6,0,P|301:352|327:351,1,52.5000020027161,0|0,1:0|1:0,0:0:0:0:
367,305,197103,2,0,P|396:306|426:305,1,52.5000020027161,0|0,0:0|1:0,0:0:0:0:
478,349,197403,2,0,P|496:296|481:240,1,105.000004005432,0|0,0:0|0:0,0:0:0:0:
423,210,197853,1,0,1:0:0:0:
368,160,198003,6,0,P|356:91|363:44,1,105.000004005432,0|8,1:0|0:0,0:0:0:0:
218,16,198603,1,0,1:0:0:0:
218,16,198753,1,0,1:0:0:0:
218,16,198903,2,0,P|230:85|223:132,1,105.000004005432,8|0,0:0|1:0,0:0:0:0:
258,185,199353,5,8,0:0:0:0:
214,244,199503,2,0,P|212:274|225:360,1,105.000004005432,0|0,1:0|1:0,0:0:0:0:
295,370,199953,1,0,1:0:0:0:
295,370,200103,1,8,0:0:0:0:
148,355,200403,6,0,P|114:344|83:341,1,52.5000020027161,0|0,1:0|0:0,0:0:0:0:
24,339,200703,2,0,P|16:293|14:272,1,52.5000020027161,8|0,0:0|0:0,0:0:0:0:
65,233,201003,1,0,1:0:0:0:
65,233,201153,1,0,1:0:0:0:
44,162,201303,2,0,P|36:121|24:94,1,52.5000020027161,8|0,0:0|1:0,0:0:0:0:
59,42,201603,2,0,P|100:42|128:43,1,52.5000020027161,8|0,0:0|1:0,0:0:0:0:
156,100,201903,2,0,P|196:99|269:80,1,105.000004005432,8|0,0:0|1:0,0:0:0:0:
390,18,202503,1,0,1:0:0:0:
414,155,202803,6,0,P|401:203|399:237,1,70,4|2,1:0|0:0,0:0:0:0:
428,296,203103,1,8,1:0:0:0:
428,296,203253,1,0,0:0:0:0:
357,323,203403,2,0,P|313:317|284:315,1,70,0|0,1:0|1:0,0:0:0:0:
227,279,203703,2,0,P|186:285|154:293,1,70,0|8,0:0|1:0,0:0:0:0:
104,337,204003,6,0,P|74:302|77:202,1,140,0|8,1:0|1:0,0:0:0:0:
132,176,204453,1,0,0:0:0:0:
132,176,204603,2,0,P|175:182|205:183,1,70,0|2,1:0|1:2,0:0:0:0:
122,102,204903,2,0,P|79:108|49:109,1,70,8|0,1:0|0:0,0:0:0:0:
122,27,205203,6,0,P|173:30|197:36,1,70,4|0,1:0|0:0,0:0:0:0:
247,89,205503,1,8,1:0:0:0:
247,89,205653,1,0,0:0:0:0:
315,74,205803,2,0,P|370:70|453:38,1,140,0|8,1:0|1:0,0:0:0:0:
504,83,206253,1,0,0:0:0:0:
489,151,206403,6,0,P|479:200|478:238,1,70,0|2,1:0|1:2,0:0:0:0:
415,251,206703,2,0,P|413:292|420:326,1,70,8|2,1:0|0:0,0:0:0:0:
367,369,207003,2,0,P|326:368|274:277,1,140,8|8,1:0|1:0,0:0:0:0:
306,232,207453,1,0,1:0:0:0:
254,184,207603,6,0,P|213:177|119:223,2,140,4|8|0,1:0|1:0|1:0,0:0:0:0:
328,160,208353,1,0,1:0:0:0:
328,160,208503,2,0,P|328:106|336:75,1,70,8|0,1:0|0:0,0:0:0:0:
292,31,208803,6,0,P|241:27|155:43,2,140,4|8|0,1:0|1:0|1:0,0:0:0:0:
365,30,209553,1,0,1:0:0:0:
365,30,209703,2,0,P|409:36|440:43,1,70,8|0,1:0|0:0,0:0:0:0:
469,102,210003,6,0,P|456:149|455:181,1,70,4|2,1:0|0:0,0:0:0:0:
481,235,210303,2,0,P|489:288|489:312,1,70,8|2,1:0|0:0,0:0:0:0:
440,354,210603,2,0,P|399:345|281:364,1,140,0|8,1:0|1:0,0:0:0:0:
234,335,211053,1,4,0:0:0:0:
175,296,211203,6,0,P|160:341|157:372,1,70,4|0,1:0|0:0,0:0:0:0:
87,367,211503,2,0,P|71:320|47:280,1,70,8|0,1:0|0:0,0:0:0:0:
111,251,211803,2,0,L|113:207,7,35,8|8|8|8|8|8|8|8,1:0|1:0|1:0|1:0|1:0|1:0|1:0|1:0,0:0:0:0:
111,251,212403,6,0,P|169:251|204:244,1,70,4|2,1:0|0:0,0:0:0:0:
227,196,212703,2,0,P|268:193|311:196,1,70,8|0,1:0|0:0,0:0:0:0:
351,238,213003,2,0,P|418:245|499:221,1,140,0|8,1:0|1:0,0:0:0:0:
500,157,213453,1,2,0:0:0:0:
478,90,213603,6,0,P|436:77|396:71,1,70,4|2,1:0|0:0,0:0:0:0:
355,116,213903,2,0,P|300:116|219:60,1,140,8|0,1:0|1:0,0:0:0:0:
187,16,214353,1,2,0:0:0:0:
117,21,214503,2,0,P|86:44|60:79,1,70,8|2,1:0|0:0,0:0:0:0:
73,138,214803,6,0,P|81:199|67:291,1,140,4|8,1:0|1:0,0:0:0:0:
103,339,215253,1,2,0:0:0:0:
164,371,215403,2,0,P|220:365|245:357,1,70,0|2,1:0|0:0,0:0:0:0:
271,302,215703,2,0,P|321:303|353:307,1,70,8|0,1:0|1:0,0:0:0:0:
394,350,216003,6,0,P|426:321|432:220,1,140,4|8,1:0|1:0,0:0:0:0:
374,196,216453,1,0,0:0:0:0:
362,126,216603,2,0,P|367:73|377:39,1,70,0|2,1:0|0:0,0:0:0:0:
309,23,216903,2,0,P|258:42|221:46,1,70,8|2,1:0|0:0,0:0:0:0:
220,110,217203,6,0,P|165:112|112:39,1,140,4|8,1:0|1:0,0:0:0:0:
50,18,217653,1,2,1:3:0:0:
10,75,217803,2,0,P|10:120|15:150,1,70,4|0,1:2|1:0,0:0:0:0:
60,197,218103,2,0,P|62:249|61:285,1,70,8|2,1:0|1:3,0:0:0:0:
117,322,218403,5,4,1:0:0:0:
117,322,218553,1,0,1:0:0:0:
172,279,218703,2,0,P|225:281|265:287,1,70,8|2,1:0|0:3,0:0:0:0:
296,327,219003,2,0,P|356:323|405:257,1,140,4|4,1:2|1:2,0:0:0:0:
381,197,219453,5,0,0:0:0:0:
433,151,219603,2,0,P|425:106|423:70,1,70,4|0,1:2|1:0,0:0:0:0:
350,101,219903,5,4,1:2:0:0:
350,101,220053,1,0,0:0:0:0:
269,122,220203,2,0,P|277:77|279:41,1,70,4|0,1:2|0:0,0:0:0:0:
201,76,220503,5,4,1:2:0:0:
201,76,220653,1,0,0:0:0:0:
129,124,220803,2,0,P|125:89|119:54,1,70,4|0,1:0|0:0,0:0:0:0:
48,93,221103,5,8,1:0:0:0:
48,93,221253,1,2,0:0:0:0:
62,173,221403,2,0,P|55:207|52:242,1,70,8|2,1:0|0:0,0:0:0:0:
115,300,221703,5,8,1:0:0:0:
115,300,221853,1,2,0:0:0:0:
115,300,222003,2,0,P|171:291|249:339,1,140,6|8,1:0|1:0,0:0:0:0:
311,328,222453,1,0,0:0:0:0:
380,338,222603,2,0,P|407:309|386:208,1,140,2|2,1:0|0:1,0:0:0:0:
326,199,223053,1,8,1:0:0:0:
270,155,223203,2,0,P|292:94|370:80,2,140,6|2|2,0:0|1:2|1:2,0:0:0:0:
270,155,224103,1,2,0:0:0:0:
474,156,224403,6,0,P|469:210|473:319,1,140,6|8,1:0|1:0,0:0:0:0:
405,323,224853,1,2,0:0:0:0:
405,323,225003,2,0,P|341:327|285:260,1,140,0|10,0:0|1:0,0:0:0:0:
228,242,225453,1,0,1:2:0:0:
163,215,225603,6,0,P|130:243|113:269,1,70,4|0,1:0|1:0,0:0:0:0:
48,242,225903,2,0,P|23:277|13:307,1,70,8|0,1:0|1:0,0:0:0:0:
73,340,226203,2,0,P|120:350|151:351,1,70,8|0,1:0|1:0,0:0:0:0:
208,328,226503,2,0,P|252:319|282:300,1,70,8|0,1:0|1:0,0:0:0:0:
339,330,226803,6,0,P|361:297|361:168,1,140,6|8,1:0|1:0,0:0:0:0:
326,145,227253,1,2,0:0:0:0:
340,76,227403,2,0,P|392:69|488:93,2,140,2|2|4,1:0|1:0|1:0,0:0:0:0:
280,38,228153,5,0,0:0:0:0:
213,14,228303,2,0,P|166:31|141:45,1,70,2|0,1:2|0:0,0:0:0:0:
78,43,228603,1,2,1:2:0:0:
24,87,228753,1,2,0:0:0:0:
13,156,228903,1,4,1:2:0:0:
46,217,229053,1,4,0:0:0:0:
110,244,229203,6,0,P|168:237|278:246,1,140,6|8,1:0|1:0,0:0:0:0:
312,210,229653,1,2,0:1:0:0:
312,210,229803,2,0,P|356:217|388:218,1,70,0|2,1:0|1:0,0:0:0:0:
424,272,230103,2,0,P|468:279|500:280,1,70,8|0,1:0|0:1,0:0:0:0:
511,212,230403,6,0,P|487:165|497:74,1,140,6|4,1:0|0:0,0:0:0:0:
371,12,231003,2,0,P|378:57|378:68,7,35,8|8|8|8|8|8|8|8,1:0|1:0|1:0|1:0|1:0|1:0|1:0|1:0,0:0:0:0:
371,12,231603,6,0,P|298:11|231:24,1,140,6|8,1:0|1:0,0:0:0:0:
181,71,232053,1,2,0:0:0:0:
132,121,232203,2,0,P|87:122|35:44,2,140,2|2|2,1:0|1:1|0:0,0:0:0:0:
182,251,233103,1,2,1:2:0:0:
316,211,233403,1,2,1:2:0:0:
280,75,233703,1,2,1:2:0:0:
223,160,234003,6,0,P|240:210|244:314,1,140,6|8,1:0|1:0,0:0:0:0:
304,336,234453,1,0,0:0:0:0:
371,351,234603,2,0,P|414:340|448:340,1,70,2|0,1:0|1:0,0:0:0:0:
472,277,234903,2,0,P|461:234|461:200,1,70,6|0,1:0|1:0,0:0:0:0:
403,167,235203,5,8,1:0:0:0:
403,167,235353,1,0,1:0:0:0:
391,92,235503,2,0,P|340:90|234:119,2,140,8|8|8,1:0|1:0|1:0,0:0:0:0:
512,25,236403,6,0,P|512:63|504:173,1,140,6|8,1:0|1:0,0:0:0:0:
458,216,236853,1,0,0:0:0:0:
458,216,237003,2,0,P|461:263|466:287,1,70,2|0,1:0|0:0,0:0:0:0:
414,333,237303,2,0,P|369:325|327:318,1,70,10|0,1:0|0:0,0:0:0:0:
291,274,237603,6,0,P|234:279|141:320,2,140,4|4|8,1:2|1:2|1:0,0:0:0:0:
342,226,238353,1,2,1:0:0:0:
342,226,238503,2,0,P|336:176|331:148,1,70,8|0,1:0|1:0,0:0:0:0:
269,127,238803,6,0,P|271:70|344:26,2,140,6|8|2,1:0|1:0|1:0,0:0:0:0:
237,189,239553,1,0,1:0:0:0:
237,189,239703,2,0,P|181:193|137:192,1,70,10|0,1:0|0:0,0:0:0:0:
115,144,240003,2,0,P|46:152|14:212,1,140,4|4,1:0|0:3,0:0:0:0:
46,272,240453,1,4,0:3:0:0:
111,295,240603,2,0,P|109:343|106:357,8,35,8|8|8|8|8|8|8|8|4,1:0|1:0|1:0|1:0|1:0|1:0|1:0|1:0|0:1,0:0:0:0:
