osu file format v14

[General]
AudioFilename: audio.mp3
AudioLeadIn: 0
PreviewTime: 58728
Countdown: 0
SampleSet: Soft
StackLeniency: 0.7
Mode: 0
LetterboxInBreaks: 0
WidescreenStoryboard: 0

[Editor]
DistanceSpacing: 1.75
BeatDivisor: 2
GridSize: 4
TimelineZoom: 1

[Metadata]
Title:Inochi ni Kirawarete Iru.
TitleUnicode:命に嫌われている。
Artist:zakuro
ArtistUnicode:柘榴
Creator:Mirash
Version:Easy
Source:
Tags:sing delis pandahero hated by life. hatsune miku 初音ミク kanzaki カンザキ utaite vocaloid cover
BeatmapID:1591913
BeatmapSetID:693727

[Difficulty]
HPDrainRate:2
CircleSize:2
OverallDifficulty:3
ApproachRate:3
SliderMultiplier:0.500000005960464
SliderTickRate:1

[Events]
//Background and Video events
0,0,"pills.jpg",0,0
//Break Periods
2,39503,47763
2,78202,86163
2,126203,134163
2,164303,172263
//Storyboard Layer 0 (Background)
//Storyboard Layer 1 (Fail)
//Storyboard Layer 2 (Pass)
//Storyboard Layer 3 (Foreground)
//Storyboard Sound Samples

[TimingPoints]
3,300,4,2,1,50,1,0
10803,-100,4,2,1,50,0,0
39603,-100,4,2,1,40,0,0
58803,-100,4,2,1,70,0,0
67803,-100,4,2,1,50,0,0
68403,-100,4,2,1,70,0,0
87603,-100,4,2,1,60,0,0
106803,-100,4,2,1,60,0,0
126003,-100,4,2,1,40,0,0
135603,-100,4,2,1,45,0,0
137853,-100,4,2,1,50,0,0
140403,-100,4,2,1,55,0,0
142803,-100,4,2,1,60,0,0
144003,-100,4,2,1,50,0,0
145203,-100,4,2,1,70,0,0
154203,-100,4,2,1,50,0,0
154803,-100,4,2,1,70,0,0
173703,-100,4,2,1,40,0,0
202053,-100,4,2,1,50,0,0
202203,-100,4,2,1,55,0,0
202503,-100,4,2,1,60,0,0
202803,-100,4,2,1,70,0,0
211803,-100,4,2,1,50,0,0
212403,-100,4,2,1,70,0,0
223203,-100,4,2,1,90,0,0
224403,-100,4,2,1,70,0,0
225603,-100,4,2,1,80,0,0
226803,-100,4,2,1,70,0,0
228003,-100,4,2,1,80,0,0
229203,-100,4,2,1,70,0,0
231003,-100,4,2,1,60,0,0
231603,-100,4,2,1,70,0,0
232803,-100,4,2,1,90,0,0
234003,-100,4,2,1,70,0,0
234903,-100,4,2,1,80,0,0
236403,-100,4,2,1,70,0,0
240603,-100,4,2,1,50,0,0

[Colours]
Combo1 : 255,94,55
Combo2 : 173,255,95
Combo3 : 17,254,176
Combo4 : 255,88,100

[HitObjects]
13,288,10803,6,0,P|80:259|180:271,1,150.000001788139,4|8,1:0|0:0,0:0:0:0:
238,290,12003,2,0,L|296:279,1,50.0000005960464,4|0,1:2|1:0,0:0:0:0:
359,231,12603,2,0,L|417:220,1,50.0000005960464,0|8,1:0|1:2,0:0:0:0:
440,140,13203,6,0,P|388:97|302:88,1,150.000001788139,4|8,0:0|0:0,0:0:0:0:
139,39,14703,2,0,L|74:33,2,50.0000005960464,0|0|0,0:0|1:0|1:0,0:0:0:0:
139,126,15603,6,0,P|158:187|160:264,1,100.000001192093,4|0,1:0|0:0,0:0:0:0:
307,320,16803,2,0,P|314:262|327:218,1,100.000001192093,0|0,1:0|0:0,0:0:0:0:
301,138,17703,1,0,1:0:0:0:
370,84,18003,6,0,P|440:116|481:180,1,150.000001788139,4|0,0:0|1:0,0:0:0:0:
456,259,19203,2,0,P|443:296|434:333,2,50.0000005960464,0|2|2,0:0|0:0|0:0,0:0:0:0:
391,199,20103,1,2,0:0:0:0:
303,191,20403,6,0,P|223:212|186:257,1,100.000001192093,4|0,1:0|1:0,0:0:0:0:
47,283,21603,2,0,P|21:222|23:161,1,100.000001192093,0|0,1:0|1:0,0:0:0:0:
50,107,22503,1,2,0:0:0:0:
124,61,22803,6,0,L|290:76,1,150.000001788139,4|0,1:2|0:0,0:0:0:0:
448,76,24303,2,0,P|474:73|508:65,2,50.0000005960464,0|0|0,1:0|1:0|1:0,0:0:0:0:
397,147,25203,6,0,P|380:202|370:304,1,150.000001788139,4|0,1:2|0:0,0:0:0:0:
291,333,26403,2,0,P|222:332|175:319,1,100.000001192093,0|0,1:0|1:0,0:0:0:0:
76,193,27603,6,0,P|114:151|243:155,1,150.000001788139,4|4,0:0|1:2,0:0:0:0:
276,182,28803,1,0,1:0:0:0:
450,176,29403,2,0,P|440:248|439:287,1,100.000001192093,0|4,1:0|1:0,0:0:0:0:
270,324,30603,6,0,L|188:334,1,50.0000005960464,0|2,1:0|0:0,0:0:0:0:
136,355,31203,2,0,P|101:305|102:224,1,100.000001192093,0|0,1:0|1:0,0:0:0:0:
126,185,32103,1,2,0:0:0:0:
114,98,32403,6,0,P|170:92|262:139,1,150.000001788139,4|0,1:2|1:0,0:0:0:0:
406,214,33903,2,0,L|486:203,2,50.0000005960464,0|0|0,1:0|1:0|1:0,0:0:0:0:
350,282,34803,6,0,P|285:309|179:260,1,150.000001788139,0|0,1:0|1:0,0:0:0:0:
154,222,36003,2,0,P|84:223|9:290,1,150.000001788139,4|0,1:2|1:0,0:0:0:0:
42,353,37203,5,0,1:0:0:0:
126,329,37503,2,0,L|214:337,1,50.0000005960464,0|0,1:0|0:0,0:0:0:0:
350,341,38403,2,0,P|373:290|367:234,1,100.000001192093,0|2,1:0|0:0,0:0:0:0:
322,173,39303,1,2,0:0:0:0:
53,155,49203,6,0,L|203:170,1,150.000001788139,4|0,1:0|1:0,0:0:0:0:
275,219,50403,2,0,L|366:210,2,50.0000005960464,0|0|4,1:0|1:0|0:0,0:0:0:0:
198,261,51303,1,4,0:0:0:0:
242,336,51603,6,0,P|322:349|387:298,1,150.000001788139,4|0,3:1|1:0,0:0:0:0:
408,231,52803,2,0,P|418:175|431:126,1,100.000001192093,4|0,0:0|1:0,0:0:0:0:
391,54,53703,1,0,1:0:0:0:
305,35,54003,6,0,L|192:47,1,100.000001192093,4|0,1:0|0:0,0:0:0:0:
39,100,55203,2,0,L|53:176,1,50.0000005960464,0|0,1:0|1:0,0:0:0:0:
66,234,55803,2,0,L|60:293,1,50.0000005960464,0|0,1:0|1:0,0:0:0:0:
133,333,56403,6,0,P|186:319|260:322,1,100.000001192093,4|0,1:0|1:0,0:0:0:0:
405,326,57603,2,0,P|398:255|402:197,1,100.000001192093,8|4,1:0|3:0,0:0:0:0:
367,55,58803,6,0,P|311:63|248:91,1,100.000001192093,4|0,1:0|1:0,0:0:0:0:
222,151,59703,1,0,0:0:0:0:
141,117,60003,2,0,L|78:109,2,50.0000005960464,0|8|0,0:0|1:0|1:0,0:0:0:0:
68,276,61203,6,0,L|186:293,1,100.000001192093,4|0,1:0|1:0,0:0:0:0:
340,315,62403,2,0,L|419:326,1,50.0000005960464,4|8,1:0|1:0,0:0:0:0:
453,262,63003,2,0,L|464:183,1,50.0000005960464,8|8,1:0|1:0,0:0:0:0:
437,128,63603,6,0,P|387:119|334:51,1,100.000001192093,4|0,1:0|1:0,0:0:0:0:
286,28,64503,1,0,1:0:0:0:
209,70,64803,2,0,L|146:71,2,50.0000005960464,0|8|0,1:0|1:0|1:0,0:0:0:0:
240,242,66003,6,0,P|225:300|228:388,1,100.000001192093,4|0,1:0|0:0,0:0:0:0:
397,322,67203,2,0,P|399:252|401:239,1,50.0000005960464,4|4,1:0|1:0,0:0:0:0:
450,202,67803,2,0,B|439:169|439:169|444:135|444:135|429:76,1,100.000001192093,8|4,1:0|1:0,0:0:0:0:
355,70,68703,5,8,1:0:0:0:
273,37,69003,2,0,P|218:42|196:46,1,50.0000005960464,0|8,1:0|1:0,0:0:0:0:
160,103,69603,2,0,P|105:98|83:94,1,50.0000005960464,0|8,1:0|1:0,0:0:0:0:
22,250,70503,1,8,1:0:0:0:
54,331,70803,6,0,P|119:325|194:274,1,150.000001788139,8|8,1:0|1:0,0:0:0:0:
241,210,72003,2,0,L|311:222,1,50.0000005960464,0|8,1:0|1:0,0:0:0:0:
449,291,72903,1,8,1:0:0:0:
487,212,73203,6,0,P|478:156|467:132,1,50.0000005960464,4|0,1:0|0:0,0:0:0:0:
401,124,73803,2,0,P|410:68|421:44,2,50.0000005960464,8|8|4,1:0|1:0|1:2,0:0:0:0:
227,96,75003,2,0,P|172:84|109:89,1,100.000001192093,4|4,1:2|0:0,0:0:0:0:
48,120,75903,5,8,1:0:0:0:
24,204,76203,2,0,P|36:268|36:315,2,100.000001192093,0|4|8,1:0|1:0|1:0,0:0:0:0:
48,120,77703,2,0,L|127:125,1,50.0000005960464,8|4,1:0|0:1,0:0:0:0:
5,192,87603,6,0,P|68:196|107:213,1,100.000001192093,4|0,1:0|0:0,0:0:0:0:
170,263,88503,1,0,0:0:0:0:
257,257,88803,2,0,P|265:190|254:104,1,150.000001788139,0|0,1:0|0:0,0:0:0:0:
263,21,90003,6,0,P|213:15|158:23,1,100.000001192093,4|0,1:2|1:0,0:0:0:0:
25,244,91503,2,0,P|25:273|24:308,1,50.0000005960464,0|0,1:0|1:0,0:0:0:0:
93,350,92103,1,0,1:0:0:0:
180,341,92403,6,0,P|176:288|180:189,1,150.000001788139,4|0,1:2|1:0,0:0:0:0:
263,166,93603,2,0,P|308:180|360:217,1,100.000001192093,0|0,1:0|0:0,0:0:0:0:
423,259,94503,1,0,1:0:0:0:
496,211,94803,6,0,P|488:160|443:62,1,150.000001788139,4|0,1:0|1:0,0:0:0:0:
278,34,96303,2,0,L|210:47,2,50.0000005960464,0|0|4,1:0|1:0|0:0,0:0:0:0:
353,78,97203,6,0,P|358:131|358:197,1,100.000001192093,4|0,1:0|1:0,0:0:0:0:
387,260,98103,2,0,P|384:301|385:330,1,50.0000005960464,0|0,0:0|1:0,0:0:0:0:
210,328,99003,2,0,L|154:332,1,50.0000005960464,0|0,1:0|0:0,0:0:0:0:
76,356,99603,6,0,P|18:314|12:223,1,150.000001788139,4|0,1:2|1:0,0:0:0:0:
179,261,101103,2,0,P|186:231|191:204,1,50.0000005960464,0|0,1:0|1:0,0:0:0:0:
352,148,102003,6,0,P|375:195|375:233,2,75.0000008940696,4|0|0,1:0|0:0|1:0,0:0:0:0:
268,123,103203,2,0,P|215:119|182:100,2,75.0000008940696,4|0|0,1:2|0:0|1:0,0:0:0:0:
317,51,104403,6,0,P|353:48|420:58,1,100.000001192093,0|0,1:0|1:0,0:0:0:0:
402,231,105603,2,0,L|393:297,1,50.0000005960464,0|0,1:0|1:0,0:0:0:0:
324,332,106203,2,0,L|258:323,1,50.0000005960464,0|0,1:0|1:0,0:0:0:0:
191,350,106803,6,0,P|140:330|116:232,1,150.000001788139,4|0,1:0|1:0,0:0:0:0:
135,160,108003,2,0,P|110:116|68:81,1,100.000001192093,0|0,1:0|1:0,0:0:0:0:
237,23,109203,6,0,L|345:44,1,100.000001192093,4|0,1:2|1:0,0:0:0:0:
398,102,110103,1,0,1:0:0:0:
475,143,110403,2,0,P|463:189|457:259,1,100.000001192093,4|4,1:2|1:2,0:0:0:0:
312,340,111603,2,0,P|269:332|219:281,1,100.000001192093,4|0,1:0|1:0,0:0:0:0:
141,274,112503,1,0,1:0:0:0:
54,285,112803,2,0,P|40:236|50:170,2,100.000001192093,4|0|4,1:2|1:0|1:2,0:0:0:0:
245,105,114903,5,2,0:0:0:0:
332,106,115203,2,0,P|372:119|390:128,1,50.0000005960464,0|0,1:0|1:0,0:0:0:0:
413,203,115803,2,0,P|411:243|404:269,1,50.0000005960464,0|2,1:0|0:0,0:0:0:0:
363,327,116403,2,0,P|307:337|230:288,1,150.000001788139,4|4,0:3|0:3,0:0:0:0:
149,257,117603,6,0,P|97:283|86:293,2,50.0000005960464,4|0|0,0:3|0:0|1:0,0:0:0:0:
215,94,118803,2,0,L|332:115,1,100.000001192093,4|0,0:3|1:0,0:0:0:0:
399,94,119703,2,0,P|426:132|438:193,1,100.000001192093,4|8,0:3|0:3,0:0:0:0:
397,260,120603,1,0,1:0:0:0:
250,355,121203,6,0,P|244:314|230:242,1,100.000001192093,4|0,0:3|1:0,0:0:0:0:
154,216,122103,1,4,0:3:0:0:
93,152,122403,2,0,P|132:102|181:79,1,100.000001192093,4|0,0:3|0:0,0:0:0:0:
256,192,123603,12,4,126003,0:0:0:0:
6,191,135603,6,0,L|118:210,1,100.000001192093,4|0,1:0|0:0,0:0:0:0:
279,221,136803,2,0,P|277:268|281:294,2,50.0000005960464,4|0|0,1:2|1:0|1:0,0:0:0:0:
366,69,138003,5,0,1:0:0:0:
492,194,138603,2,0,L|481:260,1,50.0000005960464,0|0,1:0|0:0,0:0:0:0:
428,311,139203,2,0,P|383:307|322:317,1,100.000001192093,0|2,1:0|1:3,0:0:0:0:
154,325,140403,6,0,P|113:298|94:249,1,100.000001192093,4|0,1:0|1:0,0:0:0:0:
100,78,141603,1,0,1:0:0:0:
269,120,142203,6,0,L|329:113,2,50.0000005960464,0|0|4,1:0|1:0|1:2,0:0:0:0:
11,154,143703,1,2,0:0:0:0:
18,241,144003,2,0,B|72:245|72:245|134:293|134:293|214:299,1,200.000002384186,8|4,1:0|1:0,0:0:0:0:
375,277,145803,6,0,L|435:282,1,50.0000005960464,0|8,1:0|1:0,0:0:0:0:
497,231,146403,2,0,P|495:189|460:131,1,100.000001192093,0|0,1:0|1:0,0:0:0:0:
293,127,147603,6,0,L|172:136,1,100.000001192093,0|0,1:0|1:0,0:0:0:0:
124,80,148503,1,8,1:0:0:0:
41,109,148803,2,0,P|6:149|4:213,1,100.000001192093,4|8,1:2|1:0,0:0:0:0:
95,340,150003,6,0,P|170:323|205:322,1,100.000001192093,4|0,1:0|1:0,0:0:0:0:
367,326,151203,2,0,P|399:333|432:345,2,50.0000005960464,0|8|0,1:0|1:0|1:0,0:0:0:0:
310,160,152403,6,0,P|325:115|319:5,1,150.000001788139,4|8,1:0|1:0,0:0:0:0:
233,8,153603,2,0,B|179:12|179:12|117:60|117:60|37:66,1,200.000002384186,8|4,1:0|1:0,0:0:0:0:
10,143,155103,5,8,1:0:0:0:
65,210,155403,2,0,P|74:268|76:278,1,50.0000005960464,0|8,1:0|1:0,0:0:0:0:
157,282,156003,2,0,L|172:172,1,100.000001192093,0|0,1:0|1:0,0:0:0:0:
223,112,156903,1,8,1:0:0:0:
281,176,157203,6,0,P|293:222|295:274,1,100.000001192093,4|0,1:0|1:0,0:0:0:0:
469,287,158403,2,0,P|499:301|519:317,2,50.0000005960464,4|8|0,1:0|1:0|1:0,0:0:0:0:
441,203,159303,1,8,1:0:0:0:
431,116,159603,6,0,P|386:103|316:96,1,100.000001192093,4|0,1:0|1:0,0:0:0:0:
159,91,160803,2,0,P|142:61|135:31,2,50.0000005960464,4|8|8,1:2|1:0|1:0,0:0:0:0:
250,239,162003,6,0,P|246:287|250:349,1,100.000001192093,4|0,1:0|1:0,0:0:0:0:
334,352,162903,1,8,1:0:0:0:
420,342,163203,2,0,P|422:292|418:242,1,100.000001192093,4|2,1:0|1:2,0:0:0:0:
478,178,164103,1,2,1:2:0:0:
478,178,173703,6,0,L|361:194,1,100.000001192093,0|2,1:0|1:2,0:0:0:0:
214,252,174903,2,0,L|114:238,1,100.000001192093,0|2,1:0|1:2,0:0:0:0:
86,65,176103,2,0,L|149:78,2,50.0000005960464,0|0|2,1:0|1:0|1:2,0:0:0:0:
252,118,177303,2,0,L|300:107,2,50.0000005960464,0|0|2,1:0|1:0|1:2,0:0:0:0:
418,172,178503,5,0,0:0:0:0:
395,256,178803,2,0,P|349:257|292:278,1,100.000001192093,0|2,1:0|0:0,0:0:0:0:
230,329,179703,1,0,1:0:0:0:
145,352,180003,2,0,P|125:324|111:247,1,100.000001192093,0|2,1:0|0:0,0:0:0:0:
225,129,181203,6,0,L|288:144,2,50.0000005960464,0|2|0,1:0|1:2|1:0,0:0:0:0:
76,37,182403,2,0,P|48:97|48:201,1,150.000001788139,0|2,1:0|0:0,0:0:0:0:
92,252,183603,6,0,P|87:294|73:343,2,75.0000008940696,4|4|4,1:2|1:2|1:2,0:0:0:0:
131,174,184803,2,0,P|189:177|246:197,1,100.000001192093,2|2,0:0|0:0,0:0:0:0:
391,255,186003,6,0,P|407:305|408:343,2,75.0000008940696,4|4|0,1:2|0:0|1:0,0:0:0:0:
360,172,187203,2,0,P|370:131|379:104,2,50.0000005960464,4|0|0,1:2|1:0|1:0,0:0:0:0:
234,49,188403,6,0,P|180:66|134:103,1,100.000001192093,0|2,1:0|0:0,0:0:0:0:
60,72,189303,1,0,0:0:0:0:
46,158,189603,2,0,P|54:234|56:278,1,100.000001192093,0|2,1:0|0:0,0:0:0:0:
45,344,190503,1,0,0:0:0:0:
132,347,190803,6,0,L|192:356,1,50.0000005960464,4|0,1:2|1:0,0:0:0:0:
249,297,191403,1,4,1:2:0:0:
411,360,192003,2,0,P|421:298|417:252,1,100.000001192093,4|4,1:2|1:2,0:0:0:0:
370,92,193203,6,0,P|331:64|268:57,1,100.000001192093,0|0,1:0|1:0,0:0:0:0:
108,28,194403,2,0,L|116:148,1,100.000001192093,0|0,1:0|1:0,0:0:0:0:
208,275,195603,6,0,L|201:324,2,50.0000005960464,0|8|0,1:0|0:0|1:0,0:0:0:0:
304,129,196803,2,0,B|358:123|358:123|394:148|394:148|464:141,1,150.000001788139,0|0,1:0|0:0,0:0:0:0:
503,208,198003,6,0,P|486:247|485:319,1,100.000001192093,0|0,1:0|1:0,0:0:0:0:
309,328,199203,2,0,L|148:320,1,150.000001788139,0|8,1:0|0:0,0:0:0:0:
72,334,200403,6,0,P|51:278|43:228,1,100.000001192093,0|0,1:0|1:0,0:0:0:0:
127,84,201603,1,0,1:0:0:0:
286,155,202203,1,0,1:0:0:0:
246,325,202803,6,0,L|134:321,1,100.000001192093,4|0,1:0|1:0,0:0:0:0:
22,196,204003,2,0,L|128:200,1,100.000001192093,0|0,1:0|1:0,0:0:0:0:
200,161,204903,1,8,1:0:0:0:
285,179,205203,6,0,P|312:143|331:124,2,50.0000005960464,4|8|0,1:0|1:0|1:0,0:0:0:0:
368,333,206403,2,0,P|409:315|444:222,1,150.000001788139,0|8,1:0|1:0,0:0:0:0:
393,151,207603,6,0,P|403:115|421:88,2,50.0000005960464,4|8|0,1:0|1:0|1:0,0:0:0:0:
229,88,208803,2,0,L|161:96,1,50.0000005960464,4|8,1:0|1:0,0:0:0:0:
99,56,209403,1,0,1:0:0:0:
10,204,210003,6,0,P|19:245|23:309,1,100.000001192093,4|0,1:0|1:0,0:0:0:0:
198,303,211203,2,0,L|269:312,1,50.0000005960464,4|8,1:0|1:0,0:0:0:0:
334,314,211803,2,0,B|348:278|348:278|362:264|362:264|380:219,1,100.000001192093,8|4,1:0|1:0,0:0:0:0:
425,157,212703,5,8,1:0:0:0:
453,74,213003,2,0,P|402:53|344:61,1,100.000001192093,0|4,1:0|1:0,0:0:0:0:
202,137,214203,2,0,P|165:139|140:145,2,50.0000005960464,0|8|4,1:0|1:0|1:0,0:0:0:0:
267,195,215103,5,8,1:0:0:0:
308,272,215403,2,0,P|298:318|293:344,1,50.0000005960464,0|8,1:0|1:0,0:0:0:0:
214,349,216003,2,0,P|151:345|100:274,1,150.000001788139,4|8,1:0|1:0,0:0:0:0:
139,201,217203,6,0,P|130:163|120:144,1,50.0000005960464,4|8,1:0|1:0,0:0:0:0:
128,65,217803,2,0,P|171:72|183:72,1,50.0000005960464,4|8,1:2|1:0,0:0:0:0:
259,103,218403,2,0,P|310:105|367:100,1,100.000001192093,4|4,1:0|1:2,0:0:0:0:
508,191,219603,6,0,P|498:235|496:313,1,100.000001192093,4|4,1:2|1:2,0:0:0:0:
319,298,220803,2,0,L|248:304,2,50.0000005960464,4|8|8,1:0|1:0|1:0,0:0:0:0:
334,115,222003,6,0,P|290:111|238:19,1,150.000001788139,6|2,1:0|0:1,0:0:0:0:
149,26,223203,2,0,L|96:31,1,50.0000005960464,6|2,0:0|1:2,0:0:0:0:
40,95,223803,2,0,L|45:148,1,50.0000005960464,2|2,1:2|1:2,0:0:0:0:
108,204,224403,6,0,P|131:257|126:356,1,150.000001788139,6|10,1:0|1:0,0:0:0:0:
214,365,225603,2,0,L|271:363,1,50.0000005960464,4|8,1:0|1:0,0:0:0:0:
341,321,226203,2,0,L|398:319,1,50.0000005960464,8|8,1:0|1:0,0:0:0:0:
476,338,226803,6,0,P|490:292|481:239,1,100.000001192093,6|2,1:0|1:0,0:0:0:0:
407,194,227703,1,2,1:0:0:0:
383,109,228003,2,0,P|393:65|396:39,2,50.0000005960464,4|2|2,1:0|1:2|1:2,0:0:0:0:
227,189,229203,6,0,P|186:189|125:192,1,100.000001192093,6|0,1:0|1:0,0:0:0:0:
49,233,230103,1,8,1:0:0:0:
102,302,230403,2,0,P|114:335|120:360,2,50.0000005960464,6|4|8,1:0|0:0|1:0,0:0:0:0:
42,137,231603,6,0,P|66:102|172:86,1,150.000001788139,6|2,1:0|0:1,0:0:0:0:
240,129,232803,1,2,0:0:0:0:
321,95,233103,2,0,L|379:105,2,50.0000005960464,2|2|2,1:2|1:2|1:2,0:0:0:0:
240,129,234003,5,6,1:0:0:0:
259,302,234603,2,0,P|311:295|328:295,1,50.0000005960464,2|6,1:0|1:0,0:0:0:0:
395,304,235203,2,0,P|404:329|408:359,2,50.0000005960464,8|8|8,1:0|1:0|1:0,0:0:0:0:
397,128,236403,6,0,P|340:119|233:141,1,150.000001788139,6|10,1:0|1:0,0:0:0:0:
180,187,237603,2,0,P|123:198|111:200,2,50.0000005960464,4|4|8,1:2|1:2|1:0,0:0:0:0:
260,222,238503,1,8,1:0:0:0:
256,192,238803,12,4,241203,1:0:0:0:
