osu file format v14

[General]
AudioFilename: bigbonusland.mp3
AudioLeadIn: 0
PreviewTime: 0
Countdown: 0
SampleSet: None
StackLeniency: 0.7
Mode: 0
LetterboxInBreaks: 0
WidescreenStoryboard: 1

[Editor]
DistanceSpacing: 0.8
BeatDivisor: 4
GridSize: 16
TimelineZoom: 1

[Metadata]
Title:Corner Jump Training
TitleUnicode:Corner Jump Training
Artist:Various Artists
ArtistUnicode:Various Artists
Creator:QuadroKiller
Version:Wolfgun - Big Bonus Land
Source:
Tags:awolnation run cornerjump practice training ctb hyper dash hyperdash quadrokiller
BeatmapID:1371797
BeatmapSetID:478917

[Difficulty]
HPDrainRate:4
CircleSize:4
OverallDifficulty:8
ApproachRate:9
SliderMultiplier:2.00000000596046
SliderTickRate:1

[Events]
//Background and Video events
0,0,"smw-bg-clouds1.png",0,0
//Break Periods
//Storyboard Layer 0 (Background)
//Storyboard Layer 1 (Fail)
//Storyboard Layer 2 (Pass)
//Storyboard Layer 3 (Foreground)
//Storyboard Sound Samples

[TimingPoints]
0,335.195530726257,4,1,0,100,1,0
21452,-100,4,1,0,100,0,1
42905,-100,4,1,0,100,0,0
64357,-100,4,1,0,100,0,1
85810,-100,4,1,0,100,0,0

[HitObjects]
160,288,0,6,0,P|224:288|352:208,1,200.000000596046,8|0,0:0|0:0,0:0:0:0:
480,80,502,1,0,0:0:0:0:
96,48,670,2,0,P|48:96|32:128,1,100.000000298023,8|0,0:0|0:0,0:0:0:0:
160,144,1005,2,0,P|144:192|96:240,1,100.000000298023
16,320,1340,5,8,0:0:0:0:
496,240,1508,1,0,0:0:0:0:
16,64,1675,1,0,0:0:0:0:
496,112,1843,1,0,0:0:0:0:
16,192,2011,1,8,0:0:0:0:
496,352,2178,1,0,0:0:0:0:
16,352,2346,1,0,0:0:0:0:
496,240,2513,1,0,0:0:0:0:
208,48,2681,6,0,P|128:80|96:112,1,100.000000298023,8|0,0:0|0:0,0:0:0:0:
304,48,3016,2,0,P|368:80|400:112,1,100.000000298023
48,192,3351,2,0,L|80:288,1,100.000000298023,8|0,0:0|0:0,0:0:0:0:
464,192,3687,2,0,L|432:304,1,100.000000298023
256,352,4022,6,0,L|256:144,1,200.000000596046,2|0,0:0|0:0,0:0:0:0:
256,32,4525,1,0,0:0:0:0:
16,320,4692,1,8,0:0:0:0:
480,224,4860,1,0,0:0:0:0:
16,176,5027,1,0,0:0:0:0:
480,96,5195,1,0,0:0:0:0:
80,48,5363,6,0,P|144:128|160:240,1,200.000000596046,8|0,0:0|0:0,0:0:0:0:
48,336,5865,1,0,0:0:0:0:
496,272,6033,2,0,P|400:224|336:128,1,200.000000596046,2|0,0:0|0:0,0:0:0:0:
480,32,6536,1,0,0:0:0:0:
16,64,6703,2,0,P|112:112|176:192,1,200.000000596046,8|0,0:0|0:0,0:0:0:0:
32,240,7206,1,0,0:0:0:0:
352,320,7374,2,2,P|432:272|448:240,1,100.000000298023,2|0,0:0|0:0,0:0:0:0:
400,64,7709,2,2,P|352:48|288:48,1,100.000000298023,2|0,0:0|0:0,0:0:0:0:
80,64,8044,6,0,B|0:144|112:160|16:192|64:256,1,200.000000596046,8|0,0:0|0:0,0:0:0:0:
96,336,8547,1,0,0:0:0:0:
464,96,8715,2,0,P|400:176|400:192,1,100.000000298023
480,256,9050,2,0,P|448:320|416:336,1,100.000000298023
64,304,9385,6,0,B|144:224|128:144|208:144,1,200.000000596046,8|0,0:0|0:0,0:0:0:0:
64,80,9888,1,0,0:0:0:0:
480,16,10055,1,0,0:0:0:0:
336,368,10223,1,0,0:0:0:0:
224,16,10391,1,0,0:0:0:0:
128,368,10558,1,0,0:0:0:0:
16,64,10726,6,0,P|64:160|144:240,1,200.000000596046,8|0,0:0|0:0,0:0:0:0:
160,80,11229,1,0,0:0:0:0:
464,48,11396,2,0,L|400:144,1,100.000000298023,8|0,0:0|0:0,0:0:0:0:
304,352,11731,2,0,L|256:256,1,100.000000298023
16,176,12067,5,8,0:0:0:0:
496,288,12234,1,0,0:0:0:0:
80,48,12402,1,0,0:0:0:0:
400,352,12569,1,0,0:0:0:0:
16,112,12737,1,8,0:0:0:0:
496,192,12905,1,0,0:0:0:0:
16,224,13072,1,0,0:0:0:0:
496,64,13240,1,0,0:0:0:0:
64,320,13407,6,0,L|208:304,1,100.000000298023,8|0,0:0|0:0,0:0:0:0:
416,64,13743,2,0,L|304:80,1,100.000000298023
432,352,14078,1,8,0:0:0:0:
64,16,14245,1,0,0:0:0:0:
480,208,14413,1,0,0:0:0:0:
16,144,14581,1,0,0:0:0:0:
176,336,14748,6,0,B|240:288|224:208|320:176,1,200.000000596046,2|0,0:0|0:0,0:0:0:0:
496,80,15251,1,0,0:0:0:0:
240,32,15418,2,0,P|64:96|48:112,1,200.000000596046,8|0,0:0|0:0,0:0:0:0:
32,304,15921,1,0,0:0:0:0:
416,64,16089,6,0,P|464:128|464:160,1,100.000000298023,8|0,0:0|0:0,0:0:0:0:
336,160,16424,2,0,P|336:224|368:256,1,100.000000298023
480,352,16759,1,8,0:0:0:0:
32,192,16927,1,0,0:0:0:0:
480,80,17094,1,0,0:0:0:0:
176,352,17262,1,0,0:0:0:0:
224,16,17430,5,8,0:0:0:0:
496,288,17597,1,0,0:0:0:0:
16,256,17765,1,0,0:0:0:0:
432,16,17932,1,0,0:0:0:0:
272,368,18100,1,8,0:0:0:0:
80,16,18268,1,0,0:0:0:0:
496,128,18435,1,8,0:0:0:0:
112,352,18603,1,0,0:0:0:0:
304,32,18770,6,0,P|176:96|128:128,1,200.000000596046,2|0,0:0|0:0,0:0:0:0:
464,128,19273,1,0,0:0:0:0:
48,304,19441,2,0,P|160:336|256:336,1,200.000000596046,2|0,0:0|0:0,0:0:0:0:
16,192,19944,1,0,0:0:0:0:
480,352,20111,6,0,L|384:272,1,100.000000298023
32,32,20446,2,0,L|128:112,1,100.000000298023
480,48,20782,1,2,0:0:0:0:
32,352,20949,1,0,0:0:0:0:
480,240,21117,1,0,0:0:0:0:
0,144,21284,1,0,0:0:0:0:
384,48,21452,6,0,L|432:144,1,100.000000298023,8|0,0:0|0:0,0:0:0:0:
112,48,21787,2,0,L|64:144,1,100.000000298023,8|0,0:0|0:0,0:0:0:0:
256,336,22122,2,0,L|256:192,1,100.000000298023,8|0,0:0|0:0,0:0:0:0:
256,96,22458,1,0,0:0:0:0:
0,288,22625,5,8,0:0:0:0:
512,160,22793,1,0,0:0:0:0:
0,96,22960,1,8,0:0:0:0:
512,32,23128,1,0,0:0:0:0:
0,192,23296,1,8,0:0:0:0:
512,272,23463,1,8,0:0:0:0:
0,384,23631,1,8,0:0:0:0:
512,112,23798,1,8,0:0:0:0:
16,48,23966,1,0,0:0:0:0:
448,352,24134,6,0,L|400:256,1,100.000000298023,8|0,0:0|0:0,0:0:0:0:
64,352,24469,2,0,L|112:256,1,100.000000298023,8|0,0:0|0:0,0:0:0:0:
256,48,24804,1,8,0:0:0:0:
256,192,24972,2,0,L|256:304,1,100.000000298023
0,144,25307,5,8,0:0:0:0:
512,144,25474,1,0,0:0:0:0:
96,384,25642,1,8,0:0:0:0:
256,0,25810,1,0,0:0:0:0:
416,384,25977,1,8,0:0:0:0:
0,144,26145,5,8,0:0:0:0:
512,144,26312,1,8,0:0:0:0:
96,384,26480,1,8,0:0:0:0:
256,0,26648,1,0,0:0:0:0:
464,304,26815,6,0,P|400:336|336:352,1,100.000000298023,8|0,0:0|0:0,0:0:0:0:
48,304,27150,2,0,P|112:272|176:256,1,100.000000298023,8|0,0:0|0:0,0:0:0:0:
480,128,27486,1,8,0:0:0:0:
32,32,27653,2,0,P|48:112|64:144,1,100.000000298023
496,352,27988,5,8,0:0:0:0:
16,320,28156,1,0,0:0:0:0:
496,32,28324,1,8,0:0:0:0:
16,208,28491,1,0,0:0:0:0:
496,128,28659,1,8,0:0:0:0:
16,96,28826,1,8,0:0:0:0:
496,240,28994,1,8,0:0:0:0:
16,0,29162,1,8,0:0:0:0:
496,352,29329,1,0,0:0:0:0:
464,32,29497,6,0,L|416:128,1,100.000000298023,8|0,0:0|0:0,0:0:0:0:
48,368,29832,2,0,L|112:256,1,100.000000298023,8|0,0:0|0:0,0:0:0:0:
480,336,30167,1,8,0:0:0:0:
32,160,30335,1,0,0:0:0:0:
480,224,30502,1,0,0:0:0:0:
32,48,30670,5,8,0:0:0:0:
480,128,30837,1,0,0:0:0:0:
32,272,31005,1,8,0:0:0:0:
480,32,31173,1,0,0:0:0:0:
32,368,31340,1,8,0:0:0:0:
144,16,31508,1,8,0:0:0:0:
256,384,31675,1,8,0:0:0:0:
352,16,31843,1,8,0:0:0:0:
496,384,32011,1,0,0:0:0:0:
32,80,32178,6,0,P|64:176|80:192,1,100.000000298023,8|0,0:0|0:0,0:0:0:0:
164,150,32513,2,0,P|180:198|180:262,1,100.000000298023,8|0,0:0|0:0,0:0:0:0:
32,320,32849,1,8,0:0:0:0:
256,368,33016,1,0,0:0:0:0:
480,320,33184,1,0,0:0:0:0:
16,80,33351,5,8,0:0:0:0:
496,80,33519,1,0,0:0:0:0:
256,288,33687,1,8,0:0:0:0:
256,0,33854,1,0,0:0:0:0:
16,320,34022,1,8,0:0:0:0:
496,320,34189,1,8,0:0:0:0:
16,80,34357,1,8,0:0:0:0:
496,192,34525,1,8,0:0:0:0:
16,192,34692,1,0,0:0:0:0:
432,256,34860,6,0,P|400:304|352:336,1,100.000000298023,8|0,0:0|0:0,0:0:0:0:
80,256,35195,2,0,P|128:320|160:336,1,100.000000298023,8|0,0:0|0:0,0:0:0:0:
256,32,35530,1,8,0:0:0:0:
256,272,35698,2,0,L|256:144,1,100.000000298023
32,80,36033,5,8,0:0:0:0:
496,80,36201,1,0,0:0:0:0:
256,384,36368,1,8,0:0:0:0:
256,0,36536,1,0,0:0:0:0:
32,288,36703,1,8,0:0:0:0:
480,288,36871,1,8,0:0:0:0:
32,176,37039,1,8,0:0:0:0:
480,176,37206,1,8,0:0:0:0:
32,80,37374,1,0,0:0:0:0:
480,48,37541,6,0,L|368:112,1,100.000000298023,8|0,0:0|0:0,0:0:0:0:
32,208,37877,2,0,L|128:256,1,100.000000298023,8|0,0:0|0:0,0:0:0:0:
368,368,38212,1,8,0:0:0:0:
480,192,38379,2,0,P|448:112|400:96,1,100.000000298023
32,80,38715,5,8,0:0:0:0:
112,384,38882,1,0,0:0:0:0:
208,0,39050,1,8,0:0:0:0:
320,384,39217,1,0,0:0:0:0:
384,0,39385,1,8,0:0:0:0:
496,288,39553,2,0,P|416:320|384:320,1,100.000000298023,8|8,0:0|0:0,0:0:0:0:
16,288,39888,2,0,P|80:320|144:320,1,100.000000298023,8|0,0:0|0:0,0:0:0:0:
256,48,40223,6,0,L|256:160,1,100.000000298023,8|0,0:0|0:0,0:0:0:0:
256,336,40558,2,0,L|256:224,1,100.000000298023,8|0,0:0|0:0,0:0:0:0:
64,192,40893,2,0,L|176:192,1,100.000000298023,8|0,0:0|0:0,0:0:0:0:
448,192,41228,2,0,L|336:192,1,100.000000298023,0|8,0:0|0:0,0:0:0:0:
16,128,41563,5,0,0:0:0:0:
496,128,41731,1,8,0:0:0:0:
16,272,41899,1,0,0:0:0:0:
496,272,42066,1,8,0:0:0:0:
128,16,42234,1,8,0:0:0:0:
256,368,42401,1,8,0:0:0:0:
368,16,42569,1,8,0:0:0:0:
256,192,42737,1,0,0:0:0:0:
352,272,42905,6,0,P|256:288|112:256,1,200.000000596046,8|0,0:0|0:0,0:0:0:0:
256,64,43407,1,0,0:0:0:0:
48,64,43575,2,0,L|112:144,1,100.000000298023,8|0,0:0|0:0,0:0:0:0:
464,64,43910,2,0,L|384:144,1,100.000000298023
32,224,44245,5,8,0:0:0:0:
480,352,44413,1,0,0:0:0:0:
32,352,44581,1,0,0:0:0:0:
480,224,44748,1,0,0:0:0:0:
176,160,44916,2,0,P|144:80|128:64,1,100.000000298023,8|0,0:0|0:0,0:0:0:0:
336,160,45251,2,0,P|368:80|384:64,1,100.000000298023
16,32,45586,5,8,0:0:0:0:
496,32,45754,1,0,0:0:0:0:
16,128,45921,1,0,0:0:0:0:
496,128,46089,1,0,0:0:0:0:
160,288,46256,2,0,P|96:336|64:352,1,100.000000298023,8|0,0:0|0:0,0:0:0:0:
336,288,46592,2,0,P|384:336|432:352,1,100.000000298023
128,48,46927,6,0,L|224:224,1,200.000000596046,2|0,0:0|0:0,0:0:0:0:
288,48,47430,1,0,0:0:0:0:
448,256,47597,2,8,P|336:336|240:336,1,200.000000596046,8|0,0:0|0:0,0:0:0:0:
32,288,48100,1,0,0:0:0:0:
16,96,48268,6,0,P|112:48|224:32,1,200.000000596046,2|0,0:0|0:0,0:0:0:0:
480,80,48770,1,0,0:0:0:0:
368,224,48938,2,0,P|304:272|272:288,1,100.000000298023,8|0,0:0|0:0,0:0:0:0:
224,144,49273,2,0,P|160:176|128:208,1,100.000000298023
0,352,49608,5,8,0:0:0:0:
512,256,49776,1,0,0:0:0:0:
0,128,49944,1,0,0:0:0:0:
512,32,50111,1,0,0:0:0:0:
144,384,50279,1,8,0:0:0:0:
320,0,50446,1,0,0:0:0:0:
512,384,50614,1,8,0:0:0:0:
144,0,50782,1,0,0:0:0:0:
16,128,50949,6,0,P|16:240|64:320,1,200.000000596046,2|0,0:0|0:0,0:0:0:0:
480,176,51452,1,0,0:0:0:0:
512,320,51620,2,0,P|432:320|400:288,1,100.000000298023,8|0,0:0|0:0,0:0:0:0:
336,48,51955,2,0,P|272:32|208:64,1,100.000000298023
80,48,52290,6,0,P|48:144|96:240,1,200.000000596046,2|0,0:0|0:0,0:0:0:0:
480,48,52793,1,0,0:0:0:0:
32,352,52960,1,8,0:0:0:0:
160,32,53128,1,0,0:0:0:0:
256,352,53296,1,0,0:0:0:0:
336,144,53463,1,0,0:0:0:0:
496,272,53631,6,0,B|448:224|448:224|384:272|320:288,1,200.000000596046,8|0,0:0|0:0,0:0:0:0:
32,256,54134,1,0,0:0:0:0:
96,64,54301,2,0,L|144:160,1,100.000000298023,8|0,0:0|0:0,0:0:0:0:
272,176,54636,2,0,L|224:80,1,100.000000298023
512,112,54971,5,8,0:0:0:0:
368,368,55139,1,0,0:0:0:0:
256,16,55306,1,0,0:0:0:0:
144,368,55474,1,0,0:0:0:0:
0,64,55641,1,8,0:0:0:0:
496,208,55809,1,0,0:0:0:0:
16,256,55977,1,0,0:0:0:0:
432,16,56144,1,0,0:0:0:0:
432,336,56312,6,0,P|352:288|304:288,1,100.000000298023,8|0,0:0|0:0,0:0:0:0:
80,336,56648,2,0,P|176:288|208:288,1,100.000000298023
432,192,56983,5,8,0:0:0:0:
256,32,57150,1,0,0:0:0:0:
80,192,57318,1,0,0:0:0:0:
256,352,57486,1,0,0:0:0:0:
96,48,57653,6,0,L|256:176,1,200.000000596046,2|0,0:0|0:0,0:0:0:0:
448,320,58156,1,0,0:0:0:0:
416,48,58324,2,0,L|256:176,1,200.000000596046,8|0,0:0|0:0,0:0:0:0:
64,320,58826,1,0,0:0:0:0:
320,336,58994,6,0,P|400:288|432:176,1,200.000000596046,2|0,0:0|0:0,0:0:0:0:
384,16,59497,1,0,0:0:0:0:
80,16,59664,2,0,P|32:80|16:128,1,100.000000298023,8|0,0:0|0:0,0:0:0:0:
128,128,60000,2,0,P|96:192|64:224,1,100.000000298023
0,320,60335,5,8,0:0:0:0:
512,240,60502,1,0,0:0:0:0:
0,144,60670,1,0,0:0:0:0:
512,64,60837,1,0,0:0:0:0:
0,0,61005,1,8,0:0:0:0:
384,384,61173,1,0,0:0:0:0:
176,0,61340,1,8,0:0:0:0:
96,384,61508,1,0,0:0:0:0:
400,0,61675,6,0,P|480:128|480:176,1,200.000000596046,2|0,0:0|0:0,0:0:0:0:
0,304,62178,1,0,0:0:0:0:
128,0,62346,2,0,P|48:112|32:208,1,200.000000596046,2|0,0:0|0:0,0:0:0:0:
512,304,62849,1,0,0:0:0:0:
256,352,63016,6,0,L|256:240,1,100.000000298023
256,32,63351,2,0,L|256:144,1,100.000000298023
0,112,63687,1,2,0:0:0:0:
512,112,63854,1,0,0:0:0:0:
0,272,64022,1,0,0:0:0:0:
512,272,64189,1,0,0:0:0:0:
0,0,64357,6,0,L|64:96,1,100.000000298023,8|0,0:0|0:0,0:0:0:0:
512,0,64692,2,0,L|448:96,1,100.000000298023,8|0,0:0|0:0,0:0:0:0:
256,384,65027,1,8,0:0:0:0:
256,48,65195,2,0,L|256:160,1,100.000000298023
0,384,65530,5,8,0:0:0:0:
512,0,65698,1,0,0:0:0:0:
0,272,65865,1,8,0:0:0:0:
512,112,66033,1,0,0:0:0:0:
0,160,66201,1,8,0:0:0:0:
512,224,66368,1,8,0:0:0:0:
0,48,66536,1,8,0:0:0:0:
512,336,66703,1,8,0:0:0:0:
96,0,66871,1,0,0:0:0:0:
368,384,67039,6,0,L|336:288,1,100.000000298023,8|0,0:0|0:0,0:0:0:0:
0,240,67374,2,0,L|96:224,1,100.000000298023,8|0,0:0|0:0,0:0:0:0:
416,0,67709,1,8,0:0:0:0:
128,384,67877,2,0,L|192:288,1,100.000000298023
256,0,68212,1,8,0:0:0:0:
256,384,68379,1,0,0:0:0:0:
512,0,68547,1,8,0:0:0:0:
256,384,68715,1,0,0:0:0:0:
0,0,68882,1,8,0:0:0:0:
512,384,69050,1,8,0:0:0:0:
256,0,69217,1,8,0:0:0:0:
0,384,69385,1,8,0:0:0:0:
512,0,69553,1,0,0:0:0:0:
48,256,69720,6,0,P|128:272|176:272,1,100.000000298023,8|0,0:0|0:0,0:0:0:0:
464,256,70055,2,0,P|384:272|320:272,1,100.000000298023,8|0,0:0|0:0,0:0:0:0:
256,384,70391,1,8,0:0:0:0:
256,112,70558,2,0,L|256:0,1,100.000000298023
0,48,70893,5,8,0:0:0:0:
512,144,71061,1,0,0:0:0:0:
0,192,71229,1,8,0:0:0:0:
512,288,71396,1,0,0:0:0:0:
0,336,71564,1,8,0:0:0:0:
512,32,71731,1,8,0:0:0:0:
0,112,71899,1,8,0:0:0:0:
496,384,72067,1,8,0:0:0:0:
0,0,72234,1,0,0:0:0:0:
400,192,72402,6,0,L|528:192,1,100.000000298023,8|0,0:0|0:0,0:0:0:0:
112,192,72737,2,0,L|0:192,1,100.000000298023,8|0,0:0|0:0,0:0:0:0:
256,368,73072,1,8,0:0:0:0:
256,16,73240,2,0,L|256:128,1,100.000000298023
0,320,73575,5,8,0:0:0:0:
512,240,73743,1,0,0:0:0:0:
0,224,73910,1,8,0:0:0:0:
512,144,74078,1,0,0:0:0:0:
0,128,74245,1,8,0:0:0:0:
512,48,74413,1,8,0:0:0:0:
0,32,74581,1,8,0:0:0:0:
512,368,74748,1,8,0:0:0:0:
80,0,74916,1,0,0:0:0:0:
448,272,75083,6,0,P|400:320|336:336,1,100.000000298023,8|0,0:0|0:0,0:0:0:0:
64,272,75418,2,0,P|128:320|160:336,1,100.000000298023,8|0,0:0|0:0,0:0:0:0:
256,32,75754,1,8,0:0:0:0:
256,384,75921,2,0,L|256:272,1,100.000000298023
0,0,76256,5,8,0:0:0:0:
512,384,76424,1,0,0:0:0:0:
256,0,76592,1,8,0:0:0:0:
256,384,76759,1,0,0:0:0:0:
512,0,76927,1,8,0:0:0:0:
0,384,77094,1,8,0:0:0:0:
128,0,77262,1,8,0:0:0:0:
256,384,77430,1,8,0:0:0:0:
384,0,77597,1,0,0:0:0:0:
512,320,77765,6,0,L|416:256,1,100.000000298023,8|0,0:0|0:0,0:0:0:0:
0,320,78100,2,0,L|96:256,1,100.000000298023,8|0,0:0|0:0,0:0:0:0:
256,0,78435,1,8,0:0:0:0:
256,384,78603,2,0,L|256:272,1,100.000000298023
0,32,78938,5,8,0:0:0:0:
512,160,79106,1,0,0:0:0:0:
0,240,79273,1,8,0:0:0:0:
512,336,79441,1,0,0:0:0:0:
160,0,79608,1,8,0:0:0:0:
256,384,79776,1,8,0:0:0:0:
336,0,79944,1,8,0:0:0:0:
0,384,80111,1,8,0:0:0:0:
496,0,80279,1,0,0:0:0:0:
0,160,80446,6,0,P|80:192|112:224,1,100.000000298023,8|0,0:0|0:0,0:0:0:0:
176,0,80782,2,0,P|208:48|240:80,1,100.000000298023,8|0,0:0|0:0,0:0:0:0:
480,352,81117,1,8,0:0:0:0:
32,32,81284,2,0,L|144:128,1,100.000000298023
256,384,81620,5,8,0:0:0:0:
512,0,81787,1,0,0:0:0:0:
80,336,81955,1,8,0:0:0:0:
512,128,82122,1,0,0:0:0:0:
0,224,82290,1,8,0:0:0:0:
512,240,82458,1,8,0:0:0:0:
0,112,82625,1,8,0:0:0:0:
512,352,82793,1,8,0:0:0:0:
0,0,82960,1,0,0:0:0:0:
304,272,83128,6,0,P|256:288|208:272,1,100.000000298023,8|0,0:0|0:0,0:0:0:0:
208,80,83463,2,0,P|272:64|320:96,1,100.000000298023,8|0,0:0|0:0,0:0:0:0:
512,128,83798,5,8,0:0:0:0:
0,256,83966,1,0,0:0:0:0:
512,256,84134,1,0,0:0:0:0:
0,128,84301,1,8,0:0:0:0:
400,384,84469,6,0,L|336:304,1,100.000000298023,0|8,0:0|0:0,0:0:0:0:
112,384,84804,2,0,L|176:304,1,100.000000298023,0|8,0:0|0:0,0:0:0:0:
256,48,85139,5,8,0:0:0:0:
400,192,85307,1,8,0:0:0:0:
256,336,85474,1,8,0:0:0:0:
112,192,85642,1,0,0:0:0:0:
400,32,85810,6,0,P|464:112|496:208,1,200.000000596046,8|0,0:0|0:0,0:0:0:0:
304,368,86312,1,0,0:0:0:0:
32,48,86480,2,0,P|48:96|96:144,1,100.000000298023,8|0,0:0|0:0,0:0:0:0:
32,320,86815,2,0,P|64:240|96:224,1,100.000000298023
512,192,87150,5,8,0:0:0:0:
0,64,87318,1,0,0:0:0:0:
512,192,87486,1,0,0:0:0:0:
0,192,87653,1,0,0:0:0:0:
512,192,87821,1,8,0:0:0:0:
0,304,87988,1,0,0:0:0:0:
512,192,88156,1,0,0:0:0:0:
0,64,88324,1,0,0:0:0:0:
432,0,88491,6,0,P|448:64|432:144,1,100.000000298023,8|0,0:0|0:0,0:0:0:0:
336,112,88826,2,0,P|320:176|336:240,1,100.000000298023
448,368,89162,1,8,0:0:0:0:
208,16,89329,1,0,0:0:0:0:
256,368,89497,1,0,0:0:0:0:
48,16,89664,1,0,0:0:0:0:
16,352,89832,6,0,P|64:240|128:176,1,200.000000596046,8|0,0:0|0:0,0:0:0:0:
512,272,90335,1,0,0:0:0:0:
496,16,90502,2,0,P|416:112|320:160,1,200.000000596046,8|0,0:0|0:0,0:0:0:0:
16,32,91005,1,0,0:0:0:0:
256,192,91173,12,4,96536,0:0:0:0:
