osu file format v14

[General]
AudioFilename: shounenripples.mp3
AudioLeadIn: 0
PreviewTime: 66435
Countdown: 0
SampleSet: Normal
StackLeniency: 0.7
Mode: 0
LetterboxInBreaks: 0
WidescreenStoryboard: 1

[Editor]
DistanceSpacing: 0.8
BeatDivisor: 4
GridSize: 16
TimelineZoom: 1.8

[Metadata]
Title:Corner Jump Training
TitleUnicode:Corner Jump Training
Artist:Various Artists
ArtistUnicode:Various Artists
Creator:QuadroKiller
Version:Tokiwa Yuu - Shounen Ripples AR10
Source:
Tags:awolnation run cornerjump practice training ctb hyper dash hyperdash quadrokiller
BeatmapID:1385005
BeatmapSetID:478917

[Difficulty]
HPDrainRate:0
CircleSize:4
OverallDifficulty:9
ApproachRate:10
SliderMultiplier:1.60000000596046
SliderTickRate:1

[Events]
//Background and Video events
0,0,"fdsfs.jpg",0,0
//Break Periods
//Storyboard Layer 0 (Background)
//Storyboard Layer 1 (Fail)
//Storyboard Layer 2 (Pass)
//Storyboard Layer 3 (Foreground)
//Storyboard Sound Samples

[TimingPoints]
150,285.714285714286,4,2,0,30,1,0
2435,-100,4,2,0,40,0,0
4721,-100,4,1,0,70,0,0
22435,-100,4,1,0,58,0,0
23007,-100,4,1,0,40,0,0
32150,-100,4,1,0,52,0,0
59578,-100,4,1,0,70,0,0
65292,-66.6666666666667,4,1,0,70,0,0
66435,-50,4,1,0,100,0,1
75007,-66.6666666666667,4,1,0,100,0,0
84721,-50,4,1,0,100,0,1
91578,-50,4,1,0,100,0,0
93864,-50,4,1,0,100,0,1
107578,-50,4,1,0,100,0,0

[HitObjects]
170,325,150,6,0,P|223:305|250:283,1,80.000000298023
395,132,435,1,0,0:0:0:0:
68,189,578,1,0,0:0:0:0:
446,220,721,1,0,0:0:0:0:
94,101,864,1,0,0:0:0:0:
461,75,1007,5,0,0:0:0:0:
85,266,1150,1,0,0:0:0:0:
463,326,1292,1,0,0:0:0:0:
48,193,1435,1,0,0:0:0:0:
470,150,1578,1,0,0:0:0:0:
45,342,1721,5,0,0:0:0:0:
463,242,1864,1,0,0:0:0:0:
76,151,2007,1,0,0:0:0:0:
470,46,2150,1,0,0:0:0:0:
47,7,2292,1,0,0:0:0:0:
426,103,2435,6,0,P|359:119|339:126,1,80.000000298023
73,277,2721,1,0,0:0:0:0:
416,208,2864,1,0,0:0:0:0:
45,182,3007,1,0,0:0:0:0:
446,289,3150,1,0,0:0:0:0:
38,352,3292,5,0,0:0:0:0:
454,137,3435,1,0,0:0:0:0:
32,84,3578,1,0,0:0:0:0:
454,38,3721,1,0,0:0:0:0:
33,180,3864,1,0,0:0:0:0:
455,225,4007,5,0,0:0:0:0:
21,287,4150,1,0,0:0:0:0:
469,315,4292,1,0,0:0:0:0:
429,307,4363,1,0,0:0:0:0:
392,294,4434,1,0,0:0:0:0:
356,276,4506,1,0,0:0:0:0:
322,254,4577,1,0,0:0:0:0:
292,227,4649,1,0,0:0:0:0:
266,197,4720,5,0,0:0:0:0:
512,64,4864,1,0,0:0:0:0:
512,64,4935,1,0,0:0:0:0:
512,64,5007,1,0,0:0:0:0:
16,144,5150,1,0,0:0:0:0:
496,192,5292,1,0,0:0:0:0:
496,192,5364,1,0,0:0:0:0:
496,192,5435,1,0,0:0:0:0:
16,256,5578,5,0,0:0:0:0:
496,304,5721,1,0,0:0:0:0:
496,304,5792,1,0,0:0:0:0:
496,304,5864,1,0,0:0:0:0:
16,352,6007,1,0,0:0:0:0:
496,128,6150,1,0,0:0:0:0:
496,128,6221,1,0,0:0:0:0:
496,128,6292,1,0,0:0:0:0:
0,48,6435,5,0,0:0:0:0:
240,384,6578,1,0,0:0:0:0:
512,16,6721,1,0,0:0:0:0:
0,224,6864,1,0,0:0:0:0:
512,272,7007,5,0,0:0:0:0:
240,0,7150,1,0,0:0:0:0:
240,0,7221,1,0,0:0:0:0:
240,0,7292,1,0,0:0:0:0:
0,320,7435,1,0,0:0:0:0:
512,112,7578,1,0,0:0:0:0:
512,112,7650,1,0,0:0:0:0:
512,112,7721,1,0,0:0:0:0:
0,96,7864,5,0,0:0:0:0:
496,240,8007,1,0,0:0:0:0:
496,240,8078,1,0,0:0:0:0:
496,240,8150,1,0,0:0:0:0:
0,272,8292,1,0,0:0:0:0:
304,0,8435,1,0,0:0:0:0:
304,0,8507,1,0,0:0:0:0:
304,0,8578,1,0,0:0:0:0:
512,336,8721,5,0,0:0:0:0:
0,80,8864,1,0,0:0:0:0:
512,80,9007,1,0,0:0:0:0:
0,336,9150,1,0,0:0:0:0:
432,176,9292,6,0,L|368:176,1,40.0000001490115
496,304,9435,2,0,L|432:304,1,40.0000001490115
64,224,9578,1,0,0:0:0:0:
96,48,9721,6,0,L|144:48,1,40.0000001490115
16,160,9864,2,0,L|80:160,1,40.0000001490115
448,64,10007,1,0,0:0:0:0:
192,288,10150,6,0,L|192:224,1,40.0000001490115
304,368,10292,2,0,L|304:320,1,40.0000001490115
304,64,10435,1,0,0:0:0:0:
496,320,10578,5,0,0:0:0:0:
16,64,10721,1,0,0:0:0:0:
496,64,10864,1,0,0:0:0:0:
16,320,11007,1,0,0:0:0:0:
304,0,11150,1,0,0:0:0:0:
208,384,11292,1,0,0:0:0:0:
512,160,11435,1,0,0:0:0:0:
0,64,11578,6,0,L|80:80,1,80.000000298023
464,144,11864,1,0,0:0:0:0:
0,320,12007,2,0,L|80:304,1,80.000000298023
464,240,12292,1,0,0:0:0:0:
0,192,12435,1,0,0:0:0:0:
512,192,12578,1,0,0:0:0:0:
48,0,12721,6,0,L|48:96,1,80.000000298023
464,384,13007,2,0,L|464:304,1,80.000000298023
400,48,13292,1,0,0:0:0:0:
362,61,13363,1,0,0:0:0:0:
328,83,13434,1,0,0:0:0:0:
299,110,13506,1,0,0:0:0:0:
272,139,13577,1,0,0:0:0:0:
245,169,13649,1,0,0:0:0:0:
218,198,13720,1,0,0:0:0:0:
186,223,13791,1,0,0:0:0:0:
158,240,13864,6,0,P|54:217|15:158,1,160.000000596046
123,33,14292,1,0,0:0:0:0:
185,171,14435,2,0,L|232:263,1,80.000000298023
341,108,14721,2,0,L|305:23,1,80.000000298023
498,148,15007,6,0,P|451:223|384:266,1,160.000000596046
21,203,15435,1,0,0:0:0:0:
408,22,15578,1,0,0:0:0:0:
343,381,15721,1,0,0:0:0:0:
112,14,15864,2,0,L|227:158,1,160.000000596046
501,47,16292,5,0,0:0:0:0:
11,118,16435,1,0,0:0:0:0:
483,295,16578,1,0,0:0:0:0:
272,6,16721,1,0,0:0:0:0:
16,318,16864,1,0,0:0:0:0:
495,172,17007,1,0,0:0:0:0:
8,27,17150,1,0,0:0:0:0:
297,380,17292,5,0,0:0:0:0:
508,26,17435,1,0,0:0:0:0:
508,26,17507,1,0,0:0:0:0:
508,26,17578,1,0,0:0:0:0:
1,210,17721,1,0,0:0:0:0:
503,284,17864,1,0,0:0:0:0:
503,284,17935,1,0,0:0:0:0:
503,284,18007,1,0,0:0:0:0:
232,1,18150,1,0,0:0:0:0:
303,378,18292,1,0,0:0:0:0:
3,200,18435,6,0,P|77:193|181:197,1,160.000000596046
484,291,18864,1,0,0:0:0:0:
43,77,19007,1,0,0:0:0:0:
480,79,19150,1,0,0:0:0:0:
50,317,19292,1,0,0:0:0:0:
307,27,19435,1,0,0:0:0:0:
360,349,19578,5,0,0:0:0:0:
45,184,19721,1,0,0:0:0:0:
446,197,19864,1,0,0:0:0:0:
138,50,20007,1,0,0:0:0:0:
224,342,20150,1,0,0:0:0:0:
405,93,20292,1,0,0:0:0:0:
134,238,20435,1,0,0:0:0:0:
375,174,20578,1,0,0:0:0:0:
257,189,20721,1,0,0:0:0:0:
445,339,21007,5,0,0:0:0:0:
445,339,21292,2,0,P|228:337|124:261,1,320.000001192092
106,185,22150,1,0,0:0:0:0:
170,96,22435,5,0,0:0:0:0:
205,78,22506,1,0,0:0:0:0:
245,71,22577,1,0,0:0:0:0:
284,75,22649,1,0,0:0:0:0:
321,90,22720,1,0,0:0:0:0:
321,90,22792,1,0,0:0:0:0:
321,90,22864,1,0,0:0:0:0:
321,90,22935,1,0,0:0:0:0:
321,90,23007,6,0,P|370:171|377:242,1,160.000000596046
240,342,23435,1,0,0:0:0:0:
226,176,23578,1,0,0:0:0:0:
89,261,23721,1,0,0:0:0:0:
375,235,23864,1,0,0:0:0:0:
65,133,24007,6,0,P|130:169|234:189,1,160.000000596046
461,87,24435,2,0,P|346:62|277:69,1,160.000000596046
361,384,24864,1,0,0:0:0:0:
20,142,25007,1,0,0:0:0:0:
411,0,25150,1,0,0:0:0:0:
72,355,25292,6,0,B|150:300|290:282|290:282|215:218,1,320.000001192092
16,96,26007,1,0,0:0:0:0:
496,192,26150,1,0,0:0:0:0:
0,288,26292,1,0,0:0:0:0:
400,16,26435,5,0,0:0:0:0:
288,368,26578,1,0,0:0:0:0:
144,16,26721,1,0,0:0:0:0:
496,288,26864,1,0,0:0:0:0:
16,160,27007,1,0,0:0:0:0:
496,80,27150,1,0,0:0:0:0:
112,368,27292,1,0,0:0:0:0:
256,0,27435,1,0,0:0:0:0:
448,384,27578,6,0,B|400:288|336:256|256:128,1,320.000001192092
176,352,28292,5,0,0:0:0:0:
512,0,28435,1,0,0:0:0:0:
0,320,28578,2,0,B|64:336|64:336|176:160|368:256,1,400.000001490115
144,0,29435,1,0,0:0:0:0:
224,368,29578,1,0,0:0:0:0:
512,32,29721,1,0,0:0:0:0:
0,192,29864,6,0,P|64:208|176:192,1,160.000000596046
16,352,30292,1,0,0:0:0:0:
512,192,30435,2,0,P|368:192|336:208,1,160.000000596046
496,32,30864,1,0,0:0:0:0:
0,192,31007,5,0,0:0:0:0:
512,368,31150,1,0,0:0:0:0:
288,0,31292,1,0,0:0:0:0:
160,384,31435,1,0,0:0:0:0:
32,48,31578,5,0,0:0:0:0:
62,73,31649,1,0,0:0:0:0:
95,95,31720,1,0,0:0:0:0:
131,114,31792,1,0,0:0:0:0:
168,129,31863,1,0,0:0:0:0:
206,140,31935,1,0,0:0:0:0:
246,146,32006,1,0,0:0:0:0:
286,149,32078,1,0,0:0:0:0:
326,147,32149,5,0,0:0:0:0:
112,352,32292,1,0,0:0:0:0:
496,208,32435,1,0,0:0:0:0:
16,128,32578,1,0,0:0:0:0:
416,368,32721,1,0,0:0:0:0:
384,0,32864,1,0,0:0:0:0:
32,320,33007,1,0,0:0:0:0:
496,112,33150,1,0,0:0:0:0:
16,32,33292,5,0,0:0:0:0:
256,368,33435,1,0,0:0:0:0:
384,0,33578,1,0,0:0:0:0:
0,192,33721,1,0,0:0:0:0:
512,240,33864,1,0,0:0:0:0:
16,320,34007,1,0,0:0:0:0:
496,96,34150,1,0,0:0:0:0:
16,64,34292,1,0,0:0:0:0:
416,368,34435,6,0,B|352:256|400:128|400:128|336:208,1,320.000001192092
160,368,35150,1,0,0:0:0:0:
496,144,35292,1,0,0:0:0:0:
112,16,35435,1,0,0:0:0:0:
496,288,35578,1,0,0:0:0:0:
19,334,35721,1,0,0:0:0:0:
312,0,35864,1,0,0:0:0:0:
410,382,36007,1,0,0:0:0:0:
0,163,36150,5,0,0:0:0:0:
512,194,36292,1,0,0:0:0:0:
0,251,36435,1,0,0:0:0:0:
384,16,36578,1,0,0:0:0:0:
224,384,36721,2,0,P|192:304|352:160,1,320.000001192092
0,224,37435,1,0,0:0:0:0:
448,0,37578,1,0,0:0:0:0:
368,384,37721,6,0,B|288:352|288:352|464:208|288:80,1,400.000001490115
0,336,38578,1,0,0:0:0:0:
512,160,38721,1,0,0:0:0:0:
0,16,38864,1,0,0:0:0:0:
160,384,39007,6,0,B|80:304|80:304|256:288|304:128,1,400.000001490115
384,384,39864,1,0,0:0:0:0:
0,112,40007,2,0,B|32:32|32:32|96:112|160:144,1,240.000000894069
182,158,40721,1,0,0:0:0:0:
230,174,41007,1,0,0:0:0:0:
448,48,41292,6,0,P|428:128|416:144,1,80.000000298023
311,306,41578,1,0,0:0:0:0:
270,79,41721,1,0,0:0:0:0:
413,222,41864,1,0,0:0:0:0:
157,203,42007,1,0,0:0:0:0:
312,162,42150,1,0,0:0:0:0:
84,79,42292,1,0,0:0:0:0:
141,315,42435,5,0,0:0:0:0:
241,72,42578,1,0,0:0:0:0:
58,221,42721,1,0,0:0:0:0:
386,233,42864,1,0,0:0:0:0:
172,162,43007,1,0,0:0:0:0:
345,32,43150,1,0,0:0:0:0:
249,326,43292,1,0,0:0:0:0:
450,124,43435,1,0,0:0:0:0:
52,295,43578,6,0,P|125:288|149:278,1,80.000000298023
379,138,43864,1,0,0:0:0:0:
58,155,44007,1,0,0:0:0:0:
451,231,44150,1,0,0:0:0:0:
224,356,44292,1,0,0:0:0:0:
321,68,44435,1,0,0:0:0:0:
115,258,44578,1,0,0:0:0:0:
443,144,44721,5,0,0:0:0:0:
105,89,44864,1,0,0:0:0:0:
327,303,45007,1,0,0:0:0:0:
233,45,45150,1,0,0:0:0:0:
191,280,45292,1,0,0:0:0:0:
347,102,45435,1,0,0:0:0:0:
72,210,45578,1,0,0:0:0:0:
327,224,45721,1,0,0:0:0:0:
109,16,45864,6,0,P|128:75|139:91,1,80.000000298023
334,325,46150,1,0,0:0:0:0:
261,35,46292,1,0,0:0:0:0:
497,137,46435,1,0,0:0:0:0:
184,184,46578,1,0,0:0:0:0:
435,270,46721,1,0,0:0:0:0:
384,26,46864,1,0,0:0:0:0:
277,321,47007,5,0,0:0:0:0:
219,88,47150,1,0,0:0:0:0:
152,285,47292,1,0,0:0:0:0:
86,142,47435,1,0,0:0:0:0:
272,186,47578,1,0,0:0:0:0:
35,220,47721,1,0,0:0:0:0:
352,102,47864,1,0,0:0:0:0:
34,338,48007,1,0,0:0:0:0:
481,240,48150,6,0,P|391:253|384:253,1,80.000000298023
23,122,48435,1,0,0:0:0:0:
174,366,48578,2,0,P|184:314|197:284,1,80.000000298023
345,14,48864,1,0,0:0:0:0:
43,267,49007,5,0,0:0:0:0:
422,371,49150,1,0,0:0:0:0:
75,69,49292,1,0,0:0:0:0:
512,75,49435,1,0,0:0:0:0:
112,383,49578,1,0,0:0:0:0:
141,0,49721,1,0,0:0:0:0:
508,164,49864,5,0,0:0:0:0:
468,163,49935,1,0,0:0:0:0:
430,175,50006,1,0,0:0:0:0:
394,193,50078,1,0,0:0:0:0:
359,212,50149,1,0,0:0:0:0:
322,227,50221,1,0,0:0:0:0:
283,237,50292,1,0,0:0:0:0:
243,240,50364,1,0,0:0:0:0:
204,236,50435,5,0,0:0:0:0:
9,95,50578,1,0,0:0:0:0:
266,14,50721,2,0,L|317:115,1,80.000000298023
313,375,51007,2,0,L|265:288,1,80.000000298023
496,97,51292,1,0,0:0:0:0:
24,242,51435,1,0,0:0:0:0:
443,342,51578,5,0,0:0:0:0:
132,23,51721,1,0,0:0:0:0:
182,359,51864,1,0,0:0:0:0:
373,17,52007,1,0,0:0:0:0:
5,140,52150,1,0,0:0:0:0:
503,181,52292,1,0,0:0:0:0:
3,317,52435,1,0,0:0:0:0:
505,361,52578,6,0,B|430:376|430:376|419:245|337:226,1,240.000000894069
89,376,53150,1,0,0:0:0:0:
173,0,53292,1,0,0:0:0:0:
508,240,53435,1,0,0:0:0:0:
5,181,53578,1,0,0:0:0:0:
507,22,53721,6,0,B|403:42|402:148|319:207,1,240.000000894069
108,9,54292,1,0,0:0:0:0:
508,211,54435,1,0,0:0:0:0:
128,378,54578,1,0,0:0:0:0:
501,21,54721,1,0,0:0:0:0:
4,180,54864,1,0,0:0:0:0:
480,369,55007,6,0,B|494:299|494:299|417:305|376:284,1,160.000000596046
3,82,55435,1,0,0:0:0:0:
501,10,55578,1,0,0:0:0:0:
173,382,55721,1,0,0:0:0:0:
216,2,55864,1,0,0:0:0:0:
510,218,56007,6,0,B|422:199|309:217|237:223,1,240.000000894069
8,151,56578,1,0,0:0:0:0:
488,13,56721,1,0,0:0:0:0:
329,361,56864,1,0,0:0:0:0:
177,24,57007,1,0,0:0:0:0:
6,364,57150,1,0,0:0:0:0:
450,171,57292,6,0,P|430:227|408:261,1,80.000000298023
81,294,57577,2,0,P|88:227|108:194,1,80.000000298023
376,38,57863,2,0,P|301:88|279:94,1,80.000000298023
170,358,58149,2,0,P|203:318|238:301,1,80.000000298023
479,234,58434,6,0,L|396:207,1,80.000000298023
34,137,58720,2,0,L|128:168,1,80.000000298023
431,353,59007,1,0,0:0:0:0:
394,335,59078,1,0,0:0:0:0:
358,318,59149,1,0,0:0:0:0:
371,289,59221,1,0,0:0:0:0:
384,251,59292,1,0,0:0:0:0:
390,212,59364,1,0,0:0:0:0:
391,172,59435,1,0,0:0:0:0:
385,132,59507,1,0,0:0:0:0:
367,97,59578,5,0,0:0:0:0:
37,237,59721,1,0,0:0:0:0:
480,288,60007,5,0,0:0:0:0:
22,79,60150,1,0,0:0:0:0:
510,64,60435,5,0,0:0:0:0:
5,330,60578,1,0,0:0:0:0:
508,215,60864,5,0,0:0:0:0:
3,192,61007,1,0,0:0:0:0:
477,2,61292,5,0,0:0:0:0:
305,380,61435,1,0,0:0:0:0:
3,48,61578,1,0,0:0:0:0:
510,168,61721,1,0,0:0:0:0:
9,330,61864,5,0,0:0:0:0:
499,62,62007,1,0,0:0:0:0:
1,170,62292,5,0,0:0:0:0:
508,351,62435,1,0,0:0:0:0:
3,358,62721,5,0,0:0:0:0:
507,12,62864,1,0,0:0:0:0:
5,30,63150,5,0,0:0:0:0:
508,351,63292,1,0,0:0:0:0:
0,384,63578,5,0,0:0:0:0:
512,192,63721,1,0,0:0:0:0:
0,0,63864,1,0,0:0:0:0:
144,336,64150,6,0,P|160:256|176:240,1,80.000000298023
312,86,64435,1,0,0:0:0:0:
390,324,64578,1,0,0:0:0:0:
97,115,64721,1,0,0:0:0:0:
458,131,64864,1,0,0:0:0:0:
15,282,65007,1,0,0:0:0:0:
491,19,65150,1,0,0:0:0:0:
5,361,65292,5,0,0:0:0:0:
64,350,65363,1,0,0:0:0:0:
123,343,65434,1,0,0:0:0:0:
183,337,65506,1,0,0:0:0:0:
243,334,65577,1,0,0:0:0:0:
303,334,65649,1,0,0:0:0:0:
363,336,65720,1,0,0:0:0:0:
423,341,65791,1,0,0:0:0:0:
452,340,65863,5,0,0:0:0:0:
397,315,65934,1,0,0:0:0:0:
345,285,66006,1,0,0:0:0:0:
295,252,66077,1,0,0:0:0:0:
249,214,66149,1,0,0:0:0:0:
204,174,66220,1,0,0:0:0:0:
162,131,66291,1,0,0:0:0:0:
123,86,66363,1,0,0:0:0:0:
85,39,66434,5,0,0:0:0:0:
512,224,66578,1,0,0:0:0:0:
0,304,66721,1,0,0:0:0:0:
320,0,66864,1,0,0:0:0:0:
400,384,67007,1,0,0:0:0:0:
0,176,67150,1,0,0:0:0:0:
512,144,67292,1,0,0:0:0:0:
0,32,67435,1,0,0:0:0:0:
256,384,67578,5,0,0:0:0:0:
512,0,67721,1,0,0:0:0:0:
0,384,67864,1,0,0:0:0:0:
512,320,68007,1,0,0:0:0:0:
224,0,68150,1,0,0:0:0:0:
0,384,68292,1,0,0:0:0:0:
512,144,68435,1,0,0:0:0:0:
0,240,68578,1,0,0:0:0:0:
512,384,68721,5,0,0:0:0:0:
0,0,68864,1,0,0:0:0:0:
512,80,69007,1,0,0:0:0:0:
0,320,69150,1,0,0:0:0:0:
512,272,69292,1,0,0:0:0:0:
0,160,69435,1,0,0:0:0:0:
384,0,69578,1,0,0:0:0:0:
304,384,69721,1,0,0:0:0:0:
0,64,69864,5,0,0:0:0:0:
512,144,70007,1,0,0:0:0:0:
0,272,70150,1,0,0:0:0:0:
512,384,70292,1,0,0:0:0:0:
256,0,70435,1,0,0:0:0:0:
0,384,70578,1,0,0:0:0:0:
512,0,70721,1,0,0:0:0:0:
0,192,70864,1,0,0:0:0:0:
512,384,71007,5,0,0:0:0:0:
0,0,71150,1,0,0:0:0:0:
256,384,71292,1,0,0:0:0:0:
512,0,71435,1,0,0:0:0:0:
0,384,71578,1,0,0:0:0:0:
256,0,71721,1,0,0:0:0:0:
512,384,71864,1,0,0:0:0:0:
0,192,72007,1,0,0:0:0:0:
512,0,72150,5,0,0:0:0:0:
256,384,72292,1,0,0:0:0:0:
0,0,72435,1,0,0:0:0:0:
512,192,72578,1,0,0:0:0:0:
0,384,72721,1,0,0:0:0:0:
256,0,72864,1,0,0:0:0:0:
512,384,73007,1,0,0:0:0:0:
0,192,73150,1,0,0:0:0:0:
512,0,73292,6,0,B|464:240|464:240|416:80|208:80|208:80|352:288,1,800.00000298023
0,16,74150,1,0,0:0:0:0:
512,272,74292,6,0,B|448:384|448:384|368:144|240:112|240:112|240:304|240:304|144:192,1,800.00000298023
32,96,75150,5,0,0:0:0:0:
480,64,75292,1,0,0:0:0:0:
32,336,75435,1,0,0:0:0:0:
288,32,75578,1,0,0:0:0:0:
480,368,75721,1,0,0:0:0:0:
32,208,75864,1,0,0:0:0:0:
480,224,76007,1,0,0:0:0:0:
32,32,76150,5,0,0:0:0:0:
176,352,76292,1,0,0:0:0:0:
320,32,76435,1,0,0:0:0:0:
480,352,76578,1,0,0:0:0:0:
32,272,76721,1,0,0:0:0:0:
480,144,76864,1,0,0:0:0:0:
32,32,77007,1,0,0:0:0:0:
256,352,77150,1,0,0:0:0:0:
480,32,77292,5,0,0:0:0:0:
32,144,77435,1,0,0:0:0:0:
480,320,77578,1,0,0:0:0:0:
32,352,77721,1,0,0:0:0:0:
256,32,77864,1,0,0:0:0:0:
480,352,78007,1,0,0:0:0:0:
32,224,78150,1,0,0:0:0:0:
480,48,78292,1,0,0:0:0:0:
288,352,78435,5,0,0:0:0:0:
32,32,78578,1,0,0:0:0:0:
480,160,78721,1,0,0:0:0:0:
32,320,78864,1,0,0:0:0:0:
256,32,79007,1,0,0:0:0:0:
480,320,79150,1,0,0:0:0:0:
32,176,79292,1,0,0:0:0:0:
480,80,79435,1,0,0:0:0:0:
256,352,79578,5,0,0:0:0:0:
32,32,79721,1,0,0:0:0:0:
480,256,79864,1,0,0:0:0:0:
32,304,80007,1,0,0:0:0:0:
336,32,80150,1,0,0:0:0:0:
416,352,80292,1,0,0:0:0:0:
32,144,80435,1,0,0:0:0:0:
480,48,80578,1,0,0:0:0:0:
224,352,80721,5,0,0:0:0:0:
96,32,80864,1,0,0:0:0:0:
480,160,81007,1,0,0:0:0:0:
32,240,81150,1,0,0:0:0:0:
480,288,81292,1,0,0:0:0:0:
32,144,81435,1,0,0:0:0:0:
480,48,81578,1,0,0:0:0:0:
32,336,81721,1,0,0:0:0:0:
384,32,81864,5,0,0:0:0:0:
128,352,82007,1,0,0:0:0:0:
192,32,82150,1,0,0:0:0:0:
480,208,82292,1,0,0:0:0:0:
32,128,82435,1,0,0:0:0:0:
336,352,82578,1,0,0:0:0:0:
432,32,82721,1,0,0:0:0:0:
32,256,82864,1,0,0:0:0:0:
480,352,83007,5,0,0:0:0:0:
32,32,83150,1,0,0:0:0:0:
256,352,83292,1,0,0:0:0:0:
480,32,83435,1,0,0:0:0:0:
32,352,83578,1,0,0:0:0:0:
480,192,83721,1,0,0:0:0:0:
32,32,83864,1,0,0:0:0:0:
256,352,84007,1,0,0:0:0:0:
480,32,84150,5,0,0:0:0:0:
444,63,84221,1,0,0:0:0:0:
402,85,84292,1,0,0:0:0:0:
353,81,84364,1,0,0:0:0:0:
307,66,84435,1,0,0:0:0:0:
262,47,84507,1,0,0:0:0:0:
214,39,84578,1,0,0:0:0:0:
166,47,84650,1,0,0:0:0:0:
120,61,84721,5,0,0:0:0:0:
512,240,84864,1,0,0:0:0:0:
0,384,85007,1,0,0:0:0:0:
256,0,85150,1,0,0:0:0:0:
512,384,85292,1,0,0:0:0:0:
0,224,85435,1,0,0:0:0:0:
384,0,85578,1,0,0:0:0:0:
336,384,85721,1,0,0:0:0:0:
0,0,85864,5,0,0:0:0:0:
512,144,86007,1,0,0:0:0:0:
0,320,86150,1,0,0:0:0:0:
256,0,86292,1,0,0:0:0:0:
512,384,86435,1,0,0:0:0:0:
0,192,86578,1,0,0:0:0:0:
512,0,86721,1,0,0:0:0:0:
256,384,86864,1,0,0:0:0:0:
0,0,87007,5,0,0:0:0:0:
512,128,87150,1,0,0:0:0:0:
96,384,87292,1,0,0:0:0:0:
80,0,87435,1,0,0:0:0:0:
512,272,87578,1,0,0:0:0:0:
0,336,87721,1,0,0:0:0:0:
304,0,87864,1,0,0:0:0:0:
464,384,88007,1,0,0:0:0:0:
0,160,88150,5,0,0:0:0:0:
480,0,88292,1,0,0:0:0:0:
256,384,88435,1,0,0:0:0:0:
96,0,88578,1,0,0:0:0:0:
512,192,88721,1,0,0:0:0:0:
0,384,88864,1,0,0:0:0:0:
512,288,89007,1,0,0:0:0:0:
0,192,89150,1,0,0:0:0:0:
512,0,89292,5,0,0:0:0:0:
256,384,89435,1,0,0:0:0:0:
0,0,89578,1,0,0:0:0:0:
512,112,89721,1,0,0:0:0:0:
48,384,89864,1,0,0:0:0:0:
240,0,90007,1,0,0:0:0:0:
512,304,90150,1,0,0:0:0:0:
0,160,90292,1,0,0:0:0:0:
512,16,90435,5,0,0:0:0:0:
192,384,90578,1,0,0:0:0:0:
0,0,90721,1,0,0:0:0:0:
512,224,90864,1,0,0:0:0:0:
0,384,91007,1,0,0:0:0:0:
512,16,91150,1,0,0:0:0:0:
0,192,91292,1,0,0:0:0:0:
512,384,91435,1,0,0:0:0:0:
0,0,91578,5,0,0:0:0:0:
512,384,92292,5,0,0:0:0:0:
0,192,92435,1,0,0:0:0:0:
512,0,92578,1,0,0:0:0:0:
0,384,93435,5,0,0:0:0:0:
0,384,93578,2,0,B|64:288|64:288|144:320|304:320,1,320.000001192092
0,0,94007,5,0,0:0:0:0:
512,192,94150,1,0,0:0:0:0:
0,384,94292,1,0,0:0:0:0:
256,0,94435,1,0,0:0:0:0:
512,384,94578,1,0,0:0:0:0:
0,192,94721,1,0,0:0:0:0:
512,0,94864,1,0,0:0:0:0:
256,384,95007,5,0,0:0:0:0:
0,0,95150,1,0,0:0:0:0:
512,192,95292,1,0,0:0:0:0:
0,384,95435,1,0,0:0:0:0:
512,0,95578,1,0,0:0:0:0:
256,384,95721,1,0,0:0:0:0:
0,0,95864,1,0,0:0:0:0:
512,192,96007,1,0,0:0:0:0:
0,384,96150,5,0,0:0:0:0:
160,0,96292,1,0,0:0:0:0:
304,384,96435,1,0,0:0:0:0:
512,0,96578,1,0,0:0:0:0:
0,128,96721,1,0,0:0:0:0:
512,272,96864,1,0,0:0:0:0:
0,384,97007,1,0,0:0:0:0:
176,0,97150,1,0,0:0:0:0:
512,272,97292,5,0,0:0:0:0:
0,128,97435,1,0,0:0:0:0:
512,0,97578,1,0,0:0:0:0:
304,384,97721,1,0,0:0:0:0:
0,0,97864,1,0,0:0:0:0:
512,192,98007,1,0,0:0:0:0:
0,384,98150,1,0,0:0:0:0:
512,0,98292,1,0,0:0:0:0:
0,192,98435,5,0,0:0:0:0:
512,384,98578,1,0,0:0:0:0:
0,0,98721,1,0,0:0:0:0:
512,192,98864,1,0,0:0:0:0:
0,192,99007,1,0,0:0:0:0:
512,384,99150,1,0,0:0:0:0:
256,0,99292,1,0,0:0:0:0:
256,384,99435,1,0,0:0:0:0:
0,0,99578,5,0,0:0:0:0:
512,96,99721,1,0,0:0:0:0:
144,384,99864,1,0,0:0:0:0:
336,0,100007,1,0,0:0:0:0:
512,384,100150,1,0,0:0:0:0:
0,240,100292,1,0,0:0:0:0:
512,96,100435,1,0,0:0:0:0:
0,0,100578,1,0,0:0:0:0:
256,384,100721,5,0,0:0:0:0:
512,0,100864,1,0,0:0:0:0:
0,144,101007,1,0,0:0:0:0:
512,224,101150,1,0,0:0:0:0:
0,368,101292,1,0,0:0:0:0:
256,0,101435,1,0,0:0:0:0:
512,384,101578,1,0,0:0:0:0:
0,64,101721,1,0,0:0:0:0:
512,96,101864,5,0,0:0:0:0:
0,256,102007,1,0,0:0:0:0:
512,384,102150,1,0,0:0:0:0:
256,0,102292,1,0,0:0:0:0:
0,384,102435,1,0,0:0:0:0:
512,192,102578,1,0,0:0:0:0:
0,0,102721,1,0,0:0:0:0:
256,384,102864,1,0,0:0:0:0:
512,0,103007,5,0,0:0:0:0:
0,384,103150,1,0,0:0:0:0:
0,0,103435,5,0,0:0:0:0:
512,384,103578,1,0,0:0:0:0:
512,0,103864,5,0,0:0:0:0:
0,384,104007,1,0,0:0:0:0:
512,192,104292,5,0,0:0:0:0:
0,0,104435,1,0,0:0:0:0:
512,384,104721,5,0,0:0:0:0:
0,0,104864,1,0,0:0:0:0:
512,0,105007,1,0,0:0:0:0:
0,384,105150,1,0,0:0:0:0:
512,192,105292,5,0,0:0:0:0:
0,0,105435,1,0,0:0:0:0:
512,192,105721,5,0,0:0:0:0:
0,384,105864,1,0,0:0:0:0:
512,192,106150,5,0,0:0:0:0:
0,192,106292,1,0,0:0:0:0:
512,192,106578,5,0,0:0:0:0:
0,0,106721,1,0,0:0:0:0:
512,0,107007,5,0,0:0:0:0:
0,192,107150,1,0,0:0:0:0:
512,384,107292,1,0,0:0:0:0:
256,192,107578,12,0,114150,0:0:0:0:
