osu file format v14

[General]
AudioFilename: katharsis.mp3
AudioLeadIn: 0
PreviewTime: 131873
Countdown: 0
SampleSet: None
StackLeniency: 0.7
Mode: 0
LetterboxInBreaks: 0
WidescreenStoryboard: 1

[Editor]
DistanceSpacing: 0.8
BeatDivisor: 4
GridSize: 16
TimelineZoom: 1

[Metadata]
Title:Corner Jump Training
TitleUnicode:Corner Jump Training
Artist:Various Artists
ArtistUnicode:Various Artists
Creator:QuadroKiller
Version:Orange Heart & Neptune - Mousou Katharsis AR8
Source:
Tags:awolnation run cornerjump practice training ctb hyper dash hyperdash quadrokiller
BeatmapID:1167554
BeatmapSetID:478917

[Difficulty]
HPDrainRate:3
CircleSize:4
OverallDifficulty:5
ApproachRate:8
SliderMultiplier:2.00000000596046
SliderTickRate:1

[Events]
//Background and Video events
0,0,"49978296_p0.jpg",0,0
//Break Periods
//Storyboard Layer 0 (Background)
//Storyboard Layer 1 (Fail)
//Storyboard Layer 2 (Pass)
//Storyboard Layer 3 (Foreground)
//Storyboard Sound Samples

[TimingPoints]
246,731.707317073171,4,2,0,100,1,0
11953,-100,4,2,0,100,0,1
35367,-100,4,2,0,100,0,0

[HitObjects]
48,336,246,5,0,0:0:0:0:
256,48,611,1,0,0:0:0:0:
464,336,977,1,8,0:0:0:0:
48,48,1709,5,0,0:0:0:0:
256,336,2075,1,0,0:0:0:0:
464,48,2441,1,8,0:0:0:0:
48,336,2806,1,8,0:0:0:0:
464,336,3172,5,0,0:0:0:0:
256,48,3538,1,0,0:0:0:0:
256,336,3904,1,8,0:0:0:0:
48,48,4270,1,8,0:0:0:0:
464,48,4636,1,4,0:0:0:0:
256,192,5367,5,4,0:0:0:0:
32,352,6099,5,8,0:0:0:0:
480,32,6831,5,8,0:0:0:0:
32,32,7563,5,0,0:0:0:0:
480,96,7928,1,0,0:0:0:0:
32,160,8294,1,8,0:0:0:0:
480,256,8660,1,8,0:0:0:0:
0,320,9026,5,0,0:0:0:0:
512,368,9392,1,0,0:0:0:0:
0,176,9758,1,8,0:0:0:0:
512,96,10124,1,8,0:0:0:0:
0,16,10489,1,4,0:0:0:0:
512,384,11221,5,0,0:0:0:0:
256,0,11587,1,0,0:0:0:0:
0,384,11953,1,4,0:0:0:0:
0,192,12685,5,0,0:0:0:0:
512,192,13050,1,0,0:0:0:0:
0,272,13416,1,8,0:0:0:0:
512,112,13782,1,8,0:0:0:0:
0,352,14148,1,8,0:0:0:0:
512,32,14514,1,8,0:0:0:0:
80,384,14880,5,0,0:0:0:0:
432,0,15246,1,0,0:0:0:0:
160,384,15611,1,8,0:0:0:0:
352,0,15977,1,8,0:0:0:0:
256,384,16343,1,8,0:0:0:0:
512,112,17075,5,0,0:0:0:0:
0,192,17441,1,0,0:0:0:0:
512,272,17806,1,4,0:0:0:0:
256,0,18538,5,0,0:0:0:0:
256,384,18904,1,0,0:0:0:0:
256,384,19087,1,0,0:0:0:0:
256,384,19270,1,8,0:0:0:0:
0,0,19636,1,8,0:0:0:0:
512,384,20002,1,8,0:0:0:0:
512,0,20367,1,8,0:0:0:0:
0,384,20733,5,0,0:0:0:0:
256,0,21099,1,0,0:0:0:0:
512,384,21465,1,0,0:0:0:0:
0,0,21831,1,0,0:0:0:0:
256,384,22197,1,4,0:0:0:0:
512,0,22928,5,0,0:0:0:0:
0,192,23294,1,0,0:0:0:0:
512,384,23660,1,8,0:0:0:0:
432,48,24392,6,0,L|496:32,1,50.0000001490115
80,336,24758,2,0,L|16:352,1,50.0000001490115
496,272,25124,1,8,0:0:0:0:
0,192,25489,1,8,0:0:0:0:
512,0,25855,1,8,0:0:0:0:
0,384,26221,1,8,0:0:0:0:
512,192,26587,5,0,0:0:0:0:
0,0,26953,1,0,0:0:0:0:
512,384,27319,1,8,0:0:0:0:
0,272,27685,1,8,0:0:0:0:
512,96,28050,1,4,0:0:0:0:
96,384,28782,5,0,0:0:0:0:
352,0,29148,1,0,0:0:0:0:
464,352,29514,2,2,B|448:272|336:320|304:240,1,200.000000596046
96,0,30611,1,2,0:0:0:0:
0,384,30977,1,2,0:0:0:0:
352,0,31343,1,2,0:0:0:0:
512,384,31709,1,2,0:0:0:0:
0,96,32075,1,2,0:0:0:0:
512,96,32441,1,0,0:0:0:0:
256,384,32806,1,0,0:0:0:0:
256,0,33172,1,0,0:0:0:0:
0,384,33538,1,0,0:0:0:0:
256,192,33904,12,0,35367,0:0:0:0:
256,0,35733,5,0,0:0:0:0:
256,384,36099,1,8,0:0:0:0:
0,192,36831,5,0,0:0:0:0:
512,80,37197,1,0,0:0:0:0:
0,80,37563,1,8,0:0:0:0:
512,192,37928,1,8,0:0:0:0:
0,192,38294,5,0,0:0:0:0:
512,304,38660,1,0,0:0:0:0:
0,304,39026,1,8,0:0:0:0:
512,80,39392,1,8,0:0:0:0:
0,80,39758,1,4,0:0:0:0:
256,192,40489,5,4,0:0:0:0:
256,192,41221,5,4,0:0:0:0:
0,32,41953,5,0,0:0:0:0:
512,32,42319,1,8,0:0:0:0:
0,128,42685,1,8,0:0:0:0:
512,128,43050,1,8,0:0:0:0:
0,224,43416,1,0,0:0:0:0:
512,224,43782,1,0,0:0:0:0:
0,320,44148,1,8,0:0:0:0:
512,320,44514,1,8,0:0:0:0:
256,384,44880,1,8,0:0:0:0:
256,192,45611,5,12,0:0:0:0:
