osu file format v14

[General]
AudioFilename: BravelyYouTVSize.mp3
AudioLeadIn: 0
PreviewTime: 48574
Countdown: 0
SampleSet: Soft
StackLeniency: 0.7
Mode: 0
LetterboxInBreaks: 0
WidescreenStoryboard: 1

[Editor]
DistanceSpacing: 0.8
BeatDivisor: 4
GridSize: 16
TimelineZoom: 1

[Metadata]
Title:Corner Jump Training
TitleUnicode:Corner Jump Training
Artist:Various Artists
ArtistUnicode:Various Artists
Creator:QuadroKiller
Version:Lia - Bravely You (TV Size)
Source:
Tags:awolnation run cornerjump practice training ctb hyper dash hyperdash quadrokiller
BeatmapID:1282953
BeatmapSetID:478917

[Difficulty]
HPDrainRate:4
CircleSize:4
OverallDifficulty:8
ApproachRate:9
SliderMultiplier:2.00000000596046
SliderTickRate:1

[Events]
//Background and Video events
0,0,"charlotte_bg.jpg",0,0
//Break Periods
//Storyboard Layer 0 (Background)
//Storyboard Layer 1 (Fail)
//Storyboard Layer 2 (Pass)
//Storyboard Layer 3 (Foreground)
//Storyboard Sound Samples

[TimingPoints]
574,400,4,2,0,100,1,0
61374,-100,4,2,0,100,0,1
88374,-100,4,2,0,100,0,0

[HitObjects]
80,320,574,6,0,P|160:336|272:304,1,200.000000596046
480,208,1174,1,0,0:0:0:0:
352,32,1374,2,0,L|320:128,1,100.000000298023
80,352,1774,2,0,L|128:256,1,100.000000298023
208,48,2174,5,0,0:0:0:0:
448,304,2374,1,0,0:0:0:0:
448,304,2474,1,0,0:0:0:0:
448,304,2574,1,0,0:0:0:0:
48,144,2774,2,0,P|0:96|96:96,1,200.000000596046
368,352,3374,1,0,0:0:0:0:
256,32,3574,1,0,0:0:0:0:
64,272,3774,6,0,P|112:320|192:320,2,150.000000447035
480,96,4574,1,0,0:0:0:0:
32,192,4774,1,0,0:0:0:0:
480,288,4974,1,0,0:0:0:0:
256,192,5174,1,0,0:0:0:0:
256,192,5374,12,0,6774,0:0:0:0:
448,288,6974,6,0,B|416:288|400:256|400:256|368:320|368:320|336:288|272:256,1,200.000000596046
32,224,7574,1,0,0:0:0:0:
400,32,7774,2,0,P|432:96|432:128,1,100.000000298023
140,351,8174,2,0,P|104:302|102:253,1,100.000000298023
320,32,8574,5,0,0:0:0:0:
192,352,8774,1,0,0:0:0:0:
256,32,8974,1,0,0:0:0:0:
256,352,9174,1,0,0:0:0:0:
192,32,9374,1,0,0:0:0:0:
320,352,9574,1,0,0:0:0:0:
128,32,9774,1,0,0:0:0:0:
384,352,9974,1,0,0:0:0:0:
32,144,10174,6,0,P|96:192|112:192,1,100.000000298023
480,192,10574,1,0,0:0:0:0:
32,256,10774,2,0,P|80:208|112:192,1,100.000000298023
480,192,11174,1,0,0:0:0:0:
32,192,11374,1,0,0:0:0:0:
256,32,11574,1,0,0:0:0:0:
256,352,11774,1,0,0:0:0:0:
480,192,11974,1,0,0:0:0:0:
32,336,12174,6,0,L|80:304,1,50.0000001490115
480,64,12374,2,0,L|432:96,1,50.0000001490115
32,64,12574,1,0,0:0:0:0:
40,113,12674,1,0,0:0:0:0:
62,157,12774,1,0,0:0:0:0:
95,195,12874,1,0,0:0:0:0:
480,352,12974,2,0,L|416:320,1,50.0000001490115
144,224,13174,1,0,0:0:0:0:
400,32,13374,6,0,P|416:96|416:144,1,100.000000298023
256,352,13774,1,0,0:0:0:0:
112,32,13974,2,0,P|96:96|96:144,1,100.000000298023
256,352,14374,1,0,0:0:0:0:
256,32,14574,1,0,0:0:0:0:
352,176,14774,2,0,B|304:208|256:224|192:192|160:224,2,200.000000596046
480,32,15774,1,0,0:0:0:0:
32,352,15974,1,0,0:0:0:0:
480,192,16174,1,0,0:0:0:0:
32,192,16374,1,0,0:0:0:0:
384,352,16574,6,0,B|368:288|320:240|320:160,1,200.000000596046
480,32,17174,1,0,0:0:0:0:
32,352,17374,1,0,0:0:0:0:
480,256,17574,1,0,0:0:0:0:
32,128,17774,1,0,0:0:0:0:
480,32,17974,1,0,0:0:0:0:
112,32,18174,2,0,B|144:112|208:96|240:192,1,200.000000596046
256,224,18674,5,0,0:0:0:0:
283,265,18774,1,0,0:0:0:0:
318,301,18874,1,0,0:0:0:0:
480,160,18974,2,0,L|432:192,1,50.0000001490115
32,352,19174,2,0,L|96:320,1,50.0000001490115
480,352,19374,2,0,L|432:320,1,50.0000001490115
128,176,19574,1,0,0:0:0:0:
402,31,19774,6,0,B|368:91|323:131|296:160,1,150.000000447035
308,147,20174,1,0,0:0:0:0:
32,112,20374,1,0,0:0:0:0:
480,272,20574,1,0,0:0:0:0:
32,272,20774,1,0,0:0:0:0:
480,112,20974,1,0,0:0:0:0:
256,352,21174,1,0,0:0:0:0:
256,32,21374,1,0,0:0:0:0:
32,272,21574,1,0,0:0:0:0:
480,112,21774,1,0,0:0:0:0:
32,112,21974,1,0,0:0:0:0:
480,272,22174,1,0,0:0:0:0:
32,352,22374,1,0,0:0:0:0:
480,32,22574,1,0,0:0:0:0:
480,32,22674,1,0,0:0:0:0:
480,32,22774,1,0,0:0:0:0:
208,352,22974,6,0,P|272:320|307:291,1,100.000000298023
480,192,23374,1,0,0:0:0:0:
32,112,23574,1,0,0:0:0:0:
32,112,23674,1,0,0:0:0:0:
32,112,23774,1,0,0:0:0:0:
400,352,23974,1,0,0:0:0:0:
176,32,24174,1,0,0:0:0:0:
112,352,24374,1,0,0:0:0:0:
480,48,24574,6,0,P|448:128|416:160,1,100.000000298023
32,272,24974,1,0,0:0:0:0:
480,336,25174,1,0,0:0:0:0:
480,336,25274,1,0,0:0:0:0:
480,336,25374,1,0,0:0:0:0:
32,144,25574,1,0,0:0:0:0:
480,224,25774,1,0,0:0:0:0:
32,32,25974,1,0,0:0:0:0:
480,336,26174,6,0,P|416:304|352:288,1,100.000000298023
32,336,26574,1,0,0:0:0:0:
480,64,26774,1,0,0:0:0:0:
480,64,26874,1,0,0:0:0:0:
480,64,26974,1,0,0:0:0:0:
32,192,27174,1,0,0:0:0:0:
480,192,27374,1,0,0:0:0:0:
32,336,27574,1,0,0:0:0:0:
400,48,27774,6,0,P|416:30|416:75,2,100.000000298023
112,352,28374,1,0,0:0:0:0:
256,32,28574,1,0,0:0:0:0:
400,352,28774,1,0,0:0:0:0:
256,32,28974,1,0,0:0:0:0:
256,352,29174,1,0,0:0:0:0:
32,80,29374,6,0,P|80:128|112:144,1,100.000000298023
480,240,29774,1,0,0:0:0:0:
32,240,29974,1,0,0:0:0:0:
480,144,30174,1,0,0:0:0:0:
32,336,30374,1,0,0:0:0:0:
480,336,30574,1,0,0:0:0:0:
32,144,30774,1,0,0:0:0:0:
480,80,30974,6,0,P|432:128|384:144,1,100.000000298023
32,48,31374,1,0,0:0:0:0:
480,336,31574,1,0,0:0:0:0:
32,128,31774,1,0,0:0:0:0:
480,256,31974,1,0,0:0:0:0:
32,208,32174,1,0,0:0:0:0:
480,176,32374,1,0,0:0:0:0:
32,288,32574,6,0,P|96:272|144:240,1,100.000000298023
480,32,32974,1,0,0:0:0:0:
256,352,33174,1,0,0:0:0:0:
32,32,33374,1,0,0:0:0:0:
480,352,33574,1,0,0:0:0:0:
256,32,33774,1,0,0:0:0:0:
32,352,33974,1,0,0:0:0:0:
480,32,34174,5,0,0:0:0:0:
256,352,34374,1,0,0:0:0:0:
32,32,34574,1,0,0:0:0:0:
480,352,34774,1,0,0:0:0:0:
256,32,34974,1,0,0:0:0:0:
32,352,35174,1,0,0:0:0:0:
464,48,35374,1,0,0:0:0:0:
464,48,35474,1,0,0:0:0:0:
464,48,35574,1,0,0:0:0:0:
256,352,35774,6,0,L|256:240,1,100.000000298023
256,32,36174,1,0,0:0:0:0:
32,352,36374,1,0,0:0:0:0:
480,192,36574,1,0,0:0:0:0:
32,32,36774,1,0,0:0:0:0:
480,192,36974,1,0,0:0:0:0:
32,272,37174,1,0,0:0:0:0:
480,192,37374,5,0,0:0:0:0:
32,112,37574,1,0,0:0:0:0:
480,192,37774,1,0,0:0:0:0:
32,272,37974,1,0,0:0:0:0:
480,192,38174,1,0,0:0:0:0:
32,112,38374,1,0,0:0:0:0:
480,192,38574,1,0,0:0:0:0:
32,272,38774,1,0,0:0:0:0:
256,32,38974,6,0,L|256:144,1,100.000000298023
256,352,39374,1,0,0:0:0:0:
144,32,39574,1,0,0:0:0:0:
256,352,39774,1,0,0:0:0:0:
368,32,39974,1,0,0:0:0:0:
256,352,40174,1,0,0:0:0:0:
144,32,40374,1,0,0:0:0:0:
288,176,40574,6,0,B|240:224|240:224|176:176,2,100.000000298023
480,32,41174,1,0,0:0:0:0:
32,352,41374,1,0,0:0:0:0:
480,192,41574,1,0,0:0:0:0:
32,192,41774,1,0,0:0:0:0:
480,32,41974,1,0,0:0:0:0:
32,32,42174,6,0,P|112:64|144:80,1,100.000000298023
480,352,42574,1,0,0:0:0:0:
400,32,42774,1,0,0:0:0:0:
256,352,42974,1,0,0:0:0:0:
112,32,43174,1,0,0:0:0:0:
32,352,43374,1,0,0:0:0:0:
256,32,43574,1,0,0:0:0:0:
480,352,43774,6,0,P|432:336|384:304,1,100.000000298023
32,96,44174,1,0,0:0:0:0:
480,160,44374,1,0,0:0:0:0:
32,176,44574,1,0,0:0:0:0:
480,240,44774,1,0,0:0:0:0:
32,256,44974,1,0,0:0:0:0:
480,320,45174,1,0,0:0:0:0:
32,352,45374,6,0,P|96:336|128:320,1,100.000000298023
480,32,45774,1,0,0:0:0:0:
32,192,45974,1,0,0:0:0:0:
480,352,46174,1,0,0:0:0:0:
256,32,46374,1,0,0:0:0:0:
32,352,46574,1,0,0:0:0:0:
480,192,46774,1,0,0:0:0:0:
64,48,46974,6,0,P|128:96|176:96,1,100.000000298023
432,336,47374,2,0,P|368:288|320:288,1,100.000000298023
48,96,47774,2,0,L|160:96,1,100.000000298023
448,288,48174,2,0,L|336:288,1,100.000000298023
0,192,48574,5,0,0:0:0:0:
512,0,48774,1,0,0:0:0:0:
0,384,48974,1,0,0:0:0:0:
512,192,49174,1,0,0:0:0:0:
0,0,49374,1,0,0:0:0:0:
512,384,49574,1,0,0:0:0:0:
256,0,49774,1,0,0:0:0:0:
0,384,49974,1,0,0:0:0:0:
512,192,50174,5,0,0:0:0:0:
0,192,50374,1,0,0:0:0:0:
512,64,50574,1,0,0:0:0:0:
0,320,50774,1,0,0:0:0:0:
512,320,50974,1,0,0:0:0:0:
0,64,51174,1,0,0:0:0:0:
256,384,51374,1,0,0:0:0:0:
256,0,51574,1,0,0:0:0:0:
0,384,51774,5,0,0:0:0:0:
512,0,51974,1,0,0:0:0:0:
0,192,52174,1,0,0:0:0:0:
512,384,52374,1,0,0:0:0:0:
0,0,52574,1,0,0:0:0:0:
512,192,52774,1,0,0:0:0:0:
0,192,52974,1,0,0:0:0:0:
512,384,53174,1,0,0:0:0:0:
80,0,53374,5,0,0:0:0:0:
256,384,53574,1,0,0:0:0:0:
256,0,53774,1,0,0:0:0:0:
432,384,53974,1,0,0:0:0:0:
432,0,54174,1,0,0:0:0:0:
256,384,54374,1,0,0:0:0:0:
256,0,54574,1,0,0:0:0:0:
80,384,54774,1,0,0:0:0:0:
512,192,54974,5,0,0:0:0:0:
0,192,55174,1,0,0:0:0:0:
512,0,55374,1,0,0:0:0:0:
0,384,55574,1,0,0:0:0:0:
512,192,55774,1,0,0:0:0:0:
0,0,55974,1,0,0:0:0:0:
512,384,56174,1,0,0:0:0:0:
0,192,56374,1,0,0:0:0:0:
512,192,56574,5,0,0:0:0:0:
0,0,56774,1,0,0:0:0:0:
256,384,56974,1,0,0:0:0:0:
256,0,57174,1,0,0:0:0:0:
512,384,57374,1,0,0:0:0:0:
0,192,57574,1,0,0:0:0:0:
512,0,57774,1,0,0:0:0:0:
0,384,57974,1,0,0:0:0:0:
512,192,58174,5,0,0:0:0:0:
0,0,58374,1,0,0:0:0:0:
512,384,58574,1,0,0:0:0:0:
0,192,58774,1,0,0:0:0:0:
512,0,58974,1,0,0:0:0:0:
0,384,59174,1,0,0:0:0:0:
512,192,59374,1,0,0:0:0:0:
0,0,59574,1,0,0:0:0:0:
512,384,59774,5,0,0:0:0:0:
512,384,59974,1,0,0:0:0:0:
0,0,60174,1,0,0:0:0:0:
0,0,60374,1,0,0:0:0:0:
448,336,60574,1,0,0:0:0:0:
448,336,60774,1,0,0:0:0:0:
64,48,60974,1,0,0:0:0:0:
103,79,61074,1,0,0:0:0:0:
142,110,61174,1,0,0:0:0:0:
181,141,61274,1,0,0:0:0:0:
220,172,61374,5,0,0:0:0:0:
480,352,61574,1,0,0:0:0:0:
32,192,61774,1,0,0:0:0:0:
480,32,61974,1,0,0:0:0:0:
32,352,62174,2,0,P|112:320|160:288,1,100.000000298023
480,160,62574,1,0,0:0:0:0:
32,32,62774,5,0,0:0:0:0:
256,352,62974,1,0,0:0:0:0:
256,32,63174,1,0,0:0:0:0:
480,352,63374,1,0,0:0:0:0:
32,192,63574,1,0,0:0:0:0:
480,192,63774,1,0,0:0:0:0:
32,32,63974,1,0,0:0:0:0:
256,352,64174,1,0,0:0:0:0:
480,32,64374,6,0,P|432:80|400:96,1,100.000000298023
32,192,64774,1,0,0:0:0:0:
480,352,64974,1,0,0:0:0:0:
32,352,65174,1,0,0:0:0:0:
480,192,65374,1,0,0:0:0:0:
32,32,65574,1,0,0:0:0:0:
256,352,65774,1,0,0:0:0:0:
256,32,65974,5,0,0:0:0:0:
480,352,66174,1,0,0:0:0:0:
16,192,66374,1,0,0:0:0:0:
480,192,66574,1,0,0:0:0:0:
32,32,66774,1,0,0:0:0:0:
480,32,66974,1,0,0:0:0:0:
32,352,67174,1,0,0:0:0:0:
480,352,67374,1,0,0:0:0:0:
32,32,67574,1,0,0:0:0:0:
256,352,67774,6,0,L|256:240,1,100.000000298023
256,32,68174,1,0,0:0:0:0:
32,192,68374,1,0,0:0:0:0:
256,32,68574,1,0,0:0:0:0:
480,192,68774,1,0,0:0:0:0:
256,32,68974,1,0,0:0:0:0:
32,192,69174,1,0,0:0:0:0:
256,32,69374,6,0,L|256:144,1,100.000000298023
256,352,69774,1,0,0:0:0:0:
32,192,69974,1,0,0:0:0:0:
256,352,70174,1,0,0:0:0:0:
480,192,70374,1,0,0:0:0:0:
256,352,70574,1,0,0:0:0:0:
32,192,70774,1,0,0:0:0:0:
480,32,70974,6,0,L|400:96,1,100.000000298023
32,352,71374,1,0,0:0:0:0:
480,192,71574,1,0,0:0:0:0:
32,192,71774,1,0,0:0:0:0:
480,32,71974,1,0,0:0:0:0:
32,32,72174,1,0,0:0:0:0:
480,352,72374,1,0,0:0:0:0:
32,192,72574,6,0,L|144:192,1,100.000000298023
480,192,72974,1,0,0:0:0:0:
256,32,73174,1,0,0:0:0:0:
256,352,73374,1,0,0:0:0:0:
32,192,73574,1,0,0:0:0:0:
480,32,73774,1,0,0:0:0:0:
431,42,73874,1,0,0:0:0:0:
385,62,73974,1,0,0:0:0:0:
343,89,74074,1,0,0:0:0:0:
307,124,74174,5,0,0:0:0:0:
112,352,74374,1,0,0:0:0:0:
480,144,74574,1,0,0:0:0:0:
32,144,74774,1,0,0:0:0:0:
400,352,74974,1,0,0:0:0:0:
256,32,75174,1,0,0:0:0:0:
112,352,75374,1,0,0:0:0:0:
480,144,75574,5,0,0:0:0:0:
32,144,75774,1,0,0:0:0:0:
400,352,75974,1,0,0:0:0:0:
256,32,76174,1,0,0:0:0:0:
112,352,76374,1,0,0:0:0:0:
480,32,76574,2,0,P|448:96|416:112,1,100.000000298023
32,352,76974,2,0,P|64:288|112:256,1,100.000000298023
480,224,77374,5,0,0:0:0:0:
32,160,77574,1,0,0:0:0:0:
480,64,77774,1,0,0:0:0:0:
32,304,77974,1,0,0:0:0:0:
480,352,78174,1,0,0:0:0:0:
32,32,78374,1,0,0:0:0:0:
384,352,78574,1,0,0:0:0:0:
128,32,78774,5,0,0:0:0:0:
288,352,78974,1,0,0:0:0:0:
224,32,79174,1,0,0:0:0:0:
192,352,79374,1,0,0:0:0:0:
320,32,79574,1,0,0:0:0:0:
96,352,79774,1,0,0:0:0:0:
416,32,79974,1,0,0:0:0:0:
32,304,80174,1,0,0:0:0:0:
480,80,80374,1,0,0:0:0:0:
32,192,80574,6,0,P|96:192|224:256,1,200.000000596046
480,32,81174,1,0,0:0:0:0:
32,352,81374,1,0,0:0:0:0:
480,192,81574,1,0,0:0:0:0:
32,192,81774,1,0,0:0:0:0:
480,32,81974,1,0,0:0:0:0:
32,192,82174,6,0,P|176:144|240:96,1,200.000000596046
480,32,82774,1,0,0:0:0:0:
32,192,82974,1,0,0:0:0:0:
480,192,83174,1,0,0:0:0:0:
32,192,83374,1,0,0:0:0:0:
480,352,83574,1,0,0:0:0:0:
256,32,83774,6,0,B|288:112|288:112|240:128|240:128|272:208,1,200.000000596046
320,352,84374,1,0,0:0:0:0:
192,32,84574,1,0,0:0:0:0:
416,352,84774,1,0,0:0:0:0:
96,32,84974,1,0,0:0:0:0:
480,304,85174,1,0,0:0:0:0:
32,96,85374,6,0,P|80:128|144:144,1,100.000000298023
480,80,85774,1,0,0:0:0:0:
32,304,85974,1,0,0:0:0:0:
480,192,86174,1,0,0:0:0:0:
32,192,86374,1,0,0:0:0:0:
256,192,86574,1,0,0:0:0:0:
256,192,86674,1,0,0:0:0:0:
256,192,86774,1,0,0:0:0:0:
0,384,86974,5,0,0:0:0:0:
512,384,87174,1,0,0:0:0:0:
0,0,87374,1,0,0:0:0:0:
512,0,87574,1,0,0:0:0:0:
0,384,87774,1,0,0:0:0:0:
512,384,87974,1,0,0:0:0:0:
0,0,88174,1,0,0:0:0:0:
512,0,88374,1,0,0:0:0:0:
