osu file format v14

[General]
AudioFilename: Asayake.mp3
AudioLeadIn: 0
PreviewTime: 44831
Countdown: 0
SampleSet: None
StackLeniency: 0.7
Mode: 0
LetterboxInBreaks: 0
WidescreenStoryboard: 1

[Editor]
DistanceSpacing: 0.8
BeatDivisor: 4
GridSize: 16
TimelineZoom: 1

[Metadata]
Title:Corner Jump Training
TitleUnicode:Corner Jump Training
Artist:Various Artists
ArtistUnicode:Various Artists
Creator:QuadroKiller
Version:Imai Asami - Asayake no Starmine (TV Size) AR9.5
Source:
Tags:awolnation run cornerjump practice training ctb hyper dash hyperdash quadrokiller
BeatmapID:1371794
BeatmapSetID:478917

[Difficulty]
HPDrainRate:4
CircleSize:4
OverallDifficulty:7.5
ApproachRate:9.5
SliderMultiplier:1.80000000596046
SliderTickRate:1

[Events]
//Background and Video events
0,0,"gfdg.jpg",0,0
//Break Periods
//Storyboard Layer 0 (Background)
//Storyboard Layer 1 (Fail)
//Storyboard Layer 2 (Pass)
//Storyboard Layer 3 (Foreground)
//Storyboard Sound Samples

[TimingPoints]
-630,461.538461538462,4,1,0,40,1,0
8600,-100,4,1,0,40,0,1
15985,-100,4,1,0,40,0,0
45523,-100,4,1,0,40,0,1
58446,-100,4,1,0,40,0,0
60293,-100,4,1,0,40,0,1
82446,-100,4,1,0,40,0,0

[HitObjects]
112,96,639,5,0,0:0:0:0:
112,96,754,1,0,0:0:0:0:
112,96,870,1,0,0:0:0:0:
448,64,1216,6,0,L|352:80,1,90.000000298023
64,176,1677,2,0,L|176:192,1,90.000000298023
464,240,2139,1,0,0:0:0:0:
48,288,2370,1,0,0:0:0:0:
464,96,2600,1,0,0:0:0:0:
48,144,2831,1,0,0:0:0:0:
448,336,3062,6,0,L|448:224,1,90.000000298023
64,48,3523,2,0,L|64:160,1,90.000000298023
464,48,3985,1,0,0:0:0:0:
64,144,4216,1,0,0:0:0:0:
464,192,4446,1,0,0:0:0:0:
64,288,4677,1,0,0:0:0:0:
464,336,4908,6,0,L|352:336,1,90.000000298023
48,48,5370,2,0,L|160:48,1,90.000000298023
464,336,5831,1,0,0:0:0:0:
48,256,6062,1,0,0:0:0:0:
464,160,6293,1,0,0:0:0:0:
48,48,6523,1,0,0:0:0:0:
416,304,6754,5,0,0:0:0:0:
96,144,6985,1,0,0:0:0:0:
448,192,7216,1,0,0:0:0:0:
48,256,7446,1,0,0:0:0:0:
320,64,7677,1,0,0:0:0:0:
320,64,7793,2,0,P|352:144|336:208,1,135.000000447034
318,214,8254,1,0,0:0:0:0:
286,232,8370,1,0,0:0:0:0:
250,237,8485,1,0,0:0:0:0:
214,233,8600,5,0,0:0:0:0:
32,80,8831,1,0,0:0:0:0:
480,144,9062,1,0,0:0:0:0:
32,208,9293,1,0,0:0:0:0:
480,288,9523,1,0,0:0:0:0:
32,352,9754,1,0,0:0:0:0:
448,96,9985,1,0,0:0:0:0:
128,368,10216,1,0,0:0:0:0:
352,32,10446,5,0,0:0:0:0:
224,352,10677,1,0,0:0:0:0:
272,0,10908,1,0,0:0:0:0:
320,320,11139,1,0,0:0:0:0:
160,16,11370,1,0,0:0:0:0:
448,112,11600,1,0,0:0:0:0:
64,64,11831,1,0,0:0:0:0:
480,208,12062,1,0,0:0:0:0:
32,176,12293,5,0,0:0:0:0:
480,96,12523,1,0,0:0:0:0:
32,256,12754,1,0,0:0:0:0:
480,304,12985,1,0,0:0:0:0:
32,112,13216,1,0,0:0:0:0:
480,192,13446,1,0,0:0:0:0:
32,336,13677,1,0,0:0:0:0:
239,216,13908,1,0,0:0:0:0:
255,184,14023,1,0,0:0:0:0:
271,151,14139,5,0,0:0:0:0:
512,0,14370,1,0,0:0:0:0:
0,112,14600,1,0,0:0:0:0:
512,192,14831,1,0,0:0:0:0:
512,192,14946,1,0,0:0:0:0:
512,192,15062,1,0,0:0:0:0:
256,320,15293,1,0,0:0:0:0:
221,311,15408,1,0,0:0:0:0:
198,282,15523,1,0,0:0:0:0:
195,245,15639,1,0,0:0:0:0:
179,212,15754,1,0,0:0:0:0:
153,186,15870,1,0,0:0:0:0:
117,187,15985,5,0,0:0:0:0:
464,96,16216,1,0,0:0:0:0:
48,128,16446,1,0,0:0:0:0:
464,176,16677,1,0,0:0:0:0:
48,208,16908,1,0,0:0:0:0:
464,256,17139,1,0,0:0:0:0:
48,288,17370,1,0,0:0:0:0:
464,336,17600,1,0,0:0:0:0:
48,368,17831,5,0,0:0:0:0:
96,32,18062,1,0,0:0:0:0:
128,368,18292,1,0,0:0:0:0:
176,32,18523,1,0,0:0:0:0:
208,368,18754,1,0,0:0:0:0:
256,32,18985,1,0,0:0:0:0:
288,368,19215,1,0,0:0:0:0:
336,32,19446,1,0,0:0:0:0:
384,352,19677,5,0,0:0:0:0:
272,80,19908,1,0,0:0:0:0:
464,320,20139,1,0,0:0:0:0:
256,160,20370,1,0,0:0:0:0:
496,256,20600,1,0,0:0:0:0:
224,240,20831,1,0,0:0:0:0:
496,160,21062,1,0,0:0:0:0:
208,320,21293,1,0,0:0:0:0:
480,80,21523,5,0,0:0:0:0:
256,384,21754,1,0,0:0:0:0:
400,16,21985,1,0,0:0:0:0:
368,384,22216,1,0,0:0:0:0:
304,32,22446,1,0,0:0:0:0:
416,320,22677,1,0,0:0:0:0:
224,96,22908,1,0,0:0:0:0:
128,352,23139,1,0,0:0:0:0:
480,144,23370,5,0,0:0:0:0:
64,256,23600,1,0,0:0:0:0:
464,272,23831,1,0,0:0:0:0:
48,160,24062,1,0,0:0:0:0:
432,352,24293,1,0,0:0:0:0:
112,80,24523,1,0,0:0:0:0:
256,352,24754,1,0,0:0:0:0:
256,32,24985,1,0,0:0:0:0:
176,336,25216,5,0,0:0:0:0:
336,80,25446,1,0,0:0:0:0:
112,272,25677,1,0,0:0:0:0:
384,160,25908,1,0,0:0:0:0:
80,192,26139,1,0,0:0:0:0:
432,240,26370,1,0,0:0:0:0:
48,112,26600,1,0,0:0:0:0:
464,320,26831,1,0,0:0:0:0:
96,32,27062,5,0,0:0:0:0:
384,352,27293,1,0,0:0:0:0:
192,0,27523,1,0,0:0:0:0:
304,368,27754,1,0,0:0:0:0:
288,0,27985,1,0,0:0:0:0:
208,384,28216,1,0,0:0:0:0:
384,0,28446,1,0,0:0:0:0:
96,384,28677,1,0,0:0:0:0:
464,0,28908,5,0,0:0:0:0:
0,352,29139,1,0,0:0:0:0:
512,64,29370,1,0,0:0:0:0:
0,272,29600,1,0,0:0:0:0:
208,320,29831,1,0,0:0:0:0:
243,323,29946,1,0,0:0:0:0:
278,315,30062,1,0,0:0:0:0:
306,292,30177,1,0,0:0:0:0:
312,256,30293,1,0,0:0:0:0:
334,228,30408,1,0,0:0:0:0:
366,213,30523,1,0,0:0:0:0:
402,209,30639,1,0,0:0:0:0:
433,191,30754,5,0,0:0:0:0:
480,32,30985,1,0,0:0:0:0:
32,80,31216,1,0,0:0:0:0:
480,112,31446,1,0,0:0:0:0:
32,160,31677,1,0,0:0:0:0:
480,192,31908,1,0,0:0:0:0:
32,240,32139,1,0,0:0:0:0:
480,272,32370,1,0,0:0:0:0:
32,320,32600,5,0,0:0:0:0:
480,352,32831,1,0,0:0:0:0:
112,368,33062,1,0,0:0:0:0:
464,48,33293,1,0,0:0:0:0:
208,352,33523,1,0,0:0:0:0:
384,16,33754,1,0,0:0:0:0:
304,320,33985,1,0,0:0:0:0:
288,32,34216,1,0,0:0:0:0:
368,272,34446,5,0,0:0:0:0:
208,96,34677,1,0,0:0:0:0:
464,128,34908,1,0,0:0:0:0:
96,240,35139,1,0,0:0:0:0:
480,272,35370,1,0,0:0:0:0:
32,144,35600,1,0,0:0:0:0:
480,96,35831,1,0,0:0:0:0:
32,272,36062,1,0,0:0:0:0:
480,192,36293,5,0,0:0:0:0:
32,80,36523,1,0,0:0:0:0:
480,288,36754,1,0,0:0:0:0:
32,176,36985,1,0,0:0:0:0:
480,96,37216,1,0,0:0:0:0:
32,272,37446,1,0,0:0:0:0:
480,192,37677,1,0,0:0:0:0:
32,192,37908,1,0,0:0:0:0:
480,288,38139,5,0,0:0:0:0:
32,320,38370,1,0,0:0:0:0:
480,368,38600,1,0,0:0:0:0:
32,160,38830,1,0,0:0:0:0:
480,160,39061,1,0,0:0:0:0:
32,240,39292,1,0,0:0:0:0:
480,256,39523,1,0,0:0:0:0:
32,336,39754,1,0,0:0:0:0:
480,368,39985,5,0,0:0:0:0:
32,208,40215,1,0,0:0:0:0:
480,128,40446,1,0,0:0:0:0:
32,32,40677,1,0,0:0:0:0:
480,224,40907,1,0,0:0:0:0:
32,304,41138,1,0,0:0:0:0:
480,304,41369,1,0,0:0:0:0:
32,176,41600,1,0,0:0:0:0:
512,0,41831,5,0,0:0:0:0:
0,32,42061,1,0,0:0:0:0:
512,160,42292,1,0,0:0:0:0:
0,272,42523,1,0,0:0:0:0:
512,384,42754,1,0,0:0:0:0:
0,160,42985,1,0,0:0:0:0:
512,0,43216,1,0,0:0:0:0:
0,384,43446,1,0,0:0:0:0:
448,64,43908,5,0,0:0:0:0:
448,96,44023,1,0,0:0:0:0:
448,128,44139,1,0,0:0:0:0:
320,64,44370,1,0,0:0:0:0:
320,112,44485,1,0,0:0:0:0:
320,160,44600,1,0,0:0:0:0:
192,64,44831,1,0,0:0:0:0:
192,128,44946,1,0,0:0:0:0:
192,192,45062,1,0,0:0:0:0:
64,64,45293,1,0,0:0:0:0:
64,144,45408,1,0,0:0:0:0:
64,224,45523,5,0,0:0:0:0:
480,352,45754,1,0,0:0:0:0:
32,304,45985,1,0,0:0:0:0:
480,256,46216,1,0,0:0:0:0:
32,208,46446,1,0,0:0:0:0:
480,144,46677,1,0,0:0:0:0:
32,96,46908,1,0,0:0:0:0:
480,32,47139,1,0,0:0:0:0:
32,192,47370,5,0,0:0:0:0:
384,16,47600,1,0,0:0:0:0:
80,288,47831,1,0,0:0:0:0:
288,0,48062,1,0,0:0:0:0:
160,336,48293,1,0,0:0:0:0:
192,0,48523,1,0,0:0:0:0:
240,352,48754,1,0,0:0:0:0:
96,0,48985,1,0,0:0:0:0:
320,304,49216,5,0,0:0:0:0:
32,48,49446,1,0,0:0:0:0:
384,224,49677,1,0,0:0:0:0:
0,128,49908,1,0,0:0:0:0:
400,128,50139,1,0,0:0:0:0:
0,224,50370,1,0,0:0:0:0:
336,48,50600,1,0,0:0:0:0:
48,384,50831,1,0,0:0:0:0:
0,0,51062,5,0,0:0:0:0:
416,160,51293,1,0,0:0:0:0:
16,160,51523,1,0,0:0:0:0:
400,256,51754,1,0,0:0:0:0:
32,256,51985,1,0,0:0:0:0:
368,336,52216,1,0,0:0:0:0:
48,352,52446,1,0,0:0:0:0:
464,256,52677,6,0,L|352:224,1,90.000000298023
32,32,53139,1,0,0:0:0:0:
480,160,53370,1,0,0:0:0:0:
480,288,53600,6,0,L|368:256,1,90.000000298023
16,16,54062,1,0,0:0:0:0:
496,176,54293,1,0,0:0:0:0:
512,336,54523,6,0,L|400:304,1,90.000000298023
0,0,54985,1,0,0:0:0:0:
512,192,55216,1,0,0:0:0:0:
0,96,55446,1,0,0:0:0:0:
512,0,55677,1,0,0:0:0:0:
0,224,55908,1,0,0:0:0:0:
512,128,56139,1,0,0:0:0:0:
0,352,56370,1,0,0:0:0:0:
512,256,56600,5,0,0:0:0:0:
0,128,56831,1,0,0:0:0:0:
512,0,57062,1,0,0:0:0:0:
256,384,57293,1,0,0:0:0:0:
0,0,57523,1,0,0:0:0:0:
512,176,57754,1,0,0:0:0:0:
0,224,57985,1,0,0:0:0:0:
512,384,58216,1,0,0:0:0:0:
0,80,58446,5,0,0:0:0:0:
432,320,58677,1,0,0:0:0:0:
432,272,58793,1,0,0:0:0:0:
432,224,58908,1,0,0:0:0:0:
304,320,59139,1,0,0:0:0:0:
300,275,59254,1,0,0:0:0:0:
289,231,59369,1,0,0:0:0:0:
271,190,59485,1,0,0:0:0:0:
246,152,59600,1,0,0:0:0:0:
216,119,59715,1,0,0:0:0:0:
180,91,59831,1,0,0:0:0:0:
141,70,59946,1,0,0:0:0:0:
99,55,60062,1,0,0:0:0:0:
54,47,60177,1,0,0:0:0:0:
9,47,60292,5,0,0:0:0:0:
496,96,60523,1,0,0:0:0:0:
16,192,60754,1,0,0:0:0:0:
496,288,60985,1,0,0:0:0:0:
16,384,61216,1,0,0:0:0:0:
496,192,61446,1,0,0:0:0:0:
16,256,61677,1,0,0:0:0:0:
496,64,61908,1,0,0:0:0:0:
16,112,62139,5,0,0:0:0:0:
496,192,62370,1,0,0:0:0:0:
16,256,62600,1,0,0:0:0:0:
496,352,62831,1,0,0:0:0:0:
16,384,63062,1,0,0:0:0:0:
112,32,63293,1,0,0:0:0:0:
176,336,63523,1,0,0:0:0:0:
48,112,63754,1,0,0:0:0:0:
288,240,63985,5,0,0:0:0:0:
16,224,64216,1,0,0:0:0:0:
368,112,64446,1,0,0:0:0:0:
32,352,64677,1,0,0:0:0:0:
304,16,64908,1,0,0:0:0:0:
0,256,65139,1,0,0:0:0:0:
448,80,65370,1,0,0:0:0:0:
0,160,65600,1,0,0:0:0:0:
496,192,65831,5,0,0:0:0:0:
32,48,66062,1,0,0:0:0:0:
480,304,66293,1,0,0:0:0:0:
144,16,66523,1,0,0:0:0:0:
80,384,66754,1,0,0:0:0:0:
400,0,66985,1,0,0:0:0:0:
0,176,67216,1,0,0:0:0:0:
384,384,67446,1,0,0:0:0:0:
176,0,67677,5,0,0:0:0:0:
96,384,67908,1,0,0:0:0:0:
512,176,68139,1,0,0:0:0:0:
0,96,68370,1,0,0:0:0:0:
272,384,68600,1,0,0:0:0:0:
400,0,68831,1,0,0:0:0:0:
0,272,69062,1,0,0:0:0:0:
512,384,69293,1,0,0:0:0:0:
0,16,69523,5,0,0:0:0:0:
512,96,69754,1,0,0:0:0:0:
0,112,69985,1,0,0:0:0:0:
512,192,70216,1,0,0:0:0:0:
0,208,70446,1,0,0:0:0:0:
512,288,70677,1,0,0:0:0:0:
0,304,70908,1,0,0:0:0:0:
512,384,71139,1,0,0:0:0:0:
0,144,71370,5,0,0:0:0:0:
432,0,71600,1,0,0:0:0:0:
304,384,71831,1,0,0:0:0:0:
80,0,72062,1,0,0:0:0:0:
512,160,72293,1,0,0:0:0:0:
512,160,72408,1,0,0:0:0:0:
512,160,72523,1,0,0:0:0:0:
0,256,72754,1,0,0:0:0:0:
512,352,72985,1,0,0:0:0:0:
272,0,73216,5,0,0:0:0:0:
80,384,73446,1,0,0:0:0:0:
512,128,73677,1,0,0:0:0:0:
0,96,73908,1,0,0:0:0:0:
192,352,74139,1,0,0:0:0:0:
226,342,74254,1,0,0:0:0:0:
250,315,74370,1,0,0:0:0:0:
251,279,74485,1,0,0:0:0:0:
237,245,74600,1,0,0:0:0:0:
233,208,74716,1,0,0:0:0:0:
245,174,74831,1,0,0:0:0:0:
269,147,74946,1,0,0:0:0:0:
302,134,75062,5,0,0:0:0:0:
480,96,75293,1,0,0:0:0:0:
32,128,75523,1,0,0:0:0:0:
480,176,75754,1,0,0:0:0:0:
32,208,75985,1,0,0:0:0:0:
480,256,76216,1,0,0:0:0:0:
32,288,76446,1,0,0:0:0:0:
480,336,76677,1,0,0:0:0:0:
32,368,76908,5,0,0:0:0:0:
480,208,77139,1,0,0:0:0:0:
32,208,77370,1,0,0:0:0:0:
480,64,77600,1,0,0:0:0:0:
32,64,77831,1,0,0:0:0:0:
480,384,78062,1,0,0:0:0:0:
32,208,78293,1,0,0:0:0:0:
480,208,78523,1,0,0:0:0:0:
32,80,78754,5,0,0:0:0:0:
480,80,78985,1,0,0:0:0:0:
64,224,79216,1,0,0:0:0:0:
416,0,79446,1,0,0:0:0:0:
128,320,79677,1,0,0:0:0:0:
304,0,79908,1,0,0:0:0:0:
256,352,80139,1,0,0:0:0:0:
192,0,80370,1,0,0:0:0:0:
192,0,80485,1,0,0:0:0:0:
192,0,80600,5,0,0:0:0:0:
512,240,80831,1,0,0:0:0:0:
80,384,81062,1,0,0:0:0:0:
464,0,81293,1,0,0:0:0:0:
0,96,81523,1,0,0:0:0:0:
512,368,81754,1,0,0:0:0:0:
0,288,81985,1,0,0:0:0:0:
512,128,82216,1,0,0:0:0:0:
64,32,82446,5,0,0:0:0:0:
448,48,82908,1,0,0:0:0:0:
64,128,83370,1,0,0:0:0:0:
448,144,83831,1,0,0:0:0:0:
64,352,84293,5,0,0:0:0:0:
448,336,84754,1,0,0:0:0:0:
64,256,85216,1,0,0:0:0:0:
448,240,85677,1,0,0:0:0:0:
144,352,86139,5,0,0:0:0:0:
448,144,86600,1,0,0:0:0:0:
64,144,87062,1,0,0:0:0:0:
368,352,87523,1,0,0:0:0:0:
256,16,87985,1,0,0:0:0:0:
