osu file format v14

[General]
AudioFilename: test.mp3
AudioLeadIn: 0
PreviewTime: 13399
Countdown: 0
SampleSet: None
StackLeniency: 0.7
Mode: 0
LetterboxInBreaks: 0
WidescreenStoryboard: 1

[Editor]
DistanceSpacing: 0.8
BeatDivisor: 4
GridSize: 16
TimelineZoom: 1.6

[Metadata]
Title:Corner Jump Training
TitleUnicode:Corner Jump Training
Artist:Various Artists
ArtistUnicode:Various Artists
Creator:QuadroKiller
Version:Hatsune Miku - Kouon Chu Oniki Test AR9.5
Source:
Tags:awolnation run cornerjump practice training ctb hyper dash hyperdash quadrokiller
BeatmapID:1371183
BeatmapSetID:478917

[Difficulty]
HPDrainRate:4
CircleSize:4
OverallDifficulty:8
ApproachRate:9.5
SliderMultiplier:2.00000000596046
SliderTickRate:1

[Events]
//Background and Video events
0,0,"fdf.jpg",0,0
//Break Periods
//Storyboard Layer 0 (Background)
//Storyboard Layer 1 (Fail)
//Storyboard Layer 2 (Pass)
//Storyboard Layer 3 (Foreground)
//Storyboard Sound Samples

[TimingPoints]
400,333.333333333333,4,2,0,100,1,0
13066,-133.333333333333,4,2,0,100,0,0
13316,-50,4,2,0,5,0,0
13399,-50,4,2,0,100,0,0
13733,-50,4,2,0,100,0,1
19066,-100,4,2,0,100,0,0
21733,-100,4,2,0,100,0,0
31983,-50,4,2,0,5,0,0
32066,-50,4,2,0,100,0,0
32399,-100,4,2,0,100,0,1
39899,-80,4,2,0,100,0,1
40399,-80,4,2,0,100,0,0
50566,-80,4,2,0,5,0,0
50733,-50,4,2,0,100,0,0
51066,-80,4,2,0,100,0,1
58566,-66.6666666666667,4,2,0,100,0,0
69233,-66.6666666666667,4,2,0,5,0,0
69399,-50,4,2,0,100,0,0
69733,-50,4,2,0,100,0,1
83066,-50,4,2,0,100,0,0
85066,-100,4,2,0,100,0,0

[HitObjects]
256,336,400,5,0,0:0:0:0:
240,240,566,1,0,0:0:0:0:
272,144,733,1,0,0:0:0:0:
240,48,899,1,0,0:0:0:0:
256,336,1066,5,0,0:0:0:0:
224,240,1233,1,0,0:0:0:0:
304,144,1399,1,0,0:0:0:0:
208,48,1566,1,0,0:0:0:0:
480,352,1733,5,0,0:0:0:0:
32,192,2066,1,0,0:0:0:0:
480,32,2399,1,0,0:0:0:0:
256,192,2733,1,0,0:0:0:0:
416,352,3066,6,0,B|432:304|432:304|416:256,1,100.000000298023
96,32,3399,2,0,B|80:80|80:80|96:128,1,100.000000298023
416,32,3733,2,0,B|432:80|432:80|416:128,1,100.000000298023
96,352,4066,2,0,B|80:304|80:304|96:256,1,100.000000298023
480,96,4399,6,0,P|432:128|384:144,1,100.000000298023
32,288,4733,2,0,P|80:256|144:240,1,100.000000298023
480,288,5066,2,0,P|432:272|368:240,1,100.000000298023
32,96,5399,2,0,P|80:112|144:144,1,100.000000298023
416,352,5733,6,0,P|432:272|416:224,1,100.000000298023
112,32,6066,2,0,P|96:96|112:128,1,100.000000298023
480,80,6399,2,0,P|400:80|368:96,1,100.000000298023
32,304,6733,2,0,P|96:304|144:288,1,100.000000298023
496,192,7066,6,0,L|384:192,1,100.000000298023
16,192,7399,2,0,L|128:192,1,100.000000298023
512,272,7733,2,0,P|448:288|400:272,1,100.000000298023
0,112,8066,2,0,P|64:96|112:112,1,100.000000298023
320,112,8399,6,0,L|192:320,2,200.000000596046
240,48,9233,1,0,0:0:0:0:
352,224,9399,1,0,0:0:0:0:
192,128,9566,1,0,0:0:0:0:
304,304,9733,6,0,P|208:272|128:192,1,200.000000596046
256,192,10233,1,0,0:0:0:0:
208,80,10399,2,0,P|304:112|384:192,1,200.000000596046
256,192,10899,1,0,0:0:0:0:
48,160,11066,6,0,P|128:144|160:128,1,100.000000298023
464,256,11399,2,0,P|400:224|352:224,1,100.000000298023
128,336,11733,2,0,P|64:304|48:272,1,100.000000298023
384,48,12066,2,0,P|432:64|464:112,1,100.000000298023
256,192,12399,5,0,0:0:0:0:
256,192,12483,1,0,0:0:0:0:
256,192,12566,1,0,0:0:0:0:
160,336,12733,1,0,0:0:0:0:
352,48,12899,1,0,0:0:0:0:
256,176,13066,2,0,L|256:32,1,112.50000462681
256,48,13399,6,0,B|256:0|256:0|256:352,1,400.000001192092
64,320,13899,1,0,0:0:0:0:
448,272,14066,1,0,0:0:0:0:
64,224,14233,1,0,0:0:0:0:
448,176,14399,1,0,0:0:0:0:
64,128,14566,1,0,0:0:0:0:
448,80,14733,1,0,0:0:0:0:
64,32,14899,1,0,0:0:0:0:
448,128,15066,5,0,0:0:0:0:
64,176,15233,1,0,0:0:0:0:
448,320,15399,1,0,0:0:0:0:
64,272,15566,1,0,0:0:0:0:
448,176,15733,1,0,0:0:0:0:
64,80,15899,1,0,0:0:0:0:
448,32,16066,1,0,0:0:0:0:
64,176,16233,1,0,0:0:0:0:
448,320,16399,5,0,0:0:0:0:
64,240,16565,1,0,0:0:0:0:
448,144,16732,1,0,0:0:0:0:
64,64,16899,1,0,0:0:0:0:
448,384,17066,5,0,0:0:0:0:
64,256,17233,1,0,0:0:0:0:
448,128,17400,1,0,0:0:0:0:
64,0,17566,1,0,0:0:0:0:
448,320,17733,5,0,0:0:0:0:
64,240,17899,1,0,0:0:0:0:
448,144,18066,1,0,0:0:0:0:
64,64,18233,1,0,0:0:0:0:
384,192,18399,5,0,0:0:0:0:
256,64,18566,1,0,0:0:0:0:
128,192,18733,1,0,0:0:0:0:
256,320,18899,1,0,0:0:0:0:
352,64,19066,6,0,L|144:64,1,200.000000596046
256,144,19566,1,0,0:0:0:0:
144,240,19733,2,0,L|352:240,1,200.000000596046
144,336,20233,1,0,0:0:0:0:
336,336,20399,2,0,L|224:336,1,100.000000298023
336,336,20733,1,0,0:0:0:0:
144,336,20899,1,0,0:0:0:0:
480,288,21233,5,0,0:0:0:0:
448,256,21399,1,0,0:0:0:0:
416,224,21566,1,0,0:0:0:0:
260,153,21733,2,0,P|274:224|299:251,1,100.000000298023
464,96,22066,2,0,P|448:32|432:0,1,100.000000298023
192,48,22399,2,0,P|176:80|160:144,1,100.000000298023
416,304,22733,2,0,P|432:240|432:192,1,100.000000298023
48,176,23066,6,0,P|112:224|144:240,1,100.000000298023
448,64,23399,2,0,P|368:80|336:96,1,100.000000298023
240,336,23733,2,0,P|288:272|304:224,1,100.000000298023
80,48,24066,2,0,P|128:96|176:128,1,100.000000298023
464,48,24399,6,0,L|448:160,1,100.000000298023
48,336,24733,2,0,L|64:208,1,100.000000298023
464,336,25066,2,0,L|352:320,1,100.000000298023
48,48,25399,2,0,L|160:64,1,100.000000298023
464,48,25733,6,0,L|384:112,1,100.000000298023
48,336,26066,2,0,L|160:256,1,100.000000298023
464,336,26399,2,0,L|368:272,1,100.000000298023
48,48,26733,2,0,L|144:112,1,100.000000298023
176,272,27066,6,0,L|320:112,2,200.000000596046
304,272,27899,1,0,0:0:0:0:
176,144,28066,1,0,0:0:0:0:
368,192,28233,1,0,0:0:0:0:
240,48,28399,6,0,P|304:80|336:112,1,100.000000298023
448,272,28733,2,0,P|384:224|320:208,1,100.000000298023
112,112,29066,2,0,P|192:144|208:160,1,100.000000298023
416,384,29399,2,0,P|384:352|320:320,1,100.000000298023
64,336,29733,5,0,0:0:0:0:
64,224,29899,1,0,0:0:0:0:
160,272,30066,1,0,0:0:0:0:
64,112,30233,1,0,0:0:0:0:
256,192,30399,2,0,P|192:144|176:128,1,100.000000298023
288,32,30733,2,0,P|336:64|368:96,1,100.000000298023
416,240,31066,5,0,0:0:0:0:
416,240,31149,1,0,0:0:0:0:
416,240,31233,1,0,0:0:0:0:
304,320,31399,1,0,0:0:0:0:
336,64,31566,1,0,0:0:0:0:
240,112,31733,2,0,P|288:160|400:144,1,150.000000447035
368,160,32066,6,0,P|416:272|176:288,1,400.000001192092
48,176,32566,1,0,0:0:0:0:
464,80,32733,1,0,0:0:0:0:
48,0,32900,1,0,0:0:0:0:
464,176,33066,1,0,0:0:0:0:
48,96,33233,1,0,0:0:0:0:
464,272,33400,1,0,0:0:0:0:
48,192,33566,1,0,0:0:0:0:
464,368,33733,5,0,0:0:0:0:
48,304,33899,1,0,0:0:0:0:
464,240,34066,1,0,0:0:0:0:
48,176,34233,1,0,0:0:0:0:
464,112,34399,1,0,0:0:0:0:
48,48,34566,1,0,0:0:0:0:
464,0,34733,1,0,0:0:0:0:
48,176,34899,1,0,0:0:0:0:
464,288,35066,5,0,0:0:0:0:
48,384,35233,1,0,0:0:0:0:
464,288,35399,1,0,0:0:0:0:
48,176,35566,1,0,0:0:0:0:
464,128,35733,5,0,0:0:0:0:
48,0,35899,1,0,0:0:0:0:
464,128,36066,1,0,0:0:0:0:
48,256,36233,1,0,0:0:0:0:
464,336,36399,5,0,0:0:0:0:
48,240,36566,1,0,0:0:0:0:
464,144,36733,1,0,0:0:0:0:
48,48,36899,1,0,0:0:0:0:
400,192,37066,5,0,0:0:0:0:
256,336,37233,1,0,0:0:0:0:
112,192,37399,1,0,0:0:0:0:
256,48,37566,1,0,0:0:0:0:
432,272,37733,6,0,P|352:304|320:304,1,100.000000298023
80,112,38066,2,0,P|144:96|208:96,1,100.000000298023
172,229,38399,2,0,B|208:192|208:192|304:192|304:192|352:144,1,200.000000596046
176,96,38899,1,0,0:0:0:0:
336,272,39066,6,0,L|416:352,2,100.000000298023
176,96,39566,1,0,0:0:0:0:
464,48,39899,5,0,0:0:0:0:
416,96,40066,1,0,0:0:0:0:
368,144,40233,1,0,0:0:0:0:
32,320,40399,6,0,P|144:320|192:304,1,125.000000372529
480,64,40733,2,0,P|352:64|304:80,1,125.000000372529
32,64,41066,2,0,P|160:64|208:80,1,125.000000372529
480,320,41399,2,0,P|352:320|304:304,1,125.000000372529
480,32,41733,6,0,P|384:96|368:112,1,125.000000372529
32,352,42066,2,0,P|128:272|144:240,1,125.000000372529
480,352,42399,2,0,P|416:288|368:256,1,125.000000372529
32,32,42733,2,0,P|96:112|128:128,1,125.000000372529
480,64,43066,6,0,L|352:96,1,125.000000372529
32,320,43399,2,0,L|192:288,1,125.000000372529
448,352,43733,2,0,L|416:224,1,125.000000372529
64,32,44066,2,0,L|96:160,1,125.000000372529
480,128,44399,6,0,L|336:128,1,125.000000372529
32,256,44733,2,0,L|160:256,1,125.000000372529
320,352,45066,2,0,L|320:224,1,125.000000372529
192,32,45399,2,0,L|192:160,1,125.000000372529
160,272,45733,6,0,B|208:208|336:176|368:80,2,250.000000745058
288,288,46566,1,0,0:0:0:0:
240,96,46733,1,0,0:0:0:0:
432,144,46899,1,0,0:0:0:0:
32,160,47066,6,0,L|160:160,1,125.000000372529
480,224,47399,2,0,L|352:224,1,125.000000372529
32,288,47733,2,0,L|176:288,1,125.000000372529
480,352,48066,2,0,L|352:352,1,125.000000372529
208,352,48399,5,0,0:0:0:0:
304,288,48566,1,0,0:0:0:0:
208,224,48733,1,0,0:0:0:0:
304,160,48899,1,0,0:0:0:0:
208,80,49066,2,0,L|208:208,1,125.000000372529
304,160,49399,2,0,L|304:288,1,125.000000372529
208,352,49733,5,0,0:0:0:0:
208,352,49816,1,0,0:0:0:0:
208,352,49899,1,0,0:0:0:0:
304,240,50066,1,0,0:0:0:0:
208,112,50233,1,0,0:0:0:0:
304,0,50399,2,0,B|352:0|352:0|336:48|336:48|400:96|384:128|384:144|384:160,1,187.500000558793
384,119,50733,6,0,B|272:112|272:112|352:272|176:352,1,400.000001192092
32,32,51233,1,0,0:0:0:0:
480,64,51399,1,0,0:0:0:0:
32,112,51566,1,0,0:0:0:0:
480,144,51733,1,0,0:0:0:0:
32,192,51899,1,0,0:0:0:0:
480,224,52066,1,0,0:0:0:0:
32,272,52233,1,0,0:0:0:0:
480,304,52399,5,0,0:0:0:0:
32,352,52566,1,0,0:0:0:0:
480,288,52733,1,0,0:0:0:0:
32,240,52899,1,0,0:0:0:0:
480,176,53066,1,0,0:0:0:0:
32,128,53233,1,0,0:0:0:0:
480,64,53399,1,0,0:0:0:0:
32,32,53566,1,0,0:0:0:0:
480,32,53733,5,0,0:0:0:0:
32,144,53899,1,0,0:0:0:0:
480,240,54066,1,0,0:0:0:0:
32,352,54233,1,0,0:0:0:0:
480,16,54399,5,0,0:0:0:0:
32,128,54566,1,0,0:0:0:0:
480,256,54733,1,0,0:0:0:0:
32,368,54899,1,0,0:0:0:0:
480,0,55066,5,0,0:0:0:0:
32,112,55233,1,0,0:0:0:0:
480,272,55399,1,0,0:0:0:0:
32,384,55566,1,0,0:0:0:0:
256,32,55733,5,0,0:0:0:0:
416,192,55899,1,0,0:0:0:0:
256,352,56066,1,0,0:0:0:0:
96,192,56233,1,0,0:0:0:0:
400,48,56399,6,0,P|336:96|272:128,1,125.000000372529
128,336,56733,2,0,P|192:288|256:256,1,125.000000372529
448,304,57066,2,0,P|368:240|320:224,1,125.000000372529
80,96,57399,2,0,P|144:144|208:160,1,125.000000372529
304,112,57733,6,0,P|352:64|400:32,2,125.000000372529
176,320,58233,1,0,0:0:0:0:
512,336,58566,5,0,0:0:0:0:
448,272,58733,1,0,0:0:0:0:
384,208,58899,1,0,0:0:0:0:
32,64,59066,6,0,P|112:64|192:80,1,150.000006169081
480,304,59399,2,0,P|352:304|304:272,1,150.000006169081
32,336,59733,2,0,P|80:240|112:208,1,150.000006169081
480,48,60066,2,0,P|432:144|384:192,1,150.000006169081
16,112,60399,6,0,P|112:112|176:96,1,150.000006169081
480,288,60733,2,0,P|400:272|304:272,1,150.000006169081
32,336,61066,2,0,L|176:256,1,150.000006169081
480,48,61399,2,0,L|336:128,1,150.000006169081
48,32,61733,6,0,L|48:192,1,150.000006169081
464,352,62066,2,0,L|464:192,1,150.000006169081
32,336,62399,2,0,L|192:336,1,150.000006169081
480,48,62733,2,0,L|320:48,1,150.000006169081
32,112,63066,6,0,L|192:112,1,150.000006169081
480,176,63399,2,0,L|304:176,1,150.000006169081
32,240,63733,2,0,L|192:240,1,150.000006169081
480,304,64066,2,0,L|320:304,1,150.000006169081
32,352,64399,6,0,B|160:336|192:256|336:224,2,300.000012338161
256,336,65233,1,0,0:0:0:0:
32,240,65399,1,0,0:0:0:0:
256,160,65566,1,0,0:0:0:0:
32,80,65733,6,0,P|128:64|208:64,1,150.000006169081
480,144,66066,2,0,P|384:128|320:128,1,150.000006169081
32,224,66399,2,0,P|144:192|224:192,1,150.000006169081
480,288,66733,2,0,P|400:256|320:256,1,150.000006169081
32,336,67066,6,0,P|160:320|272:192,1,300.000012338161
400,352,67566,1,0,0:0:0:0:
432,48,67733,2,0,L|480:192,1,150.000006169081
80,192,68066,2,0,L|32:32,1,150.000006169081
256,64,68399,5,0,0:0:0:0:
256,64,68483,1,0,0:0:0:0:
256,64,68566,1,0,0:0:0:0:
432,320,68733,1,0,0:0:0:0:
304,272,68899,1,0,0:0:0:0:
400,176,69066,2,0,B|336:128|336:128|288:192|192:224,1,225.000009253621
220,213,69399,6,0,B|128:240|64:176|80:128|80:96|96:48|160:0|288:48,1,400.000001192092
496,192,69899,5,0,0:0:0:0:
16,160,70066,1,0,0:0:0:0:
496,128,70233,1,0,0:0:0:0:
16,96,70399,1,0,0:0:0:0:
496,64,70566,1,0,0:0:0:0:
16,32,70733,1,0,0:0:0:0:
496,0,70899,1,0,0:0:0:0:
16,48,71066,5,0,0:0:0:0:
496,96,71233,1,0,0:0:0:0:
16,144,71399,1,0,0:0:0:0:
496,192,71566,1,0,0:0:0:0:
16,240,71733,1,0,0:0:0:0:
496,288,71899,1,0,0:0:0:0:
16,336,72066,1,0,0:0:0:0:
496,384,72233,1,0,0:0:0:0:
16,320,72399,5,0,0:0:0:0:
496,256,72566,1,0,0:0:0:0:
16,192,72733,1,0,0:0:0:0:
496,128,72899,1,0,0:0:0:0:
16,64,73066,5,0,0:0:0:0:
496,128,73233,1,0,0:0:0:0:
16,208,73399,1,0,0:0:0:0:
496,272,73566,1,0,0:0:0:0:
16,368,73733,5,0,0:0:0:0:
496,240,73899,1,0,0:0:0:0:
16,144,74066,1,0,0:0:0:0:
496,32,74233,1,0,0:0:0:0:
256,368,74399,5,0,0:0:0:0:
80,192,74566,1,0,0:0:0:0:
256,16,74733,1,0,0:0:0:0:
432,192,74899,1,0,0:0:0:0:
32,320,75066,6,0,P|176:304|240:256,1,200.000000596046
480,80,75399,2,0,P|320:80|256:128,1,200.000000596046
32,32,75733,2,0,L|192:160,1,200.000000596046
480,352,76066,2,0,L|304:208,1,200.000000596046
32,352,76399,6,0,L|224:224,1,200.000000596046
480,32,76733,2,0,L|304:144,1,200.000000596046
32,272,77066,1,0,0:0:0:0:
144,96,77233,1,0,0:0:0:0:
320,352,77399,2,0,L|288:256,1,100.000000298023
336,32,77566,2,0,L|368:128,1,100.000000298023
512,384,77733,5,0,0:0:0:0:
0,288,77899,1,0,0:0:0:0:
512,224,78066,1,0,0:0:0:0:
0,144,78233,1,0,0:0:0:0:
512,80,78399,1,0,0:0:0:0:
0,0,78566,1,0,0:0:0:0:
512,80,78733,1,0,0:0:0:0:
0,144,78899,1,0,0:0:0:0:
512,240,79066,5,0,0:0:0:0:
0,304,79233,1,0,0:0:0:0:
512,384,79399,1,0,0:0:0:0:
0,272,79566,1,0,0:0:0:0:
512,144,79733,1,0,0:0:0:0:
0,0,79899,1,0,0:0:0:0:
512,128,80066,1,0,0:0:0:0:
0,288,80233,1,0,0:0:0:0:
512,384,80399,5,0,0:0:0:0:
0,192,80566,1,0,0:0:0:0:
512,0,80733,1,0,0:0:0:0:
256,384,80899,1,0,0:0:0:0:
0,0,81066,5,0,0:0:0:0:
512,384,81233,1,0,0:0:0:0:
256,0,81399,1,0,0:0:0:0:
0,384,81566,1,0,0:0:0:0:
512,0,81733,5,0,0:0:0:0:
0,192,81899,1,0,0:0:0:0:
512,384,82066,1,0,0:0:0:0:
0,192,82233,1,0,0:0:0:0:
512,80,82399,5,0,0:0:0:0:
16,192,82566,1,0,0:0:0:0:
512,288,82733,1,0,0:0:0:0:
32,192,82899,1,0,0:0:0:0:
448,192,83066,5,0,0:0:0:0:
256,0,83233,1,0,0:0:0:0:
64,192,83399,1,0,0:0:0:0:
256,384,83566,1,0,0:0:0:0:
256,0,83733,5,0,0:0:0:0:
448,192,83899,1,0,0:0:0:0:
64,192,84066,1,0,0:0:0:0:
256,384,84233,1,0,0:0:0:0:
384,64,84399,5,0,0:0:0:0:
128,64,84566,1,0,0:0:0:0:
128,320,84733,1,0,0:0:0:0:
384,320,84899,1,0,0:0:0:0:
256,64,85233,5,0,0:0:0:0:
224,144,85399,1,0,0:0:0:0:
304,208,85566,1,0,0:0:0:0:
192,288,85733,1,0,0:0:0:0:
352,336,85899,1,0,0:0:0:0:
80,192,86066,1,0,0:0:0:0:
400,96,86233,1,0,0:0:0:0:
0,304,86566,5,0,0:0:0:0:
512,80,86733,1,0,0:0:0:0:
