osu file format v14

[General]
AudioFilename: higu.mp3
AudioLeadIn: 0
PreviewTime: 68811
Countdown: 0
SampleSet: Normal
StackLeniency: 0.7
Mode: 0
LetterboxInBreaks: 0
WidescreenStoryboard: 1

[Editor]
DistanceSpacing: 0.8
BeatDivisor: 4
GridSize: 16
TimelineZoom: 1

[Metadata]
Title:Corner Jump Training
TitleUnicode:Corner Jump Training
Artist:Various Artists
ArtistUnicode:Various Artists
Creator:QuadroKiller
Version:Eiko Shimamiya - Higurashi no Naku Koro ni (TV Size)
Source:
Tags:awolnation run cornerjump practice training ctb hyper dash hyperdash quadrokiller
BeatmapID:1231479
BeatmapSetID:478917

[Difficulty]
HPDrainRate:0
CircleSize:4
OverallDifficulty:9
ApproachRate:10
SliderMultiplier:2.00000000596046
SliderTickRate:1

[Events]
//Background and Video events
0,0,"145d3a4c1c701d3530e91fd15d27015a.jpg",0,0
//Break Periods
//Storyboard Layer 0 (Background)
//Storyboard Layer 1 (Fail)
//Storyboard Layer 2 (Pass)
//Storyboard Layer 3 (Foreground)
//Storyboard Sound Samples

[TimingPoints]
240,571.428571428571,4,1,0,30,1,0
240,-200,4,1,0,30,0,0
2811,-66.6666666666667,4,1,0,30,0,0
4239,-200,4,1,0,30,0,0
7382,-66.6666666666667,4,1,0,30,0,0
12954,-200,4,1,0,30,0,0
13954,-66.6666666666667,4,1,0,30,0,1
32382,-100,4,1,0,30,0,0
50525,-66.6666666666667,4,1,0,30,0,0
52382,-200,4,1,0,30,0,0
59097,-100,4,1,0,30,0,0
68811,-66.6666666666667,4,1,0,30,0,0

[HitObjects]
257,268,525,6,0,B|242:188|273:188|255:97,1,150.000000447035
86,204,1668,1,0,0:0:0:0:
86,204,1811,1,0,0:0:0:0:
398,258,2097,1,0,0:0:0:0:
398,258,2239,1,0,0:0:0:0:
177,346,2525,1,0,0:0:0:0:
338,105,2811,6,0,P|327:212|325:218,1,75.0000030845403
80,312,3097,1,0,0:0:0:0:
450,257,3239,1,0,0:0:0:0:
256,232,3525,5,0,0:0:0:0:
112,45,3668,6,0,P|63:103|62:106,1,75.0000030845403
399,49,3954,2,0,P|438:116|439:122,1,75.0000030845403
256,329,4239,2,0,L|255:208,1,100.000000298023
261,147,4954,5,0,0:0:0:0:
229,204,5097,1,0,0:0:0:0:
292,183,5239,1,0,0:0:0:0:
221,175,5382,1,0,0:0:0:0:
280,207,5525,1,0,0:0:0:0:
261,123,5668,5,0,0:0:0:0:
189,236,5811,1,0,0:0:0:0:
335,167,5954,1,0,0:0:0:0:
175,143,6097,1,0,0:0:0:0:
290,266,6239,1,0,0:0:0:0:
271,85,6382,5,0,0:0:0:0:
150,249,6525,1,0,0:0:0:0:
395,165,6668,1,0,0:0:0:0:
117,91,6811,1,0,0:0:0:0:
294,313,6954,1,0,0:0:0:0:
289,28,7097,5,0,0:0:0:0:
95,259,7239,1,0,0:0:0:0:
470,69,7382,6,0,L|413:117,1,75.0000030845403
33,341,7668,1,0,0:0:0:0:
487,231,7811,1,0,0:0:0:0:
41,156,7954,1,0,0:0:0:0:
490,61,8097,1,0,0:0:0:0:
151,366,8239,6,0,L|133:277,1,75.0000030845403
374,22,8525,2,0,L|343:113,1,75.0000030845403
268,252,8811,6,0,P|195:190|314:207,1,300.000012338161
356,293,9525,5,0,0:0:0:0:
256,80,9668,1,0,0:0:0:0:
165,294,9811,1,0,0:0:0:0:
256,71,9954,5,0,0:0:0:0:
359,299,10097,1,0,0:0:0:0:
257,63,10239,1,0,0:0:0:0:
160,299,10382,5,0,0:0:0:0:
257,57,10525,1,0,0:0:0:0:
363,307,10668,1,0,0:0:0:0:
257,51,10811,5,0,0:0:0:0:
157,304,10954,1,0,0:0:0:0:
257,43,11097,1,0,0:0:0:0:
368,311,11239,5,0,0:0:0:0:
258,37,11382,1,0,0:0:0:0:
154,311,11525,1,0,0:0:0:0:
258,31,11668,5,0,0:0:0:0:
372,317,11811,1,0,0:0:0:0:
64,87,11954,6,0,L|141:143,1,75.0000030845403
474,318,12239,1,0,0:0:0:0:
39,174,12382,1,0,0:0:0:0:
479,95,12525,1,0,0:0:0:0:
114,267,12668,1,0,0:0:0:0:
363,297,12811,5,0,0:0:0:0:
435,263,13097,2,0,P|460:250|396:205,1,150.000000447035,0|4,0:0|0:0,0:0:0:0:
0,368,14097,5,0,0:0:0:0:
512,352,14239,1,0,0:0:0:0:
0,288,14382,1,0,0:0:0:0:
512,272,14525,1,0,0:0:0:0:
0,208,14668,1,0,0:0:0:0:
512,192,14811,1,0,0:0:0:0:
0,128,14954,1,0,0:0:0:0:
512,112,15097,5,0,0:0:0:0:
0,48,15239,1,0,0:0:0:0:
512,32,15382,1,0,0:0:0:0:
0,128,15525,1,0,0:0:0:0:
512,192,15668,1,0,0:0:0:0:
0,288,15811,1,0,0:0:0:0:
512,352,15954,1,0,0:0:0:0:
0,192,16097,1,0,0:0:0:0:
400,352,16239,6,0,L|400:256,1,75.0000030845403,4|0,0:0|0:0,0:0:0:0:
112,32,16525,2,0,L|112:112,1,75.0000030845403
480,352,16811,2,0,L|480:272,1,75.0000030845403
32,32,17097,2,0,L|32:112,1,75.0000030845403
384,320,17382,5,0,0:0:0:0:
128,64,17525,1,0,0:0:0:0:
384,320,17668,1,0,0:0:0:0:
128,64,17811,1,0,0:0:0:0:
448,48,17954,5,0,0:0:0:0:
64,336,18097,1,0,0:0:0:0:
448,48,18239,1,0,0:0:0:0:
64,336,18382,1,0,0:0:0:0:
48,192,18525,6,0,L|128:192,1,75.0000030845403,4|0,0:0|0:0,0:0:0:0:
464,192,18811,2,0,L|368:192,1,75.0000030845403
0,96,19097,5,0,0:0:0:0:
512,288,19239,1,0,0:0:0:0:
0,288,19382,1,0,0:0:0:0:
512,96,19525,1,0,0:0:0:0:
0,192,19668,5,0,0:0:0:0:
512,192,19811,1,0,0:0:0:0:
0,288,19954,1,0,0:0:0:0:
512,288,20097,1,0,0:0:0:0:
0,96,20239,1,0,0:0:0:0:
512,192,20382,1,0,0:0:0:0:
0,288,20525,1,0,0:0:0:0:
512,96,20668,1,0,0:0:0:0:
0,192,20811,5,0,0:0:0:0:
512,288,20954,1,0,0:0:0:0:
240,352,21097,1,0,0:0:0:0:
240,352,21239,2,0,P|208:336|128:240,1,150.000006169081
496,192,21668,1,0,0:0:0:0:
16,128,21811,1,0,0:0:0:0:
240,64,21954,5,0,0:0:0:0:
276,70,22025,1,0,0:0:0:0:
311,84,22096,1,0,0:0:0:0:
343,104,22168,1,0,0:0:0:0:
368,128,22239,1,0,0:0:0:0:
125,364,22382,1,0,0:0:0:0:
488,129,22525,5,0,0:0:0:0:
41,338,22668,1,0,0:0:0:0:
479,53,22811,1,0,0:0:0:0:
22,262,22954,1,0,0:0:0:0:
409,17,23097,1,4,0:0:0:0:
32,160,23239,5,0,0:0:0:0:
480,192,23382,1,0,0:0:0:0:
32,224,23525,1,0,0:0:0:0:
480,192,23668,5,0,0:0:0:0:
32,144,23811,1,0,0:0:0:0:
480,192,23954,1,0,0:0:0:0:
32,240,24097,5,0,0:0:0:0:
480,192,24239,1,0,0:0:0:0:
32,128,24382,1,0,0:0:0:0:
480,192,24525,5,0,0:0:0:0:
32,256,24668,1,0,0:0:0:0:
480,192,24811,1,0,0:0:0:0:
32,112,24954,5,0,0:0:0:0:
480,192,25097,1,0,0:0:0:0:
32,272,25239,1,0,0:0:0:0:
480,192,25382,5,4,0:0:0:0:
32,96,25525,1,0,0:0:0:0:
480,192,25668,1,0,0:0:0:0:
32,288,25811,5,0,0:0:0:0:
480,192,25954,1,0,0:0:0:0:
32,80,26097,1,0,0:0:0:0:
480,192,26239,5,0,0:0:0:0:
32,304,26382,1,0,0:0:0:0:
480,192,26525,1,0,0:0:0:0:
32,64,26668,5,0,0:0:0:0:
480,192,26811,1,0,0:0:0:0:
32,320,26954,1,0,0:0:0:0:
480,192,27097,5,0,0:0:0:0:
32,48,27239,1,0,0:0:0:0:
480,192,27382,1,0,0:0:0:0:
32,336,27525,1,0,0:0:0:0:
64,192,27668,5,4,0:0:0:0:
512,48,27811,1,0,0:0:0:0:
64,192,27954,1,0,0:0:0:0:
512,336,28097,5,0,0:0:0:0:
64,192,28239,1,0,0:0:0:0:
512,64,28382,1,0,0:0:0:0:
64,192,28525,5,0,0:0:0:0:
512,320,28668,1,0,0:0:0:0:
64,192,28811,1,0,0:0:0:0:
512,80,28954,5,0,0:0:0:0:
64,192,29097,1,0,0:0:0:0:
512,304,29239,1,0,0:0:0:0:
64,192,29382,5,0,0:0:0:0:
512,96,29525,1,0,0:0:0:0:
64,192,29668,1,0,0:0:0:0:
512,288,29811,1,0,0:0:0:0:
256,0,29954,5,0,0:0:0:0:
256,48,30097,1,0,0:0:0:0:
256,96,30239,5,0,0:0:0:0:
256,144,30382,2,0,L|256:304,1,150.000006169081
256,384,30954,1,0,0:0:0:0:
256,240,31097,5,0,0:0:0:0:
256,202,31168,1,0,0:0:0:0:
256,165,31239,1,0,0:0:0:0:
256,127,31311,1,0,0:0:0:0:
256,90,31382,1,0,0:0:0:0:
256,0,31525,5,0,0:0:0:0:
0,272,31668,1,0,0:0:0:0:
512,112,31811,1,0,0:0:0:0:
0,192,31954,1,0,0:0:0:0:
512,192,32097,1,0,0:0:0:0:
0,112,32239,1,4,0:0:0:0:
320,96,32525,6,0,L|352:256,1,150.000000447035
0,192,33097,1,0,0:0:0:0:
512,128,33239,1,0,0:0:0:0:
0,112,33382,1,0,0:0:0:0:
512,48,33525,1,0,0:0:0:0:
0,32,33668,1,0,0:0:0:0:
512,224,33954,5,0,0:0:0:0:
0,272,34097,1,0,0:0:0:0:
512,304,34239,1,0,0:0:0:0:
0,352,34382,1,0,0:0:0:0:
512,384,34525,1,0,0:0:0:0:
336,0,34811,5,0,0:0:0:0:
176,384,34954,1,0,0:0:0:0:
256,0,35097,1,0,0:0:0:0:
256,384,35239,1,0,0:0:0:0:
176,0,35382,1,0,0:0:0:0:
336,384,35525,1,0,0:0:0:0:
256,0,35668,1,0,0:0:0:0:
176,384,35811,1,0,0:0:0:0:
336,0,35954,1,0,0:0:0:0:
0,352,36239,5,0,0:0:0:0:
96,48,36382,1,0,0:0:0:0:
176,352,36525,1,0,0:0:0:0:
256,48,36668,1,0,0:0:0:0:
336,352,36811,1,0,0:0:0:0:
416,48,36954,1,0,0:0:0:0:
416,48,37025,1,0,0:0:0:0:
416,48,37097,1,0,0:0:0:0:
336,352,37239,1,0,0:0:0:0:
256,48,37382,1,0,0:0:0:0:
176,352,37525,5,0,0:0:0:0:
96,48,37668,1,0,0:0:0:0:
0,352,37811,1,0,0:0:0:0:
96,48,37954,1,0,0:0:0:0:
96,48,38025,1,0,0:0:0:0:
96,48,38097,1,0,0:0:0:0:
176,352,38239,1,0,0:0:0:0:
256,48,38382,1,0,0:0:0:0:
336,352,38525,1,0,0:0:0:0:
416,48,38668,5,0,0:0:0:0:
496,352,38811,1,0,0:0:0:0:
416,48,38954,1,0,0:0:0:0:
336,352,39097,1,0,0:0:0:0:
256,48,39239,1,0,0:0:0:0:
256,48,39311,1,0,0:0:0:0:
256,48,39382,1,0,0:0:0:0:
176,352,39525,1,0,0:0:0:0:
96,48,39668,1,0,0:0:0:0:
0,352,39811,1,0,0:0:0:0:
96,48,39954,1,0,0:0:0:0:
176,352,40097,1,0,0:0:0:0:
256,48,40239,5,0,0:0:0:0:
265,70,40310,1,0,0:0:0:0:
275,93,40381,1,0,0:0:0:0:
285,116,40453,1,0,0:0:0:0:
295,139,40524,1,0,0:0:0:0:
368,352,40668,5,0,0:0:0:0:
96,272,40811,1,0,0:0:0:0:
416,224,40954,1,0,0:0:0:0:
64,160,41097,1,0,0:0:0:0:
464,96,41239,1,0,0:0:0:0:
48,48,41382,1,4,0:0:0:0:
256,112,41525,5,0,0:0:0:0:
256,336,41668,2,0,L|256:224,1,100.000000298023
256,32,42097,5,0,0:0:0:0:
160,288,42239,1,0,0:0:0:0:
416,128,42382,1,0,0:0:0:0:
96,128,42525,1,0,0:0:0:0:
352,288,42668,1,0,0:0:0:0:
256,32,42811,5,0,0:0:0:0:
160,288,42954,1,0,0:0:0:0:
416,128,43097,1,0,0:0:0:0:
96,128,43239,1,0,0:0:0:0:
352,288,43382,1,0,0:0:0:0:
256,32,43525,5,0,0:0:0:0:
0,192,43668,1,0,0:0:0:0:
512,272,43811,1,0,0:0:0:0:
64,352,43954,6,0,L|96:304,1,50.0000001490115
512,192,44239,1,0,0:0:0:0:
0,96,44382,1,0,0:0:0:0:
448,32,44525,6,0,L|416:96,1,50.0000001490115
0,288,44811,1,0,0:0:0:0:
512,192,44954,1,0,0:0:0:0:
0,96,45097,5,0,0:0:0:0:
144,384,45239,1,0,0:0:0:0:
256,0,45382,1,0,0:0:0:0:
368,384,45525,1,0,0:0:0:0:
512,96,45668,1,0,0:0:0:0:
0,272,45811,1,0,0:0:0:0:
240,308,45954,5,0,0:0:0:0:
264,309,46025,1,0,0:0:0:0:
289,307,46096,1,0,0:0:0:0:
314,302,46168,1,0,0:0:0:0:
337,294,46239,1,0,0:0:0:0:
256,0,46382,5,0,0:0:0:0:
256,192,46525,1,0,0:0:0:0:
256,192,46597,1,0,0:0:0:0:
256,192,46668,1,0,0:0:0:0:
0,112,46811,1,0,0:0:0:0:
512,112,46954,1,0,0:0:0:0:
0,320,47097,6,0,L|80:288,1,50.0000001490115
512,320,47382,2,0,L|448:288,1,50.0000001490115
256,0,47668,1,0,0:0:0:0:
256,384,47811,1,0,0:0:0:0:
0,128,47954,2,0,L|80:128,1,50.0000001490115
512,240,48239,6,0,P|432:224|320:176,1,200.000000596046
0,0,49097,1,0,0:0:0:0:
512,0,49382,1,0,0:0:0:0:
512,384,49668,1,0,0:0:0:0:
0,384,49954,1,0,0:0:0:0:
0,0,50239,1,0,0:0:0:0:
268,329,50525,6,0,B|136:211|136:211|72:147|88:67|184:19|251:94|251:94|280:67|359:-1|436:123|371:211|371:211|272:305|253:360,1,900.000037014484,4|0,0:0|0:0,0:0:0:0:
512,96,52525,5,0,0:0:0:0:
0,192,52668,1,0,0:0:0:0:
512,288,52811,2,0,P|432:288|400:272,1,100.000000298023
0,0,53668,1,0,0:0:0:0:
512,96,53954,5,0,0:0:0:0:
0,288,54097,1,0,0:0:0:0:
512,288,54382,5,0,0:0:0:0:
0,96,54525,1,0,0:0:0:0:
256,352,54811,5,0,0:0:0:0:
256,32,55097,5,0,0:0:0:0:
256,384,55382,1,0,0:0:0:0:
256,0,55525,2,0,B|240:48|288:80|256:144,1,125.000000372529
0,384,56525,5,0,0:0:0:0:
512,192,56811,1,0,0:0:0:0:
0,0,57097,1,0,0:0:0:0:
512,384,57382,1,0,0:0:0:0:
0,192,57668,5,0,0:0:0:0:
0,192,57811,2,0,B|64:208|96:192|128:192,1,125.000000372529
336,192,58811,1,0,0:0:0:0:
480,192,59097,6,0,B|400:240|368:336|288:304,1,200.000000596046
0,192,59954,5,0,0:0:0:0:
512,192,60097,1,0,0:0:0:0:
256,192,60239,1,4,0:0:0:0:
0,80,60525,5,0,0:0:0:0:
512,304,60811,1,0,0:0:0:0:
256,48,61097,5,0,0:0:0:0:
144,352,61239,1,0,0:0:0:0:
256,48,61382,1,0,0:0:0:0:
368,352,61525,1,0,0:0:0:0:
256,48,61668,1,0,0:0:0:0:
144,352,61811,6,0,P|176:240|288:176,1,250.000000745058
512,240,62811,5,0,0:0:0:0:
0,160,62954,1,0,0:0:0:0:
512,80,63097,1,0,0:0:0:0:
128,384,63382,6,0,L|144:320,1,50.0000001490115
368,0,63668,2,0,L|352:80,1,50.0000001490115
256,192,63954,1,0,0:0:0:0:
256,192,64239,5,4,0:0:0:0:
256,192,64525,5,0,0:0:0:0:
256,64,64811,1,0,0:0:0:0:
256,64,64954,1,0,0:0:0:0:
256,336,65239,1,0,0:0:0:0:
48,64,65382,6,0,L|112:64,1,50.0000001490115
480,192,65668,1,0,0:0:0:0:
48,320,65811,6,0,L|112:320,1,50.0000001490115
480,192,66097,1,0,0:0:0:0:
0,192,66239,1,0,0:0:0:0:
256,384,66525,5,0,0:0:0:0:
256,48,66668,1,0,0:0:0:0:
256,64,66739,1,0,0:0:0:0:
256,80,66811,1,0,0:0:0:0:
256,304,66954,1,0,0:0:0:0:
64,192,67097,5,0,0:0:0:0:
89,192,67168,1,0,0:0:0:0:
114,192,67239,1,0,0:0:0:0:
139,192,67311,1,0,0:0:0:0:
164,192,67382,1,0,0:0:0:0:
416,192,67525,1,0,0:0:0:0:
480,16,67668,6,0,L|480:80,1,50.0000001490115
256,368,67954,2,0,L|256:304,1,50.0000001490115
32,32,68239,2,0,L|32:96,1,50.0000001490115
480,352,68525,5,0,0:0:0:0:
256,32,68668,1,0,0:0:0:0:
32,352,68811,1,4,0:0:0:0:
256,384,69097,6,0,L|256:304,1,75.0000030845403
256,32,69382,5,0,0:0:0:0:
160,384,69525,1,0,0:0:0:0:
256,32,69668,1,0,0:0:0:0:
352,384,69811,1,0,0:0:0:0:
256,32,69954,1,0,0:0:0:0:
80,384,70097,5,0,0:0:0:0:
256,32,70239,1,0,0:0:0:0:
432,384,70382,1,0,0:0:0:0:
0,256,70525,6,0,L|80:256,1,75.0000030845403
512,128,70811,2,0,L|432:128,1,75.0000030845403
0,64,71097,1,4,0:0:0:0:
512,192,71239,1,0,0:0:0:0:
0,336,71382,5,0,0:0:0:0:
512,64,71525,1,0,0:0:0:0:
0,192,71668,1,0,0:0:0:0:
512,336,71811,1,0,0:0:0:0:
0,64,71954,1,0,0:0:0:0:
512,192,72097,1,0,0:0:0:0:
0,336,72239,5,0,0:0:0:0:
512,48,72382,1,0,0:0:0:0:
64,384,72525,1,0,0:0:0:0:
448,0,72668,1,0,0:0:0:0:
144,384,72811,1,0,0:0:0:0:
368,0,72954,1,0,0:0:0:0:
224,384,73097,1,0,0:0:0:0:
288,0,73239,1,0,0:0:0:0:
304,384,73382,1,4,0:0:0:0:
208,0,73525,1,0,0:0:0:0:
512,192,73668,6,0,P|448:240|416:240,1,75.0000030845403
0,192,73954,2,0,P|64:144|80:144,1,75.0000030845403
512,320,74239,5,0,0:0:0:0:
0,64,74382,1,0,0:0:0:0:
512,64,74525,1,0,0:0:0:0:
0,320,74668,1,0,0:0:0:0:
512,192,74811,5,0,0:0:0:0:
0,192,74954,1,0,0:0:0:0:
256,0,75097,1,0,0:0:0:0:
256,384,75239,1,0,0:0:0:0:
512,192,75382,5,0,0:0:0:0:
0,192,75525,1,0,0:0:0:0:
256,0,75668,1,4,0:0:0:0:
256,320,75811,5,0,0:0:0:0:
128,192,75954,1,0,0:0:0:0:
256,64,76097,1,0,0:0:0:0:
384,192,76239,1,0,0:0:0:0:
256,64,76382,5,0,0:0:0:0:
128,192,76525,1,0,0:0:0:0:
256,320,76668,1,0,0:0:0:0:
384,192,76811,1,0,0:0:0:0:
256,64,76954,5,0,0:0:0:0:
384,192,77097,1,0,0:0:0:0:
256,320,77239,1,0,0:0:0:0:
128,192,77382,1,0,0:0:0:0:
256,320,77525,5,0,0:0:0:0:
384,192,77668,1,0,0:0:0:0:
256,64,77811,1,0,0:0:0:0:
128,192,77954,1,4,0:0:0:0:
512,304,78097,5,0,0:0:0:0:
0,304,78239,2,0,L|80:304,1,75.0000030845403
512,80,78525,6,0,L|432:80,1,75.0000030845403
0,80,78811,1,0,0:0:0:0:
256,384,78954,5,0,0:0:0:0:
256,0,79097,1,0,0:0:0:0:
512,384,79239,1,0,0:0:0:0:
512,0,79382,1,0,0:0:0:0:
256,384,79525,5,0,0:0:0:0:
256,0,79668,1,0,0:0:0:0:
0,384,79811,1,0,0:0:0:0:
256,0,79954,1,0,0:0:0:0:
256,384,80097,5,0,0:0:0:0:
0,0,80239,1,4,0:0:0:0:
256,384,80382,1,0,0:0:0:0:
512,0,80525,1,0,0:0:0:0:
496,384,80668,5,0,0:0:0:0:
256,0,80811,1,0,0:0:0:0:
256,384,80954,1,0,0:0:0:0:
0,0,81097,1,0,0:0:0:0:
0,384,81239,5,0,0:0:0:0:
512,272,81382,1,0,0:0:0:0:
0,176,81525,1,0,0:0:0:0:
512,48,81668,1,0,0:0:0:0:
0,0,81811,5,0,0:0:0:0:
512,160,81954,1,0,0:0:0:0:
0,288,82097,1,0,0:0:0:0:
512,384,82239,1,0,0:0:0:0:
0,160,82382,5,0,0:0:0:0:
512,16,82525,1,4,0:0:0:0:
256,384,82668,1,0,0:0:0:0:
256,0,82811,6,0,L|256:96,1,75.0000030845403
160,384,83097,1,0,0:0:0:0:
256,32,83239,1,0,0:0:0:0:
352,384,83382,1,0,0:0:0:0:
256,64,83525,5,0,0:0:0:0:
160,336,83668,1,0,0:0:0:0:
256,96,83811,1,0,0:0:0:0:
352,304,83954,5,0,0:0:0:0:
256,128,84097,1,0,0:0:0:0:
160,272,84239,1,0,0:0:0:0:
256,176,84382,5,0,0:0:0:0:
224,224,84525,1,0,0:0:0:0:
256,176,84668,1,0,0:0:0:0:
288,224,84811,1,4,0:0:0:0:
112,80,84954,5,0,0:0:0:0:
384,80,85097,1,0,0:0:0:0:
256,320,85239,1,0,0:0:0:0:
48,0,85382,5,0,0:0:0:0:
256,352,85525,1,0,0:0:0:0:
464,0,85668,1,0,0:0:0:0:
256,384,85811,1,0,0:0:0:0:
0,0,85954,6,0,L|64:64,1,75.0000030845403,4|0,0:0|0:0,0:0:0:0:
512,384,86239,1,0,0:0:0:0:
512,0,86382,6,0,L|448:64,1,75.0000030845403,4|0,0:0|0:0,0:0:0:0:
0,384,86668,1,0,0:0:0:0:
256,0,86811,5,4,0:0:0:0:
256,384,86954,1,0,0:0:0:0:
256,192,87097,1,4,0:0:0:0:
