osu file format v14

[General]
AudioFilename: HELIX.mp3
AudioLeadIn: 0
PreviewTime: 43888
Countdown: 0
SampleSet: Soft
StackLeniency: 0.7
Mode: 0
LetterboxInBreaks: 0
WidescreenStoryboard: 1

[Editor]
DistanceSpacing: 0.8
BeatDivisor: 4
GridSize: 16
TimelineZoom: 1.2

[Metadata]
Title:Corner Jump Training
TitleUnicode:Corner Jump Training
Artist:Various Artists
ArtistUnicode:Various Artists
Creator:QuadroKiller
Version:ESTi - HELIX (Edit ver.) AR10
Source:
Tags:awolnation run cornerjump practice training ctb hyper dash hyperdash quadrokiller
BeatmapID:1045214
BeatmapSetID:478917

[Difficulty]
HPDrainRate:4
CircleSize:4
OverallDifficulty:8
ApproachRate:10
SliderMultiplier:1.00000000596046
SliderTickRate:1

[Events]
//Background and Video events
0,0,"dgsajkasld.jpg",0,0
//Break Periods
//Storyboard Layer 0 (Background)
//Storyboard Layer 1 (Fail)
//Storyboard Layer 2 (Pass)
//Storyboard Layer 3 (Foreground)
//Storyboard Sound Samples

[TimingPoints]
2746,342.857142857143,4,2,0,100,1,0
10803,-50,4,2,0,100,0,0
13717,-50,4,2,0,100,0,1
32403,-50,4,2,0,100,0,0
44403,-50,4,2,0,100,0,1
54874,-50,4,2,0,100,0,0
98574,-100,4,2,0,100,0,0
120688,-50,4,2,0,100,0,1
133717,-50,4,2,0,100,0,1
134488,-50,4,2,0,100,0,0

[HitObjects]
112,192,2745,5,2,0:0:0:0:
256,64,3088,1,2,0:0:0:0:
400,192,3431,1,2,0:0:0:0:
256,320,3774,1,2,0:0:0:0:
432,192,4117,5,2,0:0:0:0:
256,32,4460,1,2,0:0:0:0:
80,192,4803,1,2,0:0:0:0:
256,352,5146,1,2,0:0:0:0:
432,192,5488,6,2,P|416:128|384:96,1,100.000000596046
128,80,6174,2,2,P|96:128|96:192,1,100.000000596046
160,272,6860,1,2,0:0:0:0:
256,320,7203,1,2,0:0:0:0:
352,272,7546,1,2,0:0:0:0:
400,192,7888,2,2,L|384:128,1,50.000000298023
384,144,8231,5,2,0:0:0:0:
256,48,8574,1,2,0:0:0:0:
96,144,8917,1,2,0:0:0:0:
160,304,9260,1,2,0:0:0:0:
345,298,9603,2,2,P|409:250|425:218,1,100.000000596046
180,52,10288,2,2,P|132:84|100:132,1,100.000000596046
128,288,10974,5,8,0:0:0:0:
384,224,11145,1,8,0:0:0:0:
128,160,11317,1,8,0:0:0:0:
384,112,11488,1,8,0:0:0:0:
128,48,11660,2,12,P|64:96|48:144,1,100.000000596046
320,304,12003,2,12,P|384:256|400:208,1,100.000000596046
112,288,12346,5,8,0:0:0:0:
352,112,12517,1,8,0:0:0:0:
80,160,12688,1,8,0:0:0:0:
352,288,12860,1,8,0:0:0:0:
80,64,13031,2,12,L|192:96,1,100.000000596046
432,320,13374,2,12,L|320:288,1,100.000000596046
32,224,13717,5,10,0:0:0:0:
480,144,13888,1,8,0:0:0:0:
32,96,14060,1,10,0:0:0:0:
480,288,14231,1,8,0:0:0:0:
32,336,14403,1,8,0:0:0:0:
480,48,14574,1,10,0:0:0:0:
32,224,14746,1,8,0:0:0:0:
480,320,14917,1,8,0:0:0:0:
16,48,15088,5,10,0:0:0:0:
480,128,15260,1,8,0:0:0:0:
32,192,15431,1,10,0:0:0:0:
480,256,15603,1,8,0:0:0:0:
32,96,15774,2,10,P|112:32|128:32,1,100.000000596046
480,288,16117,2,10,P|432:352|384:368,1,100.000000596046
32,304,16460,1,10,0:0:0:0:
160,32,16631,1,8,0:0:0:0:
256,352,16803,1,10,0:0:0:0:
368,32,16974,1,8,0:0:0:0:
480,208,17146,1,8,0:0:0:0:
32,304,17317,5,10,0:0:0:0:
464,32,17488,1,10,0:0:0:0:
32,80,17660,1,10,0:0:0:0:
480,304,17831,1,8,0:0:0:0:
32,224,18003,1,10,0:0:0:0:
480,96,18174,1,8,0:0:0:0:
32,32,18346,1,8,0:0:0:0:
256,32,18517,5,10,0:0:0:0:
96,192,18688,1,8,0:0:0:0:
256,352,18860,1,8,0:0:0:0:
416,192,19031,1,10,0:0:0:0:
32,96,19203,5,8,0:0:0:0:
480,320,19374,1,10,0:0:0:0:
32,272,19546,1,8,0:0:0:0:
480,64,19717,1,8,0:0:0:0:
32,64,19888,1,10,0:0:0:0:
480,240,20060,1,8,0:0:0:0:
32,352,20231,1,8,0:0:0:0:
480,64,20403,1,10,0:0:0:0:
80,304,20574,5,8,0:0:0:0:
256,64,20746,1,10,0:0:0:0:
432,304,20917,1,8,0:0:0:0:
480,48,21088,5,8,0:0:0:0:
32,192,21260,1,10,0:0:0:0:
480,336,21431,1,8,0:0:0:0:
32,48,21603,1,8,0:0:0:0:
480,144,21774,1,10,0:0:0:0:
32,320,21946,1,8,0:0:0:0:
32,48,22117,5,10,0:0:0:0:
480,48,22288,1,8,0:0:0:0:
32,144,22460,1,8,0:0:0:0:
480,144,22631,1,10,0:0:0:0:
32,240,22803,1,8,0:0:0:0:
480,240,22974,1,8,0:0:0:0:
32,32,23146,1,10,0:0:0:0:
480,336,23317,1,8,0:0:0:0:
96,192,23488,5,10,0:0:0:0:
256,32,23660,1,8,0:0:0:0:
416,192,23831,1,8,0:0:0:0:
256,352,24003,1,10,0:0:0:0:
416,192,24174,5,8,0:0:0:0:
256,32,24346,1,8,0:0:0:0:
96,192,24517,1,10,0:0:0:0:
256,352,24688,1,8,0:0:0:0:
48,112,24860,6,10,P|144:48|160:48,1,100.000000596046
464,256,25203,2,8,P|384:336|368:336,1,100.000000596046
32,336,25546,1,8,0:0:0:0:
480,32,25717,1,10,0:0:0:0:
32,160,25888,1,8,0:0:0:0:
480,256,26060,5,8,0:0:0:0:
336,32,26231,1,8,0:0:0:0:
256,352,26403,1,10,0:0:0:0:
144,32,26574,1,8,0:0:0:0:
0,256,26746,1,8,0:0:0:0:
496,128,26917,1,8,0:0:0:0:
16,128,27088,1,10,0:0:0:0:
496,352,27260,1,8,0:0:0:0:
112,48,27431,5,8,0:0:0:0:
384,48,27603,1,8,0:0:0:0:
384,320,27774,1,10,0:0:0:0:
112,320,27946,1,8,0:0:0:0:
480,192,28117,5,8,0:0:0:0:
32,80,28288,1,8,0:0:0:0:
480,304,28460,1,10,0:0:0:0:
32,304,28631,1,8,0:0:0:0:
480,48,28803,1,8,0:0:0:0:
32,176,28974,1,8,0:0:0:0:
480,352,29146,1,10,0:0:0:0:
32,352,29317,1,8,0:0:0:0:
368,64,29488,5,8,0:0:0:0:
112,224,29660,1,8,0:0:0:0:
448,176,29831,1,10,0:0:0:0:
32,64,30003,1,8,0:0:0:0:
80,192,30174,5,8,0:0:0:0:
352,320,30346,1,8,0:0:0:0:
176,48,30517,1,10,0:0:0:0:
400,160,30688,1,8,0:0:0:0:
272,288,30860,5,2,0:0:0:0:
224,304,30946,1,2,0:0:0:0:
176,288,31031,1,2,0:0:0:0:
144,256,31117,1,2,0:0:0:0:
128,224,31203,1,2,0:0:0:0:
144,192,31288,1,2,0:0:0:0:
160,176,31374,1,2,0:0:0:0:
176,160,31460,1,2,0:0:0:0:
192,144,31546,1,2,0:0:0:0:
384,96,31717,5,8,0:0:0:0:
336,192,32060,1,8,0:0:0:0:
256,240,32403,1,8,0:0:0:0:
400,48,32917,6,0,P|464:240|464:272,1,200.000001192092
128,304,33603,2,0,P|80:224|64:112,1,200.000001192092
256,64,34288,1,0,0:0:0:0:
368,224,34631,1,0,0:0:0:0:
144,144,34974,1,0,0:0:0:0:
192,320,35317,1,0,0:0:0:0:
416,80,35660,6,0,P|480:112|512:144,2,100.000000596046
256,64,36175,1,0,0:0:0:0:
128,192,36346,1,0,0:0:0:0:
256,320,36517,1,0,0:0:0:0:
384,192,36689,1,0,0:0:0:0:
192,64,36860,5,0,0:0:0:0:
144,272,37031,1,0,0:0:0:0:
64,144,37203,1,0,0:0:0:0:
272,176,37374,1,0,0:0:0:0:
272,48,37546,5,0,0:0:0:0:
384,288,37717,1,0,0:0:0:0:
448,96,37888,1,0,0:0:0:0:
192,224,38060,1,0,0:0:0:0:
64,96,38231,6,0,P|176:48|192:48,1,100.000000596046
432,288,38574,2,0,P|352:336|304:352,1,100.000000596046
32,224,38917,1,0,0:0:0:0:
368,144,39088,1,0,0:0:0:0:
96,80,39260,1,0,0:0:0:0:
192,304,39431,1,0,0:0:0:0:
256,48,39603,1,0,0:0:0:0:
352,240,39774,1,0,0:0:0:0:
416,96,39946,6,0,L|304:96,1,100.000000596046
96,192,40288,2,0,L|208:192,1,100.000000596046
432,320,40631,2,0,L|288:320,1,100.000000596046
416,176,40974,2,0,L|416:64,1,100.000000596046
272,272,41317,5,0,0:0:0:0:
176,176,41488,1,2,0:0:0:0:
288,80,41660,2,2,P|112:64|96:80,1,200.000001192092
32,256,42174,1,2,0:0:0:0:
480,336,42346,1,2,0:0:0:0:
32,32,42517,1,2,0:0:0:0:
480,96,42688,1,2,0:0:0:0:
32,352,42860,1,2,0:0:0:0:
480,240,43031,1,2,0:0:0:0:
32,224,43203,1,2,0:0:0:0:
480,128,43374,1,2,0:0:0:0:
32,64,43546,1,0,0:0:0:0:
128,304,43717,1,0,0:0:0:0:
464,240,43888,6,4,P|368:336|288:336,1,200.000001192092
32,96,44403,1,2,0:0:0:0:
480,144,44574,1,2,0:0:0:0:
32,320,44746,1,2,0:0:0:0:
480,256,44917,1,2,0:0:0:0:
16,16,45088,1,2,0:0:0:0:
512,96,45260,1,2,0:0:0:0:
0,176,45431,1,2,0:0:0:0:
512,352,45603,1,2,0:0:0:0:
0,320,45774,1,2,0:0:0:0:
448,112,45946,6,2,B|448:16|448:16|336:64|336:64,1,200.000001192092
144,224,46460,1,2,0:0:0:0:
336,256,46631,1,6,0:0:0:0:
192,80,46803,1,4,0:0:0:0:
496,288,46974,5,2,0:0:0:0:
0,64,47146,1,2,0:0:0:0:
512,80,47317,1,2,0:0:0:0:
0,368,47488,1,2,0:0:0:0:
512,320,47660,1,2,0:0:0:0:
0,240,47831,1,2,0:0:0:0:
0,240,47917,1,0,0:0:0:0:
0,240,48003,1,0,0:0:0:0:
512,176,48174,1,2,0:0:0:0:
0,48,48346,1,2,0:0:0:0:
208,384,48517,1,2,0:0:0:0:
464,64,48688,6,2,B|368:16|368:16|320:144,1,200.000001192092
224,352,49203,1,2,0:0:0:0:
48,240,49374,1,2,0:0:0:0:
160,80,49546,1,0,0:0:0:0:
320,176,49717,1,0,0:0:0:0:
0,48,49888,5,2,0:0:0:0:
512,144,50060,1,2,0:0:0:0:
0,336,50231,1,2,0:0:0:0:
512,272,50403,1,2,0:0:0:0:
0,192,50574,1,2,0:0:0:0:
0,192,50660,1,0,0:0:0:0:
0,192,50746,1,0,0:0:0:0:
352,384,50917,1,0,0:0:0:0:
304,0,51088,1,0,0:0:0:0:
0,288,51260,5,2,0:0:0:0:
512,176,51431,1,2,0:0:0:0:
0,80,51603,1,2,0:0:0:0:
512,256,51774,1,2,0:0:0:0:
0,304,51946,1,2,0:0:0:0:
320,48,52117,2,4,P|432:64|480:160,1,200.000001192092
256,304,52631,1,4,0:0:0:0:
64,192,52803,6,2,P|80:112|128:80,1,100.000000596046
368,160,53146,1,2,0:0:0:0:
256,48,53317,1,2,0:0:0:0:
240,256,53488,6,4,P|288:320|336:320,1,100.000000596046
496,176,53831,1,4,0:0:0:0:
16,144,54003,1,4,0:0:0:0:
176,64,54174,1,2,0:0:0:0:
225,65,54259,1,2,0:0:0:0:
252,105,54345,1,2,0:0:0:0:
255,155,54431,1,2,0:0:0:0:
256,205,54516,1,2,0:0:0:0:
263,254,54602,1,2,0:0:0:0:
288,297,54688,1,2,0:0:0:0:
332,319,54773,1,2,0:0:0:0:
384,304,54860,1,0,0:0:0:0:
448,144,55032,6,0,P|416:80|368:64,1,100.000000596046
368,288,55374,2,0,P|304:272|272:240,1,100.000000596046
208,64,55717,1,0,0:0:0:0:
96,224,55889,1,0,0:0:0:0:
320,144,56060,1,0,0:0:0:0:
64,80,56232,1,0,0:0:0:0:
224,304,56403,6,0,P|272:320|320:288,1,100.000000596046
80,192,56746,2,0,P|48:144|64:96,1,100.000000596046
256,64,57088,1,0,0:0:0:0:
352,80,57260,1,0,0:0:0:0:
240,160,57431,1,0,0:0:0:0:
368,192,57603,1,0,0:0:0:0:
176,256,57774,1,0,0:0:0:0:
432,320,57946,1,0,0:0:0:0:
0,288,58117,1,0,0:0:0:0:
512,192,58288,1,0,0:0:0:0:
64,192,58460,1,0,0:0:0:0:
384,128,58631,1,0,0:0:0:0:
160,80,58803,1,0,0:0:0:0:
112,240,58974,6,0,P|144:288|192:320,1,100.000000596046
416,128,59317,2,0,P|368:80|336:64,1,100.000000596046
112,80,59660,1,2,0:0:0:0:
256,192,59831,1,2,0:0:0:0:
256,192,59917,1,2,0:0:0:0:
256,192,60003,1,2,0:0:0:0:
256,192,60088,1,2,0:0:0:0:
256,192,60174,1,2,0:0:0:0:
96,304,60346,6,0,L|208:304,1,100.000000596046
416,80,60688,2,0,L|288:80,1,100.000000596046
96,272,61031,2,0,L|224:304,1,100.000000596046
416,112,61374,2,0,L|304:80,1,100.000000596046
144,224,61717,2,0,L|224:288,1,100.000000596046
368,160,62060,2,0,L|288:96,1,100.000000596046
176,320,62403,5,0,0:0:0:0:
336,64,62574,1,0,0:0:0:0:
256,336,62746,1,0,0:0:0:0:
256,48,62917,1,0,0:0:0:0:
336,320,63088,1,0,0:0:0:0:
176,64,63260,1,0,0:0:0:0:
400,272,63431,1,0,0:0:0:0:
112,112,63603,1,0,0:0:0:0:
432,192,63774,1,0,0:0:0:0:
80,192,63946,1,0,0:0:0:0:
400,112,64117,1,0,0:0:0:0:
112,272,64288,1,0,0:0:0:0:
336,64,64460,6,0,P|240:48|192:48,1,100.000000596046
176,320,64803,2,0,P|256:336|288:336,1,100.000000596046
432,192,65146,5,2,0:0:0:0:
432,192,65231,1,2,0:0:0:0:
432,192,65317,1,2,0:0:0:0:
64,128,65488,1,2,0:0:0:0:
64,240,65660,1,2,0:0:0:0:
336,352,65831,5,0,0:0:0:0:
176,32,66003,1,0,0:0:0:0:
176,352,66174,1,0,0:0:0:0:
336,32,66346,1,0,0:0:0:0:
336,352,66517,1,0,0:0:0:0:
192,32,66688,1,0,0:0:0:0:
192,352,66860,1,0,0:0:0:0:
304,32,67031,1,0,0:0:0:0:
288,352,67203,1,0,0:0:0:0:
240,32,67374,1,0,0:0:0:0:
256,352,67546,5,0,0:0:0:0:
256,32,67717,1,0,0:0:0:0:
432,192,67888,1,0,0:0:0:0:
80,192,68060,1,0,0:0:0:0:
256,16,68231,1,0,0:0:0:0:
256,352,68403,1,0,0:0:0:0:
400,80,68574,2,0,L|304:144,1,100.000000596046
80,320,68917,2,0,L|176:256,1,100.000000596046
448,336,69260,2,0,L|352:272,1,100.000000596046
80,64,69603,2,0,L|176:128,1,100.000000596046
432,64,69946,5,2,0:0:0:0:
48,144,70117,1,2,0:0:0:0:
48,144,70203,1,2,0:0:0:0:
48,144,70288,1,2,0:0:0:0:
432,224,70460,1,2,0:0:0:0:
48,288,70631,1,2,0:0:0:0:
48,288,70717,1,2,0:0:0:0:
48,288,70803,1,2,0:0:0:0:
384,352,70974,1,2,0:0:0:0:
128,32,71146,1,2,0:0:0:0:
320,144,71317,6,0,L|432:128,1,100.000000596046
192,240,71660,2,0,L|80:256,1,100.000000596046
304,112,72003,2,0,L|416:112,1,100.000000596046
208,272,72346,2,0,L|96:272,1,100.000000596046
304,64,72688,2,0,L|416:112,1,100.000000596046
208,320,73031,2,0,L|112:272,1,100.000000596046
144,112,73374,5,2,0:0:0:0:
144,112,73460,1,2,0:0:0:0:
144,112,73546,1,2,0:0:0:0:
336,288,73717,2,2,L|240:208,1,100.000000596046
496,48,74060,6,0,L|496:160,1,100.000000596046
16,336,74403,2,0,L|16:224,1,100.000000596046
432,48,74746,2,0,L|432:160,1,100.000000596046
80,336,75088,2,0,L|80:224,1,100.000000596046
368,48,75431,2,0,L|368:160,1,100.000000596046
144,336,75774,2,0,L|144:224,1,100.000000596046
352,192,76117,1,2,0:0:0:0:
352,192,76203,1,2,0:0:0:0:
352,192,76289,1,2,0:0:0:0:
32,240,76460,1,2,0:0:0:0:
32,128,76631,1,2,0:0:0:0:
480,192,76803,1,2,0:0:0:0:
256,16,77146,5,2,0:0:0:0:
256,368,77317,1,2,0:0:0:0:
0,192,77660,1,2,0:0:0:0:
512,192,77832,1,2,0:0:0:0:
512,192,78174,1,2,0:0:0:0:
0,192,78346,1,2,0:0:0:0:
256,384,78688,1,2,0:0:0:0:
256,0,78860,1,2,0:0:0:0:
256,0,79203,1,2,0:0:0:0:
256,384,79374,1,2,0:0:0:0:
512,384,79888,5,2,0:0:0:0:
0,0,80060,1,2,0:0:0:0:
0,0,80403,1,2,0:0:0:0:
512,384,80574,1,2,0:0:0:0:
512,384,80917,1,2,0:0:0:0:
0,0,81088,1,2,0:0:0:0:
0,0,81431,1,2,0:0:0:0:
512,384,81603,1,2,0:0:0:0:
512,384,81946,1,2,0:0:0:0:
0,0,82117,1,2,0:0:0:0:
0,384,82632,5,2,0:0:0:0:
512,0,82803,1,2,0:0:0:0:
256,384,83146,1,2,0:0:0:0:
256,0,83317,1,2,0:0:0:0:
496,384,83660,1,2,0:0:0:0:
0,0,83831,1,2,0:0:0:0:
0,0,84174,1,2,0:0:0:0:
496,384,84346,1,2,0:0:0:0:
512,0,84688,1,2,0:0:0:0:
0,384,84860,1,2,0:0:0:0:
0,192,85374,5,2,0:0:0:0:
512,192,85546,1,2,0:0:0:0:
64,240,85888,1,2,0:0:0:0:
448,144,86060,1,2,0:0:0:0:
128,272,86403,1,2,0:0:0:0:
384,96,86574,1,2,0:0:0:0:
208,256,86917,1,2,0:0:0:0:
320,128,87088,1,2,0:0:0:0:
256,192,87431,1,2,0:0:0:0:
256,192,87603,1,2,0:0:0:0:
256,192,87774,5,0,0:0:0:0:
272,144,87946,1,0,0:0:0:0:
240,240,88117,1,0,0:0:0:0:
288,96,88288,1,0,0:0:0:0:
240,288,88460,1,0,0:0:0:0:
256,64,88631,1,0,0:0:0:0:
272,336,88803,1,0,0:0:0:0:
192,48,88974,1,0,0:0:0:0:
336,336,89146,1,0,0:0:0:0:
80,64,89317,1,0,0:0:0:0:
448,304,89488,1,0,0:0:0:0:
0,128,89660,1,0,0:0:0:0:
512,240,89831,1,0,0:0:0:0:
0,224,90003,1,0,0:0:0:0:
0,224,90174,6,2,P|32:272|64:304,1,100.000000596046
480,64,90517,1,0,0:0:0:0:
80,384,90688,1,0,0:0:0:0:
400,0,90860,1,0,0:0:0:0:
208,384,91031,1,0,0:0:0:0:
304,0,91203,1,0,0:0:0:0:
320,384,91374,1,0,0:0:0:0:
176,0,91546,1,0,0:0:0:0:
416,384,91717,1,0,0:0:0:0:
80,0,91888,1,0,0:0:0:0:
512,320,92060,1,0,0:0:0:0:
0,32,92231,1,0,0:0:0:0:
512,224,92403,1,0,0:0:0:0:
0,128,92574,1,0,0:0:0:0:
512,112,92746,1,0,0:0:0:0:
0,256,92917,1,2,0:0:0:0:
0,256,93088,6,0,P|32:304|80:336,1,100.000000596046
384,32,93431,1,0,0:0:0:0:
112,336,93603,1,0,0:0:0:0:
272,64,93774,1,0,0:0:0:0:
208,304,93946,1,0,0:0:0:0:
192,96,94117,1,0,0:0:0:0:
288,256,94288,1,0,0:0:0:0:
160,160,94460,1,0,0:0:0:0:
304,192,94631,5,0,0:0:0:0:
256,64,94803,1,0,0:0:0:0:
176,272,94974,1,0,0:0:0:0:
368,112,95146,1,0,0:0:0:0:
80,96,95317,1,0,0:0:0:0:
320,272,95488,1,0,0:0:0:0:
128,336,95660,1,0,0:0:0:0:
208,0,95831,1,0,0:0:0:0:
480,256,96003,5,8,0:0:0:0:
400,80,96174,1,8,0:0:0:0:
384,224,96346,1,8,0:0:0:0:
304,128,96517,1,8,0:0:0:0:
304,272,96688,5,2,0:0:0:0:
256,256,96774,1,2,0:0:0:0:
208,224,96860,1,2,0:0:0:0:
192,176,96945,1,2,0:0:0:0:
160,128,97031,1,2,0:0:0:0:
112,112,97117,1,2,0:0:0:0:
64,128,97203,1,2,0:0:0:0:
48,176,97288,1,2,0:0:0:0:
64,224,97374,1,2,0:0:0:0:
400,240,98746,6,0,P|320:256|288:256,1,100.000000596046
112,144,99431,2,0,P|208:128|224:128,1,100.000000596046
64,320,100117,5,0,0:0:0:0:
416,112,100460,1,0,0:0:0:0:
416,112,100631,1,0,0:0:0:0:
416,112,100803,2,0,P|352:64|320:64,1,100.000000596046
96,80,101488,5,0,0:0:0:0:
480,192,101831,1,0,0:0:0:0:
368,336,102174,2,0,P|288:352|256:352,1,100.000000596046
80,208,102860,1,0,0:0:0:0:
432,64,103374,2,0,L|368:96,1,50.000000298023
0,320,103888,5,0,0:0:0:0:
512,192,104060,1,0,0:0:0:0:
0,48,104231,1,0,0:0:0:0:
144,224,104574,1,0,0:0:0:0:
272,64,104917,6,0,P|320:80|368:128,1,100.000000596046
240,320,105603,2,0,P|160:272|144:256,1,100.000000596046
96,48,106288,2,0,P|80:128|96:160,1,100.000000596046
400,336,106974,2,0,P|416:272|400:224,1,100.000000596046
96,208,107660,2,0,P|160:192|208:208,1,100.000000596046
416,160,108346,2,0,P|352:176|304:160,1,100.000000596046
256,288,109031,1,0,0:0:0:0:
80,272,109374,5,0,0:0:0:0:
448,64,109546,1,0,0:0:0:0:
128,192,109717,2,0,P|176:240|224:256,1,100.000000596046
400,192,110403,2,0,P|368:160|304:128,1,100.000000596046
96,240,111088,2,0,P|160:272|192:272,1,100.000000596046
416,128,111774,2,0,P|352:112|304:112,1,100.000000596046
80,288,112460,2,0,L|192:288,1,100.000000596046
432,112,113146,2,0,L|320:112,1,100.000000596046
208,288,113831,1,0,0:0:0:0:
80,64,114346,5,0,0:0:0:0:
432,320,114518,1,0,0:0:0:0:
64,240,114860,5,0,0:0:0:0:
368,48,115031,1,0,0:0:0:0:
176,304,115203,2,0,P|256:288|288:272,1,100.000000596046
352,64,115888,2,0,P|272:80|240:96,1,100.000000596046
224,288,116574,5,0,0:0:0:0:
288,96,116917,1,0,0:0:0:0:
288,240,117260,1,0,0:0:0:0:
224,160,117603,1,0,0:0:0:0:
400,352,117946,6,0,P|464:320|480:288,1,100.000000596046
96,32,118631,2,0,P|48:48|16:96,1,100.000000596046
368,288,119317,5,8,0:0:0:0:
208,304,119488,1,8,0:0:0:0:
384,144,119660,1,8,0:0:0:0:
80,272,119831,1,8,0:0:0:0:
64,128,120003,5,2,0:0:0:0:
96,96,120088,1,2,0:0:0:0:
144,64,120174,1,2,0:0:0:0:
192,48,120260,1,2,0:0:0:0:
272,48,120346,1,2,0:0:0:0:
352,80,120431,1,2,0:0:0:0:
416,144,120517,1,2,0:0:0:0:
432,240,120603,1,2,0:0:0:0:
400,320,120688,1,2,0:0:0:0:
144,352,120860,5,8,0:0:0:0:
32,128,121031,1,8,0:0:0:0:
288,144,121203,1,2,0:0:0:0:
0,352,121374,5,2,0:0:0:0:
512,112,121546,1,2,0:0:0:0:
0,48,121717,1,2,0:0:0:0:
512,288,121888,1,2,0:0:0:0:
0,176,122060,1,2,0:0:0:0:
512,0,122231,1,2,0:0:0:0:
0,320,122403,1,2,0:0:0:0:
512,368,122574,1,2,0:0:0:0:
96,0,122746,1,2,0:0:0:0:
400,384,122917,1,2,0:0:0:0:
240,0,123088,1,2,0:0:0:0:
176,384,123260,1,2,0:0:0:0:
416,0,123431,5,8,0:0:0:0:
0,320,123603,1,8,0:0:0:0:
512,96,123774,1,8,0:0:0:0:
0,208,123946,1,2,0:0:0:0:
512,224,124117,1,2,0:0:0:0:
0,96,124288,1,2,0:0:0:0:
512,320,124460,1,2,0:0:0:0:
0,288,124631,1,2,0:0:0:0:
0,288,124717,1,2,0:0:0:0:
0,288,124802,1,2,0:0:0:0:
512,96,124974,1,2,0:0:0:0:
0,160,125146,1,2,0:0:0:0:
512,304,125317,1,2,0:0:0:0:
0,32,125488,1,2,0:0:0:0:
416,384,125660,1,2,0:0:0:0:
144,0,125831,1,2,0:0:0:0:
224,384,126003,1,2,0:0:0:0:
288,0,126174,5,8,0:0:0:0:
112,384,126346,1,8,0:0:0:0:
448,0,126517,1,8,0:0:0:0:
0,320,126688,1,2,0:0:0:0:
512,96,126860,1,2,0:0:0:0:
0,208,127031,1,2,0:0:0:0:
512,256,127203,1,2,0:0:0:0:
0,96,127374,1,2,0:0:0:0:
0,96,127460,1,2,0:0:0:0:
0,96,127546,1,2,0:0:0:0:
512,160,127717,1,2,0:0:0:0:
0,272,127888,1,2,0:0:0:0:
512,32,128060,1,2,0:0:0:0:
96,384,128231,1,2,0:0:0:0:
384,0,128403,1,2,0:0:0:0:
256,384,128574,1,2,0:0:0:0:
208,0,128746,1,2,0:0:0:0:
400,384,128917,5,8,0:0:0:0:
96,0,129088,1,8,0:0:0:0:
512,304,129260,1,8,0:0:0:0:
0,64,129431,1,2,0:0:0:0:
512,160,129603,1,2,0:0:0:0:
0,256,129774,1,2,0:0:0:0:
512,32,129946,1,2,0:0:0:0:
112,384,130117,1,2,0:0:0:0:
112,384,130203,1,2,0:0:0:0:
112,384,130288,1,2,0:0:0:0:
384,0,130460,1,2,0:0:0:0:
256,384,130631,1,2,0:0:0:0:
224,0,130803,1,2,0:0:0:0:
416,384,130974,1,2,0:0:0:0:
64,0,131146,1,2,0:0:0:0:
512,272,131317,1,2,0:0:0:0:
0,96,131488,1,2,0:0:0:0:
448,160,131660,1,2,0:0:0:0:
64,224,131831,1,2,0:0:0:0:
352,80,132003,6,2,P|240:80|224:96,1,100.000000596046
288,272,132346,1,2,0:0:0:0:
192,112,132517,1,2,0:0:0:0:
80,256,132688,1,2,0:0:0:0:
384,112,132860,1,2,0:0:0:0:
54,113,133031,2,12,P|113:68|145:52,1,100.000000596046
464,293,133374,2,12,P|403:336|355:352,1,100.000000596046
76,279,133717,5,0,0:0:0:0:
68,204,133802,1,0,0:0:0:0:
89,133,133888,1,0,0:0:0:0:
134,73,133974,1,0,0:0:0:0:
197,34,134059,1,0,0:0:0:0:
271,21,134145,1,0,0:0:0:0:
344,35,134231,1,0,0:0:0:0:
407,75,134317,1,0,0:0:0:0:
451,135,134402,1,4,0:0:0:0:
256,192,134488,12,4,138517,0:0:0:0:
