osu file format v14

[General]
AudioFilename: deltaMAX.mp3
AudioLeadIn: 0
PreviewTime: 50149
Countdown: 1
SampleSet: Normal
StackLeniency: 0.7
Mode: 0
LetterboxInBreaks: 1
WidescreenStoryboard: 1

[Editor]
Bookmarks: 11850,28439,41420,52084,61137,75952,87824,97731,106231,113676,116246
DistanceSpacing: 1
BeatDivisor: 1
GridSize: 8
TimelineZoom: 1.7

[Metadata]
Title:Corner Jump Training
TitleUnicode:Corner Jump Training
Artist:Various Artists
ArtistUnicode:Various Artists
Creator:QuadroKiller
Version:DM Ashura - deltaMAX
Source:
Tags:awolnation run cornerjump practice training ctb hyper dash hyperdash quadrokiller
BeatmapID:1151834
BeatmapSetID:478917

[Difficulty]
HPDrainRate:0
CircleSize:4
OverallDifficulty:10
ApproachRate:10
SliderMultiplier:2.5
SliderTickRate:0.5

[Events]
//Background and Video events
0,0,"deltaMAX-bg.png",0,0
Video,350,"deltaMAX.avi"
//Break Periods
//Storyboard Layer 0 (Background)
//Storyboard Layer 1 (Fail)
//Storyboard Layer 2 (Pass)
//Storyboard Layer 3 (Foreground)
//Storyboard Sound Samples

[TimingPoints]
308,600,4,1,0,100,1,0
9908,594.088816278034,4,1,0,100,1,0
10502,588.264130594637,4,1,0,100,1,0
11090,582.552551094713,4,1,0,100,1,0
11673,576.950814943026,4,1,0,100,1,0
12250,571.455783608743,4,1,0,100,1,0
12821,566.064437001745,4,1,0,100,1,0
13387,560.773867937754,4,1,0,100,1,0
13948,555.581276910968,4,1,0,100,1,0
14504,550.483967154457,4,1,0,100,1,0
15054,545.479339969999,4,1,0,100,1,0
15599,540.564890310374,4,1,0,100,1,0
16140,535.73820259833,4,1,0,100,1,0
16676,530.996946767556,4,1,0,100,1,0
17207,526.33887451204,4,1,0,100,1,0
17733,521.761815731119,4,1,0,100,1,0
18255,517.263675158412,4,1,0,100,1,0
18772,512.84242916364,4,1,0,100,1,0
19285,508.496122717064,4,1,0,100,1,0
19793,504.222866506996,4,1,0,100,1,0
20297,500.020834201425,4,1,0,100,1,0
20797,495.888259845448,4,1,0,100,1,0
21293,491.823435386696,4,1,0,100,1,0
21785,487.824708321476,4,1,0,100,1,0
22273,483.890479454817,4,1,0,100,1,0
22757,480.019200768031,4,1,0,100,1,0
23237,476.209373387833,4,1,0,100,1,0
23713,472.459545651404,4,1,0,100,1,0
24185,468.768311262159,4,1,0,100,1,0
24654,465.1343075313,4,1,0,100,1,0
25119,461.556213700527,4,1,0,100,1,0
25581,458.032749341578,4,1,0,100,1,0
26039,454.562672828516,4,1,0,100,1,0
26494,451.144779878943,4,1,0,100,1,0
26945,447.777902160528,4,1,0,100,1,0
27393,444.46090595948,4,1,0,100,1,0
27837,441.192690907754,4,1,0,100,1,0
28278,437.972188766013,4,1,0,100,1,0
28716,434.798362259502,4,1,0,100,1,0
29151,431.670203964171,4,1,0,100,1,0
29583,428.586735240544,4,1,0,100,1,0
30012,425.547005212951,4,1,0,100,1,0
30438,422.550089791894,4,1,0,100,1,0
30861,419.595090737438,4,1,0,100,1,0
31281,416.681134761624,4,1,0,100,1,0
31698,413.807372668023,4,1,0,100,1,0
32112,410.972978526662,4,1,0,100,1,0
32523,408.177148882615,4,1,0,100,1,0
32931,405.419101996689,4,1,0,100,1,0
33336,402.698077116682,4,1,0,100,1,0
33739,400.013333777793,4,1,0,100,1,0
34139,397.364151130832,4,1,0,100,1,0
34536,394.749827296951,4,1,0,100,1,0
34931,392.169678747671,4,1,0,100,1,0
35323,389.623039709081,4,1,0,100,1,0
35713,387.109261589084,4,1,0,100,1,0
36100,384.62771242668,4,1,0,100,1,0
36485,382.177776362305,4,1,0,100,1,0
36867,379.758853128264,4,1,0,100,1,0
37247,377.370357558414,4,1,0,100,1,0
37624,375.011719116222,4,1,0,100,1,0
37999,372.682381440417,4,1,0,100,1,0
38372,370.381801907466,4,1,0,100,1,0
38742,368.10945121016,4,1,0,100,1,0
39110,365.864812951614,4,1,0,100,1,0
39476,363.647383254038,4,1,0,100,1,0
39840,361.456670381638,4,1,0,100,1,0
40201,359.292194377077,4,1,0,100,1,0
40560,357.153486710914,4,1,0,100,1,0
40917,355.040089943489,4,1,0,100,1,0
41272,352.951557398747,4,1,0,100,1,0
41625,350.887452849499,4,1,0,100,1,0
41976,348.847350213669,4,1,0,100,1,0
42325,346.830833261077,4,1,0,100,1,0
42672,344.837495330326,4,1,0,100,1,0
43017,342.866939055402,4,1,0,100,1,0
43360,340.918776101594,4,1,0,100,1,0
43701,338.992626910365,4,1,0,100,1,0
44040,337.088120452822,4,1,0,100,1,0
44377,335.204893991452,4,1,0,100,1,0
44712,333.342592849801,4,1,0,100,1,0
45045,331.500870189784,4,1,0,100,1,0
45377,329.679386796341,4,1,0,100,1,0
45707,327.877810869149,4,1,0,100,1,0
46035,326.095817821136,4,1,0,100,1,0
46361,324.333090083516,4,1,0,100,1,0
46685,322.589316917121,4,1,0,100,1,0
47008,320.864194229792,4,1,0,100,1,0
47329,319.157424399585,4,1,0,100,1,0
47648,317.468716103601,4,1,0,100,1,0
47965,315.797784152215,4,1,0,100,1,0
48281,314.144349328516,4,1,0,100,1,0
48595,312.508138232766,4,1,0,100,1,0
48908,310.888883131687,4,1,0,100,1,0
49219,309.286321812418,4,1,0,100,1,0
49528,307.70019744096,4,1,0,100,1,0
49836,306.13025842496,4,1,0,100,1,0
50142,304.576258280667,4,1,0,100,1,1
50447,303.037955503927,4,1,0,100,1,1
50750,301.515113445061,4,1,0,100,1,1
51052,300.007500187505,4,1,0,100,1,1
51352,298.51488843006,4,1,0,100,1,1
51651,297.037055372658,4,1,0,100,1,1
51948,295.573782605483,4,1,0,100,1,1
52244,294.124856001373,4,1,0,100,1,1
52538,292.690065611356,4,1,0,100,1,1
52831,291.269205563242,4,1,0,100,1,1
53122,289.862073963139,4,1,0,100,1,1
53412,288.468472799827,4,1,0,100,1,1
53700,287.088207851862,4,1,0,100,1,1
53987,285.721088597348,4,1,0,100,1,1
54273,284.366928126259,4,1,0,100,1,1
54557,283.025543055261,4,1,0,100,1,1
54840,281.696753444917,4,1,0,100,1,1
55122,280.380382719222,4,1,0,100,1,1
55402,279.076257587386,4,1,0,100,1,1
55681,277.784207967777,4,1,0,100,1,1
55959,276.504066913984,4,1,0,100,1,1
56236,275.235670542902,4,1,0,100,1,1
56511,273.978857964794,4,1,0,100,1,1
56785,272.733471215255,4,1,0,100,1,1
57058,271.499355189031,4,1,0,100,1,1
57329,270.276357575621,4,1,0,100,1,1
57599,269.06432879661,4,1,0,100,1,1
57868,267.863121944686,4,1,0,100,1,1
58136,266.672592724283,4,1,0,100,1,1
58403,265.492599393792,4,1,0,100,1,1
58668,264.323002709311,4,1,0,100,1,1
58932,263.163665869866,4,1,0,100,1,1
59195,262.014454464071,4,1,0,100,1,1
59457,260.875236418183,4,1,0,100,1,0
59718,259.745881945497,4,1,0,100,1,0
59978,258.626263497058,4,1,0,100,1,0
60237,257.516255713642,4,1,0,100,1,0
60495,256.415735378961,4,1,0,100,1,0
60751,255.324581374072,4,1,0,100,1,0
61006,254.242674632937,4,1,0,100,1,0
61260,253.169898099116,4,1,0,100,1,0
61513,252.106136683544,4,1,0,100,1,0
61765,251.051277223373,4,1,0,100,1,0
62016,250.005208441843,4,1,0,100,1,0
62266,248.967820909147,4,1,0,100,1,0
62515,247.939007004277,4,1,0,100,1,0
62762,246.918660877796,4,1,0,100,1,0
63010,245.906678415541,4,1,0,100,1,0
63256,244.902957203208,4,1,0,100,1,0
63501,243.907396491799,4,1,0,100,1,0
63745,242.91989716391,4,1,0,100,1,0
63988,241.940361700841,4,1,0,100,1,0
64230,240.968694150485,4,1,0,100,1,0
64471,240.004800096002,4,1,0,100,1,0
64711,239.048586625232,4,1,0,100,1,0
64950,238.099962300839,4,1,0,100,1,0
65188,237.158837131169,4,1,0,100,1,0
65425,236.225122541782,4,1,0,100,1,0
65661,235.298731347673,4,1,0,100,1,0
65896,234.379577726127,4,1,0,100,1,0
66130,233.467577190218,4,1,0,100,1,0
66363,232.562646562918,4,1,0,100,1,0
66595,231.664703951814,4,1,0,100,1,0
66828,230.773668724399,4,1,0,100,1,0
67059,229.889461483936,4,1,0,100,1,0
67289,229.012004045879,4,1,0,100,1,0
67518,228.141219414818,4,1,0,100,1,0
67746,227.277031761965,4,1,0,100,1,0
67973,226.41936640314,4,1,0,100,1,0
68199,225.568149777251,4,1,0,100,1,0
68425,224.72330942527,4,1,0,100,1,0
68650,223.884773969664,4,1,0,100,1,0
68874,223.052473094295,4,1,0,100,1,0
69097,222.226337524769,4,1,0,100,1,0
69319,221.406299009207,4,1,0,100,1,0
69540,220.592290299454,4,1,0,100,1,0
69761,219.784245132695,4,1,0,100,1,0
69981,218.982098213471,4,1,0,100,1,0
70200,218.185785196094,4,1,0,100,1,0
70418,217.39524266744,4,1,0,100,1,0
70635,216.610408130111,4,1,0,100,1,0
70852,215.831219985971,4,1,0,100,1,0
71068,215.057617520027,4,1,0,100,1,0
71283,214.289540884659,4,1,0,100,1,0
71497,213.526931084183,4,1,0,100,1,0
71711,212.769729959751,4,1,0,100,1,0
71924,212.017880174561,4,1,0,100,1,0
72136,211.271325199387,4,1,0,100,1,0
72347,210.530009298409,4,1,0,100,1,0
72558,209.793877515341,4,1,0,100,1,0
72768,209.062875659855,4,1,0,100,1,0
72977,208.336950294276,4,1,0,100,1,0
73185,207.616048720566,4,1,0,100,1,0
73393,206.900118967568,4,1,0,100,1,0
73600,206.189109778519,4,1,0,100,1,0
73806,205.482970598812,4,1,0,100,1,0
74011,204.78165156402,4,1,0,100,1,0
74216,204.085103488155,4,1,0,100,1,0
74420,203.393277852167,4,1,0,100,1,0
74623,202.706126792682,4,1,0,100,1,0
74826,202.023603090961,4,1,0,100,1,0
75028,201.345660162083,4,1,0,100,1,0
75229,200.672252044349,4,1,0,100,1,0
75430,200.00333338889,4,1,0,100,1,0
75630,199.338859449493,4,1,0,100,1,0
75829,198.678786072617,4,1,0,100,1,0
76028,198.023069687619,4,1,0,100,1,0
76226,197.371667297159,4,1,0,100,1,0
76423,196.724536467811,4,1,0,100,1,0
76620,196.081635320839,4,1,0,100,1,0
76816,195.442922523168,4,1,0,100,1,0
77011,194.808357278527,4,1,0,100,1,0
77206,194.177899318759,4,1,0,100,1,0
77400,193.551508895305,4,1,0,100,1,0
77594,192.929146770848,4,1,0,100,1,0
77787,192.310774211125,4,1,0,100,1,0
77979,191.696352976885,4,1,0,100,1,0
78171,191.085845316008,4,1,0,100,1,0
78362,190.479213955777,4,1,0,100,1,0
78552,189.876422095286,4,1,0,100,1,0
78742,189.277433398003,4,1,0,100,1,0
78931,188.682211984465,4,1,0,100,1,0
79120,188.090722425116,4,1,0,100,1,0
79308,187.502929733277,4,1,0,100,1,0
79496,186.918799358245,4,1,0,100,1,0
79683,186.338297178528,4,1,0,100,1,0
79869,185.761389495193,4,1,0,100,1,0
80055,185.188043025355,4,1,0,100,1,0
80240,184.618224895768,4,1,0,100,1,0
80424,184.051902636544,4,1,0,100,1,0
80609,183.489044174987,4,1,0,100,1,0
80791,182.92961782954,4,1,0,100,1,0
80975,182.373592303834,4,1,0,100,1,0
81157,181.820936680859,4,1,0,100,1,0
81339,181.271620417227,4,1,0,100,1,0
81520,180.72561333755,4,1,0,100,1,0
81701,180.182885628913,4,1,0,100,1,0
81881,179.643407835447,4,1,0,100,1,0
82061,179.107150852998,4,1,0,100,1,0
82240,178.574085923898,4,1,0,100,1,0
82419,178.044184631819,4,1,0,100,1,0
82597,177.517418896729,4,1,0,100,1,0
82775,176.993760969926,4,1,0,100,1,0
82952,176.473183429168,4,1,0,100,1,0
83128,175.955659173888,4,1,0,100,1,0
83304,175.441161420489,4,1,0,100,1,0
83479,174.929663697722,4,1,0,100,1,0
83654,174.421139842149,4,1,0,100,1,0
83828,173.915563993681,4,1,0,100,1,0
84002,173.412910591194,4,1,0,100,1,0
84175,172.913154368219,4,1,0,100,1,0
84348,172.416270348712,4,1,0,100,1,0
84520,171.922233842892,4,1,0,100,1,0
84692,171.431020443149,4,1,0,100,1,0
84863,170.942606020029,4,1,0,100,1,0
85034,170.456966718277,4,1,0,100,1,0
85204,169.97407895296,4,1,0,100,1,0
85374,169.493919405641,4,1,0,100,1,0
85543,169.016465020634,4,1,0,100,1,0
85712,168.541693001306,4,1,0,100,1,0
85881,168.069580806454,4,1,0,100,1,0
86049,167.600106146734,4,1,0,100,1,0
86217,167.133246981156,4,1,0,100,1,0
86384,166.668981513632,4,1,0,100,1,0
86551,166.207288189587,4,1,0,100,1,0
86717,165.74814569262,4,1,0,100,1,0
86883,165.291532941225,4,1,0,100,1,0
87048,164.837429085564,4,1,0,100,1,0
87213,164.385813504295,4,1,0,100,1,0
87377,163.936665801445,4,1,0,100,1,0
87541,163.489965803349,4,1,0,100,1,0
87704,163.045693555619,4,1,0,100,1,0
87867,162.60382932018,4,1,0,100,1,0
88030,162.164353572346,4,1,0,100,1,0
88192,161.727246997938,4,1,0,100,1,0
88354,161.292490490464,4,1,0,100,1,0
88515,160.860065148326,4,1,0,100,1,0
88676,160.429952272089,4,1,0,100,1,0
88836,160.002133361778,4,1,0,100,1,0
88996,159.57659011423,4,1,0,100,1,0
89156,159.153304420483,4,1,0,100,1,0
89315,158.732258363206,4,1,0,100,1,0
89474,158.313434214172,4,1,0,100,1,0
89632,157.896814431769,4,1,0,100,1,0
89790,157.482381658552,4,1,0,100,1,0
89947,157.070118718831,4,1,0,100,1,0
90104,156.6600086163,4,1,0,100,1,0
90261,156.2520345317,4,1,0,100,1,0
90417,155.846179820517,4,1,0,100,1,0
90573,155.442428010726,4,1,0,100,1,0
90728,155.040762800553,4,1,0,100,1,0
90883,154.641168056289,4,1,0,100,1,0
91038,154.243627810126,4,1,0,100,1,0
91192,153.848126258029,4,1,0,100,1,0
91346,153.454647757644,4,1,0,100,1,0
91499,153.063176826235,4,1,0,100,1,0
91652,152.673698138653,4,1,0,100,1,0
91805,152.286196525337,4,1,0,100,1,0
91957,151.900656970341,4,1,0,100,1,0
92109,151.517064609402,4,1,0,100,1,0
92261,151.135404728019,4,1,0,100,1,0
92412,150.755662759582,4,1,0,100,1,0
92563,150.377824283512,4,1,0,100,1,0
92713,150.001875023438,4,1,0,100,1,0
92863,149.627800845397,4,1,0,100,1,0
93013,149.255587756067,4,1,0,100,1,0
93162,148.885221901016,4,1,0,100,1,0
93311,148.51668956299,4,1,0,100,1,0
93460,148.149977160212,4,1,0,100,1,0
93608,147.78507124472,4,1,0,100,1,0
93756,147.421958500719,4,1,0,100,1,0
93903,147.060625742963,4,1,0,100,1,0
94050,146.701059915158,4,1,0,100,1,0
94197,146.343248088391,4,1,0,100,1,0
94343,145.98717745958,4,1,0,100,1,0
94489,145.632835349944,4,1,0,100,1,0
94635,145.280209203501,4,1,0,100,1,0
94780,144.929286585587,4,1,0,100,1,0
94925,144.580055181388,4,1,0,100,1,0
95070,144.232502794505,4,1,0,100,1,0
95214,143.886617345532,4,1,0,100,1,0
95358,143.542386870656,4,1,0,100,1,0
95502,143.199799520281,4,1,0,100,1,0
95645,142.858843557661,4,1,0,100,1,0
95788,142.51950735757,4,1,0,100,1,0
95931,142.181779404969,4,1,0,100,1,0
96073,141.845648293715,4,1,0,100,1,0
96215,141.511102725268,4,1,0,100,1,0
96357,141.178131507429,4,1,0,100,1,0
96498,140.846723553093,4,1,0,100,1,0
96639,140.516867879015,4,1,0,100,1,0
96780,140.188553604598,4,1,0,100,1,0
96920,139.861769950699,4,1,0,100,1,0
97060,139.536506238445,4,1,0,100,1,0
97200,139.212751888073,4,1,0,100,1,0
97339,138.890496417783,4,1,0,100,1,0
97478,138.569729442603,4,1,0,100,1,0
97617,138.25044067328,4,1,0,100,1,0
97755,137.932619915171,4,1,0,100,1,0
97893,137.616257067168,4,1,0,100,1,0
98031,137.301342120619,4,1,0,100,1,0
98168,136.987865158278,4,1,0,100,1,0
98305,136.675816353261,4,1,0,100,1,0
98442,136.365185968022,4,1,0,100,1,0
98578,136.055964353337,4,1,0,100,1,0
98714,135.748141947307,4,1,0,100,1,0
98850,135.441709274371,4,1,0,100,1,0
98985,135.136656944335,4,1,0,100,1,0
99120,134.832975651412,4,1,0,100,1,0
99255,134.530656173275,4,1,0,100,1,0
99390,134.229689370127,4,1,0,100,1,0
99524,133.930066183774,4,1,0,100,1,0
99658,133.631777636722,4,1,0,100,1,0
99792,133.334814831276,4,1,0,100,1,0
99925,133.039168948658,4,1,0,100,1,0
100058,132.744831248133,4,1,0,100,1,0
100191,132.451793066149,4,1,0,100,1,0
100323,132.160045815483,4,1,0,100,1,0
100455,131.869580984406,4,1,0,100,1,0
100587,131.580390135857,4,1,0,100,1,0
100719,131.292464906618,4,1,0,100,1,0
100850,131.005797006518,4,1,0,100,1,0
100981,130.720378217628,4,1,0,100,1,0
101112,130.436200393483,4,1,0,100,1,0
101242,130.153255458302,4,1,0,100,1,0
101372,129.871535406227,4,1,0,100,1,0
101502,129.591032300565,4,1,0,100,1,0
101632,129.311738273042,4,1,0,100,1,0
101761,129.03364552307,4,1,0,100,1,0
101890,128.756746317021,4,1,0,100,1,0
102019,128.481032987505,4,1,0,100,1,0
102147,128.20649793267,4,1,0,100,1,0
102275,127.933133615497,4,1,0,100,1,0
102403,127.660932563112,4,1,0,100,1,0
102531,127.389887366108,4,1,0,100,1,0
102658,127.119990677867,4,1,0,100,1,0
102785,126.851235213903,4,1,0,100,1,0
102912,126.5836137512,4,1,0,100,1,0
103039,126.31711912757,4,1,0,100,1,0
103165,126.051744241011,4,1,0,100,1,0
103291,125.787482049078,4,1,0,100,1,0
103417,125.524325568259,4,1,0,100,1,0
103543,125.26226787336,4,1,0,100,1,0
103668,125.001302096897,4,1,0,100,1,0
103793,124.741421428497,4,1,0,100,1,0
103918,124.482619114306,4,1,0,100,1,0
104042,124.224888456402,4,1,0,100,1,0
104166,123.968222812219,4,1,0,100,1,0
104290,123.712615593975,4,1,0,100,1,0
104414,123.45806026811,4,1,0,100,1,0
104537,123.204550354726,4,1,0,100,1,0
104660,122.952079427043,4,1,0,100,1,0
104783,122.70064111085,4,1,0,100,1,0
104906,122.45022908397,4,1,0,100,1,0
105028,122.200837075734,4,1,0,100,1,0
105150,121.952458866452,4,1,0,100,1,0
105272,121.705088286899,4,1,0,100,1,0
105394,121.458719217806,4,1,0,100,1,0
105515,121.213345589349,4,1,0,100,1,0
105636,120.968961380659,4,1,0,100,1,0
105757,120.725560619322,4,1,0,100,1,0
105878,120.483137380897,4,1,0,100,1,0
105998,120.241685788435,4,1,0,100,1,0
106118,120.001200012,4,1,0,100,1,0
106238,119.761674268206,4,1,0,100,1,0
106358,119.523102819749,4,1,0,100,1,0
106478,119.28547997495,4,1,0,100,1,0
106597,119.048800087302,4,1,0,100,1,0
106716,118.813057555025,4,1,0,100,1,0
106835,118.578246820621,4,1,0,100,1,0
106954,118.344362370438,4,1,0,100,1,0
107072,118.11139873424,4,1,0,100,1,0
107190,117.879350484779,4,1,0,100,1,0
107308,117.648212237375,4,1,0,100,1,0
107426,117.417978649498,4,1,0,100,1,0
107543,117.188644420356,4,1,0,100,1,0
107660,116.96020429049,4,1,0,100,1,0
107777,116.732653041372,4,1,0,100,1,0
107894,116.505985495005,4,1,0,100,1,0
108011,116.280196513532,4,1,0,100,1,0
108127,116.055280998849,4,1,0,100,1,0
108243,115.831233892219,4,1,0,100,1,0
108359,115.608050173894,4,1,0,100,1,0
108475,115.385724862739,4,1,0,100,1,0
108590,115.164253015864,4,1,0,100,1,0
108705,114.943629728254,4,1,0,100,1,0
108820,114.72385013241,4,1,0,100,1,0
108935,114.50490939799,4,1,0,100,1,0
109050,114.286802731455,4,1,0,100,1,0
109164,114.069525375716,4,1,0,100,1,0
109278,113.853072609797,4,1,0,100,1,0
109392,113.637439748482,4,1,0,100,1,0
109506,113.422622141986,4,1,0,100,1,0
109619,113.208615175615,4,1,0,100,1,0
109732,112.995414269438,4,1,0,100,1,0
109845,112.783014877959,4,1,0,100,1,0
109958,112.571412489798,4,1,0,100,1,0
110071,112.360602627365,4,1,0,100,1,0
110183,112.15058084655,4,1,0,100,1,0
110295,111.941342736406,4,1,0,100,1,0
110407,111.732883918845,4,1,0,100,1,0
110519,111.525200048328,4,1,0,100,1,0
110631,111.318286811566,4,1,0,100,1,0
110742,111.112139927222,4,1,0,100,1,0
110853,110.906755145611,4,1,0,100,1,0
110964,110.702128248416,4,1,0,100,1,0
111075,110.498255048389,4,1,0,100,1,0
111185,110.295131389075,4,1,0,100,1,0
111295,110.092753144524,4,1,0,100,1,0
111405,109.891116219013,4,1,0,100,1,0
111515,109.690216546769,4,1,0,100,1,0
111625,109.490050091698,4,1,0,100,1,0
111734,109.290612847112,4,1,0,100,1,0
111843,109.091900835462,4,1,0,100,1,0
111952,108.893910108077,4,1,0,100,1,0
112061,108.696636744898,4,1,0,100,1,0
112170,108.500076854221,4,1,0,100,1,0
112279,108.304226572442,4,1,0,100,1,0
112387,108.109082063802,4,1,0,100,1,0
112495,107.91463952014,4,1,0,100,1,0
112603,107.720895160639,4,1,0,100,1,0
112711,107.527845231588,4,1,0,100,1,0
112819,107.335486006136,4,1,0,100,1,0
112926,107.143813784052,4,1,0,100,1,0
113033,106.952824891487,4,1,0,100,1,0
113140,106.762515680744,4,1,0,100,1,0
113247,106.57288253004,4,1,0,100,1,0
113354,106.383921843279,4,1,0,100,1,0
113460,106.195630049823,4,1,0,100,1,0
113566,106.008003604272,4,1,0,100,1,0
113672,105.821038986234,4,1,0,100,1,0
113778,105.634732700112,4,1,0,100,1,0
113884,105.449081274879,4,1,0,100,1,0
113989,105.264081263871,4,1,0,100,1,0
114094,105.079729244564,4,1,0,100,1,0
114199,104.896021818373,4,1,0,100,1,0
114304,104.712041884817,4,1,0,100,1,1
114408,-100,4,1,0,100,0,0

[HitObjects]
0,0,9908,5,0,0:0:0:0:
512,0,10502,1,0,0:0:0:0:
0,128,11090,1,0,0:0:0:0:
512,128,11673,1,0,0:0:0:0:
0,256,12250,1,0,0:0:0:0:
512,248,12821,1,0,0:0:0:0:
0,384,13387,1,0,0:0:0:0:
512,384,13947,1,0,0:0:0:0:
512,0,14503,5,0,0:0:0:0:
384,384,15054,1,0,0:0:0:0:
384,0,15599,1,0,0:0:0:0:
256,384,16139,1,0,0:0:0:0:
256,0,16676,1,0,0:0:0:0:
128,384,17206,1,0,0:0:0:0:
128,0,17733,1,0,0:0:0:0:
0,384,18254,1,0,0:0:0:0:
0,0,18772,5,0,0:0:0:0:
512,0,19284,1,0,0:0:0:0:
0,128,19793,1,0,0:0:0:0:
512,128,20297,1,0,0:0:0:0:
0,256,20797,1,0,0:0:0:0:
512,248,21292,1,0,0:0:0:0:
0,384,21785,1,0,0:0:0:0:
512,384,22272,1,0,0:0:0:0:
512,0,22757,5,0,0:0:0:0:
384,384,23237,1,0,0:0:0:0:
384,0,23713,1,0,0:0:0:0:
256,384,24185,1,0,0:0:0:0:
256,0,24654,1,0,0:0:0:0:
128,384,25119,1,0,0:0:0:0:
128,0,25581,1,0,0:0:0:0:
0,384,26039,1,0,0:0:0:0:
0,0,26493,5,0,0:0:0:0:
512,0,26945,1,0,0:0:0:0:
0,128,27392,1,0,0:0:0:0:
512,128,27837,1,0,0:0:0:0:
0,256,28278,1,0,0:0:0:0:
512,248,28716,1,0,0:0:0:0:
0,384,29151,1,0,0:0:0:0:
512,384,29583,1,0,0:0:0:0:
512,0,30012,5,0,0:0:0:0:
384,384,30438,1,0,0:0:0:0:
384,0,30860,1,0,0:0:0:0:
256,384,31280,1,0,0:0:0:0:
256,0,31698,1,0,0:0:0:0:
128,384,32112,1,0,0:0:0:0:
128,0,32523,1,0,0:0:0:0:
0,384,32931,1,0,0:0:0:0:
0,0,33336,5,0,0:0:0:0:
512,0,33738,1,0,0:0:0:0:
0,128,34139,1,0,0:0:0:0:
512,128,34536,1,0,0:0:0:0:
0,256,34931,1,0,0:0:0:0:
512,248,35323,1,0,0:0:0:0:
0,384,35713,1,0,0:0:0:0:
512,384,36100,1,0,0:0:0:0:
512,0,36484,5,0,0:0:0:0:
384,384,36867,1,0,0:0:0:0:
384,0,37246,1,0,0:0:0:0:
256,384,37624,1,0,0:0:0:0:
256,0,37999,1,0,0:0:0:0:
128,384,38372,1,0,0:0:0:0:
128,0,38742,1,0,0:0:0:0:
0,384,39110,1,0,0:0:0:0:
0,0,39475,5,0,0:0:0:0:
512,0,39839,1,0,0:0:0:0:
0,128,40201,1,0,0:0:0:0:
512,128,40560,1,0,0:0:0:0:
0,256,40917,1,0,0:0:0:0:
512,248,41272,1,0,0:0:0:0:
0,384,41625,1,0,0:0:0:0:
512,384,41976,1,0,0:0:0:0:
512,0,42325,5,0,0:0:0:0:
384,384,42671,1,0,0:0:0:0:
384,0,43017,1,0,0:0:0:0:
256,384,43360,1,0,0:0:0:0:
256,0,43701,1,0,0:0:0:0:
128,384,44040,1,0,0:0:0:0:
128,0,44377,1,0,0:0:0:0:
0,384,44712,1,0,0:0:0:0:
0,0,45045,5,0,0:0:0:0:
512,0,45376,1,0,0:0:0:0:
0,128,45706,1,0,0:0:0:0:
512,128,46035,1,0,0:0:0:0:
0,256,46361,1,0,0:0:0:0:
512,248,46685,1,0,0:0:0:0:
0,384,47008,1,0,0:0:0:0:
512,384,47329,1,0,0:0:0:0:
512,0,47648,5,0,0:0:0:0:
384,384,47965,1,0,0:0:0:0:
384,0,48280,1,0,0:0:0:0:
256,384,48595,1,0,0:0:0:0:
256,0,48908,1,0,0:0:0:0:
128,384,49219,1,0,0:0:0:0:
128,0,49528,1,0,0:0:0:0:
0,384,49836,1,0,0:0:0:0:
0,0,50142,5,0,0:0:0:0:
512,0,50446,1,0,0:0:0:0:
0,128,50750,1,0,0:0:0:0:
512,128,51052,1,0,0:0:0:0:
0,256,51352,1,0,0:0:0:0:
512,248,51651,1,0,0:0:0:0:
0,384,51948,1,0,0:0:0:0:
512,384,52244,1,0,0:0:0:0:
512,0,52538,5,0,0:0:0:0:
384,384,52830,1,0,0:0:0:0:
384,0,53122,1,0,0:0:0:0:
256,384,53411,1,0,0:0:0:0:
256,0,53700,1,0,0:0:0:0:
128,384,53987,1,0,0:0:0:0:
128,0,54273,1,0,0:0:0:0:
0,384,54557,1,0,0:0:0:0:
0,0,54840,5,0,0:0:0:0:
512,0,55121,1,0,0:0:0:0:
0,128,55402,1,0,0:0:0:0:
512,128,55681,1,0,0:0:0:0:
0,256,55958,1,0,0:0:0:0:
512,248,56236,1,0,0:0:0:0:
0,384,56511,1,0,0:0:0:0:
512,384,56784,1,0,0:0:0:0:
512,0,57057,5,0,0:0:0:0:
384,384,57329,1,0,0:0:0:0:
384,0,57599,1,0,0:0:0:0:
256,384,57868,1,0,0:0:0:0:
256,0,58136,1,0,0:0:0:0:
128,384,58403,1,0,0:0:0:0:
128,0,58668,1,0,0:0:0:0:
0,384,58932,1,0,0:0:0:0:
0,0,59195,5,0,0:0:0:0:
512,0,59457,1,0,0:0:0:0:
0,128,59717,1,0,0:0:0:0:
512,128,59977,1,0,0:0:0:0:
0,256,60236,1,0,0:0:0:0:
512,248,60495,1,0,0:0:0:0:
0,384,60751,1,0,0:0:0:0:
512,384,61006,1,0,0:0:0:0:
512,0,61260,5,0,0:0:0:0:
384,384,61513,1,0,0:0:0:0:
384,0,61765,1,0,0:0:0:0:
256,384,62016,1,0,0:0:0:0:
256,0,62266,1,0,0:0:0:0:
128,384,62515,1,0,0:0:0:0:
128,0,62762,1,0,0:0:0:0:
0,384,63010,1,0,0:0:0:0:
0,0,63255,5,0,0:0:0:0:
512,0,63500,1,0,0:0:0:0:
0,128,63744,1,0,0:0:0:0:
512,128,63987,1,0,0:0:0:0:
0,256,64229,1,0,0:0:0:0:
512,248,64470,1,0,0:0:0:0:
0,384,64711,1,0,0:0:0:0:
512,384,64950,1,0,0:0:0:0:
512,0,65188,5,0,0:0:0:0:
384,384,65425,1,0,0:0:0:0:
384,0,65661,1,0,0:0:0:0:
256,384,65896,1,0,0:0:0:0:
256,0,66130,1,0,0:0:0:0:
128,384,66363,1,0,0:0:0:0:
128,0,66595,1,0,0:0:0:0:
0,384,66828,1,0,0:0:0:0:
0,0,67058,5,0,0:0:0:0:
512,0,67288,1,0,0:0:0:0:
0,128,67518,1,0,0:0:0:0:
512,128,67746,1,0,0:0:0:0:
0,256,67973,1,0,0:0:0:0:
512,248,68199,1,0,0:0:0:0:
0,384,68424,1,0,0:0:0:0:
512,384,68649,1,0,0:0:0:0:
512,0,68873,5,0,0:0:0:0:
384,384,69097,1,0,0:0:0:0:
384,0,69319,1,0,0:0:0:0:
256,384,69540,1,0,0:0:0:0:
256,0,69760,1,0,0:0:0:0:
128,384,69981,1,0,0:0:0:0:
128,0,70200,1,0,0:0:0:0:
0,384,70418,1,0,0:0:0:0:
0,0,70635,5,0,0:0:0:0:
512,0,70851,1,0,0:0:0:0:
0,128,71067,1,0,0:0:0:0:
512,128,71283,1,0,0:0:0:0:
0,256,71497,1,0,0:0:0:0:
512,248,71711,1,0,0:0:0:0:
0,384,71924,1,0,0:0:0:0:
512,384,72136,1,0,0:0:0:0:
512,0,72347,5,0,0:0:0:0:
384,384,72557,1,0,0:0:0:0:
384,0,72767,1,0,0:0:0:0:
256,384,72977,1,0,0:0:0:0:
256,0,73185,1,0,0:0:0:0:
128,384,73393,1,0,0:0:0:0:
128,0,73600,1,0,0:0:0:0:
0,384,73806,1,0,0:0:0:0:
0,0,74011,5,0,0:0:0:0:
512,0,74215,1,0,0:0:0:0:
0,128,74420,1,0,0:0:0:0:
512,128,74623,1,0,0:0:0:0:
0,256,74825,1,0,0:0:0:0:
512,248,75028,1,0,0:0:0:0:
0,384,75229,1,0,0:0:0:0:
512,384,75430,1,0,0:0:0:0:
512,0,75630,5,0,0:0:0:0:
384,384,75829,1,0,0:0:0:0:
384,0,76027,1,0,0:0:0:0:
256,384,76226,1,0,0:0:0:0:
256,0,76423,1,0,0:0:0:0:
128,384,76619,1,0,0:0:0:0:
128,0,76816,1,0,0:0:0:0:
0,384,77011,1,0,0:0:0:0:
0,0,77205,5,0,0:0:0:0:
512,0,77400,1,0,0:0:0:0:
0,128,77593,1,0,0:0:0:0:
512,128,77786,1,0,0:0:0:0:
0,256,77979,1,0,0:0:0:0:
512,248,78170,1,0,0:0:0:0:
0,384,78362,1,0,0:0:0:0:
512,384,78552,1,0,0:0:0:0:
512,0,78741,5,0,0:0:0:0:
384,384,78931,1,0,0:0:0:0:
384,0,79119,1,0,0:0:0:0:
256,384,79308,1,0,0:0:0:0:
256,0,79495,1,0,0:0:0:0:
128,384,79682,1,0,0:0:0:0:
128,0,79869,1,0,0:0:0:0:
0,384,80054,1,0,0:0:0:0:
0,0,80240,5,0,0:0:0:0:
512,0,80424,1,0,0:0:0:0:
0,128,80609,1,0,0:0:0:0:
512,128,80792,1,0,0:0:0:0:
0,256,80973,1,0,0:0:0:0:
512,248,81157,1,0,0:0:0:0:
0,384,81338,1,0,0:0:0:0:
512,384,81520,1,0,0:0:0:0:
512,0,81700,5,0,0:0:0:0:
384,384,81881,1,0,0:0:0:0:
384,0,82060,1,0,0:0:0:0:
256,384,82240,1,0,0:0:0:0:
256,0,82418,1,0,0:0:0:0:
128,384,82597,1,0,0:0:0:0:
128,0,82774,1,0,0:0:0:0:
0,384,82951,1,0,0:0:0:0:
0,0,83128,5,0,0:0:0:0:
512,0,83303,1,0,0:0:0:0:
0,128,83479,1,0,0:0:0:0:
512,128,83653,1,0,0:0:0:0:
0,256,83828,1,0,0:0:0:0:
512,248,84001,1,0,0:0:0:0:
0,384,84175,1,0,0:0:0:0:
512,384,84347,1,0,0:0:0:0:
512,0,84520,5,0,0:0:0:0:
384,384,84691,1,0,0:0:0:0:
384,0,84863,1,0,0:0:0:0:
256,384,85033,1,0,0:0:0:0:
256,0,85204,1,0,0:0:0:0:
128,384,85373,1,0,0:0:0:0:
128,0,85543,1,0,0:0:0:0:
0,384,85712,1,0,0:0:0:0:
0,0,85880,5,0,0:0:0:0:
512,0,86049,1,0,0:0:0:0:
0,128,86216,1,0,0:0:0:0:
512,128,86384,1,0,0:0:0:0:
0,256,86550,1,0,0:0:0:0:
512,248,86717,1,0,0:0:0:0:
0,384,86882,1,0,0:0:0:0:
512,384,87048,1,0,0:0:0:0:
512,0,87212,5,0,0:0:0:0:
384,384,87377,1,0,0:0:0:0:
384,0,87541,1,0,0:0:0:0:
256,384,87704,1,0,0:0:0:0:
256,0,87867,1,0,0:0:0:0:
128,384,88030,1,0,0:0:0:0:
128,0,88192,1,0,0:0:0:0:
0,384,88354,1,0,0:0:0:0:
0,0,88515,5,0,0:0:0:0:
512,0,88675,1,0,0:0:0:0:
0,128,88836,1,0,0:0:0:0:
512,128,88996,1,0,0:0:0:0:
0,256,89155,1,0,0:0:0:0:
512,248,89315,1,0,0:0:0:0:
0,384,89473,1,0,0:0:0:0:
512,384,89632,1,0,0:0:0:0:
512,0,89789,5,0,0:0:0:0:
384,384,89947,1,0,0:0:0:0:
384,0,90104,1,0,0:0:0:0:
256,384,90260,1,0,0:0:0:0:
256,0,90417,1,0,0:0:0:0:
128,384,90572,1,0,0:0:0:0:
128,0,90728,1,0,0:0:0:0:
0,384,90883,1,0,0:0:0:0:
0,0,91037,5,0,0:0:0:0:
512,0,91192,1,0,0:0:0:0:
0,128,91345,1,0,0:0:0:0:
512,128,91499,1,0,0:0:0:0:
0,256,91652,1,0,0:0:0:0:
512,248,91804,1,0,0:0:0:0:
0,384,91957,1,0,0:0:0:0:
512,384,92108,1,0,0:0:0:0:
512,0,92260,5,0,0:0:0:0:
384,384,92412,1,0,0:0:0:0:
384,0,92562,1,0,0:0:0:0:
256,384,92713,1,0,0:0:0:0:
256,0,92863,1,0,0:0:0:0:
128,384,93012,1,0,0:0:0:0:
128,0,93162,1,0,0:0:0:0:
0,384,93310,1,0,0:0:0:0:
0,0,93459,5,0,0:0:0:0:
512,0,93608,1,0,0:0:0:0:
0,128,93755,1,0,0:0:0:0:
512,128,93903,1,0,0:0:0:0:
0,256,94050,1,0,0:0:0:0:
512,248,94196,1,0,0:0:0:0:
0,384,94343,1,0,0:0:0:0:
512,384,94488,1,0,0:0:0:0:
512,0,94634,5,0,0:0:0:0:
384,384,94780,1,0,0:0:0:0:
384,0,94924,1,0,0:0:0:0:
256,384,95069,1,0,0:0:0:0:
256,0,95214,1,0,0:0:0:0:
128,384,95357,1,0,0:0:0:0:
128,0,95501,1,0,0:0:0:0:
0,384,95645,1,0,0:0:0:0:
0,0,95787,5,0,0:0:0:0:
512,0,95930,1,0,0:0:0:0:
0,128,96073,1,0,0:0:0:0:
512,128,96214,1,0,0:0:0:0:
0,256,96356,1,0,0:0:0:0:
512,248,96498,1,0,0:0:0:0:
0,384,96638,1,0,0:0:0:0:
512,384,96779,1,0,0:0:0:0:
512,0,96920,5,0,0:0:0:0:
384,384,97059,1,0,0:0:0:0:
384,0,97199,1,0,0:0:0:0:
256,384,97339,1,0,0:0:0:0:
256,0,97477,1,0,0:0:0:0:
128,384,97616,1,0,0:0:0:0:
128,0,97755,1,0,0:0:0:0:
0,384,97892,1,0,0:0:0:0:
0,0,98030,5,0,0:0:0:0:
512,0,98168,1,0,0:0:0:0:
0,128,98304,1,0,0:0:0:0:
512,128,98441,1,0,0:0:0:0:
0,256,98578,1,0,0:0:0:0:
512,248,98714,1,0,0:0:0:0:
0,384,98849,1,0,0:0:0:0:
512,384,98985,1,0,0:0:0:0:
512,0,99120,5,0,0:0:0:0:
384,384,99254,1,0,0:0:0:0:
384,0,99389,1,0,0:0:0:0:
256,384,99524,1,0,0:0:0:0:
256,0,99657,1,0,0:0:0:0:
128,384,99791,1,0,0:0:0:0:
128,0,99925,1,0,0:0:0:0:
0,384,100058,1,0,0:0:0:0:
0,0,100190,5,0,0:0:0:0:
512,0,100323,1,0,0:0:0:0:
0,128,100455,1,0,0:0:0:0:
512,128,100586,1,0,0:0:0:0:
0,256,100718,1,0,0:0:0:0:
512,248,100850,1,0,0:0:0:0:
0,384,100981,1,0,0:0:0:0:
512,384,101111,1,0,0:0:0:0:
512,0,101242,5,0,0:0:0:0:
384,384,101372,1,0,0:0:0:0:
384,0,101501,1,0,0:0:0:0:
256,384,101631,1,0,0:0:0:0:
256,0,101761,1,0,0:0:0:0:
128,384,101890,1,0,0:0:0:0:
128,0,102018,1,0,0:0:0:0:
0,384,102147,1,0,0:0:0:0:
0,0,102275,5,0,0:0:0:0:
512,0,102402,1,0,0:0:0:0:
0,128,102530,1,0,0:0:0:0:
512,128,102658,1,0,0:0:0:0:
0,256,102785,1,0,0:0:0:0:
512,248,102911,1,0,0:0:0:0:
0,384,103038,1,0,0:0:0:0:
512,384,103165,1,0,0:0:0:0:
512,0,103291,5,0,0:0:0:0:
384,384,103416,1,0,0:0:0:0:
384,0,103542,1,0,0:0:0:0:
256,384,103668,1,0,0:0:0:0:
256,0,103793,1,0,0:0:0:0:
128,384,103917,1,0,0:0:0:0:
128,0,104042,1,0,0:0:0:0:
0,384,104166,1,0,0:0:0:0:
0,0,104289,5,0,0:0:0:0:
512,0,104413,1,0,0:0:0:0:
0,128,104537,1,0,0:0:0:0:
512,128,104660,1,0,0:0:0:0:
0,256,104782,1,0,0:0:0:0:
512,248,104905,1,0,0:0:0:0:
0,384,105028,1,0,0:0:0:0:
512,384,105150,1,0,0:0:0:0:
512,0,105271,5,0,0:0:0:0:
384,384,105393,1,0,0:0:0:0:
384,0,105515,1,0,0:0:0:0:
256,384,105636,1,0,0:0:0:0:
256,0,105756,1,0,0:0:0:0:
128,384,105877,1,0,0:0:0:0:
128,0,105998,1,0,0:0:0:0:
0,384,106118,1,0,0:0:0:0:
0,0,106238,5,0,0:0:0:0:
512,0,106357,1,0,0:0:0:0:
0,128,106477,1,0,0:0:0:0:
512,128,106597,1,0,0:0:0:0:
0,256,106716,1,0,0:0:0:0:
512,248,106834,1,0,0:0:0:0:
0,384,106953,1,0,0:0:0:0:
512,384,107072,1,0,0:0:0:0:
512,0,107190,5,0,0:0:0:0:
384,384,107307,1,0,0:0:0:0:
384,0,107425,1,0,0:0:0:0:
256,384,107543,1,0,0:0:0:0:
256,0,107660,1,0,0:0:0:0:
128,384,107776,1,0,0:0:0:0:
128,0,107893,1,0,0:0:0:0:
0,384,108010,1,0,0:0:0:0:
0,0,108127,5,0,0:0:0:0:
512,0,108243,1,0,0:0:0:0:
0,128,108358,1,0,0:0:0:0:
512,128,108474,1,0,0:0:0:0:
0,256,108590,1,0,0:0:0:0:
512,248,108705,1,0,0:0:0:0:
0,384,108819,1,0,0:0:0:0:
512,384,108934,1,0,0:0:0:0:
512,0,109049,5,0,0:0:0:0:
384,384,109164,1,0,0:0:0:0:
384,0,109278,1,0,0:0:0:0:
256,384,109391,1,0,0:0:0:0:
256,0,109505,1,0,0:0:0:0:
128,384,109619,1,0,0:0:0:0:
128,0,109732,1,0,0:0:0:0:
0,384,109844,1,0,0:0:0:0:
0,0,109957,5,0,0:0:0:0:
512,0,110070,1,0,0:0:0:0:
0,128,110183,1,0,0:0:0:0:
512,128,110295,1,0,0:0:0:0:
0,256,110406,1,0,0:0:0:0:
512,248,110518,1,0,0:0:0:0:
0,384,110630,1,0,0:0:0:0:
512,384,110742,1,0,0:0:0:0:
512,0,110853,5,0,0:0:0:0:
384,384,110963,1,0,0:0:0:0:
384,0,111074,1,0,0:0:0:0:
256,384,111185,1,0,0:0:0:0:
256,0,111295,1,0,0:0:0:0:
128,384,111405,1,0,0:0:0:0:
128,0,111514,1,0,0:0:0:0:
0,384,111624,1,0,0:0:0:0:
0,0,111734,5,0,0:0:0:0:
512,0,111843,1,0,0:0:0:0:
0,128,111952,1,0,0:0:0:0:
512,128,112060,1,0,0:0:0:0:
0,256,112169,1,0,0:0:0:0:
512,248,112278,1,0,0:0:0:0:
0,384,112387,1,0,0:0:0:0:
512,384,112495,1,0,0:0:0:0:
512,0,112602,5,0,0:0:0:0:
384,384,112710,1,0,0:0:0:0:
384,0,112818,1,0,0:0:0:0:
256,384,112926,1,0,0:0:0:0:
256,0,113033,1,0,0:0:0:0:
128,384,113139,1,0,0:0:0:0:
128,0,113246,1,0,0:0:0:0:
0,384,113353,1,0,0:0:0:0:
0,0,113460,5,0,0:0:0:0:
512,0,113566,1,0,0:0:0:0:
0,128,113672,1,0,0:0:0:0:
512,128,113777,1,0,0:0:0:0:
0,256,113883,1,0,0:0:0:0:
512,248,113989,1,0,0:0:0:0:
0,384,114094,1,0,0:0:0:0:
512,384,114199,1,0,0:0:0:0:
256,192,114303,5,4,0:0:0:0:
