osu file format v14

[General]
AudioFilename: flowerdance.mp3
AudioLeadIn: 0
PreviewTime: 45590
Countdown: 0
SampleSet: Soft
StackLeniency: 0.7
Mode: 0
LetterboxInBreaks: 0
WidescreenStoryboard: 1

[Editor]
DistanceSpacing: 0.8
BeatDivisor: 4
GridSize: 16
TimelineZoom: 1.5

[Metadata]
Title:Corner Jump Training
TitleUnicode:Corner Jump Training
Artist:Various Artists
ArtistUnicode:Various Artists
Creator:QuadroKiller
Version:DJ Okawari - Flower Dance
Source:
Tags:awolnation run cornerjump practice training ctb hyper dash hyperdash quadrokiller
BeatmapID:1300780
BeatmapSetID:478917

[Difficulty]
HPDrainRate:0
CircleSize:4
OverallDifficulty:8.5
ApproachRate:10
SliderMultiplier:1.40000000596046
SliderTickRate:1

[Events]
//Background and Video events
0,0,"ddd.jpg",0,0
//Break Periods
2,122890,131840
//Storyboard Layer 0 (Background)
//Storyboard Layer 1 (Fail)
//Storyboard Layer 2 (Pass)
//Storyboard Layer 3 (Foreground)
//Storyboard Sound Samples

[TimingPoints]
0,300,4,2,0,80,1,0
15075,300,4,2,0,80,1,0
26690,300,4,2,0,80,1,0
26700,-133.333333333333,4,2,0,80,0,0
39890,-50,4,2,0,80,0,0
41090,-50,4,2,0,80,0,1
45290,-50,4,2,0,80,0,0
45890,-50,4,2,0,80,0,1
45890,-50,4,2,0,80,0,0
65090,-100,4,2,0,80,0,0
79490,-50,4,2,0,80,0,1
83690,-100,4,2,0,80,0,0
98690,-50,4,2,0,80,0,1
102890,-50,4,2,0,80,0,0
103490,-50,4,2,0,80,0,1
122690,-50,4,2,0,80,0,0
161090,-50,4,2,0,80,0,1
198890,-50,4,2,0,80,0,0

[HitObjects]
256,352,26690,5,0,0:0:0:0:
256,272,26990,2,0,L|256:96,1,157.5000066787
176,32,27590,1,0,0:0:0:0:
336,32,27740,1,0,0:0:0:0:
256,352,27890,1,0,0:0:0:0:
256,240,28490,1,0,0:0:0:0:
480,64,29090,6,0,P|400:80|368:96,1,105.000004452467
32,240,29540,1,0,0:0:0:0:
32,64,29690,2,0,P|80:80|144:112,1,105.000004452467
480,352,30140,1,0,0:0:0:0:
32,352,30290,1,0,0:0:0:0:
256,32,30590,1,0,0:0:0:0:
256,352,30890,1,0,0:0:0:0:
256,192,31190,1,0,0:0:0:0:
480,32,31490,6,0,P|405:59|371:91,1,105.000004452467
32,352,32090,2,0,P|104:321|133:298,1,105.000004452467
256,32,32690,1,0,0:0:0:0:
256,352,32990,1,0,0:0:0:0:
256,336,33090,1,0,0:0:0:0:
256,320,33190,1,0,0:0:0:0:
256,304,33290,1,0,0:0:0:0:
256,32,33590,1,0,0:0:0:0:
32,352,33890,5,0,0:0:0:0:
480,32,34190,1,0,0:0:0:0:
256,352,34490,1,0,0:0:0:0:
32,32,34790,1,0,0:0:0:0:
480,352,35090,5,0,0:0:0:0:
256,32,35390,1,0,0:0:0:0:
32,352,35690,1,0,0:0:0:0:
480,32,35990,1,0,0:0:0:0:
256,352,36290,5,0,0:0:0:0:
256,192,36590,1,0,0:0:0:0:
480,192,37040,5,0,0:0:0:0:
32,304,37190,1,0,0:0:0:0:
480,192,37340,1,0,0:0:0:0:
32,96,37490,1,0,0:0:0:0:
256,192,37790,1,0,0:0:0:0:
256,192,38090,1,0,0:0:0:0:
256,32,38690,5,0,0:0:0:0:
256,352,38990,1,0,0:0:0:0:
256,112,39290,1,0,0:0:0:0:
256,272,39590,1,0,0:0:0:0:
256,192,39890,5,0,0:0:0:0:
192,144,40040,1,0,0:0:0:0:
320,240,40190,1,0,0:0:0:0:
128,96,40340,1,0,0:0:0:0:
384,288,40490,1,0,0:0:0:0:
64,48,40640,1,0,0:0:0:0:
448,336,40790,1,0,0:0:0:0:
0,0,40940,1,0,0:0:0:0:
384,384,41090,5,0,0:0:0:0:
128,0,41240,1,0,0:0:0:0:
256,384,41390,1,0,0:0:0:0:
256,0,41540,1,0,0:0:0:0:
128,384,41690,1,0,0:0:0:0:
384,0,41840,1,0,0:0:0:0:
0,384,41990,1,0,0:0:0:0:
512,0,42140,1,0,0:0:0:0:
0,256,42290,5,0,0:0:0:0:
512,128,42440,1,0,0:0:0:0:
0,128,42590,1,0,0:0:0:0:
512,256,42740,1,0,0:0:0:0:
0,0,42890,1,0,0:0:0:0:
512,384,43040,1,0,0:0:0:0:
128,0,43190,1,0,0:0:0:0:
384,384,43340,1,0,0:0:0:0:
256,0,43490,5,0,0:0:0:0:
256,384,43640,1,0,0:0:0:0:
384,0,43790,1,0,0:0:0:0:
128,384,43940,1,0,0:0:0:0:
512,0,44090,1,0,0:0:0:0:
0,384,44240,1,0,0:0:0:0:
512,128,44390,1,0,0:0:0:0:
0,256,44540,1,0,0:0:0:0:
496,256,44690,5,0,0:0:0:0:
0,128,44840,1,0,0:0:0:0:
512,384,44990,1,0,0:0:0:0:
0,0,45140,1,0,0:0:0:0:
384,384,45290,1,0,0:0:0:0:
256,192,45590,1,0,0:0:0:0:
256,352,45890,6,0,L|256:192,1,140.000000596046
256,32,46190,1,0,0:0:0:0:
32,352,46340,1,0,0:0:0:0:
480,192,46490,1,0,0:0:0:0:
32,192,46640,1,0,0:0:0:0:
480,32,46790,1,0,0:0:0:0:
32,32,46940,1,0,0:0:0:0:
256,352,47090,5,0,0:0:0:0:
256,32,47240,1,0,0:0:0:0:
480,352,47390,1,0,0:0:0:0:
32,192,47540,1,0,0:0:0:0:
480,192,47690,1,0,0:0:0:0:
256,32,47840,1,0,0:0:0:0:
256,352,47990,1,0,0:0:0:0:
32,192,48140,1,0,0:0:0:0:
480,192,48290,6,0,L|336:192,1,140.000000596046
32,32,48590,1,0,0:0:0:0:
480,352,48740,1,0,0:0:0:0:
32,192,48890,1,0,0:0:0:0:
480,192,49040,1,0,0:0:0:0:
32,112,49190,1,0,0:0:0:0:
480,272,49340,1,0,0:0:0:0:
32,272,49490,5,0,0:0:0:0:
480,112,49640,1,0,0:0:0:0:
32,352,49790,1,0,0:0:0:0:
480,32,49940,1,0,0:0:0:0:
112,352,50090,1,0,0:0:0:0:
400,32,50240,1,0,0:0:0:0:
192,352,50390,1,0,0:0:0:0:
320,32,50540,1,0,0:0:0:0:
256,352,50690,6,0,P|240:272|192:208,1,140.000000596046
32,32,50990,1,0,0:0:0:0:
256,352,51140,1,0,0:0:0:0:
480,32,51290,1,0,0:0:0:0:
256,352,51440,1,0,0:0:0:0:
32,32,51590,1,0,0:0:0:0:
256,352,51740,1,0,0:0:0:0:
256,32,51890,6,0,P|272:112|304:160,1,140.000000596046
480,352,52190,1,0,0:0:0:0:
256,32,52340,1,0,0:0:0:0:
32,352,52490,1,0,0:0:0:0:
256,32,52640,1,0,0:0:0:0:
480,352,52790,1,0,0:0:0:0:
256,32,52940,1,0,0:0:0:0:
480,192,53090,6,0,L|320:192,1,140.000000596046
32,192,53390,1,0,0:0:0:0:
480,32,53540,1,0,0:0:0:0:
32,192,53690,1,0,0:0:0:0:
480,352,53840,1,0,0:0:0:0:
32,192,53990,1,0,0:0:0:0:
480,192,54140,5,0,0:0:0:0:
32,32,54290,1,0,0:0:0:0:
480,192,54440,1,0,0:0:0:0:
32,352,54590,1,0,0:0:0:0:
480,192,54740,1,0,0:0:0:0:
32,192,54890,1,0,0:0:0:0:
256,192,55190,1,0,0:0:0:0:
480,352,55490,6,0,P|384:336|336:304,1,140.000000596046
32,32,55790,2,0,P|128:47|176:80,1,140.000000596046
480,352,56090,5,0,0:0:0:0:
32,32,56240,1,0,0:0:0:0:
480,352,56390,1,0,0:0:0:0:
32,32,56540,1,0,0:0:0:0:
464,64,56690,5,0,0:0:0:0:
48,320,56840,1,0,0:0:0:0:
464,64,56990,1,0,0:0:0:0:
48,320,57140,1,0,0:0:0:0:
512,272,57290,5,0,0:0:0:0:
0,128,57440,1,0,0:0:0:0:
512,272,57590,1,0,0:0:0:0:
0,128,57740,1,0,0:0:0:0:
480,64,57890,6,0,P|384:96|336:128,1,140.000000596046
32,320,58190,2,0,P|128:288|176:256,1,140.000000596046
416,32,58490,5,0,0:0:0:0:
112,352,58640,1,0,0:0:0:0:
480,256,58790,1,0,0:0:0:0:
32,128,58940,1,0,0:0:0:0:
320,352,59090,5,0,0:0:0:0:
224,32,59240,1,0,0:0:0:0:
32,352,59390,1,0,0:0:0:0:
480,144,59540,1,0,0:0:0:0:
32,224,59690,1,0,0:0:0:0:
432,0,59840,1,0,0:0:0:0:
256,384,59990,1,0,0:0:0:0:
80,0,60140,1,0,0:0:0:0:
480,336,60290,6,0,P|384:336|320:320,1,140.000000596046
32,224,60590,1,0,0:0:0:0:
496,96,60740,1,0,0:0:0:0:
32,224,60890,1,0,0:0:0:0:
496,96,61040,1,0,0:0:0:0:
32,224,61190,1,0,0:0:0:0:
400,352,61490,5,0,0:0:0:0:
48,144,61640,1,0,0:0:0:0:
464,144,61790,1,0,0:0:0:0:
112,352,61940,1,0,0:0:0:0:
256,16,62090,1,0,0:0:0:0:
400,352,62240,5,0,0:0:0:0:
48,144,62390,1,0,0:0:0:0:
464,144,62540,1,0,0:0:0:0:
112,352,62690,1,0,0:0:0:0:
256,16,62990,1,0,0:0:0:0:
256,128,63290,5,0,0:0:0:0:
256,256,63590,1,0,0:0:0:0:
256,304,63740,1,0,0:0:0:0:
256,352,63890,1,0,0:0:0:0:
480,32,64190,1,0,0:0:0:0:
32,352,64490,1,0,0:0:0:0:
480,64,65090,6,0,P|400:96|336:128,1,140.000000596046
32,32,65540,1,0,0:0:0:0:
480,352,65690,1,0,0:0:0:0:
32,112,65840,1,0,0:0:0:0:
480,272,65990,1,0,0:0:0:0:
32,192,66140,1,0,0:0:0:0:
480,192,66290,5,0,0:0:0:0:
256,192,66590,1,0,0:0:0:0:
256,192,66890,1,0,0:0:0:0:
32,352,67490,6,0,P|128:320|176:288,1,140.000000596046
480,32,67940,1,0,0:0:0:0:
480,352,68090,2,0,P|384:320|336:288,1,140.000000596046
32,32,68540,1,0,0:0:0:0:
256,352,68690,1,0,0:0:0:0:
256,32,68990,1,0,0:0:0:0:
480,352,69290,1,0,0:0:0:0:
32,192,69590,1,0,0:0:0:0:
480,192,69890,5,0,0:0:0:0:
32,352,70190,1,0,0:0:0:0:
256,32,70490,1,0,0:0:0:0:
256,352,70790,1,0,0:0:0:0:
480,32,71090,1,0,0:0:0:0:
32,272,71390,5,0,0:0:0:0:
66,269,71490,1,0,0:0:0:0:
100,260,71590,1,0,0:0:0:0:
132,245,71690,1,0,0:0:0:0:
480,32,71990,1,0,0:0:0:0:
32,352,72290,5,0,0:0:0:0:
480,352,72590,1,0,0:0:0:0:
32,32,72890,1,0,0:0:0:0:
480,32,73190,1,0,0:0:0:0:
480,32,73490,5,0,0:0:0:0:
32,352,73790,1,0,0:0:0:0:
480,352,74090,1,0,0:0:0:0:
32,32,74390,1,0,0:0:0:0:
240,352,74690,6,0,B|256:288|256:288|240:272|240:272|256:192,1,140.000000596046
304,32,75140,1,0,0:0:0:0:
32,352,75290,1,0,0:0:0:0:
480,32,75440,1,0,0:0:0:0:
32,192,75590,1,0,0:0:0:0:
480,192,75740,1,0,0:0:0:0:
32,32,75890,1,0,0:0:0:0:
256,192,76190,1,0,0:0:0:0:
256,192,76490,1,0,0:0:0:0:
0,192,77090,6,0,L|144:192,1,140.000000596046
512,192,77690,2,0,L|368:192,1,140.000000596046
0,192,78290,6,0,L|80:176,1,70.000000298023
512,192,78590,2,0,L|432:208,1,70.000000298023
0,192,78890,2,0,L|80:160,1,70.000000298023
512,192,79190,2,0,L|432:240,1,70.000000298023
112,272,79490,5,0,0:0:0:0:
400,112,79640,1,0,0:0:0:0:
112,112,79790,1,0,0:0:0:0:
400,272,79940,1,0,0:0:0:0:
96,288,80090,5,0,0:0:0:0:
416,96,80240,1,0,0:0:0:0:
96,96,80390,1,0,0:0:0:0:
416,288,80540,1,0,0:0:0:0:
80,304,80690,5,0,0:0:0:0:
432,80,80840,1,0,0:0:0:0:
80,80,80990,1,0,0:0:0:0:
432,304,81140,1,0,0:0:0:0:
64,320,81290,5,0,0:0:0:0:
448,64,81440,1,0,0:0:0:0:
64,64,81590,1,0,0:0:0:0:
448,320,81740,1,0,0:0:0:0:
48,336,81890,5,0,0:0:0:0:
464,48,82040,1,0,0:0:0:0:
48,48,82190,1,0,0:0:0:0:
464,336,82340,1,0,0:0:0:0:
32,352,82490,5,0,0:0:0:0:
480,32,82640,1,0,0:0:0:0:
32,32,82790,1,0,0:0:0:0:
480,352,82940,1,0,0:0:0:0:
16,368,83090,5,0,0:0:0:0:
496,16,83240,1,0,0:0:0:0:
16,16,83390,1,0,0:0:0:0:
496,368,83540,1,0,0:0:0:0:
256,192,83690,5,0,0:0:0:0:
384,64,84290,6,0,P|448:64|432:128,1,140.000000596046
144,368,84740,1,0,0:0:0:0:
496,32,84890,1,0,0:0:0:0:
32,304,85040,1,0,0:0:0:0:
496,32,85190,1,0,0:0:0:0:
0,192,85340,1,0,0:0:0:0:
496,32,85490,1,0,0:0:0:0:
32,304,85790,1,0,0:0:0:0:
256,192,86090,1,0,0:0:0:0:
64,256,86690,6,0,P|48:304|128:304,1,140.000000596046
512,0,87140,1,0,0:0:0:0:
448,256,87290,2,0,P|464:304|384:304,1,140.000000596046
0,0,87740,1,0,0:0:0:0:
256,384,87890,1,0,0:0:0:0:
256,0,88190,1,0,0:0:0:0:
512,384,88490,1,0,0:0:0:0:
512,0,88790,1,0,0:0:0:0:
256,384,89090,5,0,0:0:0:0:
256,0,89390,1,0,0:0:0:0:
0,384,89690,1,0,0:0:0:0:
0,0,89990,1,0,0:0:0:0:
512,384,90290,1,0,0:0:0:0:
0,0,90590,1,0,0:0:0:0:
26,22,90690,1,0,0:0:0:0:
53,44,90790,1,0,0:0:0:0:
80,67,90890,1,0,0:0:0:0:
512,384,91190,1,0,0:0:0:0:
256,0,91490,5,0,0:0:0:0:
0,384,91790,1,0,0:0:0:0:
256,0,92090,1,0,0:0:0:0:
512,384,92390,1,0,0:0:0:0:
0,0,92690,5,0,0:0:0:0:
512,0,92990,1,0,0:0:0:0:
0,384,93290,1,0,0:0:0:0:
512,384,93590,1,0,0:0:0:0:
256,0,93890,6,0,L|256:144,1,140.000000596046
256,352,94340,1,0,0:0:0:0:
32,32,94490,1,0,0:0:0:0:
256,352,94640,1,0,0:0:0:0:
480,32,94790,1,0,0:0:0:0:
256,352,94940,1,0,0:0:0:0:
256,0,95090,1,0,0:0:0:0:
256,96,95390,1,0,0:0:0:0:
256,192,95690,1,0,0:0:0:0:
64,320,96290,6,0,L|208:320,1,140.000000596046
448,64,96890,2,0,L|304:64,1,140.000000596046
64,320,97490,2,0,L|144:304,1,70.000000298023
448,64,97790,2,0,L|368:80,1,70.000000298023
64,320,98090,2,0,L|128:272,1,70.000000298023
448,64,98390,2,0,L|384:112,1,70.000000298023
0,384,98690,5,0,0:0:0:0:
512,0,98840,1,0,0:0:0:0:
256,384,98990,1,0,0:0:0:0:
0,0,99140,1,0,0:0:0:0:
512,384,99290,1,0,0:0:0:0:
256,0,99440,1,0,0:0:0:0:
0,384,99590,1,0,0:0:0:0:
512,0,99740,1,0,0:0:0:0:
256,384,99890,5,0,0:0:0:0:
0,0,100040,1,0,0:0:0:0:
512,384,100190,1,0,0:0:0:0:
256,0,100340,1,0,0:0:0:0:
0,384,100490,1,0,0:0:0:0:
512,0,100640,1,0,0:0:0:0:
256,384,100790,1,0,0:0:0:0:
0,0,100940,1,0,0:0:0:0:
496,192,101090,5,0,0:0:0:0:
32,352,101240,1,0,0:0:0:0:
464,336,101390,1,0,0:0:0:0:
48,192,101540,1,0,0:0:0:0:
432,64,101690,1,0,0:0:0:0:
80,80,101840,1,0,0:0:0:0:
400,192,101990,1,0,0:0:0:0:
96,288,102140,1,0,0:0:0:0:
320,112,102290,5,0,0:0:0:0:
128,176,102440,1,0,0:0:0:0:
320,288,102590,1,0,0:0:0:0:
192,64,102740,1,0,0:0:0:0:
256,192,102890,1,0,0:0:0:0:
256,192,103190,1,0,0:0:0:0:
256,352,103490,6,0,L|256:192,1,140.000000596046
480,32,103790,1,0,0:0:0:0:
32,128,103940,1,0,0:0:0:0:
480,256,104090,1,0,0:0:0:0:
32,352,104240,1,0,0:0:0:0:
480,144,104390,1,0,0:0:0:0:
32,32,104540,1,0,0:0:0:0:
480,240,104690,1,0,0:0:0:0:
32,352,104840,5,0,0:0:0:0:
480,144,104990,1,0,0:0:0:0:
32,32,105140,1,0,0:0:0:0:
480,240,105290,1,0,0:0:0:0:
32,352,105440,1,0,0:0:0:0:
480,32,105590,1,0,0:0:0:0:
256,352,105740,1,0,0:0:0:0:
32,32,105890,6,0,L|128:160,1,140.000000596046
480,352,106190,1,0,0:0:0:0:
32,304,106340,1,0,0:0:0:0:
480,240,106490,1,0,0:0:0:0:
32,192,106640,1,0,0:0:0:0:
480,128,106790,1,0,0:0:0:0:
33,100,106940,1,0,0:0:0:0:
289,371,107090,5,0,0:0:0:0:
94,46,107240,1,0,0:0:0:0:
289,371,107390,1,0,0:0:0:0:
172,22,107540,1,0,0:0:0:0:
289,371,107690,1,0,0:0:0:0:
253,7,107840,1,0,0:0:0:0:
289,371,107990,1,0,0:0:0:0:
334,8,108140,1,0,0:0:0:0:
32,352,108290,6,0,L|176:336,1,140.000000596046
416,192,108590,5,0,0:0:0:0:
256,32,108740,1,0,0:0:0:0:
96,192,108890,1,0,0:0:0:0:
256,352,109040,1,0,0:0:0:0:
368,80,109190,5,0,0:0:0:0:
144,80,109340,1,0,0:0:0:0:
144,304,109490,1,0,0:0:0:0:
368,304,109640,1,0,0:0:0:0:
256,32,109790,5,0,0:0:0:0:
96,192,109940,1,0,0:0:0:0:
256,352,110090,1,0,0:0:0:0:
416,192,110240,1,0,0:0:0:0:
32,96,110390,5,0,0:0:0:0:
480,304,110540,1,0,0:0:0:0:
32,352,110690,6,0,L|176:320,1,140.000000596046
480,32,110990,2,0,L|336:64,1,140.000000596046
0,112,111290,1,0,0:0:0:0:
512,192,111440,1,0,0:0:0:0:
0,272,111590,1,0,0:0:0:0:
512,352,111740,1,0,0:0:0:0:
256,0,111890,5,0,0:0:0:0:
256,384,112040,1,0,0:0:0:0:
256,96,112190,1,0,0:0:0:0:
256,288,112340,1,0,0:0:0:0:
256,192,112490,1,0,0:0:0:0:
256,192,112790,1,0,0:0:0:0:
256,0,113090,6,0,L|256:144,1,140.000000596046
32,352,113390,1,0,0:0:0:0:
480,288,113540,1,0,0:0:0:0:
32,256,113690,1,0,0:0:0:0:
480,192,113840,1,0,0:0:0:0:
32,160,113990,1,0,0:0:0:0:
480,96,114140,1,0,0:0:0:0:
32,64,114290,5,0,0:0:0:0:
480,0,114440,1,0,0:0:0:0:
32,352,114590,1,0,0:0:0:0:
400,64,114740,1,0,0:0:0:0:
112,288,114890,1,0,0:0:0:0:
336,128,115040,1,0,0:0:0:0:
32,192,115190,1,0,0:0:0:0:
480,192,115340,1,0,0:0:0:0:
32,320,115490,6,0,L|176:320,1,140.000000596046
480,320,115790,1,0,0:0:0:0:
32,224,115940,1,0,0:0:0:0:
480,224,116090,1,0,0:0:0:0:
32,128,116240,1,0,0:0:0:0:
480,128,116390,1,0,0:0:0:0:
32,32,116540,1,0,0:0:0:0:
144,352,116690,5,0,0:0:0:0:
144,32,116840,1,0,0:0:0:0:
256,352,116990,1,0,0:0:0:0:
256,32,117140,1,0,0:0:0:0:
368,352,117290,1,0,0:0:0:0:
368,32,117440,1,0,0:0:0:0:
480,352,117590,1,0,0:0:0:0:
480,32,117740,1,0,0:0:0:0:
32,192,117890,6,0,L|176:192,1,140.000000596046
512,192,118190,1,0,0:0:0:0:
0,384,118340,1,0,0:0:0:0:
512,192,118490,1,0,0:0:0:0:
0,0,118640,1,0,0:0:0:0:
512,192,118790,1,0,0:0:0:0:
32,352,119090,5,0,0:0:0:0:
480,48,119240,1,0,0:0:0:0:
32,144,119390,5,0,0:0:0:0:
480,256,119540,1,0,0:0:0:0:
32,240,119690,5,0,0:0:0:0:
480,144,119840,1,0,0:0:0:0:
32,48,119990,5,0,0:0:0:0:
480,352,120140,1,0,0:0:0:0:
256,192,120290,5,0,0:0:0:0:
256,64,120590,1,0,0:0:0:0:
256,320,120890,1,0,0:0:0:0:
0,192,121190,5,0,0:0:0:0:
512,192,121340,1,0,0:0:0:0:
0,384,121490,1,0,0:0:0:0:
512,0,121790,1,0,0:0:0:0:
256,192,122090,12,0,122690,0:0:0:0:
0,320,132290,6,0,L|144:320,1,140.000000596046
512,320,132590,1,0,0:0:0:0:
0,64,132740,1,0,0:0:0:0:
512,64,132890,6,0,L|368:64,1,140.000000596046
0,320,133190,1,0,0:0:0:0:
512,64,133340,1,0,0:0:0:0:
0,192,133490,6,0,L|144:192,1,140.000000596046
512,0,133790,1,0,0:0:0:0:
512,384,133940,1,0,0:0:0:0:
0,192,134090,6,0,L|144:192,1,140.000000596046
512,192,134390,1,0,0:0:0:0:
0,192,134540,1,0,0:0:0:0:
512,352,134690,5,0,0:0:0:0:
0,256,134840,1,0,0:0:0:0:
512,192,134990,5,0,0:0:0:0:
0,96,135140,1,0,0:0:0:0:
512,272,135290,5,0,0:0:0:0:
0,176,135440,1,0,0:0:0:0:
512,112,135590,5,0,0:0:0:0:
0,16,135740,1,0,0:0:0:0:
0,384,135890,5,0,0:0:0:0:
512,288,136040,1,0,0:0:0:0:
0,192,136190,5,0,0:0:0:0:
512,96,136340,1,0,0:0:0:0:
0,288,136490,5,0,0:0:0:0:
512,192,136640,1,0,0:0:0:0:
0,96,136790,5,0,0:0:0:0:
512,0,136940,1,0,0:0:0:0:
256,384,137090,6,0,L|256:240,1,140.000000596046
512,0,137390,1,0,0:0:0:0:
0,384,137540,1,0,0:0:0:0:
256,0,137690,6,0,L|256:144,1,140.000000596046
512,384,137990,1,0,0:0:0:0:
0,0,138140,1,0,0:0:0:0:
512,192,138290,6,0,L|368:192,1,140.000000596046
0,384,138590,1,0,0:0:0:0:
512,0,138740,1,0,0:0:0:0:
0,192,138890,6,0,L|144:192,1,140.000000596046
512,384,139190,1,0,0:0:0:0:
0,0,139340,1,0,0:0:0:0:
256,192,139490,5,0,0:0:0:0:
256,0,139790,1,0,0:0:0:0:
256,384,140090,1,0,0:0:0:0:
256,0,140390,1,0,0:0:0:0:
0,192,140690,5,0,0:0:0:0:
512,192,140990,1,0,0:0:0:0:
0,192,141290,1,0,0:0:0:0:
256,192,141590,1,0,0:0:0:0:
256,192,141890,6,0,L|256:48,1,140.000000596046
0,384,142190,1,0,0:0:0:0:
512,0,142340,1,0,0:0:0:0:
256,192,142490,6,0,L|256:336,1,140.000000596046
0,0,142790,1,0,0:0:0:0:
512,384,142940,1,0,0:0:0:0:
256,192,143090,6,0,L|400:192,1,140.000000596046
0,384,143390,1,0,0:0:0:0:
512,0,143540,1,0,0:0:0:0:
256,192,143690,6,0,L|96:192,1,140.000000596046
512,384,143990,1,0,0:0:0:0:
0,0,144140,1,0,0:0:0:0:
432,272,144290,6,0,L|448:112,1,140.000000596046
80,128,144590,2,0,L|64:288,1,140.000000596046
512,48,144890,5,0,0:0:0:0:
0,336,145040,1,0,0:0:0:0:
512,128,145190,1,0,0:0:0:0:
0,256,145340,1,0,0:0:0:0:
464,304,145490,6,0,L|432:144,1,140.000000596046
48,80,145790,2,0,L|80:224,1,140.000000596046
512,304,146090,5,0,0:0:0:0:
0,80,146240,1,0,0:0:0:0:
512,80,146390,1,0,0:0:0:0:
0,304,146540,1,0,0:0:0:0:
256,0,146690,6,0,L|256:144,1,140.000000596046
256,384,146990,1,0,0:0:0:0:
160,0,147140,1,0,0:0:0:0:
256,384,147290,6,0,L|256:224,1,140.000000596046
352,0,147590,1,0,0:0:0:0:
256,384,147740,1,0,0:0:0:0:
256,0,147890,6,0,L|256:160,1,140.000000596046
32,352,148190,1,0,0:0:0:0:
480,352,148340,1,0,0:0:0:0:
32,64,148490,6,0,L|176:64,1,140.000000596046
512,64,148790,1,0,0:0:0:0:
0,240,148940,1,0,0:0:0:0:
512,160,149090,5,0,0:0:0:0:
0,336,149240,1,0,0:0:0:0:
512,256,149390,1,0,0:0:0:0:
0,144,149540,1,0,0:0:0:0:
512,352,149690,1,0,0:0:0:0:
0,48,149840,1,0,0:0:0:0:
512,160,149990,1,0,0:0:0:0:
0,240,150140,1,0,0:0:0:0:
512,64,150290,5,0,0:0:0:0:
0,336,150440,1,0,0:0:0:0:
512,256,150590,1,0,0:0:0:0:
0,144,150740,1,0,0:0:0:0:
512,160,150890,1,0,0:0:0:0:
256,192,151190,1,0,0:0:0:0:
352,336,151490,6,0,P|448:288|480:240,1,140.000000596046
160,32,151790,2,0,P|64:64|32:96,1,140.000000596046
464,272,152090,6,0,P|416:320|336:336,1,140.000000596046
32,96,152390,2,0,P|96:48|160:32,1,140.000000596046
480,32,152690,6,0,L|480:176,1,140.000000596046
32,352,152990,2,0,L|32:208,1,140.000000596046
480,32,153290,6,0,L|480:176,1,140.000000596046
32,352,153590,2,0,L|32:192,1,140.000000596046
512,352,153890,5,0,0:0:0:0:
0,352,154040,1,0,0:0:0:0:
512,256,154190,1,0,0:0:0:0:
0,256,154340,1,0,0:0:0:0:
512,160,154490,5,0,0:0:0:0:
0,160,154640,1,0,0:0:0:0:
512,64,154790,1,0,0:0:0:0:
0,64,154940,1,0,0:0:0:0:
256,384,155090,5,0,0:0:0:0:
64,0,155240,1,0,0:0:0:0:
256,384,155390,1,0,0:0:0:0:
160,0,155540,1,0,0:0:0:0:
256,384,155690,5,0,0:0:0:0:
256,0,155840,1,0,0:0:0:0:
256,384,155990,1,0,0:0:0:0:
352,0,156140,1,0,0:0:0:0:
128,288,156290,6,0,P|48:320|-32:320,1,140.000000596046
368,96,156590,2,0,P|464:64|544:64,1,140.000000596046
128,96,156890,6,0,P|32:64|-32:64,1,140.000000596046
368,288,157190,2,0,P|464:320|512:320,1,140.000000596046
256,32,157490,1,0,0:0:0:0:
256,352,157640,1,0,0:0:0:0:
160,48,157790,1,0,0:0:0:0:
352,320,157940,1,0,0:0:0:0:
96,128,158090,1,0,0:0:0:0:
416,240,158240,1,0,0:0:0:0:
96,224,158390,1,0,0:0:0:0:
416,144,158540,1,0,0:0:0:0:
256,192,158690,1,0,0:0:0:0:
256,192,158840,12,0,160790,0:0:0:0:
0,384,161090,5,0,0:0:0:0:
512,272,161240,1,0,0:0:0:0:
0,128,161390,1,0,0:0:0:0:
512,0,161540,1,0,0:0:0:0:
256,384,161690,1,0,0:0:0:0:
0,0,161840,1,0,0:0:0:0:
512,128,161990,1,0,0:0:0:0:
0,256,162140,1,0,0:0:0:0:
512,384,162290,5,0,0:0:0:0:
256,0,162440,1,0,0:0:0:0:
0,384,162590,1,0,0:0:0:0:
512,0,162740,1,0,0:0:0:0:
0,112,162890,1,0,0:0:0:0:
512,256,163040,1,0,0:0:0:0:
0,384,163190,1,0,0:0:0:0:
512,96,163340,1,0,0:0:0:0:
0,272,163490,6,0,P|80:304|144:320,1,140.000000596046
512,96,163790,2,0,P|416:64|352:64,1,140.000000596046
384,352,164090,2,0,P|304:304|272:256,1,140.000000596046
128,32,164390,2,0,P|208:80|240:144,1,140.000000596046
0,384,164690,2,0,P|128:352|160:336,1,140.000000596046
512,0,164990,2,0,P|384:32|352:48,1,140.000000596046
0,96,165290,2,0,L|128:160,1,140.000000596046
512,288,165590,2,0,L|384:224,1,140.000000596046
0,0,165890,5,0,0:0:0:0:
512,144,166040,1,0,0:0:0:0:
0,288,166190,1,0,0:0:0:0:
512,384,166340,1,0,0:0:0:0:
0,144,166490,1,0,0:0:0:0:
512,0,166640,1,0,0:0:0:0:
256,384,166790,1,0,0:0:0:0:
0,0,166940,1,0,0:0:0:0:
512,144,167090,5,0,0:0:0:0:
0,256,167240,1,0,0:0:0:0:
512,384,167390,1,0,0:0:0:0:
0,128,167540,1,0,0:0:0:0:
512,256,167690,1,0,0:0:0:0:
0,384,167840,1,0,0:0:0:0:
256,0,167990,1,0,0:0:0:0:
512,384,168140,1,0,0:0:0:0:
0,80,168290,6,0,P|112:112|144:112,1,140.000000596046
512,304,168590,2,0,P|416:256|336:256,1,140.000000596046
0,384,168890,2,0,L|64:256,1,140.000000596046
512,0,169190,2,0,L|448:144,1,140.000000596046
0,0,169490,2,0,L|128:64,1,140.000000596046
512,384,169790,2,0,L|368:320,1,140.000000596046
256,192,170090,1,0,0:0:0:0:
256,192,170390,1,0,0:0:0:0:
0,0,170690,5,0,0:0:0:0:
256,384,170840,1,0,0:0:0:0:
512,0,170990,1,0,0:0:0:0:
0,192,171140,1,0,0:0:0:0:
512,192,171290,1,0,0:0:0:0:
0,384,171440,1,0,0:0:0:0:
512,384,171590,1,0,0:0:0:0:
0,0,171740,1,0,0:0:0:0:
128,384,171890,5,0,0:0:0:0:
256,0,172040,1,0,0:0:0:0:
384,384,172190,1,0,0:0:0:0:
512,0,172340,1,0,0:0:0:0:
0,96,172490,1,0,0:0:0:0:
512,192,172640,1,0,0:0:0:0:
0,288,172790,1,0,0:0:0:0:
512,384,172940,1,0,0:0:0:0:
96,0,173090,6,0,L|32:176,1,140.000000596046
432,384,173390,2,0,L|480:224,1,140.000000596046
0,272,173690,2,0,L|144:224,1,140.000000596046
512,112,173990,2,0,L|352:160,1,140.000000596046
0,0,174290,2,0,P|96:64|144:80,1,140.000000596046
512,384,174590,2,0,P|400:320|368:304,1,140.000000596046
0,320,174890,2,0,P|80:256|128:240,1,140.000000596046
512,64,175190,2,0,P|448:112|384:144,1,140.000000596046
256,304,175490,5,0,0:0:0:0:
256,304,175790,1,0,0:0:0:0:
256,304,176090,1,0,0:0:0:0:
256,0,176390,2,0,L|256:144,1,140.000000596046
0,0,176690,5,0,0:0:0:0:
512,80,176840,1,0,0:0:0:0:
0,96,176990,1,0,0:0:0:0:
512,176,177140,1,0,0:0:0:0:
0,192,177290,1,0,0:0:0:0:
512,272,177440,1,0,0:0:0:0:
0,288,177590,1,0,0:0:0:0:
512,368,177740,1,0,0:0:0:0:
0,384,177890,5,0,0:0:0:0:
512,192,178040,1,0,0:0:0:0:
0,0,178190,1,0,0:0:0:0:
256,384,178340,1,0,0:0:0:0:
512,0,178490,1,0,0:0:0:0:
0,128,178640,1,0,0:0:0:0:
512,272,178790,1,0,0:0:0:0:
0,384,178940,1,0,0:0:0:0:
256,0,179090,5,0,0:0:0:0:
512,384,179240,1,0,0:0:0:0:
0,0,179390,1,0,0:0:0:0:
512,0,179540,1,0,0:0:0:0:
0,384,179690,1,0,0:0:0:0:
512,96,180290,6,0,P|400:192|256:224,1,280.000001192092
0,0,180740,1,0,0:0:0:0:
416,384,180890,2,0,P|448:288|368:128,1,280.000001192092
0,368,181340,1,0,0:0:0:0:
512,32,181490,6,0,L|352:48,1,140.000000596046
0,64,181790,1,0,0:0:0:0:
512,320,181940,1,0,0:0:0:0:
64,320,182090,2,0,P|32:240|48:192,1,140.000000596046
448,48,182390,2,0,P|480:128|464:192,1,140.000000596046
0,96,182690,5,0,0:0:0:0:
512,288,182840,1,0,0:0:0:0:
0,192,182990,1,0,0:0:0:0:
512,192,183140,1,0,0:0:0:0:
0,288,183290,1,0,0:0:0:0:
512,96,183440,1,0,0:0:0:0:
0,384,183590,1,0,0:0:0:0:
512,0,183740,1,0,0:0:0:0:
256,384,183890,5,0,0:0:0:0:
256,0,184040,1,0,0:0:0:0:
512,384,184190,1,0,0:0:0:0:
0,0,184340,1,0,0:0:0:0:
512,96,184490,1,0,0:0:0:0:
0,96,184640,1,0,0:0:0:0:
512,192,184790,1,0,0:0:0:0:
0,192,184940,1,0,0:0:0:0:
512,288,185090,6,0,B|448:336|448:336|432:256|288:208,1,280.000001192092
0,384,185540,1,0,0:0:0:0:
512,48,185690,2,0,B|448:16|448:16|448:96|272:128,1,280.000001192092
0,0,186140,1,0,0:0:0:0:
480,352,186290,6,0,L|448:208,1,140.000000596046
32,32,186590,2,0,L|64:176,1,140.000000596046
416,192,186890,5,0,0:0:0:0:
256,352,187040,1,0,0:0:0:0:
96,192,187190,1,0,0:0:0:0:
256,32,187340,1,0,0:0:0:0:
512,384,187490,5,0,0:0:0:0:
0,256,187640,1,0,0:0:0:0:
512,128,187790,1,0,0:0:0:0:
0,0,187940,1,0,0:0:0:0:
256,384,188090,1,0,0:0:0:0:
512,0,188240,1,0,0:0:0:0:
0,112,188390,1,0,0:0:0:0:
512,272,188540,1,0,0:0:0:0:
0,384,188690,5,0,0:0:0:0:
512,272,188840,1,0,0:0:0:0:
0,112,188990,1,0,0:0:0:0:
512,0,189140,1,0,0:0:0:0:
256,384,189290,1,0,0:0:0:0:
0,0,189440,1,0,0:0:0:0:
512,128,189590,1,0,0:0:0:0:
0,256,189740,1,0,0:0:0:0:
256,0,189890,5,0,0:0:0:0:
256,0,189965,1,0,0:0:0:0:
256,0,190040,1,0,0:0:0:0:
512,320,190190,1,0,0:0:0:0:
0,64,190340,1,0,0:0:0:0:
256,384,190490,1,0,0:0:0:0:
256,384,190565,1,0,0:0:0:0:
256,384,190640,1,0,0:0:0:0:
512,64,190790,1,0,0:0:0:0:
0,320,190940,1,0,0:0:0:0:
512,192,191090,5,0,0:0:0:0:
512,192,191165,1,0,0:0:0:0:
512,192,191240,1,0,0:0:0:0:
0,192,191390,1,0,0:0:0:0:
512,384,191540,1,0,0:0:0:0:
0,192,191690,1,0,0:0:0:0:
512,0,191840,1,0,0:0:0:0:
0,384,191990,1,0,0:0:0:0:
512,192,192140,1,0,0:0:0:0:
0,0,192290,6,0,L|176:0,1,140.000000596046
512,384,192590,2,0,L|368:384,1,140.000000596046
0,0,192890,2,0,L|144:0,1,140.000000596046
512,384,193190,2,0,L|352:384,1,140.000000596046
0,96,193490,5,0,0:0:0:0:
512,0,193640,1,0,0:0:0:0:
0,272,193790,1,0,0:0:0:0:
512,176,193940,1,0,0:0:0:0:
0,0,194090,1,0,0:0:0:0:
512,352,194240,1,0,0:0:0:0:
0,128,194390,1,0,0:0:0:0:
512,0,194540,1,0,0:0:0:0:
256,384,194690,5,0,0:0:0:0:
0,0,194840,1,0,0:0:0:0:
512,128,194990,1,0,0:0:0:0:
0,288,195140,1,0,0:0:0:0:
512,384,195290,1,0,0:0:0:0:
0,160,195440,1,0,0:0:0:0:
512,0,195590,1,0,0:0:0:0:
0,384,195740,1,0,0:0:0:0:
512,192,195890,5,0,0:0:0:0:
0,0,196040,1,0,0:0:0:0:
256,384,196190,1,0,0:0:0:0:
512,0,196340,1,0,0:0:0:0:
0,192,196490,1,0,0:0:0:0:
512,384,196640,1,0,0:0:0:0:
256,0,196790,1,0,0:0:0:0:
0,384,196940,1,0,0:0:0:0:
432,16,197090,5,0,0:0:0:0:
464,304,197240,1,0,0:0:0:0:
80,368,197390,5,0,0:0:0:0:
48,80,197540,1,0,0:0:0:0:
512,96,197690,5,0,0:0:0:0:
176,320,197840,1,0,0:0:0:0:
176,0,197990,5,0,0:0:0:0:
512,336,198140,1,0,0:0:0:0:
0,384,198290,5,0,0:0:0:0:
512,0,198440,1,0,0:0:0:0:
0,0,198590,1,0,0:0:0:0:
512,384,198740,1,0,0:0:0:0:
256,192,198890,1,0,0:0:0:0:
