osu file format v14

[General]
AudioFilename: cced.mp3
AudioLeadIn: 0
PreviewTime: 56665
Countdown: 0
SampleSet: None
StackLeniency: 0.7
Mode: 0
LetterboxInBreaks: 0
WidescreenStoryboard: 1

[Editor]
DistanceSpacing: 0.8
BeatDivisor: 4
GridSize: 16
TimelineZoom: 1

[Metadata]
Title:Corner Jump Training
TitleUnicode:Corner Jump Training
Artist:Various Artists
ArtistUnicode:Various Artists
Creator:QuadroKiller
Version:ClariS - Anemone -TV MIX- AR10
Source:
Tags:awolnation run cornerjump practice training ctb hyper dash hyperdash quadrokiller
BeatmapID:1371788
BeatmapSetID:478917

[Difficulty]
HPDrainRate:4
CircleSize:4
OverallDifficulty:8
ApproachRate:10
SliderMultiplier:1.60000000596046
SliderTickRate:1

[Events]
//Background and Video events
0,0,"gffd.jpg",0,0
//Break Periods
//Storyboard Layer 0 (Background)
//Storyboard Layer 1 (Fail)
//Storyboard Layer 2 (Pass)
//Storyboard Layer 3 (Foreground)
//Storyboard Sound Samples

[TimingPoints]
1808,428.571428571429,4,2,0,40,1,0
8665,-66.6666666666667,4,2,0,70,0,1
11665,-57.1428571428571,4,2,0,70,0,1
14665,-57.1428571428571,4,2,0,70,0,0
15093,-100,4,2,0,70,0,0
49165,-100,4,2,0,25,0,0
49379,-100,4,2,0,9,0,0
49593,-100,4,2,0,70,0,0
54093,-66.6666666666667,4,2,0,70,0,0
56022,-50,4,2,0,70,0,0
56665,-50,4,2,0,100,0,1
83879,-50,4,2,0,70,0,0

[HitObjects]
80,288,1808,6,0,L|176:288,1,80.000000298023
432,288,2236,2,0,L|336:288,1,80.000000298023
256,176,2665,2,0,L|256:48,2,120.000000447034
80,96,3522,6,0,L|144:160,1,80.000000298023
432,96,3950,2,0,L|368:160,1,80.000000298023
256,304,4379,1,0,0:0:0:0:
192,224,4593,1,0,0:0:0:0:
320,176,4808,1,0,0:0:0:0:
128,128,5022,1,0,0:0:0:0:
272,48,5236,6,0,P|352:64|432:208,1,240.000000894069
432,224,5986,1,0,0:0:0:0:
416,256,6093,2,0,B|368:320|368:320|336:256|240:192,1,240.000000894069
48,96,6950,5,0,0:0:0:0:
48,96,7272,1,0,0:0:0:0:
464,48,7593,1,0,0:0:0:0:
48,288,7808,5,0,0:0:0:0:
48,288,8129,1,0,0:0:0:0:
464,336,8451,1,0,0:0:0:0:
32,64,8665,5,0,0:0:0:0:
480,112,8879,1,0,0:0:0:0:
480,112,8986,1,0,0:0:0:0:
480,112,9093,1,0,0:0:0:0:
32,192,9308,1,0,0:0:0:0:
480,272,9522,1,0,0:0:0:0:
32,352,9736,1,0,0:0:0:0:
252,263,9950,1,0,0:0:0:0:
281,224,10058,1,0,0:0:0:0:
272,176,10165,1,0,0:0:0:0:
295,134,10272,1,0,0:0:0:0:
337,111,10379,5,0,0:0:0:0:
496,48,10593,1,0,0:0:0:0:
496,48,10700,1,0,0:0:0:0:
496,48,10808,1,0,0:0:0:0:
16,112,11022,1,0,0:0:0:0:
496,224,11236,1,0,0:0:0:0:
16,304,11450,1,0,0:0:0:0:
160,243,11665,1,0,0:0:0:0:
204,209,11772,1,0,0:0:0:0:
232,160,11879,1,0,0:0:0:0:
256,109,11986,1,0,0:0:0:0:
306,85,12093,5,0,0:0:0:0:
512,304,12308,1,0,0:0:0:0:
512,304,12415,1,0,0:0:0:0:
512,304,12522,1,0,0:0:0:0:
0,192,12736,1,0,0:0:0:0:
512,144,12950,1,0,0:0:0:0:
64,48,13165,2,0,L|-16:16,1,70.0000009283421
432,192,13379,2,0,L|512:192,1,70.0000009283421
64,336,13593,2,0,L|-32:368,1,70.0000009283421
256,192,13808,5,0,0:0:0:0:
96,96,14022,1,0,0:0:0:0:
146,71,14129,1,0,0:0:0:0:
201,74,14236,1,0,0:0:0:0:
254,89,14343,1,0,0:0:0:0:
306,109,14450,1,0,0:0:0:0:
362,103,14558,1,0,0:0:0:0:
409,74,14665,1,0,0:0:0:0:
256,336,15093,6,0,L|256:176,1,160.000000596046
32,32,15736,1,0,0:0:0:0:
480,80,15950,1,0,0:0:0:0:
32,144,16165,1,0,0:0:0:0:
480,208,16379,1,0,0:0:0:0:
32,272,16593,1,0,0:0:0:0:
480,320,16808,1,0,0:0:0:0:
32,384,17022,1,0,0:0:0:0:
480,224,17236,5,0,0:0:0:0:
128,384,17450,1,0,0:0:0:0:
480,128,17665,1,0,0:0:0:0:
208,352,17879,1,0,0:0:0:0:
416,64,18093,1,0,0:0:0:0:
288,304,18308,1,0,0:0:0:0:
352,0,18522,1,0,0:0:0:0:
368,256,18736,1,0,0:0:0:0:
224,0,18950,5,0,0:0:0:0:
432,176,19165,1,0,0:0:0:0:
112,32,19379,1,0,0:0:0:0:
464,96,19593,1,0,0:0:0:0:
64,112,19808,1,0,0:0:0:0:
448,16,20022,1,0,0:0:0:0:
32,208,20236,1,0,0:0:0:0:
480,96,20450,1,0,0:0:0:0:
256,192,20665,5,0,0:0:0:0:
128,240,20879,2,0,L|112:304,1,40.0000001490115
384,160,21093,2,0,L|400:112,1,40.0000001490115
160,112,21308,2,0,L|96:96,1,40.0000001490115
320,272,21522,2,0,L|384:288,1,40.0000001490115
272,64,21736,2,0,L|272:16,1,40.0000001490115
192,288,21950,6,0,L|160:368,2,80.000000298023
272,32,22593,1,0,0:0:0:0:
304,352,22808,1,0,0:0:0:0:
352,48,23022,1,0,0:0:0:0:
384,304,23236,1,0,0:0:0:0:
112,112,23450,1,0,0:0:0:0:
464,96,23665,1,0,0:0:0:0:
48,176,23879,1,0,0:0:0:0:
480,176,24093,5,0,0:0:0:0:
32,256,24308,1,0,0:0:0:0:
480,256,24522,1,0,0:0:0:0:
32,336,24736,1,0,0:0:0:0:
480,336,24950,1,0,0:0:0:0:
32,256,25165,1,0,0:0:0:0:
480,256,25379,1,0,0:0:0:0:
32,160,25593,1,0,0:0:0:0:
480,96,25808,5,0,0:0:0:0:
32,272,26022,1,0,0:0:0:0:
416,32,26236,1,0,0:0:0:0:
80,352,26450,1,0,0:0:0:0:
304,16,26665,1,0,0:0:0:0:
176,368,26879,1,0,0:0:0:0:
208,16,27093,1,0,0:0:0:0:
272,368,27308,1,0,0:0:0:0:
64,48,27522,6,0,B|80:112|80:112|176:48|320:32|384:192|320:288|288:304,1,480.000001788138
80,240,29022,1,0,0:0:0:0:
480,128,29236,5,0,0:0:0:0:
32,80,29450,1,0,0:0:0:0:
400,32,29665,1,0,0:0:0:0:
64,176,29879,1,0,0:0:0:0:
256,48,30093,1,0,0:0:0:0:
112,272,30308,1,0,0:0:0:0:
384,112,30522,1,0,0:0:0:0:
32,128,30736,1,0,0:0:0:0:
464,192,30950,5,0,0:0:0:0:
32,256,31165,1,0,0:0:0:0:
480,96,31379,1,0,0:0:0:0:
32,80,31593,1,0,0:0:0:0:
480,256,31808,1,0,0:0:0:0:
32,304,32022,1,0,0:0:0:0:
480,160,32236,1,0,0:0:0:0:
32,192,32450,1,0,0:0:0:0:
480,336,32665,5,0,0:0:0:0:
32,288,32879,1,0,0:0:0:0:
480,240,33093,1,0,0:0:0:0:
32,176,33308,1,0,0:0:0:0:
480,128,33522,1,0,0:0:0:0:
32,64,33736,1,0,0:0:0:0:
480,16,33950,1,0,0:0:0:0:
32,160,34165,1,0,0:0:0:0:
416,336,34379,6,0,L|448:256,1,80.000000298023
96,48,34808,2,0,L|64:128,1,80.000000298023
400,96,35236,2,0,L|480:80,1,80.000000298023
112,288,35665,2,0,L|32:304,1,80.000000298023
480,304,36093,5,0,0:0:0:0:
32,224,36308,1,0,0:0:0:0:
480,176,36522,1,0,0:0:0:0:
32,96,36736,1,0,0:0:0:0:
480,48,36950,1,0,0:0:0:0:
32,208,37165,1,0,0:0:0:0:
480,176,37379,1,0,0:0:0:0:
32,336,37593,1,0,0:0:0:0:
480,304,37808,5,0,0:0:0:0:
96,64,38022,1,0,0:0:0:0:
384,336,38236,1,0,0:0:0:0:
176,16,38450,1,0,0:0:0:0:
432,224,38665,1,0,0:0:0:0:
64,144,38879,1,0,0:0:0:0:
448,96,39093,1,0,0:0:0:0:
48,240,39308,1,0,0:0:0:0:
464,272,39522,5,0,0:0:0:0:
48,336,39736,1,0,0:0:0:0:
480,384,39950,1,0,0:0:0:0:
48,240,40165,1,0,0:0:0:0:
480,208,40379,1,0,0:0:0:0:
80,320,40593,1,0,0:0:0:0:
432,112,40808,1,0,0:0:0:0:
176,368,41022,1,0,0:0:0:0:
352,16,41236,5,0,0:0:0:0:
432,304,41450,1,0,0:0:0:0:
128,240,41665,2,0,L|64:224,1,40.0000001490115
384,208,41879,2,0,L|448:192,1,40.0000001490115
160,128,42093,1,0,0:0:0:0:
169,97,42200,1,0,0:0:0:0:
191,73,42308,1,0,0:0:0:0:
222,67,42415,1,0,0:0:0:0:
253,70,42522,2,0,L|301:82,1,40.0000001490115
452,265,42736,2,0,L|400:251,1,40.0000001490115
132,349,42950,6,0,P|64:299|70:205,1,160.000000596046
385,176,43593,1,0,0:0:0:0:
205,22,43808,2,0,P|128:122|139:145,1,160.000000596046
376,312,44450,1,0,0:0:0:0:
333,91,44665,5,0,0:0:0:0:
275,337,44879,1,0,0:0:0:0:
240,74,45093,1,0,0:0:0:0:
179,370,45308,1,0,0:0:0:0:
140,46,45522,1,0,0:0:0:0:
83,383,45736,1,0,0:0:0:0:
41,16,45950,1,0,0:0:0:0:
397,178,46165,1,0,0:0:0:0:
10,275,46379,6,0,B|165:244|126:111|272:99,1,320.000001192092
417,220,47450,1,0,0:0:0:0:
177,323,47665,1,0,0:0:0:0:
210,52,47879,1,0,0:0:0:0:
471,114,48093,6,0,B|369:138|320:288|187:222,1,320.000001192092
164,204,49058,1,0,0:0:0:0:
146,177,49165,1,0,0:0:0:0:
144,145,49272,1,0,0:0:0:0:
155,115,49379,1,0,0:0:0:0:
384,64,49593,5,0,0:0:0:0:
416,336,49808,2,0,L|416:240,1,80.000000298023
288,48,50236,2,0,L|288:144,1,80.000000298023
192,368,50665,2,0,L|192:288,1,80.000000298023
128,32,51093,2,0,L|128:128,1,80.000000298023
32,336,51522,5,0,0:0:0:0:
96,64,51736,1,0,0:0:0:0:
144,352,51950,1,0,0:0:0:0:
176,48,52165,1,0,0:0:0:0:
240,368,52379,1,0,0:0:0:0:
272,32,52593,1,0,0:0:0:0:
336,384,52808,1,0,0:0:0:0:
384,0,53022,1,0,0:0:0:0:
160,304,53236,5,0,0:0:0:0:
496,176,53450,1,0,0:0:0:0:
32,208,53665,1,0,0:0:0:0:
512,352,53879,1,0,0:0:0:0:
208,304,54093,1,0,0:0:0:0:
170,273,54200,1,0,0:0:0:0:
145,231,54308,1,0,0:0:0:0:
144,183,54415,1,0,0:0:0:0:
166,140,54522,1,0,0:0:0:0:
202,109,54629,1,0,0:0:0:0:
248,95,54736,1,0,0:0:0:0:
290,72,54843,1,0,0:0:0:0:
329,44,54950,5,0,0:0:0:0:
32,352,55379,1,0,0:0:0:0:
480,32,55808,1,0,0:0:0:0:
256,288,56022,1,0,0:0:0:0:
256,288,56236,6,0,P|128:160|224:128,1,320.000001192092
512,0,56879,1,0,0:0:0:0:
0,112,57093,1,0,0:0:0:0:
512,192,57308,1,0,0:0:0:0:
0,320,57522,5,0,0:0:0:0:
512,384,57736,1,0,0:0:0:0:
0,224,57950,1,0,0:0:0:0:
512,80,58165,1,0,0:0:0:0:
0,80,58379,6,0,B|80:64|112:176|288:208,1,320.000001192092
512,0,59022,1,0,0:0:0:0:
0,384,59236,1,0,0:0:0:0:
512,112,59450,1,0,0:0:0:0:
0,272,59665,1,0,0:0:0:0:
512,224,59879,1,0,0:0:0:0:
0,176,60093,5,0,0:0:0:0:
512,336,60308,1,0,0:0:0:0:
0,64,60522,1,0,0:0:0:0:
432,384,60736,1,0,0:0:0:0:
96,0,60950,5,0,0:0:0:0:
320,384,61165,1,0,0:0:0:0:
208,0,61379,1,0,0:0:0:0:
192,384,61593,1,0,0:0:0:0:
512,0,61808,5,0,0:0:0:0:
0,384,62236,1,0,0:0:0:0:
512,384,62665,1,0,0:0:0:0:
0,0,63093,1,0,0:0:0:0:
512,96,63522,5,0,0:0:0:0:
0,160,63736,1,0,0:0:0:0:
512,240,63950,1,0,0:0:0:0:
0,320,64165,1,0,0:0:0:0:
512,384,64379,1,0,0:0:0:0:
0,224,64593,1,0,0:0:0:0:
512,96,64808,1,0,0:0:0:0:
0,0,65022,1,0,0:0:0:0:
96,384,65236,5,0,0:0:0:0:
176,0,65450,1,0,0:0:0:0:
240,384,65665,1,0,0:0:0:0:
320,0,65879,1,0,0:0:0:0:
384,384,66093,1,0,0:0:0:0:
480,0,66308,5,0,0:0:0:0:
0,384,66522,1,0,0:0:0:0:
512,192,66736,1,0,0:0:0:0:
0,0,66950,1,0,0:0:0:0:
512,80,67165,5,0,0:0:0:0:
0,192,67379,1,0,0:0:0:0:
512,304,67593,1,0,0:0:0:0:
0,384,67808,1,0,0:0:0:0:
512,192,68022,5,0,0:0:0:0:
0,0,68236,1,0,0:0:0:0:
256,384,68450,1,0,0:0:0:0:
512,0,68665,5,0,0:0:0:0:
0,384,68879,1,0,0:0:0:0:
512,384,69093,1,0,0:0:0:0:
0,0,69308,1,0,0:0:0:0:
176,144,69736,6,0,P|240:288|240:96,1,480.000001788138
0,0,70593,5,0,0:0:0:0:
512,64,70808,1,0,0:0:0:0:
0,128,71022,1,0,0:0:0:0:
512,192,71236,1,0,0:0:0:0:
0,256,71450,1,0,0:0:0:0:
512,320,71665,1,0,0:0:0:0:
0,384,71879,1,0,0:0:0:0:
512,240,72093,6,0,B|416:320|416:320|384:176|304:112,1,320.000001192092
0,0,72736,1,0,0:0:0:0:
512,96,72950,1,0,0:0:0:0:
0,192,73165,1,0,0:0:0:0:
512,320,73379,1,0,0:0:0:0:
0,384,73593,1,0,0:0:0:0:
112,0,73808,5,0,0:0:0:0:
224,384,74022,1,0,0:0:0:0:
368,0,74236,1,0,0:0:0:0:
512,384,74450,1,0,0:0:0:0:
0,272,74665,1,0,0:0:0:0:
512,128,74879,1,0,0:0:0:0:
0,0,75093,1,0,0:0:0:0:
256,384,75308,1,0,0:0:0:0:
512,0,75522,5,0,0:0:0:0:
0,0,75950,1,0,0:0:0:0:
0,384,76379,1,0,0:0:0:0:
512,384,76808,2,0,B|448:272|544:208|480:48,1,320.000001192092
0,0,77450,5,0,0:0:0:0:
512,96,77665,1,0,0:0:0:0:
0,192,77879,1,0,0:0:0:0:
512,288,78093,1,0,0:0:0:0:
0,384,78308,1,0,0:0:0:0:
112,0,78522,1,0,0:0:0:0:
208,384,78736,1,0,0:0:0:0:
304,0,78950,5,0,0:0:0:0:
400,384,79165,1,0,0:0:0:0:
0,64,79379,1,0,0:0:0:0:
512,288,79593,1,0,0:0:0:0:
0,176,79808,1,0,0:0:0:0:
512,128,80022,5,0,0:0:0:0:
0,384,80236,1,0,0:0:0:0:
512,240,80450,1,0,0:0:0:0:
0,128,80665,1,0,0:0:0:0:
512,0,80879,5,0,0:0:0:0:
256,384,81093,1,0,0:0:0:0:
0,0,81308,1,0,0:0:0:0:
512,192,81522,1,0,0:0:0:0:
0,384,81736,5,0,0:0:0:0:
256,0,81950,1,0,0:0:0:0:
512,384,82165,1,0,0:0:0:0:
0,0,82379,5,0,0:0:0:0:
512,384,82593,1,0,0:0:0:0:
0,384,82808,1,0,0:0:0:0:
512,0,83022,1,0,0:0:0:0:
64,272,83450,5,0,0:0:0:0:
448,112,83665,1,0,0:0:0:0:
256,192,83879,1,0,0:0:0:0:
