osu file format v14

[General]
AudioFilename: audio.mp3
AudioLeadIn: 0
PreviewTime: 131873
Countdown: 0
SampleSet: Soft
StackLeniency: 0.7
Mode: 0
LetterboxInBreaks: 0
WidescreenStoryboard: 1

[Editor]
DistanceSpacing: 0.8
BeatDivisor: 4
GridSize: 16
TimelineZoom: 1

[Metadata]
Title:Corner Jump Training
TitleUnicode:Corner Jump Training
Artist:Various Artists
ArtistUnicode:Various Artists
Creator:QuadroKiller
Version:AWOLNATION - RUN
Source:
Tags:awolnation run cornerjump practice training ctb hyper dash hyperdash quadrokiller
BeatmapID:1151888
BeatmapSetID:478917

[Difficulty]
HPDrainRate:4
CircleSize:4
OverallDifficulty:7.5
ApproachRate:9
SliderMultiplier:1.00000000596046
SliderTickRate:1

[Events]
//Background and Video events
0,0,"RUN DUDUDU.jpg",0,0
//Break Periods
//Storyboard Layer 0 (Background)
//Storyboard Layer 1 (Fail)
//Storyboard Layer 2 (Pass)
//Storyboard Layer 3 (Foreground)
//Storyboard Sound Samples

[TimingPoints]
14047,434.782608695652,4,2,0,100,1,0
132307,-50,4,2,0,100,0,1
159373,-50,4,2,0,100,0,0
173529,-66.6666666666667,4,2,0,100,0,0
201873,-50,4,2,0,100,0,1
215677,-50,4,2,0,100,0,0

[HitObjects]
80,144,125351,6,0,L|144:112,1,50.0000002980232
336,80,125786,2,0,L|400:96,1,50.0000002980232
160,272,126220,2,0,L|112:304,1,50.0000002980232
80,80,126655,2,2,L|144:48,1,50.0000002980232
336,304,127090,2,0,L|400:272,1,50.0000002980232
368,112,127525,2,0,L|320:80,1,50.0000002980232
80,144,127959,2,0,L|144:112,1,50.0000002980232
304,176,128394,2,2,L|368:192,1,50.0000002980232
160,272,128828,6,0,L|112:304,1,50.0000002980232
80,80,129263,2,0,L|144:48,1,50.0000002980232
336,304,129698,2,0,L|400:272,1,50.0000002980232
368,112,130133,2,2,L|320:80,1,50.0000002980232
80,144,130568,2,0,L|144:112,1,50.0000002980232
352,192,131003,2,0,L|416:208,1,50.0000002980232
160,272,131437,2,0,L|112:304,1,50.0000002980232
128,336,132307,6,14,P|64:240|80:160,1,200.000001192093
464,48,132960,1,8,0:0:0:0:
48,80,133177,1,8,0:0:0:0:
464,160,133394,1,8,0:0:0:0:
48,224,133612,1,8,0:0:0:0:
464,304,133829,1,8,0:0:0:0:
48,336,134046,1,8,0:0:0:0:
464,224,134263,1,8,0:0:0:0:
48,144,134481,1,8,0:0:0:0:
464,48,134699,1,8,0:0:0:0:
48,224,134916,1,8,0:0:0:0:
464,320,135133,1,8,0:0:0:0:
48,64,135351,1,8,0:0:0:0:
464,160,135568,1,8,0:0:0:0:
64,144,135786,6,14,P|176:64|256:64,1,200.000001192092
464,336,136438,1,8,0:0:0:0:
48,224,136655,1,8,0:0:0:0:
464,48,136873,1,8,0:0:0:0:
48,48,137090,1,8,0:0:0:0:
464,240,137307,1,8,0:0:0:0:
48,304,137525,1,8,0:0:0:0:
464,48,137742,1,8,0:0:0:0:
48,208,137960,1,8,0:0:0:0:
464,288,138177,1,8,0:0:0:0:
48,80,138394,1,8,0:0:0:0:
112,336,138612,1,8,0:0:0:0:
240,48,138829,1,8,0:0:0:0:
384,336,139047,1,8,0:0:0:0:
400,128,139264,6,14,P|208:64|176:64,1,200.000001192092
48,288,139916,1,8,0:0:0:0:
464,48,140133,1,8,0:0:0:0:
48,160,140351,1,8,0:0:0:0:
464,208,140568,1,8,0:0:0:0:
48,272,140786,1,8,0:0:0:0:
464,96,141003,1,8,0:0:0:0:
48,48,141220,1,8,0:0:0:0:
464,176,141438,1,8,0:0:0:0:
48,256,141655,1,8,0:0:0:0:
464,64,141873,1,8,0:0:0:0:
48,128,142090,1,8,0:0:0:0:
464,224,142307,1,8,0:0:0:0:
48,272,142525,1,8,0:0:0:0:
384,320,142742,6,14,P|464:208|432:112,1,200.000001192092
48,48,143394,1,8,0:0:0:0:
464,240,143612,1,8,0:0:0:0:
48,304,143829,1,8,0:0:0:0:
464,64,144046,1,8,0:0:0:0:
48,160,144264,1,8,0:0:0:0:
464,144,144481,1,8,0:0:0:0:
48,320,144699,1,10,0:0:0:0:
240,48,144916,1,8,0:0:0:0:
448,336,145133,1,10,0:0:0:0:
48,176,145351,1,10,0:0:0:0:
464,144,145568,1,10,0:0:0:0:
48,64,145786,1,10,0:0:0:0:
128,336,146003,1,8,0:0:0:0:
288,64,146220,6,14,P|432:208|432:224,1,200.000001192092
48,320,146873,1,8,0:0:0:0:
464,320,147090,1,10,0:0:0:0:
48,240,147307,1,8,0:0:0:0:
464,240,147525,1,8,0:0:0:0:
48,160,147742,1,8,0:0:0:0:
464,160,147960,1,8,0:0:0:0:
48,80,148177,1,8,0:0:0:0:
464,80,148394,1,8,0:0:0:0:
96,272,148612,1,8,0:0:0:0:
384,48,148829,1,10,0:0:0:0:
176,336,149046,1,8,0:0:0:0:
288,32,149264,1,8,0:0:0:0:
288,352,149481,1,8,0:0:0:0:
432,176,149699,6,14,P|272:80|240:96,1,200.000001192092
464,336,150351,1,8,0:0:0:0:
48,224,150568,1,10,0:0:0:0:
464,48,150786,1,8,0:0:0:0:
48,48,151003,1,8,0:0:0:0:
464,240,151220,1,8,0:0:0:0:
48,304,151438,1,8,0:0:0:0:
464,48,151655,1,8,0:0:0:0:
48,208,151873,1,8,0:0:0:0:
464,288,152090,1,8,0:0:0:0:
48,80,152307,1,10,0:0:0:0:
112,336,152525,1,8,0:0:0:0:
240,48,152742,1,8,0:0:0:0:
384,336,152960,1,8,0:0:0:0:
384,80,153177,6,14,B|272:96|272:96|208:176,1,200.000001192092
64,320,153829,1,8,0:0:0:0:
464,48,154046,1,10,0:0:0:0:
144,272,154264,1,8,0:0:0:0:
368,112,154481,1,8,0:0:0:0:
464,336,154699,1,8,0:0:0:0:
48,48,154916,1,8,0:0:0:0:
464,176,155133,1,8,0:0:0:0:
48,224,155351,1,8,0:0:0:0:
464,288,155568,1,8,0:0:0:0:
48,80,155786,1,10,0:0:0:0:
144,336,156003,1,8,0:0:0:0:
256,48,156220,1,8,0:0:0:0:
464,336,156438,1,8,0:0:0:0:
144,336,156655,6,10,P|64:224|80:208,1,200.000001192092,14|14,0:0|0:0,0:0:0:0:
464,48,157307,1,8,0:0:0:0:
48,80,157525,1,10,0:0:0:0:
464,128,157742,1,8,0:0:0:0:
48,160,157960,1,8,0:0:0:0:
464,208,158177,1,8,0:0:0:0:
48,240,158394,1,8,0:0:0:0:
464,336,158612,1,8,0:0:0:0:
48,336,158829,1,8,0:0:0:0:
464,48,159046,1,8,0:0:0:0:
48,48,159264,1,12,0:0:0:0:
256,192,160133,5,0,0:0:0:0:
256,192,160351,1,0,0:0:0:0:
256,192,160568,1,0,0:0:0:0:
96,192,161003,5,0,0:0:0:0:
256,48,161438,1,0,0:0:0:0:
416,192,161873,1,8,0:0:0:0:
256,336,162307,1,0,0:0:0:0:
464,192,162742,5,0,0:0:0:0:
256,0,163177,1,0,0:0:0:0:
48,192,163612,1,0,0:0:0:0:
256,384,164046,1,0,0:0:0:0:
512,0,164481,5,0,0:0:0:0:
16,384,164916,1,0,0:0:0:0:
512,384,165351,1,8,0:0:0:0:
0,0,165786,1,0,0:0:0:0:
512,0,166220,1,0,0:0:0:0:
0,384,166655,1,0,0:0:0:0:
96,112,167090,6,0,P|144:80|192:64,1,100.000000596046
416,256,167525,2,0,P|352:304|320:320,1,100.000000596046
256,192,167960,5,0,0:0:0:0:
0,288,168394,1,0,0:0:0:0:
0,288,168612,1,0,0:0:0:0:
512,160,168829,1,8,0:0:0:0:
176,0,169264,1,0,0:0:0:0:
432,384,169699,1,0,0:0:0:0:
0,48,170133,1,0,0:0:0:0:
512,256,170568,5,0,0:0:0:0:
0,368,171003,1,0,0:0:0:0:
512,0,171438,1,0,0:0:0:0:
0,96,171873,1,0,0:0:0:0:
512,336,172307,1,8,0:0:0:0:
160,256,172742,1,0,0:0:0:0:
256,96,173177,1,0,0:0:0:0:
416,80,173612,1,0,0:0:0:0:
416,80,173829,6,0,P|432:144|432:160,1,75.0000033080576
400,240,174264,1,0,0:0:0:0:
320,304,174481,1,0,0:0:0:0:
224,320,174699,1,0,0:0:0:0:
128,304,174916,1,0,0:0:0:0:
64,240,175133,1,0,0:0:0:0:
48,160,175351,1,0,0:0:0:0:
80,80,175568,1,0,0:0:0:0:
256,224,175785,5,8,0:0:0:0:
64,224,176002,1,0,0:0:0:0:
256,224,176220,1,0,0:0:0:0:
112,112,176437,1,0,0:0:0:0:
256,224,176655,1,0,0:0:0:0:
256,48,176872,1,0,0:0:0:0:
256,224,177089,1,0,0:0:0:0:
416,128,177307,1,0,0:0:0:0:
256,224,177524,1,0,0:0:0:0:
448,240,177742,5,0,0:0:0:0:
176,288,177960,1,0,0:0:0:0:
144,96,178177,1,0,0:0:0:0:
400,48,178394,1,0,0:0:0:0:
272,208,178612,1,0,0:0:0:0:
96,208,178829,1,0,0:0:0:0:
208,336,179046,1,0,0:0:0:0:
368,320,179264,2,10,P|432:224|432:160,1,150.000006616115
64,176,180133,2,2,P|64:128|144:32,1,150.000006616115
106,57,180786,6,0,P|176:48|208:64,1,75.0000033080576
416,112,181220,1,0,0:0:0:0:
256,160,181438,1,0,0:0:0:0:
416,224,181655,1,0,0:0:0:0:
272,272,181873,1,0,0:0:0:0:
112,240,182090,2,0,P|80:176|80:144,1,75.0000033080576
224,96,182525,2,8,P|256:144|256:176,1,75.0000033080576
224,288,182960,5,0,0:0:0:0:
48,208,183177,1,0,0:0:0:0:
256,192,183394,1,0,0:0:0:0:
144,80,183612,1,0,0:0:0:0:
128,288,183829,2,0,P|176:320|208:320,1,75.0000033080576
432,112,184264,1,0,0:0:0:0:
208,80,184481,1,0,0:0:0:0:
320,256,184699,1,0,0:0:0:0:
144,240,184916,5,0,0:0:0:0:
336,48,185133,1,0,0:0:0:0:
448,240,185351,1,0,0:0:0:0:
272,304,185568,1,0,0:0:0:0:
80,112,185786,1,0,0:0:0:0:
80,304,186003,1,0,0:0:0:0:
352,336,186220,2,10,P|448:272|464:240,1,150.000006616115
176,48,187090,2,2,P|112:64|48:128,1,150.000006616115
464,128,187960,6,0,P|416:224|368:256,1,150.000006616115
48,80,188612,5,0,0:0:0:0:
384,112,188829,1,0,0:0:0:0:
64,208,189046,1,0,0:0:0:0:
368,32,189264,1,0,0:0:0:0:
16,144,189481,1,0,0:0:0:0:
480,160,189699,1,8,0:0:0:0:
112,304,189916,1,0,0:0:0:0:
448,320,190133,5,0,0:0:0:0:
128,176,190351,1,0,0:0:0:0:
448,224,190568,1,0,0:0:0:0:
48,240,190786,1,0,0:0:0:0:
432,112,191003,1,0,0:0:0:0:
48,96,191220,1,0,0:0:0:0:
432,336,191438,1,0,0:0:0:0:
32,336,191655,1,0,0:0:0:0:
384,112,191873,5,0,0:0:0:0:
48,160,192090,1,0,0:0:0:0:
368,272,192307,1,0,0:0:0:0:
208,32,192525,1,0,0:0:0:0:
160,304,192742,1,0,0:0:0:0:
336,128,192960,5,0,0:0:0:0:
160,128,193177,1,8,0:0:0:0:
304,256,193394,1,0,0:0:0:0:
240,48,193612,1,0,0:0:0:0:
160,240,193829,1,0,0:0:0:0:
464,96,194046,5,0,0:0:0:0:
352,304,194264,1,0,0:0:0:0:
288,48,194481,1,0,0:0:0:0:
128,320,194699,1,0,0:0:0:0:
64,128,194916,6,2,P|144:80|224:64,1,150.000006616115
384,96,195568,1,0,0:0:0:0:
272,256,195786,2,0,L|224:192,1,75.0000033080576
224,64,196220,2,0,L|144:112,1,75.0000033080576
448,208,196655,6,10,L|400:144,1,75.0000033080576
128,304,197090,2,0,L|80:224,1,75.0000033080576
112,128,197525,1,0,0:0:0:0:
224,80,197742,1,0,0:0:0:0:
336,80,197960,1,0,0:0:0:0:
416,144,198177,1,0,0:0:0:0:
352,272,198394,6,0,L|272:272,1,75.0000033080576
96,160,198829,2,0,L|160:112,1,75.0000033080576
336,80,199264,2,0,L|384:144,1,75.0000033080576
272,240,199699,1,0,0:0:0:0:
160,288,199916,1,0,0:0:0:0:
112,192,200133,2,10,L|96:112,1,75.0000033080576
192,64,200568,2,0,L|208:144,1,75.0000033080576
320,192,201003,2,0,L|304:96,1,75.0000033080576
432,96,201438,1,0,0:0:0:0:
448,224,201655,1,0,0:0:0:0:
128,336,201873,6,14,P|64:256|80:128,1,200.000001192092
512,48,202525,1,8,0:0:0:0:
0,224,202742,1,8,0:0:0:0:
512,352,202960,1,8,0:0:0:0:
0,32,203177,1,8,0:0:0:0:
512,80,203394,1,8,0:0:0:0:
0,384,203612,1,8,0:0:0:0:
512,224,203829,1,8,0:0:0:0:
0,128,204046,1,8,0:0:0:0:
512,112,204264,1,8,0:0:0:0:
0,256,204481,1,8,0:0:0:0:
512,336,204699,1,8,0:0:0:0:
0,160,204916,1,8,0:0:0:0:
512,80,205133,5,8,0:0:0:0:
256,384,205351,1,8,0:0:0:0:
128,0,205568,1,8,0:0:0:0:
80,384,205786,1,0,0:0:0:0:
368,0,206003,1,8,0:0:0:0:
480,384,206220,1,8,0:0:0:0:
0,144,206438,1,8,0:0:0:0:
512,32,206655,1,8,0:0:0:0:
0,368,206873,1,8,0:0:0:0:
512,240,207090,5,8,0:0:0:0:
0,16,207307,1,8,0:0:0:0:
512,128,207525,1,8,0:0:0:0:
0,240,207742,1,8,0:0:0:0:
512,304,207960,1,8,0:0:0:0:
0,96,208177,1,8,0:0:0:0:
512,128,208394,1,8,0:0:0:0:
0,288,208612,1,8,0:0:0:0:
432,256,208829,6,0,L|448:224,1,25.0000001490115
0,128,209264,5,8,0:0:0:0:
512,160,209481,1,8,0:0:0:0:
0,384,209699,1,8,0:0:0:0:
512,16,209916,1,8,0:0:0:0:
0,96,210133,1,8,0:0:0:0:
512,320,210351,1,8,0:0:0:0:
0,288,210568,1,8,0:0:0:0:
512,160,210786,1,8,0:0:0:0:
0,176,211003,1,8,0:0:0:0:
512,320,211220,1,8,0:0:0:0:
0,64,211438,1,8,0:0:0:0:
512,144,211655,1,8,0:0:0:0:
0,240,211873,1,8,0:0:0:0:
512,304,212090,5,8,0:0:0:0:
0,16,212307,1,8,0:0:0:0:
512,48,212525,1,8,0:0:0:0:
0,368,212742,1,8,0:0:0:0:
512,288,212960,1,8,0:0:0:0:
0,192,213177,1,8,0:0:0:0:
512,112,213394,1,8,0:0:0:0:
256,64,213612,5,8,0:0:0:0:
112,192,213829,1,8,0:0:0:0:
256,320,214046,1,8,0:0:0:0:
400,192,214264,1,8,0:0:0:0:
0,80,214481,5,8,0:0:0:0:
464,288,214699,1,8,0:0:0:0:
64,256,214916,1,8,0:0:0:0:
400,64,215133,1,8,0:0:0:0:
256,192,215351,1,12,0:0:0:0:
256,192,215568,1,12,0:0:0:0:
