osu file format v14

[General]
AudioFilename: audio.mp3
AudioLeadIn: 0
PreviewTime: 91753
Countdown: 0
SampleSet: Normal
StackLeniency: 0.7
Mode: 1
LetterboxInBreaks: 0
WidescreenStoryboard: 1

[Editor]
DistanceSpacing: 1.1
BeatDivisor: 4
GridSize: 16
TimelineZoom: 2.7

[Metadata]
Title:think abt it
TitleUnicode:think abt it ✧ʕ̢̣̣·͡˔·ོɁ̡̣̣✧
Artist:yyyyy^2
ArtistUnicode:yyyyy²
Creator:vzlen
Version:oni
Source:
Tags:oaf1 ppgcasper about dariacore english instrumental hyperpop hyper pop electronic yyyyy2 y2 imogen heap hide and & seek furiiii
BeatmapID:4171745
BeatmapSetID:2005789

[Difficulty]
HPDrainRate:5
CircleSize:2
OverallDifficulty:5.5
ApproachRate:10
SliderMultiplier:1.4
SliderTickRate:1

[Events]
//Background and Video events
0,0,"FxbEqWJaEAAubzV.jpg",0,50
//Break Periods
//Storyboard Layer 0 (Background)
//Storyboard Layer 1 (Fail)
//Storyboard Layer 2 (Pass)
//Storyboard Layer 3 (Foreground)
//Storyboard Layer 4 (Overlay)
//Storyboard Sound Samples

[TimingPoints]
727,315.789473684211,4,1,0,50,1,8
727,-200,4,1,0,50,0,0
1990,315.789473684211,4,1,0,50,1,0
1990,-200,4,1,0,50,0,0
12016,-66.6666666666667,4,1,0,50,0,0
12174,-133.333333333333,4,1,0,50,0,0
19634,-133.333333333333,4,1,0,50,0,0
19792,-130.611190076237,4,1,0,50,0,0
19911,-126.582278481013,4,1,0,50,0,0
20423,-120.764635603345,4,1,0,50,0,0
20581,-118.527204502814,4,1,0,50,0,0
20739,-116.371172000921,4,1,0,50,0,0
20897,-114.292175486205,4,1,0,50,0,0
21213,-110.349344978166,4,1,0,50,0,0
21371,-108.478214209058,4,1,0,50,0,0
21528,-106.68073878628,4,1,0,50,0,0
21686,-104.930966469428,4,1,0,50,0,0
21844,-103.23766724543,4,1,0,50,0,0
22002,-101.598150567896,4,1,0,50,0,0
22160,-100.009894132779,4,1,0,60,0,0
22200,-100.009894132779,4,1,0,60,0,0
25951,-100,4,1,0,60,0,0
26108,-100,4,1,0,60,0,0
26266,-95.2488687782806,4,1,0,60,0,0
26424,-100,4,1,0,60,0,0
26582,-90.9156348977829,4,1,0,60,0,0
26740,-88.8935810810811,4,1,0,60,0,0
26898,-86.9595152850454,4,1,0,60,0,0
26977,-86.0237024928484,4,1,0,60,0,0
27056,-85.1078167115903,4,1,0,60,0,0
27214,-83.3333333333333,4,1,0,60,0,0
27293,-100,4,1,0,60,0,0
31003,-99.9841671944269,4,1,0,60,0,0
31042,-100,4,1,0,60,0,0
31161,-102.550219286372,4,1,0,60,0,0
31319,-105.251458738539,4,1,0,60,0,0
31477,-108.098852805205,4,1,0,60,0,0
31635,-111.104593183551,4,1,0,60,0,0
31793,-114.282266336813,4,1,0,60,0,0
31951,-117.647058823529,4,1,0,60,0,0
32122,-100,4,1,0,60,0,0
32175,-100,4,1,0,60,0,0
32228,-100,4,1,0,60,0,0
32279,-124.975262220463,4,1,0,75,0,0
32305,-100,4,1,0,75,0,0
32358,-100,4,1,0,75,0,0
32437,-100,4,1,0,75,0,0
32595,-100,4,1,0,75,0,0
32674,-100,4,1,0,75,0,0
32753,-100,4,1,0,75,0,0
32911,-100,4,1,0,75,0,0
33069,-100,4,1,0,75,0,0
33148,-100,4,1,0,75,0,0
33227,-100,4,1,0,75,0,0
33385,-100,4,1,0,75,0,0
33542,-100,4,1,0,75,0,0
33621,-100,4,1,0,75,0,0
33700,-100,4,1,0,75,0,0
33858,-100,4,1,0,75,0,0
33937,-100,4,1,0,75,0,0
34016,-100,4,1,0,75,0,0
34174,-100,4,1,0,75,0,0
34332,-100,4,1,0,75,0,0
34411,-100,4,1,0,75,0,0
34490,-100,4,1,0,75,0,0
34569,-100,4,1,0,75,0,0
34648,-100,4,1,0,75,0,0
34793,-83.3333333333333,4,1,0,75,0,0
34951,-83.3333333333333,4,1,0,75,0,0
35108,-83.3333333333333,4,1,0,75,0,0
35187,-83.3333333333333,4,1,0,75,0,0
35266,-83.3333333333333,4,1,0,75,0,0
35424,-83.3333333333333,4,1,0,75,0,0
35582,-83.3333333333333,4,1,0,75,0,0
35661,-83.3333333333333,4,1,0,75,0,0
35740,-83.3333333333333,4,1,0,75,0,0
35819,-83.3333333333333,4,1,0,75,0,0
35898,-83.3333333333333,4,1,0,75,0,0
36056,-83.3333333333333,4,1,0,75,0,0
36214,-83.3333333333333,4,1,0,75,0,0
36293,-83.3333333333333,4,1,0,75,0,0
36372,-83.3333333333333,4,1,0,75,0,0
36529,-83.3333333333333,4,1,0,75,0,0
36687,-83.3333333333333,4,1,0,75,0,0
36845,-83.3333333333333,4,1,0,75,0,0
36924,-83.3333333333333,4,1,0,75,0,0
37003,-83.3333333333333,4,1,0,75,0,0
37082,-83.3333333333333,4,1,0,75,0,0
37161,-83.3333333333333,4,1,0,75,0,0
37318,-83.3333333333333,4,1,0,75,0,0
37476,-83.3333333333333,4,1,0,75,0,0
37634,-83.3333333333333,4,1,0,75,0,0
37713,-83.3333333333333,4,1,0,75,0,0
37792,-83.3333333333333,4,1,0,75,0,0
37871,-83.3333333333333,4,1,0,75,0,0
37950,-83.3333333333333,4,1,0,75,0,0
38107,-83.3333333333333,4,1,0,75,0,0
38186,-83.3333333333333,4,1,0,75,0,0
38265,-83.3333333333333,4,1,0,75,0,0
38423,-83.3333333333333,4,1,0,75,0,0
38581,-83.3333333333333,4,1,0,75,0,0
38660,-83.3333333333333,4,1,0,75,0,0
38739,-83.3333333333333,4,1,0,75,0,0
38818,-83.3333333333333,4,1,0,75,0,0
38897,-83.3333333333333,4,1,0,75,0,0
38976,-83.3333333333333,4,1,0,75,0,0
39055,-83.3333333333333,4,1,0,75,0,0
39213,-83.3333333333333,4,1,0,75,0,0
39371,-83.3333333333333,4,1,0,75,0,0
39450,-83.3333333333333,4,1,0,75,0,0
39528,-83.3333333333333,4,1,0,75,0,0
39686,-83.3333333333333,4,1,0,75,0,0
39846,-83.3333333333333,4,1,0,75,0,0
40003,-83.3333333333333,4,1,0,75,0,0
40161,-83.3333333333333,4,1,0,75,0,0
40240,-83.3333333333333,4,1,0,75,0,0
40319,-83.3333333333333,4,1,0,75,0,0
40477,-83.3333333333333,4,1,0,75,0,0
40635,-83.3333333333333,4,1,0,75,0,0
40714,-83.3333333333333,4,1,0,75,0,0
40793,-83.3333333333333,4,1,0,75,0,0
40872,-83.3333333333333,4,1,0,75,0,0
40951,-83.3333333333333,4,1,0,75,0,0
41109,-83.3223380393192,4,1,0,75,0,0
41147,-83.3333333333333,4,1,0,75,0,0
41266,-85.0963482010511,4,1,0,75,0,0
41424,-86.9475423378769,4,1,0,75,0,0
41582,-88.881069669247,4,1,0,75,0,0
41740,-90.9025478623866,4,1,0,75,0,0
41898,-100,4,1,0,75,0,0
42056,-95.2345045996079,4,1,0,75,0,0
42135,-96.3827838827839,4,1,0,75,0,0
42214,-97.5590916113085,4,1,0,75,0,0
42293,-98.7644666875196,4,1,0,75,0,0
42372,-100,4,1,0,75,0,0
42529,-100,4,1,0,75,0,0
42687,-100,4,1,0,75,0,0
42845,-100,4,1,0,75,0,0
43003,-100,4,1,0,75,0,0
43161,-100,4,1,0,75,0,0
43319,-100,4,1,0,75,0,0
43477,-100,4,1,0,75,0,0
43635,-100,4,1,0,75,0,0
43793,-100,4,1,0,75,0,0
43872,-100,4,1,0,75,0,0
43951,-100,4,1,0,75,0,0
44110,-100,4,1,0,75,0,0
44189,-100,4,1,0,75,0,0
44268,-100,4,1,0,75,0,0
44424,-100,4,1,0,75,0,0
44503,-100,4,1,0,75,0,0
44582,-100,4,1,0,75,0,0
44661,-100,4,1,0,75,0,0
44740,-100,4,1,0,75,0,0
44898,-83.3333333333333,4,1,0,75,0,0
45056,-83.3333333333333,4,1,0,75,0,0
45214,-83.3333333333333,4,1,0,75,0,0
45293,-83.3333333333333,4,1,0,75,0,0
45372,-83.3333333333333,4,1,0,75,0,0
45529,-83.3333333333333,4,1,0,75,0,0
45687,-83.3333333333333,4,1,0,75,0,0
45766,-83.3333333333333,4,1,0,75,0,0
45845,-83.3333333333333,4,1,0,75,0,0
45924,-83.3333333333333,4,1,0,75,0,0
46003,-83.3333333333333,4,1,0,75,0,0
46161,-83.3333333333333,4,1,0,75,0,0
46319,-83.3333333333333,4,1,0,75,0,0
46398,-83.3333333333333,4,1,0,75,0,0
46477,-83.3333333333333,4,1,0,75,0,0
46556,-83.3333333333333,4,1,0,75,0,0
46635,-83.3333333333333,4,1,0,75,0,0
46793,-83.3333333333333,4,1,0,75,0,0
46951,-83.3333333333333,4,1,0,75,0,0
47029,-83.3333333333333,4,1,0,75,0,0
47108,-83.3333333333333,4,1,0,75,0,0
47266,-83.3333333333333,4,1,0,75,0,0
47424,-83.3333333333333,4,1,0,75,0,0
47581,-83.3333333333333,4,1,0,75,0,0
47739,-83.3333333333333,4,1,0,75,0,0
47818,-83.3333333333333,4,1,0,75,0,0
47897,-83.3333333333333,4,1,0,75,0,0
48055,-83.3333333333333,4,1,0,75,0,0
48213,-83.3333333333333,4,1,0,75,0,0
48292,-83.3333333333333,4,1,0,75,0,0
48371,-83.3333333333333,4,1,0,75,0,0
48450,-83.3333333333333,4,1,0,75,0,0
48528,-83.3333333333333,4,1,0,75,0,0
48607,-83.3333333333333,4,1,0,75,0,0
48686,-83.3333333333333,4,1,0,75,0,0
48844,-83.3333333333333,4,1,0,75,0,0
48923,-83.3333333333333,4,1,0,75,0,0
49002,-83.3333333333333,4,1,0,75,0,0
49160,-83.3333333333333,4,1,0,75,0,0
49318,-83.3333333333333,4,1,0,75,0,0
49476,-83.3333333333333,4,1,0,75,0,0
49555,-83.3333333333333,4,1,0,75,0,0
49634,-83.3333333333333,4,1,0,75,0,0
49792,-83.3333333333333,4,1,0,75,0,0
49951,-83.3333333333333,4,1,0,75,0,0
50108,-83.3333333333333,4,1,0,75,0,0
50266,-83.3333333333333,4,1,0,75,0,0
50345,-83.3333333333333,4,1,0,75,0,0
50424,-83.3333333333333,4,1,0,75,0,0
50582,-83.3333333333333,4,1,0,75,0,0
50740,-83.3333333333333,4,1,0,75,0,0
50819,-83.3333333333333,4,1,0,75,0,0
50898,-83.3333333333333,4,1,0,75,0,0
50977,-83.3333333333333,4,1,0,75,0,0
51056,-83.3333333333333,4,1,0,75,0,0
51214,-83.3333333333333,4,1,0,75,0,0
51293,-100,4,1,0,75,0,0
51372,-100,4,1,0,75,0,0
51529,-90.8894645941278,4,1,0,75,0,0
51608,-100,4,1,0,75,0,0
51687,-95.2201447527141,4,1,0,75,0,0
51766,-100,4,1,0,75,0,0
51845,-99.9841671944269,4,1,0,75,0,0
52003,-100,4,1,0,75,0,0
52082,-100,4,1,0,75,0,0
52161,-111.101337086559,4,1,0,75,0,0
52240,-100,4,1,0,75,0,0
52319,-117.641579731744,4,1,0,75,0,0
52398,-100,4,1,0,40,0,0
52477,-125,4,1,0,40,0,0
53753,-125,4,1,0,40,0,0
54069,-108.108108108108,4,1,0,40,0,0
54227,-101.26582278481,4,1,0,40,0,0
54385,-95.2380952380952,4,1,0,40,0,0
54542,-89.9196130041972,4,1,0,40,0,0
54700,-85.1350441166566,4,1,0,40,0,0
54753,-82.9287495079386,4,1,0,40,0,0
54858,-80.8339195497858,4,1,0,40,0,0
54911,-78.8423153692615,4,1,0,40,0,0
55003,-78.8423153692615,4,1,0,90,0,0
55042,-76.9230769230769,4,1,0,90,0,1
57528,-76.9230769230769,4,1,0,80,0,1
57568,-76.9230769230769,4,1,0,80,0,0
57686,-79.1948833709556,4,1,0,80,0,0
57844,-81.6207832493214,4,1,0,80,0,0
57923,-82.8903327426659,4,1,0,80,0,0
58002,-84.2,4,1,0,80,0,0
58160,-86.9475423378769,4,1,0,80,0,0
58318,-89.8804440649018,4,1,0,80,0,0
58397,-91.4223669923996,4,1,0,80,0,0
58476,-93.0181175430844,4,1,0,80,0,0
58555,-94.6705644254554,4,1,0,80,0,0
58634,-96.3827838827839,4,1,0,80,0,0
58713,-100,4,1,0,80,0,0
58792,-76.9230769230769,4,1,0,90,0,0
58832,-76.9230769230769,4,1,0,90,0,1
59595,-100,4,1,0,90,0,1
59674,-100,4,1,0,90,0,1
59753,-100,4,1,0,90,0,1
59779,-100,4,1,0,90,0,1
59832,-100,4,1,0,90,0,1
59911,-100,4,1,0,90,0,1
59964,-100,4,1,0,90,0,1
60016,-100,4,1,0,90,0,1
60069,-76.9230769230769,4,1,0,80,0,1
60095,-76.9230769230769,4,1,0,80,0,0
60214,-78.0492324798468,4,1,0,80,0,0
60372,-79.2088518321161,4,1,0,80,0,0
60451,-79.8016800353692,4,1,0,80,0,0
60529,-80.3957750063629,4,1,0,80,0,0
60687,-81.6267200723561,4,1,0,80,0,0
60845,-82.8959454139877,4,1,0,80,0,0
60924,-83.5454755843555,4,1,0,80,0,0
61003,-84.2052649116961,4,1,0,80,0,0
61082,-84.8755583918315,4,1,0,80,0,0
61161,-85.5566088840737,4,1,0,80,0,0
61319,-86.9520335833735,4,1,0,80,0,0
61398,-100,4,1,0,80,0,0
61477,-100,4,1,0,80,0,0
61635,-89.8840435370278,4,1,0,80,0,0
61714,-90.6482046131219,4,1,0,80,0,0
61793,-91.4254703328509,4,1,0,80,0,0
61872,-100,4,1,0,80,0,0
61951,-93.0206876242362,4,1,0,80,0,0
62108,-94.661921708185,4,1,0,80,0,0
62187,-100,4,1,0,80,0,0
62266,-96.3731360360017,4,1,0,80,0,0
62345,-97.2521551724138,4,1,0,80,0,0
62424,-98.147356973628,4,1,0,80,0,0
62503,-99.0591924735398,4,1,0,80,0,0
62583,-100,4,1,0,90,0,0
62621,-71.4285714285714,4,1,0,90,0,1
63045,-71.4285714285714,4,1,0,90,0,1
63124,-71.4285714285714,4,1,0,90,0,1
63203,-71.4285714285714,4,1,0,90,0,1
63599,-71.4285714285714,4,1,0,90,0,1
63757,-71.4285714285714,4,1,0,90,0,1
64308,-71.4285714285714,4,1,0,90,0,1
64387,-71.4285714285714,4,1,0,90,0,1
64466,-71.4285714285714,4,1,0,90,0,1
64941,-71.4285714285714,4,1,0,90,0,1
65099,-71.4285714285714,4,1,0,90,0,1
65573,-71.4285714285714,4,1,0,90,0,1
65652,-71.4285714285714,4,1,0,90,0,1
65731,-71.4285714285714,4,1,0,90,0,1
66205,-71.4285714285714,4,1,0,90,0,1
66363,-71.4285714285714,4,1,0,90,0,1
66836,-71.4285714285714,4,1,0,90,0,1
66915,-71.4285714285714,4,1,0,90,0,1
66994,-71.4285714285714,4,1,0,90,0,1
67468,-71.4285714285714,4,1,0,90,0,1
67901,-72.9937853741654,4,1,0,90,0,1
68137,-74.6220790882637,4,1,0,90,0,1
68216,-75.1834946635194,4,1,0,90,0,1
68295,-75.7534218408373,4,1,0,90,0,1
68374,-76.3320556649056,4,1,0,90,0,1
68532,-77.5162536908327,4,1,0,90,0,1
68611,-78.1222389505008,4,1,0,90,0,1
68769,-79.3630847664525,4,1,0,90,0,1
68848,-79.9984076317866,4,1,0,90,0,1
68927,-80.6439844439742,4,1,0,90,0,1
69164,-82.6447825924403,4,1,0,90,0,1
69401,-84.7473872271253,4,1,0,90,0,1
69480,-85.4722336073497,4,1,0,90,0,1
69558,-86.2001731412661,4,1,0,90,0,1
69637,-86.9501939219435,4,1,0,90,0,1
69795,-88.4900841466442,4,1,0,90,0,1
69874,-89.2806656165435,4,1,0,90,0,1
70032,-90.9049784920589,4,1,0,90,0,1
70191,-92.6003502098746,4,1,0,90,0,1
70427,-95.2366591126468,4,1,0,90,0,1
70664,-98.0396505078281,4,1,0,90,0,1
70743,-99.0110096838635,4,1,0,90,0,1
70822,-100.001809578097,4,1,0,90,0,1
70901,-101.012639717777,4,1,0,90,0,1
71058,-103.0834087242,4,1,0,90,0,1
71137,-104.157831745403,4,1,0,90,0,1
71295,-106.375299564008,4,1,0,90,0,1
71374,-107.519821002967,4,1,0,90,0,1
71453,-108.689238757388,4,1,0,90,0,1
71690,-112.355267304389,4,1,0,90,0,1
71927,-116.277234805845,4,1,0,90,0,1
72006,-117.646119620637,4,1,0,90,0,1
72084,-119.02966991546,4,1,0,90,0,1
72095,-119.044028950543,4,1,0,50,0,0
72243,-121.949335804757,4,1,0,50,0,0
72401,-125,4,1,0,50,0,0
72648,-66.6666666666667,4,1,0,90,0,0
72766,-50,4,1,0,75,0,0
73911,-133.333333333333,4,1,0,75,0,0
74226,-133.333333333333,4,1,0,50,0,0
80266,-133.333333333333,4,1,0,50,0,0
80424,-130.611190076237,4,1,0,50,0,0
81055,-120.764635603345,4,1,0,50,0,0
81213,-118.527204502814,4,1,0,50,0,0
81371,-116.371172000921,4,1,0,50,0,0
81529,-114.292175486205,4,1,0,50,0,0
81845,-110.349344978166,4,1,0,50,0,0
82003,-108.478214209058,4,1,0,50,0,0
82160,-106.68073878628,4,1,0,50,0,0
82318,-104.930966469428,4,1,0,50,0,0
82476,-103.23766724543,4,1,0,50,0,0
82634,-101.598150567896,4,1,0,50,0,0
82792,-100.009894132779,4,1,0,60,0,0
82832,-100,4,1,0,60,0,0
86583,-100,4,1,0,60,0,0
86740,-100,4,1,0,60,0,0
86898,-95.2488687782806,4,1,0,60,0,0
87056,-100,4,1,0,60,0,0
87214,-90.9156348977829,4,1,0,60,0,0
87372,-88.8935810810811,4,1,0,60,0,0
87530,-86.9595152850454,4,1,0,60,0,0
87609,-86.0237024928484,4,1,0,60,0,0
87688,-85.1078167115903,4,1,0,60,0,0
87846,-83.3333333333333,4,1,0,60,0,0
87925,-100,4,1,0,60,0,0
91635,-99.9841671944269,4,1,0,60,0,0
91674,-100,4,1,0,60,0,0
91793,-102.564102564103,4,1,0,60,0,0
91951,-105.263157894737,4,1,0,60,0,0
92109,-108.108108108108,4,1,0,60,0,0
92267,-111.111111111111,4,1,0,60,0,0
92425,-114.285714285714,4,1,0,60,0,0
92583,-117.647058823529,4,1,0,60,0,0
92754,-100,4,1,0,60,0,0
92807,-100,4,1,0,60,0,0
92860,-100,4,1,0,60,0,0
92911,-124.975262220463,4,1,0,75,0,0
92937,-100,4,1,0,75,0,0
92990,-100,4,1,0,75,0,0
93069,-100,4,1,0,75,0,0
93227,-100,4,1,0,75,0,0
93306,-100,4,1,0,75,0,0
93385,-100,4,1,0,75,0,0
93543,-100,4,1,0,75,0,0
93701,-100,4,1,0,75,0,0
93780,-100,4,1,0,75,0,0
93859,-100,4,1,0,75,0,0
94017,-100,4,1,0,75,0,0
94174,-100,4,1,0,75,0,0
94253,-100,4,1,0,75,0,0
94332,-100,4,1,0,75,0,0
94490,-100,4,1,0,75,0,0
94569,-100,4,1,0,75,0,0
94648,-100,4,1,0,75,0,0
94806,-100,4,1,0,75,0,0
94964,-100,4,1,0,75,0,0
95043,-100,4,1,0,75,0,0
95122,-100,4,1,0,75,0,0
95201,-100,4,1,0,75,0,0
95280,-100,4,1,0,75,0,0
95425,-83.3333333333333,4,1,0,75,0,0
95583,-83.3333333333333,4,1,0,75,0,0
95740,-83.3333333333333,4,1,0,75,0,0
95819,-83.3333333333333,4,1,0,75,0,0
95898,-83.3333333333333,4,1,0,75,0,0
96056,-83.3333333333333,4,1,0,75,0,0
96214,-83.3333333333333,4,1,0,75,0,0
96293,-83.3333333333333,4,1,0,75,0,0
96372,-83.3333333333333,4,1,0,75,0,0
96451,-83.3333333333333,4,1,0,75,0,0
96530,-83.3333333333333,4,1,0,75,0,0
96688,-83.3333333333333,4,1,0,75,0,0
96846,-83.3333333333333,4,1,0,75,0,0
96925,-83.3333333333333,4,1,0,75,0,0
97004,-83.3333333333333,4,1,0,75,0,0
97161,-83.3333333333333,4,1,0,75,0,0
97319,-83.3333333333333,4,1,0,75,0,0
97477,-83.3333333333333,4,1,0,75,0,0
97556,-83.3333333333333,4,1,0,75,0,0
97635,-83.3333333333333,4,1,0,75,0,0
97714,-83.3333333333333,4,1,0,75,0,0
97793,-83.3333333333333,4,1,0,75,0,0
97950,-83.3333333333333,4,1,0,75,0,0
98108,-83.3333333333333,4,1,0,75,0,0
98266,-83.3333333333333,4,1,0,75,0,0
98345,-83.3333333333333,4,1,0,75,0,0
98424,-83.3333333333333,4,1,0,75,0,0
98503,-83.3333333333333,4,1,0,75,0,0
98582,-83.3333333333333,4,1,0,75,0,0
98739,-83.3333333333333,4,1,0,75,0,0
98818,-83.3333333333333,4,1,0,75,0,0
98897,-83.3333333333333,4,1,0,75,0,0
99055,-83.3333333333333,4,1,0,75,0,0
99213,-83.3333333333333,4,1,0,75,0,0
99292,-83.3333333333333,4,1,0,75,0,0
99371,-83.3333333333333,4,1,0,75,0,0
99450,-83.3333333333333,4,1,0,75,0,0
99529,-83.3333333333333,4,1,0,75,0,0
99608,-83.3333333333333,4,1,0,75,0,0
99687,-83.3333333333333,4,1,0,75,0,0
99845,-83.3333333333333,4,1,0,75,0,0
100003,-83.3333333333333,4,1,0,75,0,0
100082,-83.3333333333333,4,1,0,75,0,0
100160,-83.3333333333333,4,1,0,75,0,0
100318,-83.3333333333333,4,1,0,75,0,0
100478,-83.3333333333333,4,1,0,75,0,0
100635,-83.3333333333333,4,1,0,75,0,0
100793,-83.3333333333333,4,1,0,75,0,0
100872,-83.3333333333333,4,1,0,75,0,0
100951,-83.3333333333333,4,1,0,75,0,0
101109,-83.3333333333333,4,1,0,75,0,0
101267,-83.3333333333333,4,1,0,75,0,0
101346,-83.3333333333333,4,1,0,75,0,0
101425,-83.3333333333333,4,1,0,75,0,0
101504,-83.3333333333333,4,1,0,75,0,0
101583,-83.3333333333333,4,1,0,75,0,0
101741,-83.3223380393192,4,1,0,75,0,0
101779,-83.3333333333333,4,1,0,75,0,0
101898,-85.0963482010511,4,1,0,75,0,0
102056,-86.9475423378769,4,1,0,75,0,0
102214,-88.881069669247,4,1,0,75,0,0
102372,-90.9025478623866,4,1,0,75,0,0
102530,-100,4,1,0,75,0,0
102688,-95.2345045996079,4,1,0,75,0,0
102767,-96.3827838827839,4,1,0,75,0,0
102846,-97.5590916113085,4,1,0,75,0,0
102925,-98.7644666875196,4,1,0,75,0,0
103004,-100,4,1,0,75,0,0
103161,-100,4,1,0,75,0,0
103319,-100,4,1,0,75,0,0
103477,-100,4,1,0,75,0,0
103635,-100,4,1,0,75,0,0
103793,-100,4,1,0,75,0,0
103951,-100,4,1,0,75,0,0
104109,-100,4,1,0,75,0,0
104267,-100,4,1,0,75,0,0
104425,-100,4,1,0,75,0,0
104504,-100,4,1,0,75,0,0
104583,-100,4,1,0,75,0,0
104742,-100,4,1,0,75,0,0
104821,-100,4,1,0,75,0,0
104900,-100,4,1,0,75,0,0
105056,-100,4,1,0,75,0,0
105135,-100,4,1,0,75,0,0
105214,-100,4,1,0,75,0,0
105293,-100,4,1,0,75,0,0
105372,-100,4,1,0,75,0,0
105530,-83.3333333333333,4,1,0,75,0,0
105688,-83.3333333333333,4,1,0,75,0,0
105846,-83.3333333333333,4,1,0,75,0,0
105925,-83.3333333333333,4,1,0,75,0,0
106004,-83.3333333333333,4,1,0,75,0,0
106161,-83.3333333333333,4,1,0,75,0,0
106319,-83.3333333333333,4,1,0,75,0,0
106398,-83.3333333333333,4,1,0,75,0,0
106477,-83.3333333333333,4,1,0,75,0,0
106556,-83.3333333333333,4,1,0,75,0,0
106635,-83.3333333333333,4,1,0,75,0,0
106793,-83.3333333333333,4,1,0,75,0,0
106951,-83.3333333333333,4,1,0,75,0,0
107030,-83.3333333333333,4,1,0,75,0,0
107109,-83.3333333333333,4,1,0,75,0,0
107188,-83.3333333333333,4,1,0,75,0,0
107267,-83.3333333333333,4,1,0,75,0,0
107425,-83.3333333333333,4,1,0,75,0,0
107583,-83.3333333333333,4,1,0,75,0,0
107661,-83.3333333333333,4,1,0,75,0,0
107740,-83.3333333333333,4,1,0,75,0,0
107898,-83.3333333333333,4,1,0,75,0,0
108056,-83.3333333333333,4,1,0,75,0,0
108213,-83.3333333333333,4,1,0,75,0,0
108371,-83.3333333333333,4,1,0,75,0,0
108450,-83.3333333333333,4,1,0,75,0,0
108529,-83.3333333333333,4,1,0,75,0,0
108687,-83.3333333333333,4,1,0,75,0,0
108845,-83.3333333333333,4,1,0,75,0,0
108924,-83.3333333333333,4,1,0,75,0,0
109003,-83.3333333333333,4,1,0,75,0,0
109082,-83.3333333333333,4,1,0,75,0,0
109160,-83.3333333333333,4,1,0,75,0,0
109239,-83.3333333333333,4,1,0,75,0,0
109318,-83.3333333333333,4,1,0,75,0,0
109476,-83.3333333333333,4,1,0,75,0,0
109555,-83.3333333333333,4,1,0,75,0,0
109634,-83.3333333333333,4,1,0,75,0,0
109792,-83.3333333333333,4,1,0,75,0,0
109950,-83.3333333333333,4,1,0,75,0,0
110108,-83.3333333333333,4,1,0,75,0,0
110187,-83.3333333333333,4,1,0,75,0,0
110266,-83.3333333333333,4,1,0,75,0,0
110424,-83.3333333333333,4,1,0,75,0,0
110583,-83.3333333333333,4,1,0,75,0,0
110740,-83.3333333333333,4,1,0,75,0,0
110898,-83.3333333333333,4,1,0,75,0,0
110977,-83.3333333333333,4,1,0,75,0,0
111056,-83.3333333333333,4,1,0,75,0,0
111214,-83.3333333333333,4,1,0,75,0,0
111372,-83.3333333333333,4,1,0,75,0,0
111451,-83.3333333333333,4,1,0,75,0,0
111530,-83.3333333333333,4,1,0,75,0,0
111609,-83.3333333333333,4,1,0,75,0,0
111688,-83.3333333333333,4,1,0,75,0,0
111846,-83.3333333333333,4,1,0,75,0,0
111925,-100,4,1,0,75,0,0
112004,-100,4,1,0,75,0,0
112161,-90.8894645941278,4,1,0,75,0,0
112240,-100,4,1,0,75,0,0
112319,-95.2201447527141,4,1,0,75,0,0
112398,-100,4,1,0,75,0,0
112477,-99.9841671944269,4,1,0,75,0,0
112635,-100,4,1,0,75,0,0
112714,-100,4,1,0,75,0,0
112793,-111.101337086559,4,1,0,75,0,0
112872,-100,4,1,0,75,0,0
112951,-117.641579731744,4,1,0,75,0,0
113030,-100,4,1,0,75,0,0
113109,-125,4,1,0,40,0,0
114385,-125,4,1,0,40,0,0
114701,-108.108108108108,4,1,0,40,0,0
114859,-101.26582278481,4,1,0,40,0,0
115017,-95.2380952380952,4,1,0,40,0,0
115174,-89.9196130041972,4,1,0,40,0,0
115332,-85.1350441166566,4,1,0,40,0,0
115385,-82.9287495079386,4,1,0,40,0,0
115490,-80.8339195497858,4,1,0,40,0,0
115543,-78.8423153692615,4,1,0,40,0,0
115595,-78.8423153692615,4,1,0,90,0,0
115674,-76.9230769230769,4,1,0,90,0,1
118160,-76.9230769230769,4,1,0,80,0,1
118200,-76.909024479357,4,1,0,80,0,0
118318,-79.1948833709556,4,1,0,80,0,0
118476,-81.6207832493214,4,1,0,80,0,0
118555,-82.8903327426659,4,1,0,80,0,0
118634,-84.2,4,1,0,80,0,0
118792,-86.9475423378769,4,1,0,80,0,0
118950,-89.8804440649018,4,1,0,80,0,0
119029,-91.4223669923996,4,1,0,80,0,0
119108,-93.0181175430844,4,1,0,80,0,0
119187,-94.6705644254554,4,1,0,80,0,0
119266,-96.3827838827839,4,1,0,80,0,0
119345,-100,4,1,0,80,0,0
119424,-76.9230769230769,4,1,0,90,0,0
119463,-76.9230769230769,4,1,0,90,0,1
120227,-100,4,1,0,90,0,1
120306,-100,4,1,0,90,0,1
120385,-100,4,1,0,90,0,1
120411,-100,4,1,0,90,0,1
120464,-100,4,1,0,90,0,1
120543,-100,4,1,0,90,0,1
120596,-100,4,1,0,90,0,1
120648,-100,4,1,0,90,0,1
120701,-76.9230769230769,4,1,0,80,0,1
120726,-76.9230769230769,4,1,0,80,0,0
120846,-78.0492324798468,4,1,0,80,0,0
121004,-79.2088518321161,4,1,0,80,0,0
121083,-79.8016800353692,4,1,0,80,0,0
121161,-80.3957750063629,4,1,0,80,0,0
121319,-81.6267200723561,4,1,0,80,0,0
121477,-82.8959454139877,4,1,0,80,0,0
121556,-83.5454755843555,4,1,0,80,0,0
121635,-84.2052649116961,4,1,0,80,0,0
121714,-84.8755583918315,4,1,0,80,0,0
121793,-85.5566088840737,4,1,0,80,0,0
121951,-86.9520335833735,4,1,0,80,0,0
122030,-100,4,1,0,80,0,0
122109,-100,4,1,0,80,0,0
122267,-89.8840435370278,4,1,0,80,0,0
122346,-90.6482046131219,4,1,0,80,0,0
122425,-91.4254703328509,4,1,0,80,0,0
122504,-100,4,1,0,80,0,0
122583,-93.0206876242362,4,1,0,80,0,0
122740,-94.661921708185,4,1,0,80,0,0
122819,-100,4,1,0,80,0,0
122898,-96.3731360360017,4,1,0,80,0,0
122977,-97.2521551724138,4,1,0,80,0,0
123056,-98.147356973628,4,1,0,80,0,0
123135,-99.0591924735398,4,1,0,80,0,0
123215,-71.4285714285714,4,1,0,90,0,0
123253,-71.4285714285714,4,1,0,90,0,1
123677,-71.4285714285714,4,1,0,90,0,1
123756,-71.4285714285714,4,1,0,90,0,1
123835,-71.4285714285714,4,1,0,90,0,1
124231,-71.4285714285714,4,1,0,90,0,1
124389,-71.4285714285714,4,1,0,90,0,1
124940,-71.4285714285714,4,1,0,90,0,1
125019,-71.4285714285714,4,1,0,90,0,1
125098,-71.4285714285714,4,1,0,90,0,1
125573,-71.4285714285714,4,1,0,90,0,1
125731,-71.4285714285714,4,1,0,90,0,1
126205,-71.4285714285714,4,1,0,90,0,1
126284,-71.4285714285714,4,1,0,90,0,1
126363,-71.4285714285714,4,1,0,90,0,1
126837,-71.4285714285714,4,1,0,90,0,1
126995,-71.4285714285714,4,1,0,90,0,1
127468,-71.4285714285714,4,1,0,90,0,1
127547,-71.4285714285714,4,1,0,90,0,1
127626,-71.4285714285714,4,1,0,90,0,1
128099,-71.4285714285714,4,1,0,90,0,1
128532,-72.9937853741654,4,1,0,90,0,1
128768,-74.6220790882637,4,1,0,90,0,1
128847,-75.1834946635194,4,1,0,90,0,1
128926,-75.7534218408373,4,1,0,90,0,1
129005,-76.3320556649056,4,1,0,90,0,1
129163,-77.5162536908327,4,1,0,90,0,1
129242,-78.1222389505008,4,1,0,90,0,1
129400,-79.3630847664525,4,1,0,90,0,1
129479,-79.9984076317866,4,1,0,90,0,1
129558,-80.6439844439742,4,1,0,90,0,1
129795,-82.6447825924403,4,1,0,90,0,1
130032,-84.7473872271253,4,1,0,90,0,1
130111,-85.4722336073497,4,1,0,90,0,1
130189,-86.2001731412661,4,1,0,90,0,1
130268,-86.9501939219435,4,1,0,90,0,1
130426,-88.4900841466442,4,1,0,90,0,1
130505,-89.2806656165435,4,1,0,90,0,1
130663,-90.9049784920589,4,1,0,90,0,1
130822,-92.6003502098746,4,1,0,90,0,1
131058,-95.2366591126468,4,1,0,90,0,1
131295,-98.0396505078281,4,1,0,90,0,1
131374,-99.0110096838635,4,1,0,90,0,1
131453,-100.001809578097,4,1,0,90,0,1
131532,-101.012639717777,4,1,0,90,0,1
131689,-103.0834087242,4,1,0,90,0,1
131768,-104.157831745403,4,1,0,90,0,1
131926,-106.375299564008,4,1,0,90,0,1
132005,-107.519821002967,4,1,0,90,0,1
132084,-108.689238757388,4,1,0,90,0,1
132321,-112.355267304389,4,1,0,90,0,1
132558,-116.277234805845,4,1,0,90,0,1
132637,-117.646119620637,4,1,0,90,0,1
132715,-119.02966991546,4,1,0,90,0,1
132726,-119.044028950543,4,1,0,50,0,0
132875,-121.949335804757,4,1,0,50,0,0
133033,-125,4,1,0,50,0,0
133280,-66.6666666666667,4,1,0,90,0,0
133397,-50,4,1,0,90,0,0

[HitObjects]
256,192,12095,5,4,0:0:0:0:
256,192,14621,1,0,0:0:0:0:
256,192,15884,1,8,0:0:0:0:
256,192,17147,1,0,0:0:0:0:
256,192,17463,1,8,0:0:0:0:
256,192,18095,1,0,0:0:0:0:
256,192,19674,1,8,0:0:0:0:
256,192,19832,1,8,0:0:0:0:
256,192,20463,1,0,0:0:0:0:
256,192,20621,1,8,0:0:0:0:
256,192,20779,1,0,0:0:0:0:
256,192,21253,1,0,0:0:0:0:
256,192,21411,1,0,0:0:0:0:
256,192,21568,1,8,0:0:0:0:
256,192,21726,1,0,0:0:0:0:
256,192,21884,1,8,0:0:0:0:
256,192,22042,1,8,0:0:0:0:
256,192,22200,1,0,0:0:0:0:
256,192,22516,1,8,0:0:0:0:
256,192,22832,1,0,0:0:0:0:
256,192,22990,1,8,0:0:0:0:
256,192,23147,1,0,0:0:0:0:
256,192,23305,1,0,0:0:0:0:
256,192,23463,1,8,0:0:0:0:
256,192,23779,1,0,0:0:0:0:
256,192,24095,1,0,0:0:0:0:
256,192,24253,1,8,0:0:0:0:
256,192,24568,1,8,0:0:0:0:
256,192,24726,1,0,0:0:0:0:
256,192,25042,1,8,0:0:0:0:
256,192,25358,1,0,0:0:0:0:
256,192,25516,1,0,0:0:0:0:
256,192,25674,1,8,0:0:0:0:
256,192,25832,1,8,0:0:0:0:
256,192,25990,1,0,0:0:0:0:
256,192,26305,1,0,0:0:0:0:
256,192,26621,1,8,0:0:0:0:
256,192,26779,1,0,0:0:0:0:
256,192,26937,1,8,0:0:0:0:
256,192,27016,1,0,0:0:0:0:
256,192,27095,1,8,0:0:0:0:
256,192,27253,1,0,0:0:0:0:
256,192,27568,1,8,0:0:0:0:
256,192,27884,1,0,0:0:0:0:
256,192,28042,1,8,0:0:0:0:
256,192,28200,1,0,0:0:0:0:
256,192,28358,1,0,0:0:0:0:
256,192,28516,1,8,0:0:0:0:
256,192,28832,1,8,0:0:0:0:
256,192,29147,1,0,0:0:0:0:
256,192,29305,1,8,0:0:0:0:
256,192,29621,1,0,0:0:0:0:
256,192,29779,1,8,0:0:0:0:
256,192,30095,1,8,0:0:0:0:
256,192,30411,1,0,0:0:0:0:
256,192,30568,1,8,0:0:0:0:
256,192,30726,1,0,0:0:0:0:
256,192,30884,1,8,0:0:0:0:
256,192,31200,1,8,0:0:0:0:
256,192,31358,1,8,0:0:0:0:
256,192,31516,1,0,0:0:0:0:
256,192,31674,1,8,0:0:0:0:
256,192,31832,1,0,0:0:0:0:
256,192,31990,1,0,0:0:0:0:
307,200,32305,1,0,0:0:0:0:
320,159,32463,1,8,0:0:0:0:
311,130,32621,1,0,0:0:0:0:
251,97,32700,1,0,0:0:0:0:
251,97,32779,1,8,0:0:0:0:
273,91,32937,1,0,0:0:0:0:
286,102,33095,1,8,0:0:0:0:
286,102,33174,1,0,0:0:0:0:
286,102,33253,1,8,0:0:0:0:
294,137,33411,1,8,0:0:0:0:
281,109,33568,1,0,0:0:0:0:
257,143,33726,1,8,0:0:0:0:
285,118,33884,1,0,0:0:0:0:
276,108,33963,1,0,0:0:0:0:
276,108,34042,1,8,0:0:0:0:
211,83,34200,1,0,0:0:0:0:
229,90,34358,1,8,0:0:0:0:
229,90,34437,1,8,0:0:0:0:
229,90,34516,1,8,0:0:0:0:
272,153,34674,1,8,0:0:0:0:
211,91,34832,1,4,0:0:0:0:
248,179,35147,1,8,0:0:0:0:
291,141,35226,1,8,0:0:0:0:
291,141,35305,1,0,0:0:0:0:
295,142,35463,1,8,0:0:0:0:
324,64,35621,1,0,0:0:0:0:
324,64,35700,1,8,0:0:0:0:
324,64,35779,1,0,0:0:0:0:
181,68,35937,1,8,0:0:0:0:
257,62,36253,1,0,0:0:0:0:
257,62,36411,1,8,0:0:0:0:
351,121,36490,1,8,0:0:0:0:
351,121,36568,1,0,0:0:0:0:
262,77,36726,1,8,0:0:0:0:
282,90,36884,1,0,0:0:0:0:
282,90,36963,1,8,0:0:0:0:
282,90,37042,1,0,0:0:0:0:
248,92,37200,1,0,0:0:0:0:
248,92,37358,1,8,0:0:0:0:
298,176,37516,1,0,0:0:0:0:
263,88,37674,1,8,0:0:0:0:
276,97,37753,1,8,0:0:0:0:
276,97,37832,1,0,0:0:0:0:
226,85,37990,1,8,0:0:0:0:
268,67,38147,1,0,0:0:0:0:
268,67,38226,1,8,0:0:0:0:
268,67,38305,1,0,0:0:0:0:
268,67,38463,1,8,0:0:0:0:
268,67,38779,1,0,0:0:0:0:
268,67,38937,1,0,0:0:0:0:
263,110,39016,1,0,0:0:0:0:
263,110,39095,1,8,0:0:0:0:
261,96,39253,1,8,0:0:0:0:
262,96,39411,1,0,0:0:0:0:
262,96,39490,1,0,0:0:0:0:
262,96,39568,1,8,0:0:0:0:
262,94,39726,1,8,0:0:0:0:
262,94,39884,1,0,0:0:0:0:
334,184,40042,1,0,0:0:0:0:
247,94,40200,1,8,0:0:0:0:
247,94,40279,1,8,0:0:0:0:
247,94,40358,1,0,0:0:0:0:
247,94,40516,1,8,0:0:0:0:
248,52,40674,1,0,0:0:0:0:
248,52,40753,1,0,0:0:0:0:
248,52,40832,1,0,0:0:0:0:
248,52,40990,1,8,0:0:0:0:
245,138,41147,1,0,0:0:0:0:
274,142,41305,1,0,0:0:0:0:
274,142,41463,1,8,0:0:0:0:
274,142,41621,1,0,0:0:0:0:
245,138,41779,1,8,0:0:0:0:
256,115,42095,1,0,0:0:0:0:
252,176,42174,1,8,0:0:0:0:
288,94,42253,1,8,0:0:0:0:
252,176,42332,1,8,0:0:0:0:
256,115,42411,1,0,0:0:0:0:
291,117,42726,1,8,0:0:0:0:
291,117,42884,1,8,0:0:0:0:
244,113,43042,1,0,0:0:0:0:
243,113,43358,1,0,0:0:0:0:
244,113,43516,1,0,0:0:0:0:
244,113,43674,1,8,0:0:0:0:
328,119,43832,1,0,0:0:0:0:
328,119,43911,1,0,0:0:0:0:
206,63,43990,1,8,0:0:0:0:
328,119,44147,1,0,0:0:0:0:
328,119,44226,1,0,0:0:0:0:
206,63,44305,1,8,0:0:0:0:
295,120,44463,1,0,0:0:0:0:
295,120,44621,1,8,0:0:0:0:
212,113,44937,1,4,0:0:0:0:
277,57,45095,1,0,0:0:0:0:
251,152,45253,1,8,0:0:0:0:
274,113,45332,1,8,0:0:0:0:
274,113,45411,1,0,0:0:0:0:
311,113,45568,1,8,0:0:0:0:
294,104,45726,1,0,0:0:0:0:
294,104,45805,1,8,0:0:0:0:
294,104,45884,1,0,0:0:0:0:
219,112,46042,1,8,0:0:0:0:
219,112,46358,1,0,0:0:0:0:
219,112,46516,1,0,0:0:0:0:
311,113,46595,1,8,0:0:0:0:
316,116,46674,1,0,0:0:0:0:
308,115,46832,1,8,0:0:0:0:
303,100,46990,1,8,0:0:0:0:
303,100,47068,1,8,0:0:0:0:
303,100,47147,1,0,0:0:0:0:
264,67,47226,1,0,0:0:0:0:
259,76,47305,1,8,0:0:0:0:
259,76,47463,1,0,0:0:0:0:
284,136,47621,1,0,0:0:0:0:
259,76,47779,1,8,0:0:0:0:
243,97,47858,1,0,0:0:0:0:
243,97,47937,1,0,0:0:0:0:
243,97,48095,1,8,0:0:0:0:
243,97,48253,1,0,0:0:0:0:
243,97,48332,1,8,0:0:0:0:
243,97,48411,1,0,0:0:0:0:
244,97,48490,1,0,0:0:0:0:
244,97,48568,1,8,0:0:0:0:
244,97,48884,1,0,0:0:0:0:
261,86,49042,1,0,0:0:0:0:
269,73,49121,1,0,0:0:0:0:
269,73,49200,1,8,0:0:0:0:
269,73,49358,1,8,0:0:0:0:
269,73,49516,1,0,0:0:0:0:
269,73,49595,1,8,0:0:0:0:
269,73,49674,1,0,0:0:0:0:
269,73,49832,1,8,0:0:0:0:
269,73,49990,1,0,0:0:0:0:
244,132,50147,1,0,0:0:0:0:
273,136,50305,1,8,0:0:0:0:
269,128,50384,1,8,0:0:0:0:
273,136,50463,1,0,0:0:0:0:
269,128,50621,1,8,0:0:0:0:
241,118,50779,1,0,0:0:0:0:
241,118,50858,1,8,0:0:0:0:
241,118,50937,1,0,0:0:0:0:
251,92,51095,1,8,0:0:0:0:
251,92,51253,1,0,0:0:0:0:
251,92,51568,1,8,0:0:0:0:
251,92,51726,1,0,0:0:0:0:
250,91,51884,1,8,0:0:0:0:
231,103,52200,1,0,0:0:0:0:
231,103,52358,1,0,0:0:0:0:
265,145,52516,1,0,0:0:0:0:
320,192,52832,5,8,0:0:0:0:
288,160,53147,1,0,0:0:0:0:
288,160,53305,1,0,0:0:0:0:
288,160,53463,1,8,0:0:0:0:
272,144,53779,1,0,0:0:0:0:
272,144,54095,1,8,0:0:0:0:
272,144,54253,1,0,0:0:0:0:
272,144,54411,1,8,0:0:0:0:
241,58,54568,1,0,0:0:0:0:
272,144,54726,1,8,0:0:0:0:
241,58,54805,1,8,0:0:0:0:
241,58,54884,1,8,0:0:0:0:
241,58,54963,1,8,0:0:0:0:
336,128,55042,1,4,0:0:0:0:
320,192,55358,1,4,0:0:0:0:
304,176,55674,1,4,0:0:0:0:
304,176,55990,1,4,0:0:0:0:
304,176,56305,1,12,0:0:0:0:
304,176,56621,1,12,0:0:0:0:
304,176,56937,1,12,0:0:0:0:
304,176,57253,1,12,0:0:0:0:
304,176,57568,1,4,0:0:0:0:
368,208,57726,1,8,0:0:0:0:
368,160,57884,1,0,0:0:0:0:
368,160,57963,1,8,0:0:0:0:
368,160,58042,1,0,0:0:0:0:
320,176,58200,1,8,0:0:0:0:
304,176,58358,1,0,0:0:0:0:
304,176,58437,1,0,0:0:0:0:
304,176,58516,1,8,0:0:0:0:
242,89,58595,1,0,0:0:0:0:
304,176,58674,1,8,0:0:0:0:
272,176,58832,1,4,0:0:0:0:
272,176,59147,1,4,0:0:0:0:
208,144,59463,1,4,0:0:0:0:
240,128,59779,1,8,0:0:0:0:
207,47,59858,1,0,0:0:0:0:
207,47,59937,1,0,0:0:0:0:
368,144,60095,1,12,0:0:0:0:
320,144,60253,1,0,0:0:0:0:
320,128,60411,1,8,0:0:0:0:
320,128,60490,1,8,0:0:0:0:
320,128,60568,1,0,0:0:0:0:
320,128,60726,1,8,0:0:0:0:
304,96,60884,1,0,0:0:0:0:
304,96,60963,1,8,0:0:0:0:
304,96,61042,1,0,0:0:0:0:
218,130,61121,1,0,0:0:0:0:
304,96,61200,1,8,0:0:0:0:
222,22,61358,1,0,0:0:0:0:
201,31,61674,1,0,0:0:0:0:
201,31,61753,1,8,0:0:0:0:
256,128,61832,1,0,0:0:0:0:
256,128,61990,1,8,0:0:0:0:
272,112,62147,1,0,0:0:0:0:
192,32,62305,1,8,0:0:0:0:
192,32,62384,1,0,0:0:0:0:
352,112,62463,1,8,0:0:0:0:
352,112,62542,1,8,0:0:0:0:
352,112,62621,1,4,0:0:0:0:
320,128,62858,1,4,0:0:0:0:
296,45,63095,1,8,0:0:0:0:
320,128,63253,1,4,0:0:0:0:
320,128,63490,1,4,0:0:0:0:
256,64,63726,1,8,0:0:0:0:
256,64,63884,1,4,0:0:0:0:
256,96,64121,1,4,0:0:0:0:
304,80,64358,1,8,0:0:0:0:
272,112,64516,1,4,0:0:0:0:
272,112,64753,1,4,0:0:0:0:
272,80,65147,1,12,0:0:0:0:
272,80,65384,1,12,0:0:0:0:
256,64,65621,1,0,0:0:0:0:
256,64,65779,1,12,0:0:0:0:
256,64,66016,1,12,0:0:0:0:
288,48,66253,1,0,0:0:0:0:
288,48,66411,1,12,0:0:0:0:
272,64,66647,1,12,0:0:0:0:
272,64,66884,1,0,0:0:0:0:
272,64,67042,1,12,0:0:0:0:
272,64,67279,1,12,0:0:0:0:
274,105,67674,1,0,0:0:0:0:
262,165,67911,1,8,0:0:0:0:
263,141,68147,1,0,0:0:0:0:
263,142,68226,1,8,0:0:0:0:
261,142,68305,1,8,0:0:0:0:
334,196,68384,1,0,0:0:0:0:
235,117,68542,1,8,0:0:0:0:
233,171,68621,1,0,0:0:0:0:
209,74,68779,1,8,0:0:0:0:
209,74,68858,1,0,0:0:0:0:
209,74,68937,1,8,0:0:0:0:
260,76,69174,1,8,0:0:0:0:
262,68,69411,1,0,0:0:0:0:
262,68,69490,1,8,0:0:0:0:
262,68,69568,1,8,0:0:0:0:
218,47,69647,1,0,0:0:0:0:
231,138,69805,1,8,0:0:0:0:
231,138,69884,1,0,0:0:0:0:
231,138,70042,1,8,0:0:0:0:
152,151,70200,1,0,0:0:0:0:
262,165,70437,1,8,0:0:0:0:
263,142,70674,1,0,0:0:0:0:
346,177,70753,1,8,0:0:0:0:
261,142,70832,1,8,0:0:0:0:
346,177,70911,1,0,0:0:0:0:
146,43,71068,1,8,0:0:0:0:
146,43,71147,1,0,0:0:0:0:
209,74,71305,1,8,0:0:0:0:
209,74,71384,1,0,0:0:0:0:
209,74,71463,1,8,0:0:0:0:
260,76,71700,1,8,0:0:0:0:
262,68,71937,1,0,0:0:0:0:
262,68,72016,1,0,0:0:0:0:
262,68,72094,1,8,0:0:0:0:
279,225,72253,1,0,0:0:0:0:
279,225,72411,1,8,0:0:0:0:
152,151,72726,1,4,0:0:0:0:
256,192,72805,12,0,74147,0:0:0:0:
306,200,75253,5,0,0:0:0:0:
275,226,76516,1,8,0:0:0:0:
275,226,77779,1,0,0:0:0:0:
275,226,78095,1,8,0:0:0:0:
275,226,78726,1,0,0:0:0:0:
275,226,80306,1,8,0:0:0:0:
275,226,80463,1,8,0:0:0:0:
242,101,81095,1,0,0:0:0:0:
242,101,81253,1,8,0:0:0:0:
242,101,81411,1,0,0:0:0:0:
276,109,81884,1,8,0:0:0:0:
276,109,82042,1,0,0:0:0:0:
276,109,82200,1,8,0:0:0:0:
276,109,82358,1,8,0:0:0:0:
276,109,82516,1,0,0:0:0:0:
276,109,82674,1,8,0:0:0:0:
256,191,82832,1,0,0:0:0:0:
256,191,83148,1,8,0:0:0:0:
256,191,83464,1,0,0:0:0:0:
256,191,83622,1,8,0:0:0:0:
256,191,83779,1,0,0:0:0:0:
256,191,83937,1,0,0:0:0:0:
256,191,84095,1,8,0:0:0:0:
256,191,84411,1,0,0:0:0:0:
256,191,84727,1,0,0:0:0:0:
256,191,84885,1,8,0:0:0:0:
256,191,85200,1,8,0:0:0:0:
256,191,85358,1,0,0:0:0:0:
256,191,85674,1,8,0:0:0:0:
256,191,85990,1,0,0:0:0:0:
256,191,86148,1,0,0:0:0:0:
256,191,86306,1,8,0:0:0:0:
256,191,86464,1,8,0:0:0:0:
256,191,86622,1,0,0:0:0:0:
256,191,86937,1,0,0:0:0:0:
256,191,87253,1,8,0:0:0:0:
256,191,87411,1,0,0:0:0:0:
256,191,87569,1,8,0:0:0:0:
256,191,87648,1,0,0:0:0:0:
256,191,87727,1,8,0:0:0:0:
256,191,87885,1,0,0:0:0:0:
256,191,88200,1,8,0:0:0:0:
256,191,88516,1,0,0:0:0:0:
256,191,88674,1,8,0:0:0:0:
256,191,88832,1,0,0:0:0:0:
256,191,88990,1,0,0:0:0:0:
256,191,89148,1,8,0:0:0:0:
256,191,89464,1,8,0:0:0:0:
256,191,89779,1,0,0:0:0:0:
256,191,89937,1,8,0:0:0:0:
256,191,90253,1,0,0:0:0:0:
256,191,90411,1,8,0:0:0:0:
256,191,90727,1,8,0:0:0:0:
256,191,91043,1,0,0:0:0:0:
256,191,91200,1,8,0:0:0:0:
256,191,91358,1,0,0:0:0:0:
256,191,91516,1,8,0:0:0:0:
256,191,91832,1,8,0:0:0:0:
256,191,91990,1,8,0:0:0:0:
256,191,92148,1,0,0:0:0:0:
256,191,92306,1,8,0:0:0:0:
256,191,92464,1,0,0:0:0:0:
256,191,92622,1,0,0:0:0:0:
307,200,92937,1,0,0:0:0:0:
320,159,93095,1,8,0:0:0:0:
311,130,93253,1,0,0:0:0:0:
251,97,93332,1,0,0:0:0:0:
251,97,93411,1,8,0:0:0:0:
273,91,93569,1,0,0:0:0:0:
286,102,93727,1,8,0:0:0:0:
286,102,93806,1,0,0:0:0:0:
286,102,93885,1,8,0:0:0:0:
294,137,94043,1,8,0:0:0:0:
281,109,94200,1,0,0:0:0:0:
257,143,94358,1,8,0:0:0:0:
285,118,94516,1,0,0:0:0:0:
276,108,94595,1,0,0:0:0:0:
276,108,94674,1,8,0:0:0:0:
211,83,94832,1,0,0:0:0:0:
229,90,94990,1,8,0:0:0:0:
229,90,95069,1,8,0:0:0:0:
211,197,95147,1,0,0:0:0:0:
206,39,95226,1,0,0:0:0:0:
272,153,95306,1,8,0:0:0:0:
211,91,95464,1,4,0:0:0:0:
248,179,95779,1,8,0:0:0:0:
291,141,95858,1,8,0:0:0:0:
291,141,95937,1,0,0:0:0:0:
295,142,96095,1,8,0:0:0:0:
324,64,96253,1,0,0:0:0:0:
324,64,96332,1,8,0:0:0:0:
324,64,96411,1,0,0:0:0:0:
181,68,96569,1,8,0:0:0:0:
257,62,96885,1,0,0:0:0:0:
257,62,97043,1,8,0:0:0:0:
351,121,97122,1,8,0:0:0:0:
351,121,97200,1,0,0:0:0:0:
262,77,97358,1,8,0:0:0:0:
282,90,97516,1,0,0:0:0:0:
282,90,97595,1,8,0:0:0:0:
282,90,97674,1,0,0:0:0:0:
248,92,97832,1,0,0:0:0:0:
248,92,97990,1,8,0:0:0:0:
302,164,98147,1,0,0:0:0:0:
263,88,98306,1,8,0:0:0:0:
276,97,98385,1,8,0:0:0:0:
276,97,98464,1,0,0:0:0:0:
226,85,98622,1,8,0:0:0:0:
268,67,98779,1,0,0:0:0:0:
268,67,98858,1,8,0:0:0:0:
268,67,98937,1,0,0:0:0:0:
268,67,99095,1,8,0:0:0:0:
268,67,99411,1,0,0:0:0:0:
268,67,99569,1,0,0:0:0:0:
263,110,99648,1,0,0:0:0:0:
263,110,99727,1,8,0:0:0:0:
261,96,99885,1,8,0:0:0:0:
262,96,100043,1,0,0:0:0:0:
262,96,100122,1,0,0:0:0:0:
262,96,100200,1,8,0:0:0:0:
262,94,100358,1,8,0:0:0:0:
262,94,100516,1,0,0:0:0:0:
266,171,100674,1,0,0:0:0:0:
247,94,100832,1,8,0:0:0:0:
247,94,100911,1,8,0:0:0:0:
247,94,100990,1,0,0:0:0:0:
247,94,101148,1,8,0:0:0:0:
248,52,101306,1,0,0:0:0:0:
248,52,101385,1,0,0:0:0:0:
248,52,101464,1,0,0:0:0:0:
248,52,101622,1,8,0:0:0:0:
245,138,101779,1,0,0:0:0:0:
274,142,101937,1,0,0:0:0:0:
274,142,102095,1,8,0:0:0:0:
274,142,102253,1,0,0:0:0:0:
245,138,102411,1,8,0:0:0:0:
256,115,102727,1,0,0:0:0:0:
252,176,102806,1,8,0:0:0:0:
288,94,102885,1,8,0:0:0:0:
252,176,102964,1,8,0:0:0:0:
256,115,103043,1,0,0:0:0:0:
291,117,103358,1,8,0:0:0:0:
291,117,103516,1,8,0:0:0:0:
244,113,103674,1,0,0:0:0:0:
243,113,103990,1,0,0:0:0:0:
244,113,104148,1,0,0:0:0:0:
244,113,104306,1,8,0:0:0:0:
328,119,104464,1,0,0:0:0:0:
328,119,104543,1,0,0:0:0:0:
206,63,104622,1,8,0:0:0:0:
328,119,104779,1,0,0:0:0:0:
328,119,104858,1,0,0:0:0:0:
206,63,104937,1,8,0:0:0:0:
295,120,105095,1,0,0:0:0:0:
295,120,105253,1,8,0:0:0:0:
212,113,105569,1,4,0:0:0:0:
277,57,105727,1,0,0:0:0:0:
251,152,105885,1,8,0:0:0:0:
274,113,105964,1,8,0:0:0:0:
274,113,106043,1,0,0:0:0:0:
311,113,106200,1,8,0:0:0:0:
294,104,106358,1,0,0:0:0:0:
294,104,106437,1,8,0:0:0:0:
294,104,106516,1,0,0:0:0:0:
219,112,106674,1,8,0:0:0:0:
219,112,106990,1,0,0:0:0:0:
219,112,107148,1,0,0:0:0:0:
311,113,107227,1,8,0:0:0:0:
316,116,107306,1,0,0:0:0:0:
308,115,107464,1,8,0:0:0:0:
303,100,107622,1,8,0:0:0:0:
303,100,107700,1,8,0:0:0:0:
303,100,107779,1,0,0:0:0:0:
264,67,107858,1,0,0:0:0:0:
259,76,107937,1,8,0:0:0:0:
259,76,108095,1,0,0:0:0:0:
284,136,108253,1,0,0:0:0:0:
259,76,108411,1,8,0:0:0:0:
243,97,108490,1,0,0:0:0:0:
243,97,108569,1,0,0:0:0:0:
243,97,108727,1,8,0:0:0:0:
243,97,108885,1,0,0:0:0:0:
243,97,108964,1,8,0:0:0:0:
243,97,109043,1,0,0:0:0:0:
244,97,109122,1,0,0:0:0:0:
244,97,109200,1,8,0:0:0:0:
244,97,109516,1,0,0:0:0:0:
261,86,109674,1,0,0:0:0:0:
269,73,109753,1,0,0:0:0:0:
269,73,109832,1,8,0:0:0:0:
269,73,109990,1,8,0:0:0:0:
269,73,110148,1,0,0:0:0:0:
269,73,110227,1,8,0:0:0:0:
269,73,110306,1,0,0:0:0:0:
269,73,110464,1,8,0:0:0:0:
269,73,110622,1,0,0:0:0:0:
244,132,110779,1,0,0:0:0:0:
273,136,110937,1,8,0:0:0:0:
269,128,111016,1,8,0:0:0:0:
273,136,111095,1,0,0:0:0:0:
269,128,111253,1,8,0:0:0:0:
241,118,111411,1,0,0:0:0:0:
241,118,111490,1,8,0:0:0:0:
241,118,111569,1,0,0:0:0:0:
251,92,111727,1,8,0:0:0:0:
251,92,111885,1,0,0:0:0:0:
251,92,112200,1,8,0:0:0:0:
251,92,112358,1,0,0:0:0:0:
250,91,112516,1,8,0:0:0:0:
231,103,112832,1,0,0:0:0:0:
231,103,112990,1,0,0:0:0:0:
265,145,113148,1,0,0:0:0:0:
320,192,113464,5,8,0:0:0:0:
288,160,113779,1,0,0:0:0:0:
288,160,113937,1,0,0:0:0:0:
288,160,114095,1,8,0:0:0:0:
272,144,114411,1,0,0:0:0:0:
272,144,114727,1,8,0:0:0:0:
272,144,114885,1,0,0:0:0:0:
272,144,115043,1,8,0:0:0:0:
272,144,115200,1,8,0:0:0:0:
241,58,115358,5,0,0:0:0:0:
241,58,115437,1,8,0:0:0:0:
241,58,115516,1,8,0:0:0:0:
336,127,115674,5,4,0:0:0:0:
320,191,115990,1,4,0:0:0:0:
304,175,116306,1,4,0:0:0:0:
304,175,116622,1,4,0:0:0:0:
304,175,116937,1,12,0:0:0:0:
304,175,117253,1,12,0:0:0:0:
304,175,117569,1,12,0:0:0:0:
304,175,117885,1,12,0:0:0:0:
304,175,118200,1,4,0:0:0:0:
368,207,118358,1,8,0:0:0:0:
368,159,118516,1,0,0:0:0:0:
368,159,118595,1,8,0:0:0:0:
368,159,118674,1,0,0:0:0:0:
320,175,118832,1,8,0:0:0:0:
304,175,118990,1,0,0:0:0:0:
304,175,119069,1,0,0:0:0:0:
304,175,119148,1,8,0:0:0:0:
304,175,119306,1,8,0:0:0:0:
272,175,119464,1,4,0:0:0:0:
272,175,119779,1,4,0:0:0:0:
208,143,120095,1,4,0:0:0:0:
240,127,120411,1,8,0:0:0:0:
207,46,120490,1,0,0:0:0:0:
207,46,120569,1,0,0:0:0:0:
368,143,120727,1,12,0:0:0:0:
320,143,120885,1,0,0:0:0:0:
320,127,121043,1,8,0:0:0:0:
320,127,121122,1,8,0:0:0:0:
320,127,121200,1,0,0:0:0:0:
320,127,121358,1,8,0:0:0:0:
304,95,121516,1,0,0:0:0:0:
304,95,121595,1,8,0:0:0:0:
304,95,121674,1,0,0:0:0:0:
304,95,121832,1,8,0:0:0:0:
222,21,121990,1,0,0:0:0:0:
201,30,122306,1,0,0:0:0:0:
201,30,122385,1,8,0:0:0:0:
256,127,122464,1,0,0:0:0:0:
256,127,122622,1,8,0:0:0:0:
272,111,122779,1,0,0:0:0:0:
192,31,122937,1,8,0:0:0:0:
192,31,123016,1,0,0:0:0:0:
352,111,123095,1,8,0:0:0:0:
352,111,123174,1,8,0:0:0:0:
352,111,123253,1,4,0:0:0:0:
320,127,123490,1,4,0:0:0:0:
296,44,123727,1,8,0:0:0:0:
320,127,123885,1,4,0:0:0:0:
320,127,124122,1,4,0:0:0:0:
256,63,124358,1,8,0:0:0:0:
256,63,124516,1,4,0:0:0:0:
256,95,124753,1,4,0:0:0:0:
304,79,124990,1,8,0:0:0:0:
272,111,125148,1,4,0:0:0:0:
272,111,125385,1,4,0:0:0:0:
272,79,125779,1,12,0:0:0:0:
272,79,126016,1,12,0:0:0:0:
256,63,126253,1,0,0:0:0:0:
256,63,126411,1,12,0:0:0:0:
256,63,126648,1,12,0:0:0:0:
288,47,126885,1,0,0:0:0:0:
288,47,127043,1,12,0:0:0:0:
272,63,127279,1,12,0:0:0:0:
272,63,127516,1,0,0:0:0:0:
272,63,127674,1,12,0:0:0:0:
272,63,127911,1,12,0:0:0:0:
274,104,128306,1,0,0:0:0:0:
262,165,128542,1,8,0:0:0:0:
263,141,128778,1,0,0:0:0:0:
263,142,128857,1,8,0:0:0:0:
261,142,128936,1,8,0:0:0:0:
334,196,129015,1,0,0:0:0:0:
235,117,129173,1,8,0:0:0:0:
233,171,129252,1,0,0:0:0:0:
209,74,129410,1,8,0:0:0:0:
209,74,129489,1,0,0:0:0:0:
209,74,129568,1,8,0:0:0:0:
260,76,129805,1,8,0:0:0:0:
262,68,130042,1,0,0:0:0:0:
262,68,130121,1,8,0:0:0:0:
262,68,130199,1,8,0:0:0:0:
218,47,130278,1,0,0:0:0:0:
231,138,130436,1,8,0:0:0:0:
231,138,130515,1,0,0:0:0:0:
231,138,130673,1,8,0:0:0:0:
152,151,130831,1,0,0:0:0:0:
262,165,131068,1,8,0:0:0:0:
263,142,131305,1,0,0:0:0:0:
346,177,131384,1,8,0:0:0:0:
261,142,131463,1,8,0:0:0:0:
346,177,131542,1,0,0:0:0:0:
146,43,131699,1,8,0:0:0:0:
146,43,131778,1,0,0:0:0:0:
209,74,131936,1,8,0:0:0:0:
209,74,132015,1,0,0:0:0:0:
209,74,132094,1,8,0:0:0:0:
260,76,132331,1,8,0:0:0:0:
262,68,132568,1,0,0:0:0:0:
262,68,132647,1,0,0:0:0:0:
262,68,132725,1,8,0:0:0:0:
239,211,132884,1,0,0:0:0:0:
239,211,133042,1,8,0:0:0:0:
208,79,133358,5,4,0:0:0:0:
256,192,133437,12,0,134779,0:0:0:0:
