osu file format v14

[General]
AudioFilename: audio.mp3
AudioLeadIn: 0
PreviewTime: 91753
Countdown: 0
SampleSet: Normal
StackLeniency: 0.7
Mode: 1
LetterboxInBreaks: 0
WidescreenStoryboard: 0

[Editor]
DistanceSpacing: 1.1
BeatDivisor: 4
GridSize: 16
TimelineZoom: 2.7

[Metadata]
Title:think abt it
TitleUnicode:think abt it ✧ʕ̢̣̣·͡˔·ོɁ̡̣̣✧
Artist:yyyyy^2
ArtistUnicode:yyyyy²
Creator:vzlen
Version:inner oni
Source:
Tags:oaf1 ppgcasper about dariacore english instrumental hyperpop hyper pop electronic yyyyy2 y2 imogen heap hide and & seek furiiii
BeatmapID:4171742
BeatmapSetID:2005789

[Difficulty]
HPDrainRate:6
CircleSize:2
OverallDifficulty:6
ApproachRate:10
SliderMultiplier:1.4
SliderTickRate:1

[Events]
//Background and Video events
0,0,"FxbEqWJaEAAubzV.jpg",0,50
//Break Periods
//Storyboard Layer 0 (Background)
//Storyboard Layer 1 (Fail)
//Storyboard Layer 2 (Pass)
//Storyboard Layer 3 (Foreground)
//Storyboard Layer 4 (Overlay)
//Storyboard Sound Samples

[TimingPoints]
727,315.789473684211,4,1,0,50,1,8
727,-200,4,1,0,50,0,0
1990,315.789473684211,4,1,0,50,1,0
1990,-200,4,1,0,50,0,0
12016,-90.9090909090909,4,1,0,50,0,0
12174,-200,4,1,0,50,0,0
19634,-200,4,1,0,50,0,0
19792,-188.230912476722,4,1,0,50,0,0
19911,-178.571428571429,4,1,0,50,0,0
20423,-152.412545235223,4,1,0,50,0,0
20581,-145.480713874496,4,1,0,50,0,0
20739,-139.151982378855,4,1,0,50,0,0
20897,-133.35092348285,4,1,0,50,0,0
21213,-123.088163662932,4,1,0,50,0,0
21371,-118.527204502814,4,1,0,50,0,0
21528,-114.318027595567,4,1,0,50,0,0
21686,-110.373443983402,4,1,0,50,0,0
21844,-106.691999155584,4,1,0,50,0,0
22002,-103.248212461696,4,1,0,50,0,0
22160,-100.019790223629,4,1,0,60,0,0
25951,-100,4,1,0,60,0,0
26108,-97.5741656365884,4,1,0,60,0,0
26266,-95.2488687782806,4,1,0,60,0,0
26424,-93.0318208603418,4,1,0,60,0,0
26582,-90.9156348977829,4,1,0,60,0,0
26740,-88.8935810810811,4,1,0,60,0,0
26898,-86.9595152850454,4,1,0,60,0,0
26977,-86.0237024928484,4,1,0,60,0,0
27056,-85.1078167115903,4,1,0,60,0,0
27214,-83.3333333333333,4,1,0,60,0,0
27293,-100,4,1,0,60,0,0
31003,-100,4,1,0,60,0,0
31161,-103.208228322321,4,1,0,60,0,0
31319,-106.651650594777,4,1,0,60,0,0
31477,-110.332775067356,4,1,0,60,0,0
31635,-114.27709480353,4,1,0,60,0,0
31793,-118.513883457176,4,1,0,60,0,0
31951,-123.076923076923,4,1,0,60,0,0
32121,-76.9230769230769,4,1,0,60,0,0
32174,-78.9210789210789,4,1,0,60,0,0
32227,-81.0672139558748,4,1,0,60,0,0
32279,-83.2894043226147,4,1,0,75,0,0
32358,-84.3096024832282,4,1,0,75,0,0
32437,-85.3219840907939,4,1,0,75,0,0
32595,-87.4214815968437,4,1,0,75,0,0
32674,-88.5104593713865,4,1,0,75,0,0
32753,-89.6269093618607,4,1,0,75,0,0
32911,-91.9464919464919,4,1,0,75,0,0
33069,-94.389327952469,4,1,0,75,0,0
33148,-95.6600772551693,4,1,0,75,0,0
33227,-96.9655092992457,4,1,0,75,0,0
33385,-99.6862605813059,4,1,0,75,0,0
33542,-102.545365972476,4,1,0,75,0,0
33621,-104.046957059005,4,1,0,75,0,0
33700,-105.593177827941,4,1,0,75,0,0
33858,-108.827710999095,4,1,0,75,0,0
33937,-110.520443656888,4,1,0,75,0,0
34016,-112.266666666667,4,1,0,75,0,0
34174,-115.930056450503,4,1,0,75,0,0
34332,-119.840592086536,4,1,0,75,0,0
34411,-121.896489323199,4,1,0,75,0,0
34490,-124.024156724113,4,1,0,75,0,0
34569,-126.22741923394,4,1,0,75,0,0
34648,-128.510378510379,4,1,0,75,0,0
34793,-80,4,1,0,75,0,0
34951,-82.0529478642196,4,1,0,75,0,0
35108,-84.2,4,1,0,75,0,0
35187,-85.323425097112,4,1,0,75,0,0
35266,-86.4772338240329,4,1,0,75,0,0
35424,-88.881069669247,4,1,0,75,0,0
35582,-91.4223669923996,4,1,0,75,0,0
35661,-92.7483018175142,4,1,0,75,0,0
35740,-94.1132637853949,4,1,0,75,0,0
35819,-95.5190017016449,4,1,0,75,0,0
35898,-96.9673704414587,4,1,0,75,0,0
36056,-100,4,1,0,75,0,0
36214,-103.228442991418,4,1,0,75,0,0
36293,-104.922118380062,4,1,0,75,0,0
36372,-106.672297297297,4,1,0,75,0,0
36529,-110.329766324525,4,1,0,75,0,0
36687,-114.272788961773,4,1,0,75,0,0
36845,-118.508092892329,4,1,0,75,0,0
36924,-120.74569789675,4,1,0,75,0,0
37003,-123.069427527406,4,1,0,75,0,0
37082,-125.48435171386,4,1,0,75,0,0
37161,-127.99594628832,4,1,0,75,0,0
37318,-80,4,1,0,75,0,0
37476,-82.0521146196932,4,1,0,75,0,0
37634,-84.2122802632675,4,1,0,75,0,0
37713,-85.335584634867,4,1,0,75,0,0
37792,-86.4892615726876,4,1,0,75,0,0
37871,-87.6745598057073,4,1,0,75,0,0
37950,-88.8927974672412,4,1,0,75,0,0
38107,-91.4172017726327,4,1,0,75,0,0
38186,-92.742453436095,4,1,0,75,0,0
38265,-94.1066939763523,4,1,0,75,0,0
38423,-96.9592326139089,4,1,0,75,0,0
38581,-99.9901078247107,4,1,0,75,0,0
38660,-101.577730881319,4,1,0,75,0,0
38739,-103.216583273767,4,1,0,75,0,0
38818,-104.909185262065,4,1,0,75,0,0
38897,-106.658225176744,4,1,0,75,0,0
38976,-108.466573666702,4,1,0,75,0,0
39055,-110.337299421461,4,1,0,75,0,0
39213,-114.279253815715,4,1,0,75,0,0
39371,-118.513307538985,4,1,0,75,0,0
39450,-120.750209055071,4,1,0,75,0,0
39528,-123.043213633597,4,1,0,75,0,0
39686,-127.965565261425,4,1,0,75,0,0
39846,-80,4,1,0,75,0,0
40003,-82.0396232543034,4,1,0,75,0,0
40161,-84.2,4,1,0,75,0,0
40240,-85.323425097112,4,1,0,75,0,0
40319,-86.4772338240329,4,1,0,75,0,0
40477,-88.881069669247,4,1,0,75,0,0
40635,-91.4223669923996,4,1,0,75,0,0
40714,-92.7483018175142,4,1,0,75,0,0
40793,-94.1132637853949,4,1,0,75,0,0
40872,-95.5190017016449,4,1,0,75,0,0
40951,-96.9673704414587,4,1,0,75,0,0
41109,-125,4,1,0,75,0,0
41266,-117.685426761088,4,1,0,75,0,0
41424,-111.140443505808,4,1,0,75,0,0
41582,-105.285095031677,4,1,0,75,0,0
41740,-100.015837820716,4,1,0,75,0,0
41898,-95.2488687782806,4,1,0,75,0,0
42056,-90.9156348977829,4,1,0,75,0,0
42135,-88.8935810810811,4,1,0,75,0,0
42214,-86.9595152850454,4,1,0,75,0,0
42293,-85.1078167115903,4,1,0,75,0,0
42372,-83.3333333333333,4,1,0,75,0,0
42529,-85.0963482010511,4,1,0,75,0,0
42687,-86.9475423378769,4,1,0,75,0,0
42845,-88.881069669247,4,1,0,75,0,0
43003,-90.9025478623866,4,1,0,75,0,0
43161,-93.0181175430844,4,1,0,75,0,0
43319,-95.2345045996079,4,1,0,75,0,0
43477,-97.5590916113085,4,1,0,75,0,0
43635,-100,4,1,0,75,0,0
43793,-90.9090909090909,4,1,0,75,0,0
43872,-95.1949229374433,4,1,0,75,0,0
43951,-99.9682640431609,4,1,0,75,0,0
44108,-90.9090909090909,4,1,0,75,0,0
44187,-95.1949229374433,4,1,0,75,0,0
44266,-99.9682640431609,4,1,0,75,0,0
44424,-90.9090909090909,4,1,0,75,0,0
44503,-95.1949229374433,4,1,0,75,0,0
44582,-99.9682640431609,4,1,0,75,0,0
44661,-105.245573003675,4,1,0,75,0,0
44740,-111.111111111111,4,1,0,75,0,0
44898,-80,4,1,0,75,0,0
45056,-82.0521146196932,4,1,0,75,0,0
45214,-84.2122802632675,4,1,0,75,0,0
45293,-85.335584634867,4,1,0,75,0,0
45372,-86.4892615726876,4,1,0,75,0,0
45529,-88.8771652158621,4,1,0,75,0,0
45687,-91.4172017726327,4,1,0,75,0,0
45766,-92.742453436095,4,1,0,75,0,0
45845,-94.1066939763523,4,1,0,75,0,0
45924,-95.5116696588869,4,1,0,75,0,0
46003,-96.9592326139089,4,1,0,75,0,0
46161,-99.9901078247107,4,1,0,75,0,0
46319,-103.216583273767,4,1,0,75,0,0
46398,-104.909185262065,4,1,0,75,0,0
46477,-106.658225176744,4,1,0,75,0,0
46556,-108.466573666702,4,1,0,75,0,0
46635,-110.337299421461,4,1,0,75,0,0
46793,-114.279253815715,4,1,0,75,0,0
46951,-118.513307538985,4,1,0,75,0,0
47029,-120.721366296429,4,1,0,75,0,0
47108,-123.043213633597,4,1,0,75,0,0
47266,-127.965565261425,4,1,0,75,0,0
47424,-80,4,1,0,75,0,0
47581,-82.0396232543034,4,1,0,75,0,0
47739,-84.2,4,1,0,75,0,0
47818,-85.323425097112,4,1,0,75,0,0
47897,-86.4772338240329,4,1,0,75,0,0
48055,-88.881069669247,4,1,0,75,0,0
48213,-91.4223669923996,4,1,0,75,0,0
48292,-92.7483018175142,4,1,0,75,0,0
48371,-94.1132637853949,4,1,0,75,0,0
48450,-95.5190017016449,4,1,0,75,0,0
48528,-96.9487622337363,4,1,0,75,0,0
48607,-98.4411535463757,4,1,0,75,0,0
48686,-99.9802097763705,4,1,0,75,0,0
48844,-103.207354443309,4,1,0,75,0,0
48923,-104.900332225914,4,1,0,75,0,0
49002,-106.649778340722,4,1,0,75,0,0
49160,-110.329766324525,4,1,0,75,0,0
49318,-114.272788961773,4,1,0,75,0,0
49476,-118.508092892329,4,1,0,75,0,0
49555,-120.74569789675,4,1,0,75,0,0
49634,-123.069427527406,4,1,0,75,0,0
49792,-127.99594628832,4,1,0,75,0,0
49951,-80,4,1,0,75,0,0
50108,-82.0396232543034,4,1,0,75,0,0
50266,-84.2,4,1,0,75,0,0
50345,-85.323425097112,4,1,0,75,0,0
50424,-86.4772338240329,4,1,0,75,0,0
50582,-88.881069669247,4,1,0,75,0,0
50740,-91.4223669923996,4,1,0,75,0,0
50819,-92.7483018175142,4,1,0,75,0,0
50898,-94.1132637853949,4,1,0,75,0,0
50977,-95.5190017016449,4,1,0,75,0,0
51056,-96.9673704414587,4,1,0,75,0,0
51214,-100,4,1,0,75,0,0
51293,-101.588578322944,4,1,0,75,0,0
51372,-103.228442991418,4,1,0,75,0,0
51529,-106.649778340722,4,1,0,75,0,0
51608,-108.458565908115,4,1,0,75,0,0
51687,-110.329766324525,4,1,0,75,0,0
51766,-112.266666666667,4,1,0,75,0,0
51845,-114.272788961773,4,1,0,75,0,0
52003,-118.508092892329,4,1,0,75,0,0
52082,-120.74569789675,4,1,0,75,0,0
52161,-123.069427527406,4,1,0,75,0,0
52240,-125.48435171386,4,1,0,75,0,0
52319,-127.99594628832,4,1,0,75,0,0
52398,-130.610134436401,4,1,0,75,0,0
52477,-133.333333333333,4,1,0,40,0,0
53753,-133.333333333333,4,1,0,40,0,0
54069,-109.58904109589,4,1,0,40,0,0
54227,-100.62893081761,4,1,0,40,0,0
54385,-93.0232558139535,4,1,0,40,0,0
54542,-86.5249683403498,4,1,0,40,0,0
54700,-80.8416743948067,4,1,0,40,0,0
54753,-79.09887359199,4,1,0,40,0,0
54806,-77.4296303102698,4,1,0,40,0,0
54858,-75.8589647411853,4,1,0,40,0,0
54911,-74.3223378608808,4,1,0,40,0,0
54964,-72.8467279485923,4,1,0,40,0,0
55016,-71.454817829786,4,1,0,90,0,0
55042,-71.454817829786,4,1,0,90,0,1
57528,-71.4285714285714,4,1,0,80,0,1
57568,-71.4285714285714,4,1,0,80,0,0
57686,-73.3833013770263,4,1,0,80,0,0
57844,-75.4615522495071,4,1,0,80,0,0
57923,-76.5454545454545,4,1,0,80,0,0
58002,-77.6609481645453,4,1,0,80,0,0
58160,-79.9923997719931,4,1,0,80,0,0
58318,-82.4681684622919,4,1,0,80,0,0
58397,-83.7644249900517,4,1,0,80,0,0
58476,-85.1020820699414,4,1,0,80,0,0
58555,-86.4831552999178,4,1,0,80,0,0
58634,-87.9097932762581,4,1,0,80,0,0
58713,-89.3842887473461,4,1,0,80,0,0
58792,-71.4285714285714,4,1,0,90,0,0
58832,-71.4285714285714,4,1,0,90,0,1
59595,-83.3333333333333,4,1,0,90,0,1
59674,-81.1042524005487,4,1,0,90,0,1
59753,-78.9649415692821,4,1,0,90,0,1
59779,-78.9649415692821,4,1,0,90,0,1
59832,-76.9355888093689,4,1,0,90,0,1
59911,-75.0079289565493,4,1,0,90,0,1
59964,-73.7679351216469,4,1,0,90,0,1
60016,-72.5905463474524,4,1,0,90,0,1
60069,-71.4285714285714,4,1,0,80,0,1
60095,-71.4285714285714,4,1,0,80,0,0
60214,-72.7277960052956,4,1,0,80,0,0
60372,-74.0751597584569,4,1,0,80,0,0
60451,-74.7677377359607,4,1,0,80,0,0
60529,-75.4643731708774,4,1,0,80,0,0
60687,-76.9160528398369,4,1,0,80,0,0
60845,-78.4246787908882,4,1,0,80,0,0
60924,-79.2014041246161,4,1,0,80,0,0
61003,-79.9936688825578,4,1,0,80,0,0
61082,-80.8019441069259,4,1,0,80,0,0
61161,-81.6267200723561,4,1,0,80,0,0
61319,-83.3278374991756,4,1,0,80,0,0
61398,-84.2052649116961,4,1,0,80,0,0
61477,-85.1013672795851,4,1,0,80,0,0
61635,-86.9520335833735,4,1,0,80,0,0
61714,-87.9078828358728,4,1,0,80,0,0
61793,-88.8849806542385,4,1,0,80,0,0
61872,-89.8840435370278,4,1,0,80,0,0
61951,-90.9058205626304,4,1,0,80,0,0
62108,-93.006993006993,4,1,0,80,0,0
62187,-94.1014374022492,4,1,0,80,0,0
62266,-95.221945888914,4,1,0,80,0,0
62345,-96.369460758142,4,1,0,80,0,0
62424,-97.5449702771559,4,1,0,80,0,0
62503,-98.7495115279406,4,1,0,80,0,0
62583,-66.6666666666667,4,1,0,90,0,0
62621,-66.6666666666667,4,1,0,90,0,1
63045,-76.9230769230769,4,1,0,90,0,1
63124,-71.4285714285714,4,1,0,90,0,1
63203,-66.6666666666667,4,1,0,90,0,1
63599,-76.9230769230769,4,1,0,90,0,1
63757,-66.6666666666667,4,1,0,90,0,1
64308,-76.9230769230769,4,1,0,90,0,1
64387,-71.4285714285714,4,1,0,90,0,1
64466,-66.6666666666667,4,1,0,90,0,1
64951,-62.5,4,1,0,90,0,1
65029,-64.4897959183673,4,1,0,90,0,1
65109,-66.6666666666667,4,1,0,90,0,1
65573,-76.9230769230769,4,1,0,90,0,1
65652,-71.4610832954028,4,1,0,90,0,1
65731,-66.6666666666667,4,1,0,90,0,1
66205,-76.9230769230769,4,1,0,90,0,1
66363,-66.6666666666667,4,1,0,90,0,1
66836,-76.9230769230769,4,1,0,90,0,1
66915,-71.4610832954028,4,1,0,90,0,1
66994,-66.6666666666667,4,1,0,90,0,1
67468,-100,4,1,0,90,0,1
67635,-66.6666666666667,4,1,0,90,0,1
67714,-68.1818181818182,4,1,0,90,0,1
67793,-69.7674418604651,4,1,0,90,0,1
67872,-71.4285714285714,4,1,0,90,0,1
67951,-68.9655172413793,4,1,0,90,0,1
68029,-70.567217507816,4,1,0,90,0,1
68108,-72.2671138893124,4,1,0,90,0,1
68187,-74.050929542259,4,1,0,90,0,1
68266,-71.4285714285714,4,1,0,90,0,1
68345,-73.1481481481482,4,1,0,90,0,1
68424,-74.9762733312243,4,1,0,90,0,1
68503,-76.8981181051265,4,1,0,90,0,1
68582,-74.0740740740741,4,1,0,90,0,1
68661,-75.9330759330759,4,1,0,90,0,1
68740,-77.9135028062067,4,1,0,90,0,1
68819,-80,4,1,0,90,0,1
68898,-76.9230769230769,4,1,0,90,0,1
68977,-78.9473684210526,4,1,0,90,0,1
69056,-81.0810810810811,4,1,0,90,0,1
69135,-83.3333333333333,4,1,0,90,0,1
69214,-80,4,1,0,90,0,1
69293,-82.1917808219178,4,1,0,90,0,1
69372,-84.5070422535211,4,1,0,90,0,1
69451,-86.9565217391304,4,1,0,90,0,1
69529,-83.3333333333333,4,1,0,90,0,1
69608,-85.6832971800434,4,1,0,90,0,1
69687,-88.2024562709341,4,1,0,90,0,1
69766,-90.8742331288343,4,1,0,90,0,1
69845,-86.9565217391304,4,1,0,90,0,1
69924,-89.5184135977337,4,1,0,90,0,1
70003,-92.2717539419895,4,1,0,90,0,1
70082,-95.1998393251657,4,1,0,90,0,1
70161,-90.9090909090909,4,1,0,90,0,1
70162,-90.9090909090909,4,1,0,90,0,1
70240,-93.7251787132645,4,1,0,90,0,1
70319,-96.7609676096761,4,1,0,90,0,1
70398,-100,4,1,0,90,0,1
70477,-95.2380952380952,4,1,0,90,0,1
70556,-98.3606557377049,4,1,0,90,0,1
70635,-101.694915254237,4,1,0,90,0,1
70713,-105.216426193119,4,1,0,90,0,1
70792,-100,4,1,0,90,0,1
70871,-103.403141361257,4,1,0,90,0,1
70950,-107.094441934026,4,1,0,90,0,1
71029,-111.059044048735,4,1,0,90,0,1
71108,-105.263157894737,4,1,0,90,0,1
71187,-109.04071773637,4,1,0,90,0,1
71266,-113.153497254715,4,1,0,90,0,1
71345,-117.588687670553,4,1,0,90,0,1
71424,-111.111111111111,4,1,0,90,0,1
71503,-115.328467153285,4,1,0,90,0,1
71582,-119.939271255061,4,1,0,90,0,1
71661,-124.934106483922,4,1,0,90,0,1
71740,-117.647058823529,4,1,0,90,0,1
71819,-122.448979591837,4,1,0,90,0,1
71898,-127.659574468085,4,1,0,90,0,1
71977,-133.333333333333,4,1,0,90,0,1
72056,-125,4,1,0,50,0,1
72095,-125,4,1,0,50,0,0
72214,-133.333333333333,4,1,0,50,0,0
72372,-142.857142857143,4,1,0,50,0,0
72648,-66.6666666666667,4,1,0,90,0,0
72766,-50,4,1,0,75,0,0
73832,-200,4,1,0,75,0,0
74227,-200,4,1,0,50,0,0
80266,-200,4,1,0,50,0,0
80424,-188.230912476722,4,1,0,50,0,0
81055,-152.412545235223,4,1,0,50,0,0
81213,-145.480713874496,4,1,0,50,0,0
81371,-139.151982378855,4,1,0,50,0,0
81529,-133.35092348285,4,1,0,50,0,0
81845,-123.088163662932,4,1,0,50,0,0
82003,-118.527204502814,4,1,0,50,0,0
82160,-114.318027595567,4,1,0,50,0,0
82318,-110.373443983402,4,1,0,50,0,0
82476,-106.691999155584,4,1,0,50,0,0
82634,-103.248212461696,4,1,0,50,0,0
82792,-100.019790223629,4,1,0,60,0,0
86583,-100,4,1,0,60,0,0
86740,-97.5741656365884,4,1,0,60,0,0
86898,-95.2488687782806,4,1,0,60,0,0
87056,-93.0318208603418,4,1,0,60,0,0
87214,-90.9156348977829,4,1,0,60,0,0
87372,-88.8935810810811,4,1,0,60,0,0
87530,-86.9595152850454,4,1,0,60,0,0
87609,-86.0237024928484,4,1,0,60,0,0
87688,-85.1078167115903,4,1,0,60,0,0
87846,-83.3333333333333,4,1,0,60,0,0
87925,-100,4,1,0,60,0,0
91634,-100,4,1,0,60,0,0
91792,-103.204735660339,4,1,0,60,0,0
91950,-106.644167897068,4,1,0,60,0,0
92108,-110.320750600044,4,1,0,60,0,0
92266,-114.25988700565,4,1,0,60,0,0
92424,-118.49074291071,4,1,0,60,0,0
92582,-123.046970065709,4,1,0,60,0,0
92754,-76.9230769230769,4,1,0,60,0,0
92807,-78.740157480315,4,1,0,60,0,0
92860,-81.3008130081301,4,1,0,60,0,0
92910,-83.3333333333333,4,1,0,75,0,0
92989,-84.3092116237948,4,1,0,75,0,0
93068,-85.3211783573901,4,1,0,75,0,0
93226,-87.4197844775397,4,1,0,75,0,0
93305,-88.5082834226472,4,1,0,75,0,0
93384,-89.6242308169743,4,1,0,75,0,0
93542,-91.9427313576743,4,1,0,75,0,0
93700,-94.3843726072422,4,1,0,75,0,0
93779,-95.6544780074192,4,1,0,75,0,0
93858,-96.9592326139089,4,1,0,75,0,0
94016,-99.678520008678,4,1,0,75,0,0
94173,-102.536011361331,4,1,0,75,0,0
94175,-102.57346971911,4,1,0,75,0,0
94252,-104.03672368719,4,1,0,75,0,0
94331,-105.582017214005,4,1,0,75,0,0
94489,-108.814537312147,4,1,0,75,0,0
94568,-110.506176888597,4,1,0,75,0,0
94647,-112.251243781095,4,1,0,75,0,0
94727,-114.075478512098,4,1,0,75,0,0
94805,-115.912114123205,4,1,0,75,0,0
94885,-117.858308847535,4,1,0,75,0,0
94963,-119.81981981982,4,1,0,75,0,0
95042,-121.874171067544,4,1,0,75,0,0
95121,-124.000196280485,4,1,0,75,0,0
95200,-126.20171298724,4,1,0,75,0,0
95279,-128.482814724426,4,1,0,75,0,0
95359,-130.878392376217,4,1,0,75,0,0
95438,-80,4,1,0,75,0,0
95583,-82.0529478642196,4,1,0,75,0,0
95740,-84.2,4,1,0,75,0,0
95819,-85.323425097112,4,1,0,75,0,0
95898,-86.4772338240329,4,1,0,75,0,0
96056,-88.881069669247,4,1,0,75,0,0
96214,-91.4223669923996,4,1,0,75,0,0
96293,-92.7483018175142,4,1,0,75,0,0
96372,-94.1132637853949,4,1,0,75,0,0
96451,-95.5190017016449,4,1,0,75,0,0
96530,-96.9673704414587,4,1,0,75,0,0
96688,-100,4,1,0,75,0,0
96846,-103.228442991418,4,1,0,75,0,0
96925,-104.922118380062,4,1,0,75,0,0
97004,-106.672297297297,4,1,0,75,0,0
97161,-110.329766324525,4,1,0,75,0,0
97319,-114.272788961773,4,1,0,75,0,0
97477,-118.508092892329,4,1,0,75,0,0
97556,-120.74569789675,4,1,0,75,0,0
97635,-123.069427527406,4,1,0,75,0,0
97714,-125.48435171386,4,1,0,75,0,0
97793,-127.99594628832,4,1,0,75,0,0
97950,-80,4,1,0,75,0,0
98108,-82.0521146196932,4,1,0,75,0,0
98266,-84.2122802632675,4,1,0,75,0,0
98345,-85.335584634867,4,1,0,75,0,0
98424,-86.4892615726876,4,1,0,75,0,0
98503,-87.6745598057073,4,1,0,75,0,0
98582,-88.8927974672412,4,1,0,75,0,0
98739,-91.4172017726327,4,1,0,75,0,0
98818,-92.742453436095,4,1,0,75,0,0
98897,-94.1066939763523,4,1,0,75,0,0
99055,-96.9592326139089,4,1,0,75,0,0
99213,-99.9901078247107,4,1,0,75,0,0
99292,-101.577730881319,4,1,0,75,0,0
99371,-103.216583273767,4,1,0,75,0,0
99450,-104.909185262065,4,1,0,75,0,0
99529,-106.658225176744,4,1,0,75,0,0
99608,-108.466573666702,4,1,0,75,0,0
99687,-110.337299421461,4,1,0,75,0,0
99845,-114.279253815715,4,1,0,75,0,0
100003,-118.513307538985,4,1,0,75,0,0
100082,-120.750209055071,4,1,0,75,0,0
100160,-123.043213633597,4,1,0,75,0,0
100318,-127.965565261425,4,1,0,75,0,0
100478,-80,4,1,0,75,0,0
100635,-82.0396232543034,4,1,0,75,0,0
100793,-84.2,4,1,0,75,0,0
100872,-85.323425097112,4,1,0,75,0,0
100951,-86.4772338240329,4,1,0,75,0,0
101109,-88.881069669247,4,1,0,75,0,0
101267,-91.4223669923996,4,1,0,75,0,0
101346,-92.7483018175142,4,1,0,75,0,0
101425,-94.1132637853949,4,1,0,75,0,0
101504,-95.5190017016449,4,1,0,75,0,0
101583,-96.9673704414587,4,1,0,75,0,0
101741,-125,4,1,0,75,0,0
101898,-117.685426761088,4,1,0,75,0,0
102056,-111.140443505808,4,1,0,75,0,0
102214,-105.285095031677,4,1,0,75,0,0
102372,-100.015837820716,4,1,0,75,0,0
102530,-95.2488687782806,4,1,0,75,0,0
102688,-90.9156348977829,4,1,0,75,0,0
102767,-88.8935810810811,4,1,0,75,0,0
102846,-86.9595152850454,4,1,0,75,0,0
102925,-85.1078167115903,4,1,0,75,0,0
103004,-83.3333333333333,4,1,0,75,0,0
103161,-85.0963482010511,4,1,0,75,0,0
103319,-86.9475423378769,4,1,0,75,0,0
103477,-88.881069669247,4,1,0,75,0,0
103635,-90.9025478623866,4,1,0,75,0,0
103793,-93.0181175430844,4,1,0,75,0,0
103951,-95.2345045996079,4,1,0,75,0,0
104109,-97.5590916113085,4,1,0,75,0,0
104267,-100,4,1,0,75,0,0
104424,-90.9090909090909,4,1,0,75,0,0
104503,-95.1949229374433,4,1,0,75,0,0
104582,-99.9682640431609,4,1,0,75,0,0
104739,-90.9090909090909,4,1,0,75,0,0
104818,-95.1949229374433,4,1,0,75,0,0
104897,-99.9682640431609,4,1,0,75,0,0
105055,-90.9090909090909,4,1,0,75,0,0
105134,-95.1949229374433,4,1,0,75,0,0
105213,-99.9682640431609,4,1,0,75,0,0
105292,-105.245573003675,4,1,0,75,0,0
105371,-111.111111111111,4,1,0,75,0,0
105530,-80,4,1,0,75,0,0
105688,-82.0521146196932,4,1,0,75,0,0
105846,-84.2122802632675,4,1,0,75,0,0
105925,-85.335584634867,4,1,0,75,0,0
106004,-86.4892615726876,4,1,0,75,0,0
106161,-88.8771652158621,4,1,0,75,0,0
106319,-91.4172017726327,4,1,0,75,0,0
106398,-92.742453436095,4,1,0,75,0,0
106477,-94.1066939763523,4,1,0,75,0,0
106556,-95.5116696588869,4,1,0,75,0,0
106635,-96.9592326139089,4,1,0,75,0,0
106793,-99.9901078247107,4,1,0,75,0,0
106951,-103.216583273767,4,1,0,75,0,0
107030,-104.909185262065,4,1,0,75,0,0
107109,-106.658225176744,4,1,0,75,0,0
107188,-108.466573666702,4,1,0,75,0,0
107267,-110.337299421461,4,1,0,75,0,0
107425,-114.279253815715,4,1,0,75,0,0
107583,-118.513307538985,4,1,0,75,0,0
107661,-120.721366296429,4,1,0,75,0,0
107740,-123.043213633597,4,1,0,75,0,0
107898,-127.965565261425,4,1,0,75,0,0
108056,-80,4,1,0,75,0,0
108213,-82.0396232543034,4,1,0,75,0,0
108371,-84.2,4,1,0,75,0,0
108450,-85.323425097112,4,1,0,75,0,0
108529,-86.4772338240329,4,1,0,75,0,0
108687,-88.881069669247,4,1,0,75,0,0
108845,-91.4223669923996,4,1,0,75,0,0
108924,-92.7483018175142,4,1,0,75,0,0
109003,-94.1132637853949,4,1,0,75,0,0
109082,-95.5190017016449,4,1,0,75,0,0
109160,-96.9487622337363,4,1,0,75,0,0
109239,-98.4411535463757,4,1,0,75,0,0
109318,-99.9802097763705,4,1,0,75,0,0
109476,-103.207354443309,4,1,0,75,0,0
109555,-104.900332225914,4,1,0,75,0,0
109634,-106.649778340722,4,1,0,75,0,0
109792,-110.329766324525,4,1,0,75,0,0
109950,-114.272788961773,4,1,0,75,0,0
110108,-118.508092892329,4,1,0,75,0,0
110187,-120.74569789675,4,1,0,75,0,0
110266,-123.069427527406,4,1,0,75,0,0
110424,-127.99594628832,4,1,0,75,0,0
110583,-80,4,1,0,75,0,0
110740,-82.0396232543034,4,1,0,75,0,0
110898,-84.2,4,1,0,75,0,0
110977,-85.323425097112,4,1,0,75,0,0
111056,-86.4772338240329,4,1,0,75,0,0
111214,-88.881069669247,4,1,0,75,0,0
111372,-91.4223669923996,4,1,0,75,0,0
111451,-92.7483018175142,4,1,0,75,0,0
111530,-94.1132637853949,4,1,0,75,0,0
111609,-95.5190017016449,4,1,0,75,0,0
111688,-96.9673704414587,4,1,0,75,0,0
111846,-100,4,1,0,75,0,0
111925,-101.588578322944,4,1,0,75,0,0
112004,-103.228442991418,4,1,0,75,0,0
112161,-106.649778340722,4,1,0,75,0,0
112240,-108.458565908115,4,1,0,75,0,0
112319,-110.329766324525,4,1,0,75,0,0
112398,-112.266666666667,4,1,0,75,0,0
112477,-114.272788961773,4,1,0,75,0,0
112635,-118.508092892329,4,1,0,75,0,0
112714,-120.74569789675,4,1,0,75,0,0
112793,-123.069427527406,4,1,0,75,0,0
112872,-125.48435171386,4,1,0,75,0,0
112951,-127.99594628832,4,1,0,75,0,0
113030,-130.610134436401,4,1,0,75,0,0
113109,-133.333333333333,4,1,0,40,0,0
114385,-133.424889076696,4,1,0,40,0,0
114700,-109.635416666667,4,1,0,40,0,0
114858,-100.661512712202,4,1,0,40,0,0
115016,-93.0455282157065,4,1,0,40,0,0
115173,-86.5394497927302,4,1,0,40,0,0
115331,-80.8501104247351,4,1,0,40,0,0
115411,-78.2455162159651,4,1,0,40,0,0
115490,-75.8330831582108,4,1,0,40,0,0
115569,-73.5649590820398,4,1,0,40,0,0
115634,-71.4285714285714,4,1,0,90,0,0
115674,-71.4285714285714,4,1,0,90,0,1
118160,-71.4285714285714,4,1,0,80,0,1
118200,-71.4285714285714,4,1,0,80,0,0
118318,-73.3833013770263,4,1,0,80,0,0
118476,-75.4615522495071,4,1,0,80,0,0
118555,-76.5454545454545,4,1,0,80,0,0
118634,-77.6609481645453,4,1,0,80,0,0
118792,-79.9923997719931,4,1,0,80,0,0
118950,-82.4681684622919,4,1,0,80,0,0
119029,-83.7644249900517,4,1,0,80,0,0
119108,-85.1020820699414,4,1,0,80,0,0
119187,-86.4831552999178,4,1,0,80,0,0
119266,-87.9097932762581,4,1,0,80,0,0
119345,-89.3842887473461,4,1,0,80,0,0
119424,-71.4285714285714,4,1,0,90,0,0
119463,-71.4285714285714,4,1,0,90,0,1
120174,-71.4285714285714,4,1,0,90,0,1
120227,-83.3333333333333,4,1,0,90,0,1
120306,-81.1042524005487,4,1,0,90,0,1
120385,-78.9649415692821,4,1,0,90,0,1
120411,-78.9649415692821,4,1,0,90,0,1
120464,-76.9355888093689,4,1,0,90,0,1
120543,-75.0079289565493,4,1,0,90,0,1
120596,-73.7679351216469,4,1,0,90,0,1
120648,-72.5905463474524,4,1,0,90,0,1
120701,-71.4285714285714,4,1,0,80,0,1
120726,-71.4285714285714,4,1,0,80,0,0
120846,-72.7277960052956,4,1,0,80,0,0
121004,-74.0751597584569,4,1,0,80,0,0
121083,-74.7677377359607,4,1,0,80,0,0
121161,-75.4643731708774,4,1,0,80,0,0
121319,-76.9160528398369,4,1,0,80,0,0
121477,-78.4246787908882,4,1,0,80,0,0
121556,-79.2014041246161,4,1,0,80,0,0
121635,-79.9936688825578,4,1,0,80,0,0
121714,-80.8019441069259,4,1,0,80,0,0
121793,-81.6267200723561,4,1,0,80,0,0
121951,-83.3278374991756,4,1,0,80,0,0
122030,-84.2052649116961,4,1,0,80,0,0
122109,-85.1013672795851,4,1,0,80,0,0
122267,-86.9520335833735,4,1,0,80,0,0
122346,-87.9078828358728,4,1,0,80,0,0
122425,-88.8849806542385,4,1,0,80,0,0
122504,-89.8840435370278,4,1,0,80,0,0
122583,-90.9058205626304,4,1,0,80,0,0
122740,-93.006993006993,4,1,0,80,0,0
122819,-94.1014374022492,4,1,0,80,0,0
122898,-95.221945888914,4,1,0,80,0,0
122977,-96.369460758142,4,1,0,80,0,0
123056,-97.5449702771559,4,1,0,80,0,0
123135,-98.7495115279406,4,1,0,80,0,0
123215,-66.6666666666667,4,1,0,90,0,0
123253,-66.6666666666667,4,1,0,90,0,1
123677,-76.9230769230769,4,1,0,90,0,1
123756,-71.4285714285714,4,1,0,90,0,1
123835,-66.6666666666667,4,1,0,90,0,1
124231,-76.9230769230769,4,1,0,90,0,1
124389,-66.6666666666667,4,1,0,90,0,1
124940,-76.9230769230769,4,1,0,90,0,1
125019,-71.4285714285714,4,1,0,90,0,1
125098,-66.6666666666667,4,1,0,90,0,1
125582,-62.5,4,1,0,90,0,1
125660,-64.4897959183673,4,1,0,90,0,1
125740,-66.6666666666667,4,1,0,90,0,1
126205,-76.9230769230769,4,1,0,90,0,1
126284,-71.4610832954028,4,1,0,90,0,1
126363,-66.6666666666667,4,1,0,90,0,1
126837,-76.9230769230769,4,1,0,90,0,1
126995,-66.6666666666667,4,1,0,90,0,1
127468,-76.9230769230769,4,1,0,90,0,1
127547,-71.4610832954028,4,1,0,90,0,1
127626,-66.6666666666667,4,1,0,90,0,1
128100,-100,4,1,0,90,0,1
128266,-66.6666666666667,4,1,0,90,0,1
128345,-68.1818181818182,4,1,0,90,0,1
128424,-69.7674418604651,4,1,0,90,0,1
128503,-71.4285714285714,4,1,0,90,0,1
128582,-68.9655172413793,4,1,0,90,0,1
128660,-70.567217507816,4,1,0,90,0,1
128739,-72.2671138893124,4,1,0,90,0,1
128818,-74.050929542259,4,1,0,90,0,1
128897,-71.4285714285714,4,1,0,90,0,1
128976,-73.1481481481482,4,1,0,90,0,1
129055,-74.9762733312243,4,1,0,90,0,1
129134,-76.8981181051265,4,1,0,90,0,1
129213,-74.0740740740741,4,1,0,90,0,1
129292,-75.9330759330759,4,1,0,90,0,1
129371,-77.9135028062067,4,1,0,90,0,1
129450,-80,4,1,0,90,0,1
129529,-76.9230769230769,4,1,0,90,0,1
129608,-78.9473684210526,4,1,0,90,0,1
129687,-81.0810810810811,4,1,0,90,0,1
129766,-83.3333333333333,4,1,0,90,0,1
129845,-80,4,1,0,90,0,1
129924,-82.1917808219178,4,1,0,90,0,1
130003,-84.5070422535211,4,1,0,90,0,1
130082,-86.9565217391304,4,1,0,90,0,1
130160,-83.3333333333333,4,1,0,90,0,1
130239,-85.6832971800434,4,1,0,90,0,1
130318,-88.2024562709341,4,1,0,90,0,1
130397,-90.8742331288343,4,1,0,90,0,1
130476,-86.9565217391304,4,1,0,90,0,1
130555,-89.5184135977337,4,1,0,90,0,1
130634,-92.2717539419895,4,1,0,90,0,1
130713,-95.1998393251657,4,1,0,90,0,1
130792,-90.9090909090909,4,1,0,90,0,1
130793,-90.9090909090909,4,1,0,90,0,1
130871,-93.7251787132645,4,1,0,90,0,1
130950,-96.7609676096761,4,1,0,90,0,1
131029,-100,4,1,0,90,0,1
131108,-95.2380952380952,4,1,0,90,0,1
131187,-98.3606557377049,4,1,0,90,0,1
131266,-101.694915254237,4,1,0,90,0,1
131344,-105.216426193119,4,1,0,90,0,1
131423,-100,4,1,0,90,0,1
131502,-103.403141361257,4,1,0,90,0,1
131581,-107.094441934026,4,1,0,90,0,1
131660,-111.059044048735,4,1,0,90,0,1
131739,-105.263157894737,4,1,0,90,0,1
131818,-109.04071773637,4,1,0,90,0,1
131897,-113.153497254715,4,1,0,90,0,1
131976,-117.588687670553,4,1,0,90,0,1
132055,-111.111111111111,4,1,0,90,0,1
132134,-115.328467153285,4,1,0,90,0,1
132213,-119.939271255061,4,1,0,90,0,1
132292,-124.934106483922,4,1,0,90,0,1
132371,-117.647058823529,4,1,0,90,0,1
132450,-122.448979591837,4,1,0,90,0,1
132529,-127.659574468085,4,1,0,90,0,1
132608,-133.333333333333,4,1,0,90,0,1
132687,-125,4,1,0,50,0,1
132726,-125,4,1,0,50,0,0
132845,-133.333333333333,4,1,0,50,0,0
133003,-142.857142857143,4,1,0,50,0,0
133319,-66.6666666666667,4,1,0,90,0,0
133398,-50,4,1,0,90,0,0

[HitObjects]
256,192,12095,5,4,0:0:0:0:
256,192,14621,1,0,0:0:0:0:
256,192,15884,1,8,0:0:0:0:
256,192,17147,1,0,0:0:0:0:
256,192,17463,1,8,0:0:0:0:
256,192,18095,1,0,0:0:0:0:
256,192,19674,1,8,0:0:0:0:
256,192,19832,1,8,0:0:0:0:
256,192,20463,1,0,0:0:0:0:
256,192,20621,1,8,0:0:0:0:
256,192,20779,1,0,0:0:0:0:
256,192,21253,1,0,0:0:0:0:
256,192,21411,1,0,0:0:0:0:
256,192,21568,1,8,0:0:0:0:
256,192,21726,1,0,0:0:0:0:
256,192,21884,1,8,0:0:0:0:
256,192,22042,1,8,0:0:0:0:
256,192,22200,1,0,0:0:0:0:
256,192,22516,1,8,0:0:0:0:
256,192,22832,1,0,0:0:0:0:
256,192,22990,1,8,0:0:0:0:
256,192,23147,1,0,0:0:0:0:
256,192,23305,1,0,0:0:0:0:
256,192,23463,1,8,0:0:0:0:
256,192,23621,1,8,0:0:0:0:
256,192,23779,1,0,0:0:0:0:
256,192,24095,1,0,0:0:0:0:
256,192,24253,1,8,0:0:0:0:
256,192,24568,1,8,0:0:0:0:
256,192,24726,1,0,0:0:0:0:
256,192,25042,1,8,0:0:0:0:
256,192,25358,1,0,0:0:0:0:
256,192,25516,1,0,0:0:0:0:
256,192,25674,1,8,0:0:0:0:
256,192,25832,1,8,0:0:0:0:
256,192,25990,1,0,0:0:0:0:
256,192,26147,1,8,0:0:0:0:
256,192,26305,1,0,0:0:0:0:
256,192,26463,1,0,0:0:0:0:
256,192,26621,1,8,0:0:0:0:
256,192,26779,1,0,0:0:0:0:
256,192,26937,1,8,0:0:0:0:
256,192,27016,1,0,0:0:0:0:
256,192,27095,1,8,0:0:0:0:
256,192,27253,1,0,0:0:0:0:
256,192,27568,1,8,0:0:0:0:
256,192,27884,1,0,0:0:0:0:
256,192,28042,1,8,0:0:0:0:
256,192,28200,1,0,0:0:0:0:
256,192,28358,1,0,0:0:0:0:
256,192,28516,1,8,0:0:0:0:
256,192,28674,1,0,0:0:0:0:
256,192,28832,1,8,0:0:0:0:
256,192,29147,1,0,0:0:0:0:
256,192,29305,1,0,0:0:0:0:
256,192,29463,1,8,0:0:0:0:
256,192,29621,1,0,0:0:0:0:
256,192,29779,1,8,0:0:0:0:
256,192,30095,1,8,0:0:0:0:
256,192,30411,1,0,0:0:0:0:
256,192,30568,1,8,0:0:0:0:
256,192,30726,1,0,0:0:0:0:
256,192,30884,1,8,0:0:0:0:
256,192,31200,1,8,0:0:0:0:
256,192,31358,1,8,0:0:0:0:
256,192,31516,1,0,0:0:0:0:
256,192,31674,1,8,0:0:0:0:
256,192,31832,1,0,0:0:0:0:
256,192,31990,1,0,0:0:0:0:
256,192,32147,1,8,0:0:0:0:
256,192,32200,1,8,0:0:0:0:
256,192,32253,1,8,0:0:0:0:
256,192,32305,1,0,0:0:0:0:
256,192,32384,1,0,0:0:0:0:
256,192,32463,1,8,0:0:0:0:
256,192,32621,1,0,0:0:0:0:
256,192,32700,1,8,0:0:0:0:
256,192,32779,1,0,0:0:0:0:
256,192,32937,1,8,0:0:0:0:
256,192,33095,1,0,0:0:0:0:
256,192,33174,1,0,0:0:0:0:
256,192,33253,1,8,0:0:0:0:
256,192,33411,1,0,0:0:0:0:
256,192,33568,1,8,0:0:0:0:
256,192,33647,1,0,0:0:0:0:
256,192,33726,1,8,0:0:0:0:
256,192,33884,1,0,0:0:0:0:
256,192,33963,1,8,0:0:0:0:
256,192,34042,1,0,0:0:0:0:
256,192,34200,1,8,0:0:0:0:
256,192,34358,1,0,0:0:0:0:
256,192,34437,1,8,0:0:0:0:
256,192,34516,1,8,0:0:0:0:
256,192,34595,1,0,0:0:0:0:
256,192,34674,1,8,0:0:0:0:
256,192,34832,1,4,0:0:0:0:
256,192,34990,1,8,0:0:0:0:
256,192,35147,1,0,0:0:0:0:
256,192,35226,1,8,0:0:0:0:
256,192,35305,1,0,0:0:0:0:
256,192,35463,1,8,0:0:0:0:
256,192,35621,1,0,0:0:0:0:
256,192,35700,1,0,0:0:0:0:
256,192,35779,1,8,0:0:0:0:
256,192,35858,1,8,0:0:0:0:
256,192,35937,1,0,0:0:0:0:
256,192,36095,1,8,0:0:0:0:
256,192,36253,1,0,0:0:0:0:
256,192,36332,1,8,0:0:0:0:
256,192,36411,1,0,0:0:0:0:
256,192,36568,1,0,0:0:0:0:
256,192,36726,1,8,0:0:0:0:
256,192,36884,1,0,0:0:0:0:
256,192,36963,1,8,0:0:0:0:
256,192,37042,1,0,0:0:0:0:
256,192,37121,1,0,0:0:0:0:
256,192,37200,1,8,0:0:0:0:
256,192,37358,1,0,0:0:0:0:
256,192,37516,1,8,0:0:0:0:
256,192,37674,1,0,0:0:0:0:
256,192,37753,1,0,0:0:0:0:
256,192,37832,1,8,0:0:0:0:
256,192,37911,1,0,0:0:0:0:
256,192,37990,1,8,0:0:0:0:
256,192,38147,1,0,0:0:0:0:
256,192,38226,1,8,0:0:0:0:
256,192,38305,1,0,0:0:0:0:
256,192,38463,1,8,0:0:0:0:
256,192,38621,1,0,0:0:0:0:
256,192,38700,1,8,0:0:0:0:
256,192,38779,1,0,0:0:0:0:
256,192,38858,1,0,0:0:0:0:
256,192,38937,1,8,0:0:0:0:
256,192,39016,1,8,0:0:0:0:
256,192,39095,1,0,0:0:0:0:
256,192,39253,1,8,0:0:0:0:
256,192,39411,1,0,0:0:0:0:
256,192,39490,1,0,0:0:0:0:
256,192,39568,1,8,0:0:0:0:
256,192,39726,1,8,0:0:0:0:
256,192,39884,1,0,0:0:0:0:
256,192,40042,1,8,0:0:0:0:
256,192,40200,1,0,0:0:0:0:
256,192,40279,1,8,0:0:0:0:
256,192,40358,1,0,0:0:0:0:
256,192,40516,1,8,0:0:0:0:
256,192,40674,1,0,0:0:0:0:
256,192,40753,1,8,0:0:0:0:
256,192,40832,1,0,0:0:0:0:
256,192,40911,1,0,0:0:0:0:
256,192,40990,1,8,0:0:0:0:
256,192,41305,1,8,0:0:0:0:
256,192,41463,1,0,0:0:0:0:
256,192,41621,1,0,0:0:0:0:
256,192,41779,1,8,0:0:0:0:
256,192,41937,1,0,0:0:0:0:
256,192,42095,1,8,0:0:0:0:
256,192,42174,1,8,0:0:0:0:
256,192,42253,1,8,0:0:0:0:
256,192,42332,1,8,0:0:0:0:
256,192,42411,1,0,0:0:0:0:
256,192,42568,1,8,0:0:0:0:
256,192,42726,1,0,0:0:0:0:
256,192,42884,1,8,0:0:0:0:
256,192,43042,1,0,0:0:0:0:
256,192,43200,1,8,0:0:0:0:
256,192,43358,1,0,0:0:0:0:
256,192,43516,1,8,0:0:0:0:
256,192,43674,1,0,0:0:0:0:
256,192,43832,1,8,0:0:0:0:
256,192,43911,1,8,0:0:0:0:
256,192,43990,1,0,0:0:0:0:
256,192,44147,1,8,0:0:0:0:
256,192,44226,1,8,0:0:0:0:
256,192,44305,1,0,0:0:0:0:
256,192,44463,1,8,0:0:0:0:
256,192,44542,1,8,0:0:0:0:
256,192,44621,1,0,0:0:0:0:
256,192,44700,1,0,0:0:0:0:
256,192,44779,1,8,0:0:0:0:
256,192,44937,1,4,0:0:0:0:
320,160,45095,1,8,0:0:0:0:
320,128,45253,1,0,0:0:0:0:
320,128,45332,1,0,0:0:0:0:
320,128,45411,1,8,0:0:0:0:
304,128,45568,1,8,0:0:0:0:
304,96,45726,1,0,0:0:0:0:
304,96,45805,1,8,0:0:0:0:
304,96,45884,1,0,0:0:0:0:
256,80,45963,1,0,0:0:0:0:
256,80,46042,1,0,0:0:0:0:
256,112,46200,1,8,0:0:0:0:
256,112,46358,1,0,0:0:0:0:
256,112,46437,1,8,0:0:0:0:
256,112,46516,1,0,0:0:0:0:
256,112,46595,1,0,0:0:0:0:
304,240,46674,1,8,0:0:0:0:
256,112,46832,1,8,0:0:0:0:
336,192,46990,1,0,0:0:0:0:
336,192,47068,1,8,0:0:0:0:
336,192,47147,1,0,0:0:0:0:
336,192,47305,1,8,0:0:0:0:
272,192,47463,1,0,0:0:0:0:
320,128,47621,1,0,0:0:0:0:
320,112,47779,1,8,0:0:0:0:
320,112,47858,1,8,0:0:0:0:
320,112,47937,1,0,0:0:0:0:
272,112,48095,1,8,0:0:0:0:
272,112,48253,1,0,0:0:0:0:
272,112,48332,1,8,0:0:0:0:
272,112,48411,1,0,0:0:0:0:
272,112,48490,1,8,0:0:0:0:
272,112,48568,1,8,0:0:0:0:
288,96,48647,1,8,0:0:0:0:
272,112,48726,1,0,0:0:0:0:
288,96,48884,1,0,0:0:0:0:
288,96,48963,1,8,0:0:0:0:
288,96,49042,1,0,0:0:0:0:
320,128,49200,1,0,0:0:0:0:
320,128,49358,1,8,0:0:0:0:
272,96,49516,1,0,0:0:0:0:
272,96,49595,1,0,0:0:0:0:
272,96,49674,1,8,0:0:0:0:
272,96,49832,1,8,0:0:0:0:
256,112,49990,1,0,0:0:0:0:
256,128,50147,1,8,0:0:0:0:
256,128,50305,1,0,0:0:0:0:
256,128,50384,1,8,0:0:0:0:
256,128,50463,1,0,0:0:0:0:
256,128,50621,1,8,0:0:0:0:
304,128,50779,1,0,0:0:0:0:
304,128,50858,1,0,0:0:0:0:
304,128,50937,1,8,0:0:0:0:
304,128,51016,1,8,0:0:0:0:
304,128,51095,1,0,0:0:0:0:
304,128,51253,1,8,0:0:0:0:
320,112,51332,1,0,0:0:0:0:
320,112,51411,1,8,0:0:0:0:
320,112,51568,1,0,0:0:0:0:
208,64,51647,1,0,0:0:0:0:
320,112,51726,1,8,0:0:0:0:
208,64,51805,1,0,0:0:0:0:
208,64,51884,1,8,0:0:0:0:
224,112,52042,1,0,0:0:0:0:
256,80,52121,1,0,0:0:0:0:
256,80,52200,1,8,0:0:0:0:
256,80,52279,1,0,0:0:0:0:
272,112,52358,1,8,0:0:0:0:
272,112,52437,1,8,0:0:0:0:
272,112,52516,1,0,0:0:0:0:
320,192,52832,1,8,0:0:0:0:
288,160,53147,1,0,0:0:0:0:
288,160,53305,1,0,0:0:0:0:
288,160,53463,1,8,0:0:0:0:
272,144,53779,1,0,0:0:0:0:
272,144,54095,1,8,0:0:0:0:
272,144,54253,1,0,0:0:0:0:
272,144,54411,1,8,0:0:0:0:
272,144,54568,1,8,0:0:0:0:
288,112,54726,1,0,0:0:0:0:
336,128,54779,1,0,0:0:0:0:
336,128,54832,1,0,0:0:0:0:
336,128,54884,1,8,0:0:0:0:
336,128,55042,1,4,0:0:0:0:
320,192,55358,1,4,0:0:0:0:
304,176,55674,1,4,0:0:0:0:
304,176,55990,1,4,0:0:0:0:
304,176,56305,1,12,0:0:0:0:
304,176,56621,1,12,0:0:0:0:
304,176,56937,1,12,0:0:0:0:
304,176,57253,1,12,0:0:0:0:
304,176,57568,1,4,0:0:0:0:
368,208,57726,1,8,0:0:0:0:
368,160,57884,1,0,0:0:0:0:
368,160,57963,1,8,0:0:0:0:
368,160,58042,1,0,0:0:0:0:
320,176,58200,1,8,0:0:0:0:
304,176,58358,1,0,0:0:0:0:
304,176,58437,1,8,0:0:0:0:
304,176,58516,1,0,0:0:0:0:
304,176,58595,1,8,0:0:0:0:
304,176,58674,1,8,0:0:0:0:
288,192,58753,1,8,0:0:0:0:
272,176,58832,1,4,0:0:0:0:
272,176,59147,1,4,0:0:0:0:
208,144,59463,1,4,0:0:0:0:
240,128,59621,1,8,0:0:0:0:
240,128,59700,1,0,0:0:0:0:
240,128,59779,1,8,0:0:0:0:
368,96,59858,1,8,0:0:0:0:
368,144,59937,1,0,0:0:0:0:
368,144,59990,1,0,0:0:0:0:
368,144,60042,1,0,0:0:0:0:
368,144,60095,1,8,0:0:0:0:
320,144,60253,1,0,0:0:0:0:
320,128,60411,1,8,0:0:0:0:
320,128,60490,1,8,0:0:0:0:
320,128,60568,1,0,0:0:0:0:
320,128,60726,1,8,0:0:0:0:
304,96,60884,1,0,0:0:0:0:
304,96,60963,1,8,0:0:0:0:
304,96,61042,1,0,0:0:0:0:
304,96,61121,1,0,0:0:0:0:
304,96,61200,1,0,0:0:0:0:
224,144,61358,1,8,0:0:0:0:
256,128,61437,1,0,0:0:0:0:
256,128,61516,1,8,0:0:0:0:
256,128,61674,1,0,0:0:0:0:
256,128,61753,1,0,0:0:0:0:
256,128,61832,1,8,0:0:0:0:
256,128,61911,1,0,0:0:0:0:
256,128,61990,1,8,0:0:0:0:
272,112,62147,1,0,0:0:0:0:
272,112,62226,1,8,0:0:0:0:
192,32,62305,1,8,0:0:0:0:
192,32,62384,1,0,0:0:0:0:
352,112,62463,1,8,0:0:0:0:
352,112,62542,1,8,0:0:0:0:
352,112,62621,1,4,0:0:0:0:
320,128,62858,1,4,0:0:0:0:
320,128,63095,1,8,0:0:0:0:
320,128,63174,1,8,0:0:0:0:
320,128,63253,1,4,0:0:0:0:
320,128,63490,1,4,0:0:0:0:
256,64,63726,1,8,0:0:0:0:
256,64,63884,1,4,0:0:0:0:
256,96,64121,1,4,0:0:0:0:
304,80,64358,1,8,0:0:0:0:
304,80,64437,1,8,0:0:0:0:
272,112,64516,1,4,0:0:0:0:
272,112,64753,1,4,0:0:0:0:
272,80,64990,1,8,0:0:0:0:
272,80,65068,1,0,0:0:0:0:
272,80,65147,1,12,0:0:0:0:
272,80,65384,1,12,0:0:0:0:
256,64,65621,1,0,0:0:0:0:
256,64,65700,1,0,0:0:0:0:
256,64,65779,1,12,0:0:0:0:
256,64,66016,1,12,0:0:0:0:
288,48,66253,1,0,0:0:0:0:
288,48,66411,1,12,0:0:0:0:
272,64,66647,1,12,0:0:0:0:
272,64,66884,1,0,0:0:0:0:
272,64,66963,1,0,0:0:0:0:
272,64,67042,1,12,0:0:0:0:
272,64,67279,1,12,0:0:0:0:
272,80,67516,1,0,0:0:0:0:
288,160,67674,1,0,0:0:0:0:
240,80,67753,1,0,0:0:0:0:
256,80,67832,1,8,0:0:0:0:
304,96,67911,1,0,0:0:0:0:
352,128,67990,1,8,0:0:0:0:
336,96,68068,1,8,0:0:0:0:
336,96,68147,1,0,0:0:0:0:
336,96,68226,1,8,0:0:0:0:
336,96,68305,1,0,0:0:0:0:
336,96,68384,1,0,0:0:0:0:
336,96,68463,1,8,0:0:0:0:
336,96,68542,1,8,0:0:0:0:
336,96,68621,1,0,0:0:0:0:
336,96,68700,1,0,0:0:0:0:
272,112,68779,1,8,0:0:0:0:
272,112,68858,1,8,0:0:0:0:
272,112,68937,1,0,0:0:0:0:
272,112,69016,1,0,0:0:0:0:
272,112,69095,1,0,0:0:0:0:
272,112,69174,1,0,0:0:0:0:
272,112,69253,1,8,0:0:0:0:
272,112,69332,1,8,0:0:0:0:
272,112,69411,1,8,0:0:0:0:
272,112,69490,1,8,0:0:0:0:
272,112,69568,1,0,0:0:0:0:
304,160,69647,1,0,0:0:0:0:
304,160,69726,1,8,0:0:0:0:
304,160,69805,1,0,0:0:0:0:
304,160,69884,1,8,0:0:0:0:
304,160,69963,1,8,0:0:0:0:
304,160,70042,1,0,0:0:0:0:
304,128,70121,1,8,0:0:0:0:
288,160,70200,1,0,0:0:0:0:
240,80,70279,1,0,0:0:0:0:
256,80,70358,1,0,0:0:0:0:
304,96,70437,1,0,0:0:0:0:
352,128,70516,1,8,0:0:0:0:
336,96,70595,1,8,0:0:0:0:
336,96,70674,1,8,0:0:0:0:
336,96,70752,1,8,0:0:0:0:
336,96,70831,1,0,0:0:0:0:
336,96,70910,1,0,0:0:0:0:
336,96,70989,1,8,0:0:0:0:
336,96,71068,1,8,0:0:0:0:
336,96,71147,1,0,0:0:0:0:
336,96,71226,1,0,0:0:0:0:
272,112,71305,1,8,0:0:0:0:
272,112,71384,1,8,0:0:0:0:
272,112,71463,1,0,0:0:0:0:
272,112,71542,1,0,0:0:0:0:
272,112,71621,1,8,0:0:0:0:
272,112,71700,1,0,0:0:0:0:
272,112,71779,1,8,0:0:0:0:
272,112,71858,1,8,0:0:0:0:
272,112,71937,1,0,0:0:0:0:
272,112,72016,1,8,0:0:0:0:
272,112,72095,1,0,0:0:0:0:
208,80,72253,1,0,0:0:0:0:
208,80,72411,1,8,0:0:0:0:
208,80,72726,1,4,0:0:0:0:
256,192,72805,12,0,74147,0:0:0:0:
306,200,75253,5,0,0:0:0:0:
275,226,76516,1,8,0:0:0:0:
275,226,77779,1,0,0:0:0:0:
275,226,78095,1,8,0:0:0:0:
275,226,78726,1,0,0:0:0:0:
275,226,80306,1,8,0:0:0:0:
275,226,80463,1,8,0:0:0:0:
242,101,81095,1,0,0:0:0:0:
242,101,81253,1,8,0:0:0:0:
242,101,81411,1,0,0:0:0:0:
276,109,81884,1,8,0:0:0:0:
276,109,82042,1,0,0:0:0:0:
276,109,82200,1,8,0:0:0:0:
276,109,82358,1,8,0:0:0:0:
276,109,82516,1,0,0:0:0:0:
276,109,82674,1,8,0:0:0:0:
276,109,82832,1,0,0:0:0:0:
256,192,83147,1,8,0:0:0:0:
256,192,83463,1,0,0:0:0:0:
256,192,83621,1,8,0:0:0:0:
256,192,83778,1,0,0:0:0:0:
256,192,83936,1,0,0:0:0:0:
256,192,84094,1,8,0:0:0:0:
256,192,84252,1,8,0:0:0:0:
256,192,84410,1,0,0:0:0:0:
256,192,84726,1,0,0:0:0:0:
256,192,84884,1,8,0:0:0:0:
256,192,85199,1,8,0:0:0:0:
256,192,85357,1,0,0:0:0:0:
256,192,85673,1,8,0:0:0:0:
256,192,85989,1,0,0:0:0:0:
256,192,86147,1,0,0:0:0:0:
256,192,86305,1,8,0:0:0:0:
256,192,86463,1,8,0:0:0:0:
256,192,86621,1,0,0:0:0:0:
256,192,86778,1,8,0:0:0:0:
256,192,86936,1,0,0:0:0:0:
256,192,87094,1,0,0:0:0:0:
256,192,87252,1,8,0:0:0:0:
256,192,87410,1,0,0:0:0:0:
256,192,87568,1,8,0:0:0:0:
256,192,87647,1,0,0:0:0:0:
256,192,87726,1,8,0:0:0:0:
256,192,87884,1,0,0:0:0:0:
256,192,88199,1,8,0:0:0:0:
256,192,88515,1,0,0:0:0:0:
256,192,88673,1,8,0:0:0:0:
256,192,88831,1,0,0:0:0:0:
256,192,88989,1,0,0:0:0:0:
256,192,89147,1,8,0:0:0:0:
256,192,89305,1,0,0:0:0:0:
256,192,89463,1,8,0:0:0:0:
256,192,89778,1,0,0:0:0:0:
256,192,89936,1,0,0:0:0:0:
256,192,90094,1,8,0:0:0:0:
256,192,90252,1,0,0:0:0:0:
256,192,90410,1,8,0:0:0:0:
256,192,90726,1,8,0:0:0:0:
256,192,91042,1,0,0:0:0:0:
256,192,91199,1,8,0:0:0:0:
256,192,91357,1,0,0:0:0:0:
256,192,91515,1,8,0:0:0:0:
256,192,91831,1,8,0:0:0:0:
256,192,91989,1,8,0:0:0:0:
256,192,92147,1,0,0:0:0:0:
256,192,92305,1,8,0:0:0:0:
256,192,92463,1,0,0:0:0:0:
256,192,92621,1,0,0:0:0:0:
256,192,92778,1,8,0:0:0:0:
256,192,92831,1,8,0:0:0:0:
256,192,92884,1,8,0:0:0:0:
256,192,92936,1,0,0:0:0:0:
256,192,93015,1,0,0:0:0:0:
256,192,93094,1,8,0:0:0:0:
256,192,93252,1,0,0:0:0:0:
256,192,93331,1,8,0:0:0:0:
256,192,93410,1,0,0:0:0:0:
256,192,93568,1,8,0:0:0:0:
256,192,93726,1,0,0:0:0:0:
256,192,93805,1,0,0:0:0:0:
256,192,93884,1,8,0:0:0:0:
256,192,94042,1,0,0:0:0:0:
256,192,94199,1,8,0:0:0:0:
256,192,94278,1,0,0:0:0:0:
256,192,94357,1,8,0:0:0:0:
256,192,94515,1,0,0:0:0:0:
256,192,94594,1,8,0:0:0:0:
256,192,94673,1,0,0:0:0:0:
64,64,94753,1,0,0:0:0:0:
256,192,94831,1,8,0:0:0:0:
448,64,94911,1,8,0:0:0:0:
256,192,94989,1,0,0:0:0:0:
256,192,95068,1,8,0:0:0:0:
256,192,95147,1,8,0:0:0:0:
256,192,95226,1,0,0:0:0:0:
256,192,95305,1,8,0:0:0:0:
448,64,95385,1,8,0:0:0:0:
256,192,95463,1,4,0:0:0:0:
256,192,95621,1,8,0:0:0:0:
256,192,95778,1,0,0:0:0:0:
256,192,95857,1,8,0:0:0:0:
256,192,95936,1,0,0:0:0:0:
256,192,96094,1,8,0:0:0:0:
256,192,96252,1,0,0:0:0:0:
256,192,96331,1,0,0:0:0:0:
256,192,96410,1,8,0:0:0:0:
256,192,96489,1,8,0:0:0:0:
256,192,96568,1,0,0:0:0:0:
256,192,96726,1,8,0:0:0:0:
256,192,96884,1,0,0:0:0:0:
256,192,96963,1,8,0:0:0:0:
256,192,97042,1,0,0:0:0:0:
256,192,97199,1,0,0:0:0:0:
256,192,97357,1,8,0:0:0:0:
256,192,97515,1,0,0:0:0:0:
256,192,97594,1,8,0:0:0:0:
256,192,97673,1,0,0:0:0:0:
256,192,97752,1,0,0:0:0:0:
256,192,97831,1,8,0:0:0:0:
256,192,97989,1,0,0:0:0:0:
256,192,98147,1,8,0:0:0:0:
256,192,98305,1,0,0:0:0:0:
256,192,98384,1,0,0:0:0:0:
256,192,98463,1,8,0:0:0:0:
256,192,98542,1,0,0:0:0:0:
256,192,98621,1,8,0:0:0:0:
256,192,98778,1,0,0:0:0:0:
256,192,98857,1,8,0:0:0:0:
256,192,98936,1,0,0:0:0:0:
256,192,99094,1,8,0:0:0:0:
256,192,99252,1,0,0:0:0:0:
256,192,99331,1,8,0:0:0:0:
256,192,99410,1,0,0:0:0:0:
256,192,99489,1,0,0:0:0:0:
256,192,99568,1,8,0:0:0:0:
256,192,99647,1,8,0:0:0:0:
256,192,99726,1,0,0:0:0:0:
256,192,99884,1,8,0:0:0:0:
256,192,100042,1,0,0:0:0:0:
256,192,100121,1,0,0:0:0:0:
256,192,100199,1,8,0:0:0:0:
256,192,100357,1,8,0:0:0:0:
256,192,100515,1,0,0:0:0:0:
256,192,100673,1,8,0:0:0:0:
256,192,100831,1,0,0:0:0:0:
256,192,100910,1,8,0:0:0:0:
256,192,100989,1,0,0:0:0:0:
256,192,101147,1,8,0:0:0:0:
256,192,101305,1,0,0:0:0:0:
256,192,101384,1,8,0:0:0:0:
256,192,101463,1,0,0:0:0:0:
256,192,101542,1,0,0:0:0:0:
256,192,101621,1,8,0:0:0:0:
256,192,101936,1,8,0:0:0:0:
256,192,102094,1,0,0:0:0:0:
256,192,102252,1,0,0:0:0:0:
256,192,102410,1,8,0:0:0:0:
256,192,102568,1,0,0:0:0:0:
256,192,102726,1,8,0:0:0:0:
256,192,102805,1,8,0:0:0:0:
256,192,102884,1,8,0:0:0:0:
256,192,102963,1,8,0:0:0:0:
256,192,103042,1,0,0:0:0:0:
256,192,103199,1,8,0:0:0:0:
256,192,103357,1,0,0:0:0:0:
256,192,103515,1,8,0:0:0:0:
256,192,103673,1,0,0:0:0:0:
256,192,103831,1,8,0:0:0:0:
256,192,103989,1,0,0:0:0:0:
256,192,104147,1,8,0:0:0:0:
256,192,104305,1,0,0:0:0:0:
256,192,104463,1,8,0:0:0:0:
256,192,104542,1,8,0:0:0:0:
256,192,104621,1,0,0:0:0:0:
256,192,104778,1,8,0:0:0:0:
256,192,104857,1,8,0:0:0:0:
256,192,104936,1,0,0:0:0:0:
256,192,105094,1,8,0:0:0:0:
256,192,105173,1,8,0:0:0:0:
256,192,105252,1,0,0:0:0:0:
256,192,105331,1,0,0:0:0:0:
256,192,105410,1,8,0:0:0:0:
256,192,105568,1,4,0:0:0:0:
320,160,105726,1,8,0:0:0:0:
320,128,105884,1,0,0:0:0:0:
320,128,105963,1,0,0:0:0:0:
320,128,106042,1,8,0:0:0:0:
304,128,106199,1,8,0:0:0:0:
304,96,106357,1,0,0:0:0:0:
304,96,106436,1,8,0:0:0:0:
304,96,106515,1,0,0:0:0:0:
256,80,106594,1,0,0:0:0:0:
256,80,106673,1,0,0:0:0:0:
256,112,106831,1,8,0:0:0:0:
256,112,106989,1,0,0:0:0:0:
256,112,107068,1,8,0:0:0:0:
256,112,107147,1,0,0:0:0:0:
256,112,107226,1,0,0:0:0:0:
304,240,107305,1,8,0:0:0:0:
256,112,107463,1,8,0:0:0:0:
336,192,107621,1,0,0:0:0:0:
336,192,107699,1,8,0:0:0:0:
336,192,107778,1,0,0:0:0:0:
336,192,107936,1,8,0:0:0:0:
272,192,108094,1,0,0:0:0:0:
320,128,108252,1,0,0:0:0:0:
320,112,108410,1,8,0:0:0:0:
320,112,108489,1,8,0:0:0:0:
320,112,108568,1,0,0:0:0:0:
272,112,108726,1,8,0:0:0:0:
272,112,108884,1,0,0:0:0:0:
272,112,108963,1,8,0:0:0:0:
272,112,109042,1,0,0:0:0:0:
272,112,109121,1,8,0:0:0:0:
272,112,109199,1,8,0:0:0:0:
288,96,109278,1,8,0:0:0:0:
272,112,109357,1,0,0:0:0:0:
288,96,109515,1,0,0:0:0:0:
288,96,109594,1,8,0:0:0:0:
288,96,109673,1,0,0:0:0:0:
320,128,109831,1,0,0:0:0:0:
320,128,109989,1,8,0:0:0:0:
272,96,110147,1,0,0:0:0:0:
272,96,110226,1,0,0:0:0:0:
272,96,110305,1,8,0:0:0:0:
272,96,110463,1,8,0:0:0:0:
256,112,110621,1,0,0:0:0:0:
256,128,110778,1,8,0:0:0:0:
256,128,110936,1,0,0:0:0:0:
256,128,111015,1,8,0:0:0:0:
256,128,111094,1,0,0:0:0:0:
256,128,111252,1,8,0:0:0:0:
304,128,111410,1,0,0:0:0:0:
304,128,111489,1,0,0:0:0:0:
304,128,111568,1,8,0:0:0:0:
304,128,111647,1,8,0:0:0:0:
304,128,111726,1,0,0:0:0:0:
304,128,111884,1,8,0:0:0:0:
320,112,111963,1,0,0:0:0:0:
320,112,112042,1,8,0:0:0:0:
320,112,112199,1,0,0:0:0:0:
208,64,112278,1,0,0:0:0:0:
320,112,112357,1,8,0:0:0:0:
208,64,112436,1,0,0:0:0:0:
208,64,112515,1,8,0:0:0:0:
224,112,112673,1,0,0:0:0:0:
256,80,112752,1,0,0:0:0:0:
256,80,112831,1,8,0:0:0:0:
256,80,112910,1,0,0:0:0:0:
272,112,112989,1,8,0:0:0:0:
272,112,113068,1,8,0:0:0:0:
272,112,113147,1,0,0:0:0:0:
320,192,113463,1,8,0:0:0:0:
288,160,113778,1,0,0:0:0:0:
288,160,113936,1,0,0:0:0:0:
288,160,114094,1,8,0:0:0:0:
272,144,114410,1,0,0:0:0:0:
272,144,114726,1,8,0:0:0:0:
272,144,114884,1,0,0:0:0:0:
272,144,115042,1,8,0:0:0:0:
272,144,115199,1,8,0:0:0:0:
288,112,115357,1,0,0:0:0:0:
232,45,115437,1,8,0:0:0:0:
232,45,115516,1,0,0:0:0:0:
232,45,115595,1,8,0:0:0:0:
336,128,115673,1,4,0:0:0:0:
320,192,115989,1,4,0:0:0:0:
304,176,116305,1,4,0:0:0:0:
304,176,116621,1,4,0:0:0:0:
304,176,116936,1,12,0:0:0:0:
304,176,117252,1,12,0:0:0:0:
304,176,117568,1,12,0:0:0:0:
304,176,117884,1,12,0:0:0:0:
304,176,118199,1,4,0:0:0:0:
368,208,118357,1,8,0:0:0:0:
368,160,118515,1,0,0:0:0:0:
368,160,118594,1,8,0:0:0:0:
368,160,118673,1,0,0:0:0:0:
320,176,118831,1,8,0:0:0:0:
304,176,118989,1,0,0:0:0:0:
304,176,119068,1,8,0:0:0:0:
304,176,119147,1,0,0:0:0:0:
304,176,119226,1,8,0:0:0:0:
304,176,119305,1,8,0:0:0:0:
288,192,119384,1,8,0:0:0:0:
272,176,119463,1,4,0:0:0:0:
272,176,119778,1,4,0:0:0:0:
208,144,120094,1,4,0:0:0:0:
240,128,120252,1,8,0:0:0:0:
240,128,120331,1,0,0:0:0:0:
240,128,120410,1,8,0:0:0:0:
368,96,120489,1,8,0:0:0:0:
368,144,120568,1,0,0:0:0:0:
368,144,120621,1,0,0:0:0:0:
368,144,120673,1,0,0:0:0:0:
368,144,120726,1,8,0:0:0:0:
320,144,120884,1,0,0:0:0:0:
320,128,121042,1,8,0:0:0:0:
320,128,121121,1,8,0:0:0:0:
320,128,121199,1,0,0:0:0:0:
320,128,121357,1,8,0:0:0:0:
304,96,121515,1,0,0:0:0:0:
304,96,121594,1,8,0:0:0:0:
304,96,121673,1,0,0:0:0:0:
304,96,121752,1,0,0:0:0:0:
304,96,121831,1,0,0:0:0:0:
224,144,121989,1,8,0:0:0:0:
256,128,122068,1,0,0:0:0:0:
256,128,122147,1,8,0:0:0:0:
256,128,122305,1,0,0:0:0:0:
256,128,122384,1,0,0:0:0:0:
256,128,122463,1,8,0:0:0:0:
256,128,122542,1,0,0:0:0:0:
256,128,122621,1,8,0:0:0:0:
272,112,122778,1,0,0:0:0:0:
272,112,122857,1,8,0:0:0:0:
192,32,122936,1,8,0:0:0:0:
192,32,123015,1,0,0:0:0:0:
352,112,123094,1,8,0:0:0:0:
352,112,123173,1,8,0:0:0:0:
352,112,123252,1,4,0:0:0:0:
320,128,123489,1,4,0:0:0:0:
320,128,123726,1,8,0:0:0:0:
320,128,123805,1,8,0:0:0:0:
320,128,123884,1,4,0:0:0:0:
320,128,124121,1,4,0:0:0:0:
256,64,124357,1,8,0:0:0:0:
256,64,124515,1,4,0:0:0:0:
256,96,124752,1,4,0:0:0:0:
304,80,124989,1,8,0:0:0:0:
304,80,125068,1,8,0:0:0:0:
272,112,125147,1,4,0:0:0:0:
272,112,125384,1,4,0:0:0:0:
272,80,125621,1,8,0:0:0:0:
272,80,125699,1,0,0:0:0:0:
272,80,125778,1,12,0:0:0:0:
272,80,126015,1,12,0:0:0:0:
256,64,126252,1,0,0:0:0:0:
256,64,126331,1,0,0:0:0:0:
256,64,126410,1,12,0:0:0:0:
256,64,126647,1,12,0:0:0:0:
288,48,126884,1,0,0:0:0:0:
288,48,127042,1,12,0:0:0:0:
272,64,127278,1,12,0:0:0:0:
272,64,127515,1,0,0:0:0:0:
272,64,127594,1,0,0:0:0:0:
272,64,127673,1,12,0:0:0:0:
272,64,127910,1,12,0:0:0:0:
272,80,128147,1,0,0:0:0:0:
288,160,128305,1,0,0:0:0:0:
240,80,128384,1,0,0:0:0:0:
256,80,128463,1,8,0:0:0:0:
304,96,128542,1,0,0:0:0:0:
352,128,128621,1,8,0:0:0:0:
336,96,128699,1,8,0:0:0:0:
336,96,128778,1,0,0:0:0:0:
336,96,128857,1,8,0:0:0:0:
336,96,128936,1,0,0:0:0:0:
336,96,129015,1,0,0:0:0:0:
336,96,129094,1,8,0:0:0:0:
336,96,129173,1,8,0:0:0:0:
336,96,129252,1,0,0:0:0:0:
336,96,129331,1,0,0:0:0:0:
272,112,129410,1,8,0:0:0:0:
272,112,129489,1,8,0:0:0:0:
272,112,129568,1,0,0:0:0:0:
272,112,129647,1,0,0:0:0:0:
272,112,129726,1,0,0:0:0:0:
272,112,129805,1,0,0:0:0:0:
272,112,129884,1,8,0:0:0:0:
272,112,129963,1,8,0:0:0:0:
272,112,130042,1,8,0:0:0:0:
272,112,130121,1,8,0:0:0:0:
272,112,130199,1,0,0:0:0:0:
304,160,130278,1,0,0:0:0:0:
304,160,130357,1,8,0:0:0:0:
304,160,130436,1,0,0:0:0:0:
304,160,130515,1,8,0:0:0:0:
304,160,130594,1,8,0:0:0:0:
304,160,130673,1,0,0:0:0:0:
304,128,130752,1,8,0:0:0:0:
288,160,130831,1,0,0:0:0:0:
240,80,130910,1,0,0:0:0:0:
256,80,130989,1,0,0:0:0:0:
304,96,131068,1,0,0:0:0:0:
352,128,131147,1,8,0:0:0:0:
336,96,131226,1,8,0:0:0:0:
336,96,131305,1,8,0:0:0:0:
336,96,131383,1,8,0:0:0:0:
336,96,131462,1,0,0:0:0:0:
336,96,131541,1,0,0:0:0:0:
336,96,131620,1,8,0:0:0:0:
336,96,131699,1,8,0:0:0:0:
336,96,131778,1,0,0:0:0:0:
336,96,131857,1,0,0:0:0:0:
272,112,131936,1,8,0:0:0:0:
272,112,132015,1,8,0:0:0:0:
272,112,132094,1,0,0:0:0:0:
272,112,132173,1,0,0:0:0:0:
272,112,132252,1,8,0:0:0:0:
272,112,132331,1,0,0:0:0:0:
272,112,132410,1,8,0:0:0:0:
272,112,132489,1,8,0:0:0:0:
272,112,132568,1,0,0:0:0:0:
272,112,132647,1,8,0:0:0:0:
272,112,132726,1,0,0:0:0:0:
208,80,132884,1,0,0:0:0:0:
208,80,133042,1,8,0:0:0:0:
208,80,133357,1,4,0:0:0:0:
256,192,133436,12,0,134778,0:0:0:0:
