osu file format v14

[General]
AudioFilename: audio.mp3
AudioLeadIn: 0
PreviewTime: 91753
Countdown: 0
SampleSet: Normal
StackLeniency: 0.7
Mode: 1
LetterboxInBreaks: 0
WidescreenStoryboard: 1

[Editor]
DistanceSpacing: 1.1
BeatDivisor: 4
GridSize: 16
TimelineZoom: 2.7

[Metadata]
Title:think abt it
TitleUnicode:think abt it ✧ʕ̢̣̣·͡˔·ོɁ̡̣̣✧
Artist:yyyyy^2
ArtistUnicode:yyyyy²
Creator:vzlen
Version:futsuu
Source:
Tags:oaf1 ppgcasper about dariacore english instrumental hyperpop hyper pop electronic yyyyy2 y2 imogen heap hide and & seek furiiii
BeatmapID:4171741
BeatmapSetID:2005789

[Difficulty]
HPDrainRate:7
CircleSize:2
OverallDifficulty:4
ApproachRate:10
SliderMultiplier:1.4
SliderTickRate:1

[Events]
//Background and Video events
0,0,"FxbEqWJaEAAubzV.jpg",0,50
//Break Periods
//Storyboard Layer 0 (Background)
//Storyboard Layer 1 (Fail)
//Storyboard Layer 2 (Pass)
//Storyboard Layer 3 (Foreground)
//Storyboard Layer 4 (Overlay)
//Storyboard Sound Samples

[TimingPoints]
727,315.789473684211,4,1,0,50,1,8
727,-133.333333333333,4,1,0,50,0,0
1990,315.789473684211,4,1,0,50,1,0
1990,-133.333333333333,4,1,0,50,0,0
12016,-100,4,1,0,50,0,0
12174,-111.111111111111,4,1,0,50,0,0
19634,-111.111111111111,4,1,0,50,0,0
19792,-111.111111111111,4,1,0,50,0,0
20423,-111.111111111111,4,1,0,50,0,0
20581,-111.111111111111,4,1,0,50,0,0
20739,-111.111111111111,4,1,0,50,0,0
20897,-111.111111111111,4,1,0,50,0,0
21213,-111.111111111111,4,1,0,50,0,0
21371,-100,4,1,0,50,0,0
21528,-100,4,1,0,50,0,0
21686,-100,4,1,0,50,0,0
21844,-100,4,1,0,50,0,0
22002,-100,4,1,0,50,0,0
22160,-100,4,1,0,60,0,0
25951,-100,4,1,0,60,0,0
26108,-100,4,1,0,60,0,0
26266,-100,4,1,0,60,0,0
26424,-100,4,1,0,60,0,0
26582,-100,4,1,0,60,0,0
26740,-100,4,1,0,60,0,0
26898,-100,4,1,0,60,0,0
26977,-100,4,1,0,60,0,0
27056,-100,4,1,0,60,0,0
27214,-100,4,1,0,60,0,0
27293,-100,4,1,0,60,0,0
31003,-100,4,1,0,60,0,0
31161,-100,4,1,0,60,0,0
31319,-100,4,1,0,60,0,0
31477,-100,4,1,0,60,0,0
31635,-100,4,1,0,60,0,0
31793,-100,4,1,0,60,0,0
31951,-100,4,1,0,60,0,0
32122,-100,4,1,0,60,0,0
32175,-100,4,1,0,60,0,0
32228,-100,4,1,0,75,0,0
32279,-100,4,1,0,75,0,0
32358,-100,4,1,0,75,0,0
32437,-100,4,1,0,75,0,0
32595,-100,4,1,0,75,0,0
32674,-100,4,1,0,75,0,0
32753,-100,4,1,0,75,0,0
32911,-100,4,1,0,75,0,0
33069,-100,4,1,0,75,0,0
33148,-100,4,1,0,75,0,0
33227,-100,4,1,0,75,0,0
33385,-100,4,1,0,75,0,0
33542,-100,4,1,0,75,0,0
33621,-100,4,1,0,75,0,0
33700,-100,4,1,0,75,0,0
33858,-100,4,1,0,75,0,0
33937,-100,4,1,0,75,0,0
34016,-100,4,1,0,75,0,0
34174,-100,4,1,0,75,0,0
34332,-100,4,1,0,75,0,0
34411,-100,4,1,0,75,0,0
34490,-100,4,1,0,75,0,0
34569,-100,4,1,0,75,0,0
34648,-100,4,1,0,75,0,0
34793,-100,4,1,0,75,0,0
34951,-100,4,1,0,75,0,0
35108,-100,4,1,0,75,0,0
35187,-100,4,1,0,75,0,0
35266,-100,4,1,0,75,0,0
35424,-100,4,1,0,75,0,0
35582,-100,4,1,0,75,0,0
35661,-100,4,1,0,75,0,0
35740,-100,4,1,0,75,0,0
35819,-100,4,1,0,75,0,0
35898,-100,4,1,0,75,0,0
36056,-100,4,1,0,75,0,0
36214,-100,4,1,0,75,0,0
36293,-100,4,1,0,75,0,0
36372,-100,4,1,0,75,0,0
36529,-100,4,1,0,75,0,0
36687,-100,4,1,0,75,0,0
36845,-100,4,1,0,75,0,0
36924,-100,4,1,0,75,0,0
37003,-100,4,1,0,75,0,0
37082,-100,4,1,0,75,0,0
37161,-100,4,1,0,75,0,0
37318,-100,4,1,0,75,0,0
37476,-100,4,1,0,75,0,0
37634,-100,4,1,0,75,0,0
37713,-100,4,1,0,75,0,0
37792,-100,4,1,0,75,0,0
37871,-100,4,1,0,75,0,0
37950,-100,4,1,0,75,0,0
38107,-100,4,1,0,75,0,0
38186,-100,4,1,0,75,0,0
38265,-100,4,1,0,75,0,0
38423,-100,4,1,0,75,0,0
38581,-100,4,1,0,75,0,0
38660,-100,4,1,0,75,0,0
38739,-100,4,1,0,75,0,0
38818,-100,4,1,0,75,0,0
38897,-100,4,1,0,75,0,0
38976,-100,4,1,0,75,0,0
39055,-100,4,1,0,75,0,0
39213,-100,4,1,0,75,0,0
39371,-100,4,1,0,75,0,0
39450,-100,4,1,0,75,0,0
39528,-100,4,1,0,75,0,0
39686,-100,4,1,0,75,0,0
39846,-100,4,1,0,75,0,0
40003,-100,4,1,0,75,0,0
40161,-100,4,1,0,75,0,0
40240,-100,4,1,0,75,0,0
40319,-100,4,1,0,75,0,0
40477,-100,4,1,0,75,0,0
40635,-100,4,1,0,75,0,0
40714,-100,4,1,0,75,0,0
40793,-100,4,1,0,75,0,0
40872,-100,4,1,0,75,0,0
40951,-100,4,1,0,75,0,0
41109,-100,4,1,0,75,0,0
41266,-100,4,1,0,75,0,0
41424,-100,4,1,0,75,0,0
41582,-100,4,1,0,75,0,0
41740,-100,4,1,0,75,0,0
41898,-100,4,1,0,75,0,0
42056,-100,4,1,0,75,0,0
42135,-100,4,1,0,75,0,0
42214,-100,4,1,0,75,0,0
42293,-100,4,1,0,75,0,0
42372,-100,4,1,0,75,0,0
42529,-100,4,1,0,75,0,0
42687,-100,4,1,0,75,0,0
42845,-100,4,1,0,75,0,0
43003,-100,4,1,0,75,0,0
43161,-100,4,1,0,75,0,0
43319,-100,4,1,0,75,0,0
43477,-100,4,1,0,75,0,0
43635,-100,4,1,0,75,0,0
43793,-100,4,1,0,75,0,0
43872,-100,4,1,0,75,0,0
43951,-100,4,1,0,75,0,0
44110,-100,4,1,0,75,0,0
44189,-100,4,1,0,75,0,0
44268,-100,4,1,0,75,0,0
44424,-100,4,1,0,75,0,0
44503,-100,4,1,0,75,0,0
44582,-100,4,1,0,75,0,0
44661,-100,4,1,0,75,0,0
44740,-100,4,1,0,75,0,0
44898,-100,4,1,0,75,0,0
45056,-100,4,1,0,75,0,0
45214,-100,4,1,0,75,0,0
45293,-100,4,1,0,75,0,0
45372,-100,4,1,0,75,0,0
45529,-100,4,1,0,75,0,0
45687,-100,4,1,0,75,0,0
45766,-100,4,1,0,75,0,0
45845,-100,4,1,0,75,0,0
45924,-100,4,1,0,75,0,0
46003,-100,4,1,0,75,0,0
46161,-100,4,1,0,75,0,0
46319,-100,4,1,0,75,0,0
46398,-100,4,1,0,75,0,0
46477,-100,4,1,0,75,0,0
46556,-100,4,1,0,75,0,0
46635,-100,4,1,0,75,0,0
46793,-100,4,1,0,75,0,0
46951,-100,4,1,0,75,0,0
47029,-100,4,1,0,75,0,0
47108,-100,4,1,0,75,0,0
47266,-100,4,1,0,75,0,0
47424,-100,4,1,0,75,0,0
47581,-100,4,1,0,75,0,0
47739,-100,4,1,0,75,0,0
47818,-100,4,1,0,75,0,0
47897,-100,4,1,0,75,0,0
48055,-100,4,1,0,75,0,0
48213,-100,4,1,0,75,0,0
48292,-100,4,1,0,75,0,0
48371,-100,4,1,0,75,0,0
48450,-100,4,1,0,75,0,0
48528,-100,4,1,0,75,0,0
48607,-100,4,1,0,75,0,0
48686,-100,4,1,0,75,0,0
48844,-100,4,1,0,75,0,0
48923,-100,4,1,0,75,0,0
49002,-100,4,1,0,75,0,0
49160,-100,4,1,0,75,0,0
49318,-100,4,1,0,75,0,0
49476,-100,4,1,0,75,0,0
49555,-100,4,1,0,75,0,0
49634,-100,4,1,0,75,0,0
49792,-100,4,1,0,75,0,0
49951,-100,4,1,0,75,0,0
50108,-100,4,1,0,75,0,0
50266,-100,4,1,0,75,0,0
50345,-100,4,1,0,75,0,0
50424,-100,4,1,0,75,0,0
50582,-100,4,1,0,75,0,0
50740,-100,4,1,0,75,0,0
50819,-100,4,1,0,75,0,0
50898,-100,4,1,0,75,0,0
50977,-100,4,1,0,75,0,0
51056,-100,4,1,0,75,0,0
51214,-100,4,1,0,75,0,0
51293,-100,4,1,0,75,0,0
51372,-100,4,1,0,75,0,0
51529,-100,4,1,0,75,0,0
51608,-100,4,1,0,75,0,0
51687,-100,4,1,0,75,0,0
51766,-100,4,1,0,75,0,0
51845,-100,4,1,0,75,0,0
52003,-100,4,1,0,75,0,0
52082,-100,4,1,0,75,0,0
52161,-100,4,1,0,75,0,0
52240,-100,4,1,0,75,0,0
52319,-100,4,1,0,75,0,0
52398,-100,4,1,0,75,0,0
52477,-100,4,1,0,40,0,0
55016,-100,4,1,0,90,0,0
55042,-100,4,1,0,90,0,1
57528,-100,4,1,0,80,0,1
57568,-100,4,1,0,80,0,0
57686,-100,4,1,0,80,0,0
57844,-100,4,1,0,80,0,0
57923,-100,4,1,0,80,0,0
58002,-100,4,1,0,80,0,0
58160,-100,4,1,0,80,0,0
58318,-100,4,1,0,80,0,0
58397,-100,4,1,0,80,0,0
58476,-100,4,1,0,80,0,0
58555,-100,4,1,0,80,0,0
58634,-100,4,1,0,80,0,0
58713,-100,4,1,0,80,0,0
58792,-100,4,1,0,90,0,0
58832,-100,4,1,0,90,0,1
59595,-100,4,1,0,90,0,1
59674,-100,4,1,0,90,0,1
59753,-100,4,1,0,90,0,1
59779,-100,4,1,0,90,0,1
59832,-100,4,1,0,90,0,1
59911,-100,4,1,0,90,0,1
59964,-100,4,1,0,90,0,1
60016,-100,4,1,0,90,0,1
60069,-100,4,1,0,80,0,1
60095,-100,4,1,0,80,0,0
60214,-100,4,1,0,80,0,0
60372,-100,4,1,0,80,0,0
60451,-100,4,1,0,80,0,0
60529,-100,4,1,0,80,0,0
60687,-100,4,1,0,80,0,0
60845,-100,4,1,0,80,0,0
60924,-100,4,1,0,80,0,0
61003,-100,4,1,0,80,0,0
61082,-100,4,1,0,80,0,0
61161,-100,4,1,0,80,0,0
61319,-100,4,1,0,80,0,0
61398,-100,4,1,0,80,0,0
61477,-100,4,1,0,80,0,0
61635,-100,4,1,0,80,0,0
61714,-100,4,1,0,80,0,0
61793,-100,4,1,0,80,0,0
61872,-100,4,1,0,80,0,0
61951,-100,4,1,0,80,0,0
62108,-100,4,1,0,80,0,0
62187,-100,4,1,0,80,0,0
62266,-100,4,1,0,80,0,0
62345,-100,4,1,0,80,0,0
62424,-100,4,1,0,80,0,0
62503,-100,4,1,0,80,0,0
62583,-95.2380952380952,4,1,0,90,0,0
62621,-95.2380952380952,4,1,0,90,0,1
63045,-95.2380952380952,4,1,0,90,0,1
63124,-95.2380952380952,4,1,0,90,0,1
63203,-95.2380952380952,4,1,0,90,0,1
63599,-95.2380952380952,4,1,0,90,0,1
63757,-95.2380952380952,4,1,0,90,0,1
64308,-95.2380952380952,4,1,0,90,0,1
64387,-95.2380952380952,4,1,0,90,0,1
64466,-95.2380952380952,4,1,0,90,0,1
64941,-95.2380952380952,4,1,0,90,0,1
65099,-95.2380952380952,4,1,0,90,0,1
65573,-95.2380952380952,4,1,0,90,0,1
65652,-95.2380952380952,4,1,0,90,0,1
65731,-95.2380952380952,4,1,0,90,0,1
66205,-95.2380952380952,4,1,0,90,0,1
66363,-95.2380952380952,4,1,0,90,0,1
66836,-95.2380952380952,4,1,0,90,0,1
66915,-95.2380952380952,4,1,0,90,0,1
66994,-95.2380952380952,4,1,0,90,0,1
67468,-95.2380952380952,4,1,0,90,0,1
67664,-95.2380952380952,4,1,0,90,0,1
67743,-95.2380952380952,4,1,0,90,0,1
67822,-95.2380952380952,4,1,0,90,0,1
67901,-95.2380952380952,4,1,0,90,0,1
67980,-95.2380952380952,4,1,0,90,0,1
68058,-95.2380952380952,4,1,0,90,0,1
68137,-95.2380952380952,4,1,0,90,0,1
68216,-95.2380952380952,4,1,0,90,0,1
68295,-95.2380952380952,4,1,0,90,0,1
68374,-95.2380952380952,4,1,0,90,0,1
68453,-95.2380952380952,4,1,0,90,0,1
68532,-95.2380952380952,4,1,0,90,0,1
68611,-95.2380952380952,4,1,0,90,0,1
68690,-95.2380952380952,4,1,0,90,0,1
68769,-95.2380952380952,4,1,0,90,0,1
68848,-95.2380952380952,4,1,0,90,0,1
68927,-95.2380952380952,4,1,0,90,0,1
69006,-95.2380952380952,4,1,0,90,0,1
69085,-95.2380952380952,4,1,0,90,0,1
69164,-95.2380952380952,4,1,0,90,0,1
69243,-95.2380952380952,4,1,0,90,0,1
69322,-95.2380952380952,4,1,0,90,0,1
69401,-95.2380952380952,4,1,0,90,0,1
69480,-95.2380952380952,4,1,0,90,0,1
69558,-95.2380952380952,4,1,0,90,0,1
69637,-95.2380952380952,4,1,0,90,0,1
69716,-95.2380952380952,4,1,0,90,0,1
69795,-95.2380952380952,4,1,0,90,0,1
69874,-95.2380952380952,4,1,0,90,0,1
69953,-95.2380952380952,4,1,0,90,0,1
70032,-95.2380952380952,4,1,0,90,0,1
70111,-95.2380952380952,4,1,0,90,0,1
70190,-95.2380952380952,4,1,0,90,0,1
70191,-95.2380952380952,4,1,0,90,0,1
70269,-95.2380952380952,4,1,0,90,0,1
70348,-95.2380952380952,4,1,0,90,0,1
70427,-95.2380952380952,4,1,0,90,0,1
70506,-95.2380952380952,4,1,0,90,0,1
70585,-95.2380952380952,4,1,0,90,0,1
70664,-95.2380952380952,4,1,0,90,0,1
70742,-95.2380952380952,4,1,0,90,0,1
70821,-95.2380952380952,4,1,0,90,0,1
70900,-95.2380952380952,4,1,0,90,0,1
70979,-95.2380952380952,4,1,0,90,0,1
71058,-95.2380952380952,4,1,0,90,0,1
71137,-95.2380952380952,4,1,0,90,0,1
71216,-95.2380952380952,4,1,0,90,0,1
71295,-95.2380952380952,4,1,0,90,0,1
71374,-95.2380952380952,4,1,0,90,0,1
71453,-95.2380952380952,4,1,0,90,0,1
71454,-95.2380952380952,4,1,0,90,0,1
71532,-95.2380952380952,4,1,0,90,0,1
71611,-95.2380952380952,4,1,0,90,0,1
71690,-95.2380952380952,4,1,0,90,0,1
71769,-95.2380952380952,4,1,0,90,0,1
71848,-95.2380952380952,4,1,0,90,0,1
71927,-95.2380952380952,4,1,0,90,0,1
72006,-95.2380952380952,4,1,0,90,0,1
72085,-95.2380952380952,4,1,0,50,0,1
72095,-95.2380952380952,4,1,0,50,0,0
72243,-100,4,1,0,50,0,0
72401,-100,4,1,0,50,0,0
72648,-90.9090909090909,4,1,0,90,0,0
72805,-90.9090909090909,4,1,0,75,0,0
73911,-111.111111111111,4,1,0,75,0,0
74306,-111.111111111111,4,1,0,50,0,0
80266,-111.111111111111,4,1,0,50,0,0
80424,-111.111111111111,4,1,0,50,0,0
81055,-111.111111111111,4,1,0,50,0,0
81213,-111.111111111111,4,1,0,50,0,0
81371,-111.111111111111,4,1,0,50,0,0
81529,-111.111111111111,4,1,0,50,0,0
81845,-111.111111111111,4,1,0,50,0,0
82003,-100,4,1,0,50,0,0
82160,-100,4,1,0,50,0,0
82318,-100,4,1,0,50,0,0
82476,-100,4,1,0,50,0,0
82634,-100,4,1,0,50,0,0
82792,-100,4,1,0,60,0,0
86583,-100,4,1,0,60,0,0
86740,-100,4,1,0,60,0,0
86898,-100,4,1,0,60,0,0
87056,-100,4,1,0,60,0,0
87214,-100,4,1,0,60,0,0
87372,-100,4,1,0,60,0,0
87530,-100,4,1,0,60,0,0
87609,-100,4,1,0,60,0,0
87688,-100,4,1,0,60,0,0
87846,-100,4,1,0,60,0,0
87925,-100,4,1,0,60,0,0
91635,-100,4,1,0,60,0,0
91793,-100,4,1,0,60,0,0
91951,-100,4,1,0,60,0,0
92109,-100,4,1,0,60,0,0
92267,-100,4,1,0,60,0,0
92425,-100,4,1,0,60,0,0
92583,-100,4,1,0,60,0,0
92754,-100,4,1,0,60,0,0
92807,-100,4,1,0,60,0,0
92860,-100,4,1,0,60,0,0
92911,-100,4,1,0,75,0,0
92990,-100,4,1,0,75,0,0
93069,-100,4,1,0,75,0,0
93227,-100,4,1,0,75,0,0
93306,-100,4,1,0,75,0,0
93385,-100,4,1,0,75,0,0
93543,-100,4,1,0,75,0,0
93701,-100,4,1,0,75,0,0
93780,-100,4,1,0,75,0,0
93859,-100,4,1,0,75,0,0
94017,-100,4,1,0,75,0,0
94174,-100,4,1,0,75,0,0
94253,-100,4,1,0,75,0,0
94332,-100,4,1,0,75,0,0
94490,-100,4,1,0,75,0,0
94569,-100,4,1,0,75,0,0
94648,-100,4,1,0,75,0,0
94806,-100,4,1,0,75,0,0
94964,-100,4,1,0,75,0,0
95043,-100,4,1,0,75,0,0
95122,-100,4,1,0,75,0,0
95201,-100,4,1,0,75,0,0
95280,-100,4,1,0,75,0,0
95425,-100,4,1,0,75,0,0
95583,-100,4,1,0,75,0,0
95740,-100,4,1,0,75,0,0
95819,-100,4,1,0,75,0,0
95898,-100,4,1,0,75,0,0
96056,-100,4,1,0,75,0,0
96214,-100,4,1,0,75,0,0
96293,-100,4,1,0,75,0,0
96372,-100,4,1,0,75,0,0
96451,-100,4,1,0,75,0,0
96530,-100,4,1,0,75,0,0
96688,-100,4,1,0,75,0,0
96846,-100,4,1,0,75,0,0
96925,-100,4,1,0,75,0,0
97004,-100,4,1,0,75,0,0
97161,-100,4,1,0,75,0,0
97319,-100,4,1,0,75,0,0
97477,-100,4,1,0,75,0,0
97556,-100,4,1,0,75,0,0
97635,-100,4,1,0,75,0,0
97714,-100,4,1,0,75,0,0
97793,-100,4,1,0,75,0,0
97950,-100,4,1,0,75,0,0
98108,-100,4,1,0,75,0,0
98266,-100,4,1,0,75,0,0
98345,-100,4,1,0,75,0,0
98424,-100,4,1,0,75,0,0
98503,-100,4,1,0,75,0,0
98582,-100,4,1,0,75,0,0
98739,-100,4,1,0,75,0,0
98818,-100,4,1,0,75,0,0
98897,-100,4,1,0,75,0,0
99055,-100,4,1,0,75,0,0
99213,-100,4,1,0,75,0,0
99292,-100,4,1,0,75,0,0
99371,-100,4,1,0,75,0,0
99450,-100,4,1,0,75,0,0
99529,-100,4,1,0,75,0,0
99608,-100,4,1,0,75,0,0
99687,-100,4,1,0,75,0,0
99845,-100,4,1,0,75,0,0
100003,-100,4,1,0,75,0,0
100082,-100,4,1,0,75,0,0
100160,-100,4,1,0,75,0,0
100318,-100,4,1,0,75,0,0
100478,-100,4,1,0,75,0,0
100635,-100,4,1,0,75,0,0
100793,-100,4,1,0,75,0,0
100872,-100,4,1,0,75,0,0
100951,-100,4,1,0,75,0,0
101109,-100,4,1,0,75,0,0
101267,-100,4,1,0,75,0,0
101346,-100,4,1,0,75,0,0
101425,-100,4,1,0,75,0,0
101504,-100,4,1,0,75,0,0
101583,-100,4,1,0,75,0,0
101741,-100,4,1,0,75,0,0
101898,-100,4,1,0,75,0,0
102056,-100,4,1,0,75,0,0
102214,-100,4,1,0,75,0,0
102372,-100,4,1,0,75,0,0
102530,-100,4,1,0,75,0,0
102688,-100,4,1,0,75,0,0
102767,-100,4,1,0,75,0,0
102846,-100,4,1,0,75,0,0
102925,-100,4,1,0,75,0,0
103004,-100,4,1,0,75,0,0
103161,-100,4,1,0,75,0,0
103319,-100,4,1,0,75,0,0
103477,-100,4,1,0,75,0,0
103635,-100,4,1,0,75,0,0
103793,-100,4,1,0,75,0,0
103951,-100,4,1,0,75,0,0
104109,-100,4,1,0,75,0,0
104267,-100,4,1,0,75,0,0
104425,-100,4,1,0,75,0,0
104504,-100,4,1,0,75,0,0
104583,-100,4,1,0,75,0,0
104742,-100,4,1,0,75,0,0
104821,-100,4,1,0,75,0,0
104900,-100,4,1,0,75,0,0
105056,-100,4,1,0,75,0,0
105135,-100,4,1,0,75,0,0
105214,-100,4,1,0,75,0,0
105293,-100,4,1,0,75,0,0
105372,-100,4,1,0,75,0,0
105530,-100,4,1,0,75,0,0
105688,-100,4,1,0,75,0,0
105846,-100,4,1,0,75,0,0
105925,-100,4,1,0,75,0,0
106004,-100,4,1,0,75,0,0
106161,-100,4,1,0,75,0,0
106319,-100,4,1,0,75,0,0
106398,-100,4,1,0,75,0,0
106477,-100,4,1,0,75,0,0
106556,-100,4,1,0,75,0,0
106635,-100,4,1,0,75,0,0
106793,-100,4,1,0,75,0,0
106951,-100,4,1,0,75,0,0
107030,-100,4,1,0,75,0,0
107109,-100,4,1,0,75,0,0
107188,-100,4,1,0,75,0,0
107267,-100,4,1,0,75,0,0
107425,-100,4,1,0,75,0,0
107583,-100,4,1,0,75,0,0
107661,-100,4,1,0,75,0,0
107740,-100,4,1,0,75,0,0
107898,-100,4,1,0,75,0,0
108056,-100,4,1,0,75,0,0
108213,-100,4,1,0,75,0,0
108371,-100,4,1,0,75,0,0
108450,-100,4,1,0,75,0,0
108529,-100,4,1,0,75,0,0
108687,-100,4,1,0,75,0,0
108845,-100,4,1,0,75,0,0
108924,-100,4,1,0,75,0,0
109003,-100,4,1,0,75,0,0
109082,-100,4,1,0,75,0,0
109160,-100,4,1,0,75,0,0
109239,-100,4,1,0,75,0,0
109318,-100,4,1,0,75,0,0
109476,-100,4,1,0,75,0,0
109555,-100,4,1,0,75,0,0
109634,-100,4,1,0,75,0,0
109792,-100,4,1,0,75,0,0
109950,-100,4,1,0,75,0,0
110108,-100,4,1,0,75,0,0
110187,-100,4,1,0,75,0,0
110266,-100,4,1,0,75,0,0
110424,-100,4,1,0,75,0,0
110583,-100,4,1,0,75,0,0
110740,-100,4,1,0,75,0,0
110898,-100,4,1,0,75,0,0
110977,-100,4,1,0,75,0,0
111056,-100,4,1,0,75,0,0
111214,-100,4,1,0,75,0,0
111372,-100,4,1,0,75,0,0
111451,-100,4,1,0,75,0,0
111530,-100,4,1,0,75,0,0
111609,-100,4,1,0,75,0,0
111688,-100,4,1,0,75,0,0
111846,-100,4,1,0,75,0,0
111925,-100,4,1,0,75,0,0
112004,-100,4,1,0,75,0,0
112161,-100,4,1,0,75,0,0
112240,-100,4,1,0,75,0,0
112319,-100,4,1,0,75,0,0
112398,-100,4,1,0,75,0,0
112477,-100,4,1,0,75,0,0
112635,-100,4,1,0,75,0,0
112714,-100,4,1,0,75,0,0
112793,-100,4,1,0,75,0,0
112872,-100,4,1,0,75,0,0
112951,-100,4,1,0,75,0,0
113030,-100,4,1,0,75,0,0
113109,-100,4,1,0,40,0,0
115648,-100,4,1,0,90,0,0
115674,-100,4,1,0,90,0,1
118160,-100,4,1,0,80,0,1
118200,-100,4,1,0,80,0,0
118318,-100,4,1,0,80,0,0
118476,-100,4,1,0,80,0,0
118555,-100,4,1,0,80,0,0
118634,-100,4,1,0,80,0,0
118792,-100,4,1,0,80,0,0
118950,-100,4,1,0,80,0,0
119029,-100,4,1,0,80,0,0
119108,-100,4,1,0,80,0,0
119187,-100,4,1,0,80,0,0
119266,-100,4,1,0,80,0,0
119345,-100,4,1,0,80,0,0
119424,-100,4,1,0,90,0,0
119463,-100,4,1,0,90,0,1
120227,-100,4,1,0,90,0,1
120306,-100,4,1,0,90,0,1
120385,-100,4,1,0,90,0,1
120411,-100,4,1,0,90,0,1
120464,-100,4,1,0,90,0,1
120543,-100,4,1,0,90,0,1
120596,-100,4,1,0,90,0,1
120648,-100,4,1,0,90,0,1
120701,-100,4,1,0,80,0,1
120726,-100,4,1,0,80,0,0
120846,-100,4,1,0,80,0,0
121004,-100,4,1,0,80,0,0
121083,-100,4,1,0,80,0,0
121161,-100,4,1,0,80,0,0
121319,-100,4,1,0,80,0,0
121477,-100,4,1,0,80,0,0
121556,-100,4,1,0,80,0,0
121635,-100,4,1,0,80,0,0
121714,-100,4,1,0,80,0,0
121793,-100,4,1,0,80,0,0
121951,-100,4,1,0,80,0,0
122030,-100,4,1,0,80,0,0
122109,-100,4,1,0,80,0,0
122267,-100,4,1,0,80,0,0
122346,-100,4,1,0,80,0,0
122425,-100,4,1,0,80,0,0
122504,-100,4,1,0,80,0,0
122583,-100,4,1,0,80,0,0
122740,-100,4,1,0,80,0,0
122819,-100,4,1,0,80,0,0
122898,-100,4,1,0,80,0,0
122977,-100,4,1,0,80,0,0
123056,-100,4,1,0,80,0,0
123135,-100,4,1,0,80,0,0
123215,-95.2380952380952,4,1,0,90,0,0
123253,-95.2380952380952,4,1,0,90,0,1
123677,-95.2380952380952,4,1,0,90,0,1
123756,-95.2380952380952,4,1,0,90,0,1
123835,-95.2380952380952,4,1,0,90,0,1
124231,-95.2380952380952,4,1,0,90,0,1
124389,-95.2380952380952,4,1,0,90,0,1
124940,-95.2380952380952,4,1,0,90,0,1
125019,-95.2380952380952,4,1,0,90,0,1
125098,-95.2380952380952,4,1,0,90,0,1
125573,-95.2380952380952,4,1,0,90,0,1
125731,-95.2380952380952,4,1,0,90,0,1
126205,-95.2380952380952,4,1,0,90,0,1
126284,-95.2380952380952,4,1,0,90,0,1
126363,-95.2380952380952,4,1,0,90,0,1
126837,-95.2380952380952,4,1,0,90,0,1
126995,-95.2380952380952,4,1,0,90,0,1
127468,-95.2380952380952,4,1,0,90,0,1
127547,-95.2380952380952,4,1,0,90,0,1
127626,-95.2380952380952,4,1,0,90,0,1
128100,-95.2380952380952,4,1,0,90,0,1
128296,-95.2380952380952,4,1,0,90,0,1
128375,-95.2380952380952,4,1,0,90,0,1
128454,-95.2380952380952,4,1,0,90,0,1
128533,-95.2380952380952,4,1,0,90,0,1
128612,-95.2380952380952,4,1,0,90,0,1
128690,-95.2380952380952,4,1,0,90,0,1
128769,-95.2380952380952,4,1,0,90,0,1
128848,-95.2380952380952,4,1,0,90,0,1
128927,-95.2380952380952,4,1,0,90,0,1
129006,-95.2380952380952,4,1,0,90,0,1
129085,-95.2380952380952,4,1,0,90,0,1
129164,-95.2380952380952,4,1,0,90,0,1
129243,-95.2380952380952,4,1,0,90,0,1
129322,-95.2380952380952,4,1,0,90,0,1
129401,-95.2380952380952,4,1,0,90,0,1
129480,-95.2380952380952,4,1,0,90,0,1
129559,-95.2380952380952,4,1,0,90,0,1
129638,-95.2380952380952,4,1,0,90,0,1
129717,-95.2380952380952,4,1,0,90,0,1
129796,-95.2380952380952,4,1,0,90,0,1
129875,-95.2380952380952,4,1,0,90,0,1
129954,-95.2380952380952,4,1,0,90,0,1
130033,-95.2380952380952,4,1,0,90,0,1
130112,-95.2380952380952,4,1,0,90,0,1
130190,-95.2380952380952,4,1,0,90,0,1
130269,-95.2380952380952,4,1,0,90,0,1
130348,-95.2380952380952,4,1,0,90,0,1
130427,-95.2380952380952,4,1,0,90,0,1
130506,-95.2380952380952,4,1,0,90,0,1
130585,-95.2380952380952,4,1,0,90,0,1
130664,-95.2380952380952,4,1,0,90,0,1
130743,-95.2380952380952,4,1,0,90,0,1
130822,-95.2380952380952,4,1,0,90,0,1
130823,-95.2380952380952,4,1,0,90,0,1
130901,-95.2380952380952,4,1,0,90,0,1
130980,-95.2380952380952,4,1,0,90,0,1
131059,-95.2380952380952,4,1,0,90,0,1
131138,-95.2380952380952,4,1,0,90,0,1
131217,-95.2380952380952,4,1,0,90,0,1
131296,-95.2380952380952,4,1,0,90,0,1
131374,-95.2380952380952,4,1,0,90,0,1
131453,-95.2380952380952,4,1,0,90,0,1
131532,-95.2380952380952,4,1,0,90,0,1
131611,-95.2380952380952,4,1,0,90,0,1
131690,-95.2380952380952,4,1,0,90,0,1
131769,-95.2380952380952,4,1,0,90,0,1
131848,-95.2380952380952,4,1,0,90,0,1
131927,-95.2380952380952,4,1,0,90,0,1
132006,-95.2380952380952,4,1,0,90,0,1
132085,-95.2380952380952,4,1,0,90,0,1
132086,-95.2380952380952,4,1,0,90,0,1
132164,-95.2380952380952,4,1,0,90,0,1
132243,-95.2380952380952,4,1,0,90,0,1
132322,-95.2380952380952,4,1,0,90,0,1
132401,-95.2380952380952,4,1,0,90,0,1
132480,-95.2380952380952,4,1,0,90,0,1
132559,-95.2380952380952,4,1,0,90,0,1
132638,-95.2380952380952,4,1,0,90,0,1
132717,-95.2380952380952,4,1,0,50,0,1
132726,-95.2380952380952,4,1,0,50,0,0
132875,-100,4,1,0,50,0,0
133033,-100,4,1,0,50,0,0
133280,-90.9090909090909,4,1,0,90,0,0
134542,-90.9090909090909,4,1,0,90,0,0

[HitObjects]
182,140,12095,5,4,0:0:0:0:
305,198,14621,5,0,0:0:0:0:
274,224,15884,1,8,0:0:0:0:
274,224,17147,1,0,0:0:0:0:
274,224,17463,1,8,0:0:0:0:
274,224,18095,1,0,0:0:0:0:
274,224,19674,1,8,0:0:0:0:
252,169,19832,1,8,0:0:0:0:
241,99,20463,1,0,0:0:0:0:
241,99,20779,1,8,0:0:0:0:
255,189,22200,1,0,0:0:0:0:
287,148,22516,1,8,0:0:0:0:
287,148,22990,1,0,0:0:0:0:
287,148,23147,1,8,0:0:0:0:
287,148,23305,1,8,0:0:0:0:
287,148,23463,1,0,0:0:0:0:
271,125,23779,1,8,0:0:0:0:
241,114,24253,1,0,0:0:0:0:
241,114,24568,1,8,0:0:0:0:
241,114,24726,1,0,0:0:0:0:
279,113,25042,1,8,0:0:0:0:
280,125,25516,1,0,0:0:0:0:
280,125,25674,1,8,0:0:0:0:
280,125,25832,1,8,0:0:0:0:
280,125,25990,1,0,0:0:0:0:
243,124,26305,1,8,0:0:0:0:
243,124,26621,1,0,0:0:0:0:
243,124,26779,1,0,0:0:0:0:
243,124,26937,1,0,0:0:0:0:
243,124,27253,1,0,0:0:0:0:
220,183,27568,1,8,0:0:0:0:
298,150,28042,1,0,0:0:0:0:
298,150,28358,1,8,0:0:0:0:
298,150,28516,1,0,0:0:0:0:
286,127,28832,1,8,0:0:0:0:
286,127,29305,1,0,0:0:0:0:
286,127,29463,1,8,0:0:0:0:
286,127,29621,1,8,0:0:0:0:
286,127,29779,1,0,0:0:0:0:
265,129,30095,1,8,0:0:0:0:
265,129,30568,1,0,0:0:0:0:
265,129,30884,1,8,0:0:0:0:
244,146,32305,1,0,0:0:0:0:
247,174,32779,1,8,0:0:0:0:
269,139,33253,1,0,0:0:0:0:
269,139,33568,1,8,0:0:0:0:
289,95,33884,1,0,0:0:0:0:
274,103,34042,1,8,0:0:0:0:
273,103,34832,1,4,0:0:0:0:
237,85,35305,1,0,0:0:0:0:
237,85,35463,1,8,0:0:0:0:
275,79,35779,1,0,0:0:0:0:
275,79,36253,1,0,0:0:0:0:
275,79,36411,1,0,0:0:0:0:
275,79,36726,1,8,0:0:0:0:
255,107,37042,1,0,0:0:0:0:
255,107,37200,1,8,0:0:0:0:
255,107,37358,1,0,0:0:0:0:
302,110,37832,1,0,0:0:0:0:
302,110,37990,1,8,0:0:0:0:
290,81,38305,1,0,0:0:0:0:
300,151,38463,1,0,0:0:0:0:
290,81,38779,1,8,0:0:0:0:
290,81,38937,1,0,0:0:0:0:
290,81,39095,1,0,0:0:0:0:
290,81,39253,1,8,0:0:0:0:
290,81,39568,1,0,0:0:0:0:
290,81,39726,1,8,0:0:0:0:
290,81,39884,1,0,0:0:0:0:
309,100,40358,1,0,0:0:0:0:
267,40,40516,1,8,0:0:0:0:
253,49,40832,1,0,0:0:0:0:
253,49,40990,1,0,0:0:0:0:
210,35,41779,1,8,0:0:0:0:
221,60,42411,1,0,0:0:0:0:
221,60,42726,1,0,0:0:0:0:
221,60,42884,1,0,0:0:0:0:
221,60,43042,1,8,0:0:0:0:
261,45,43358,1,0,0:0:0:0:
261,45,43674,1,8,0:0:0:0:
242,90,44305,1,8,0:0:0:0:
273,103,44937,1,4,0:0:0:0:
267,144,45253,1,8,0:0:0:0:
237,85,45410,1,0,0:0:0:0:
237,85,45568,1,8,0:0:0:0:
275,79,45884,1,0,0:0:0:0:
285,86,46042,1,8,0:0:0:0:
275,79,46358,1,0,0:0:0:0:
275,79,46516,1,0,0:0:0:0:
275,79,46831,1,8,0:0:0:0:
281,163,46990,1,8,0:0:0:0:
255,107,47147,1,0,0:0:0:0:
255,107,47305,1,8,0:0:0:0:
255,107,47463,1,0,0:0:0:0:
302,110,47937,1,0,0:0:0:0:
302,110,48095,1,8,0:0:0:0:
290,81,48410,1,0,0:0:0:0:
333,161,48568,1,0,0:0:0:0:
290,81,48884,1,8,0:0:0:0:
290,81,49042,1,0,0:0:0:0:
290,81,49200,1,0,0:0:0:0:
290,81,49358,1,8,0:0:0:0:
290,81,49673,1,0,0:0:0:0:
290,81,49831,1,8,0:0:0:0:
290,81,49989,1,0,0:0:0:0:
259,109,50305,1,8,0:0:0:0:
309,100,50463,1,0,0:0:0:0:
267,40,50621,1,8,0:0:0:0:
253,49,50937,1,0,0:0:0:0:
248,114,51253,1,8,0:0:0:0:
248,114,51884,1,8,0:0:0:0:
265,61,55042,1,4,0:0:0:0:
250,91,55358,1,4,0:0:0:0:
250,91,55674,1,12,0:0:0:0:
266,83,56305,1,12,0:0:0:0:
266,83,56621,1,12,0:0:0:0:
261,44,56937,1,4,0:0:0:0:
228,62,57568,1,4,0:0:0:0:
250,65,58042,1,0,0:0:0:0:
248,64,58200,1,8,0:0:0:0:
249,62,58516,1,8,0:0:0:0:
250,65,58832,1,4,0:0:0:0:
249,62,59463,1,12,0:0:0:0:
303,74,59779,1,8,0:0:0:0:
168,66,60095,1,4,0:0:0:0:
266,66,60568,1,0,0:0:0:0:
266,66,60726,1,8,0:0:0:0:
283,50,61042,1,0,0:0:0:0:
222,39,61358,1,8,0:0:0:0:
222,39,61674,1,0,0:0:0:0:
222,39,61832,1,0,0:0:0:0:
222,39,61990,1,8,0:0:0:0:
222,39,62621,1,4,0:0:0:0:
237,84,63095,1,0,0:0:0:0:
237,84,63253,1,8,0:0:0:0:
300,63,63490,1,8,0:0:0:0:
300,63,63726,1,0,0:0:0:0:
300,63,63884,1,8,0:0:0:0:
260,68,64358,1,0,0:0:0:0:
260,68,64516,1,8,0:0:0:0:
260,68,64753,1,0,0:0:0:0:
260,68,65147,1,12,0:0:0:0:
237,84,65621,1,8,0:0:0:0:
237,84,65779,1,0,0:0:0:0:
300,63,66016,1,0,0:0:0:0:
300,63,66252,1,8,0:0:0:0:
300,63,66410,1,0,0:0:0:0:
260,68,66884,1,8,0:0:0:0:
260,68,67042,1,0,0:0:0:0:
281,43,67674,1,0,0:0:0:0:
337,165,67911,1,8,0:0:0:0:
309,85,68147,1,0,0:0:0:0:
309,85,68305,1,8,0:0:0:0:
278,73,68542,1,8,0:0:0:0:
278,73,68779,1,0,0:0:0:0:
278,73,68937,1,0,0:0:0:0:
278,73,69174,1,8,0:0:0:0:
278,73,69411,1,0,0:0:0:0:
278,73,69568,1,8,0:0:0:0:
400,66,69805,1,8,0:0:0:0:
278,73,70200,1,0,0:0:0:0:
252,71,70437,1,8,0:0:0:0:
252,71,70674,1,0,0:0:0:0:
252,71,70832,1,8,0:0:0:0:
253,71,71068,1,8,0:0:0:0:
303,162,71305,1,0,0:0:0:0:
252,71,71463,1,0,0:0:0:0:
252,71,71700,1,8,0:0:0:0:
253,71,71937,1,0,0:0:0:0:
253,71,72095,1,8,0:0:0:0:
182,140,72726,5,4,0:0:0:0:
256,192,72884,12,0,74147,0:0:0:0:
305,198,75252,5,0,0:0:0:0:
274,224,76515,1,8,0:0:0:0:
274,224,77778,1,0,0:0:0:0:
274,224,78094,1,8,0:0:0:0:
274,224,78725,1,0,0:0:0:0:
274,224,80305,1,8,0:0:0:0:
252,169,80463,1,8,0:0:0:0:
241,99,81094,1,0,0:0:0:0:
241,99,81410,1,8,0:0:0:0:
255,189,82831,1,0,0:0:0:0:
287,148,83147,1,8,0:0:0:0:
287,148,83621,1,0,0:0:0:0:
287,148,83778,1,8,0:0:0:0:
287,148,83936,1,8,0:0:0:0:
287,148,84094,1,0,0:0:0:0:
271,125,84410,1,8,0:0:0:0:
241,114,84884,1,0,0:0:0:0:
241,114,85199,1,8,0:0:0:0:
241,114,85357,1,0,0:0:0:0:
279,113,85673,1,8,0:0:0:0:
280,125,86147,1,0,0:0:0:0:
280,125,86305,1,8,0:0:0:0:
280,125,86463,1,8,0:0:0:0:
280,125,86621,1,0,0:0:0:0:
243,124,86936,1,8,0:0:0:0:
243,124,87252,1,0,0:0:0:0:
243,124,87410,1,0,0:0:0:0:
243,124,87568,1,0,0:0:0:0:
243,124,87884,1,0,0:0:0:0:
220,183,88199,1,8,0:0:0:0:
298,150,88673,1,0,0:0:0:0:
298,150,88989,1,8,0:0:0:0:
298,150,89147,1,0,0:0:0:0:
286,127,89463,1,8,0:0:0:0:
286,127,89936,1,0,0:0:0:0:
286,127,90094,1,8,0:0:0:0:
286,127,90252,1,8,0:0:0:0:
286,127,90410,1,0,0:0:0:0:
265,129,90726,1,8,0:0:0:0:
265,129,91199,1,0,0:0:0:0:
265,129,91515,1,8,0:0:0:0:
244,146,92936,1,0,0:0:0:0:
247,174,93410,1,8,0:0:0:0:
269,139,93884,1,0,0:0:0:0:
269,139,94199,1,8,0:0:0:0:
289,95,94515,1,0,0:0:0:0:
274,103,94673,1,8,0:0:0:0:
273,103,95463,1,4,0:0:0:0:
237,85,95936,1,0,0:0:0:0:
237,85,96094,1,8,0:0:0:0:
275,79,96410,1,0,0:0:0:0:
275,79,96884,1,0,0:0:0:0:
275,79,97042,1,0,0:0:0:0:
275,79,97357,1,8,0:0:0:0:
255,107,97673,1,0,0:0:0:0:
255,107,97831,1,8,0:0:0:0:
255,107,97989,1,0,0:0:0:0:
302,110,98463,1,0,0:0:0:0:
302,110,98621,1,8,0:0:0:0:
290,81,98936,1,0,0:0:0:0:
300,151,99094,1,0,0:0:0:0:
290,81,99410,1,8,0:0:0:0:
290,81,99568,1,0,0:0:0:0:
290,81,99726,1,0,0:0:0:0:
290,81,99884,1,8,0:0:0:0:
290,81,100199,1,0,0:0:0:0:
290,81,100357,1,8,0:0:0:0:
290,81,100515,1,0,0:0:0:0:
309,100,100989,1,0,0:0:0:0:
267,40,101147,1,8,0:0:0:0:
253,49,101463,1,0,0:0:0:0:
253,49,101621,1,0,0:0:0:0:
210,35,102410,1,8,0:0:0:0:
221,60,103042,1,0,0:0:0:0:
221,60,103357,1,0,0:0:0:0:
221,60,103515,1,0,0:0:0:0:
221,60,103673,1,8,0:0:0:0:
261,45,103989,1,0,0:0:0:0:
261,45,104305,1,8,0:0:0:0:
242,90,104936,1,8,0:0:0:0:
273,103,105568,1,4,0:0:0:0:
267,144,105884,1,8,0:0:0:0:
237,85,106041,1,0,0:0:0:0:
237,85,106199,1,8,0:0:0:0:
275,79,106515,1,0,0:0:0:0:
285,86,106673,1,8,0:0:0:0:
275,79,106989,1,0,0:0:0:0:
275,79,107147,1,0,0:0:0:0:
275,79,107462,1,8,0:0:0:0:
281,163,107621,1,8,0:0:0:0:
255,107,107778,1,0,0:0:0:0:
255,107,107936,1,8,0:0:0:0:
255,107,108094,1,0,0:0:0:0:
302,110,108568,1,0,0:0:0:0:
302,110,108726,1,8,0:0:0:0:
290,81,109041,1,0,0:0:0:0:
333,161,109199,1,0,0:0:0:0:
290,81,109515,1,8,0:0:0:0:
290,81,109673,1,0,0:0:0:0:
290,81,109831,1,0,0:0:0:0:
290,81,109989,1,8,0:0:0:0:
290,81,110304,1,0,0:0:0:0:
290,81,110462,1,8,0:0:0:0:
290,81,110620,1,0,0:0:0:0:
259,109,110936,1,8,0:0:0:0:
309,100,111094,1,0,0:0:0:0:
267,40,111252,1,8,0:0:0:0:
253,49,111568,1,0,0:0:0:0:
248,114,111884,1,8,0:0:0:0:
248,114,112515,1,8,0:0:0:0:
265,61,115674,1,4,0:0:0:0:
250,91,115989,1,4,0:0:0:0:
250,91,116305,1,12,0:0:0:0:
266,83,116936,1,12,0:0:0:0:
266,83,117252,1,12,0:0:0:0:
261,44,117568,1,4,0:0:0:0:
228,62,118200,1,4,0:0:0:0:
250,65,118673,1,0,0:0:0:0:
248,64,118831,1,8,0:0:0:0:
249,62,119147,1,8,0:0:0:0:
250,65,119463,1,4,0:0:0:0:
249,62,120094,1,12,0:0:0:0:
303,74,120410,1,8,0:0:0:0:
168,66,120726,1,4,0:0:0:0:
266,66,121199,1,0,0:0:0:0:
266,66,121357,1,8,0:0:0:0:
283,50,121673,1,0,0:0:0:0:
222,39,121989,1,8,0:0:0:0:
222,39,122305,1,0,0:0:0:0:
222,39,122463,1,0,0:0:0:0:
222,39,122621,1,8,0:0:0:0:
222,39,123252,1,4,0:0:0:0:
237,84,123726,1,0,0:0:0:0:
237,84,123884,1,8,0:0:0:0:
300,63,124121,1,8,0:0:0:0:
300,63,124357,1,0,0:0:0:0:
300,63,124515,1,8,0:0:0:0:
260,68,124989,1,0,0:0:0:0:
260,68,125147,1,8,0:0:0:0:
260,68,125384,1,0,0:0:0:0:
260,68,125778,1,12,0:0:0:0:
237,84,126252,1,8,0:0:0:0:
237,84,126410,1,0,0:0:0:0:
300,63,126647,1,0,0:0:0:0:
300,63,126883,1,8,0:0:0:0:
300,63,127041,1,0,0:0:0:0:
260,68,127515,1,8,0:0:0:0:
260,68,127673,1,0,0:0:0:0:
281,43,128305,1,0,0:0:0:0:
337,165,128542,1,8,0:0:0:0:
309,85,128778,1,0,0:0:0:0:
309,85,128936,1,8,0:0:0:0:
278,73,129173,1,8,0:0:0:0:
278,73,129410,1,0,0:0:0:0:
278,73,129568,1,0,0:0:0:0:
278,73,129805,1,8,0:0:0:0:
278,73,130042,1,0,0:0:0:0:
278,73,130199,1,8,0:0:0:0:
400,66,130436,1,8,0:0:0:0:
278,73,130831,1,0,0:0:0:0:
252,71,131068,1,8,0:0:0:0:
252,71,131305,1,0,0:0:0:0:
252,71,131463,1,8,0:0:0:0:
253,71,131699,1,8,0:0:0:0:
303,162,131936,1,0,0:0:0:0:
252,71,132094,1,0,0:0:0:0:
252,71,132332,1,8,0:0:0:0:
253,71,132568,1,0,0:0:0:0:
253,71,132726,1,8,0:0:0:0:
303,200,133358,1,4,0:0:0:0:
256,192,133516,12,4,134779,0:0:0:0:
