osu file format v14

[General]
AudioFilename: audio.mp3
AudioLeadIn: 0
PreviewTime: 86360
Countdown: 0
SampleSet: Normal
StackLeniency: 0.7
Mode: 3
LetterboxInBreaks: 0
SpecialStyle: 0
WidescreenStoryboard: 0

[Editor]
DistanceSpacing: 0.6
BeatDivisor: 4
GridSize: 4
TimelineZoom: 1.4

[Metadata]
Title:Ouka Ryouran
TitleUnicode:桜花撩乱
Artist:yuzen
ArtistUnicode:悠然
Creator:DoNotMess
Version:Hyper
Source:BMS
Tags:bof 2011 THE OF FIGHTERS Intersection of conflict CREATION RECORDS 2 HAPPY HARDCORE Nixeria-sama
BeatmapID:1175430
BeatmapSetID:554880

[Difficulty]
HPDrainRate:8
CircleSize:4
OverallDifficulty:7.5
ApproachRate:5
SliderMultiplier:1.4
SliderTickRate:1

[Events]
//Background and Video events
0,0,"Hatsune.jpg",0,0
//Break Periods
//Storyboard Layer 0 (Background)
//Storyboard Layer 1 (Fail)
//Storyboard Layer 2 (Pass)
//Storyboard Layer 3 (Foreground)
//Storyboard Sound Samples
Sample,86989,0,"normal-hitwhistle.wav",50
Sample,89502,0,"normal-hitwhistle.wav",50
Sample,92015,0,"normal-hitwhistle.wav",50

[TimingPoints]
1230,314.13612565445,4,1,1,70,1,0
86675,-100,4,1,1,70,0,1
106779,-100,4,1,1,70,0,0

[HitObjects]
320,192,1230,5,4,0:0:0:0:
448,192,1230,1,2,0:0:0:0:
64,192,1544,1,2,0:0:0:0:
192,192,1544,1,4,0:0:0:0:
64,192,1858,1,4,0:0:0:0:
448,192,1858,1,2,0:0:0:0:
192,192,2015,1,2,0:0:0:0:
320,192,2015,1,4,0:0:0:0:
64,192,2329,1,4,0:0:0:0:
448,192,2329,1,2,0:0:0:0:
64,192,2643,1,0,0:0:0:0:
192,192,2643,1,0,0:0:0:0:
192,192,2957,1,0,0:0:0:0:
320,192,2957,1,0,0:0:0:0:
448,192,3114,1,0,0:0:0:0:
64,192,3114,1,0,0:0:0:0:
320,192,3271,1,0,0:0:0:0:
192,192,3271,1,0,0:0:0:0:
448,192,3428,1,0,0:0:0:0:
64,192,3428,1,0,0:0:0:0:
64,192,3743,1,4,0:0:0:0:
192,192,3743,1,2,0:0:0:0:
448,192,3900,1,0,0:0:0:0:
320,192,3952,1,0,0:0:0:0:
192,192,4004,1,0,0:0:0:0:
64,192,4057,1,2,0:0:0:0:
192,192,4214,1,0,0:0:0:0:
320,192,4292,1,0,0:0:0:0:
448,192,4371,1,2,0:0:0:0:
192,192,4528,1,0,0:0:0:0:
64,192,4685,1,2,0:0:0:0:
320,192,4685,1,0,0:0:0:0:
448,192,4842,1,0,0:0:0:0:
192,192,4999,1,2,0:0:0:0:
320,192,4999,1,0,0:0:0:0:
64,192,5156,1,0,0:0:0:0:
192,192,5209,1,0,0:0:0:0:
320,192,5261,1,0,0:0:0:0:
448,192,5313,1,2,0:0:0:0:
192,192,5470,1,0,0:0:0:0:
320,192,5549,1,0,0:0:0:0:
64,192,5627,1,2,0:0:0:0:
320,192,5784,1,0,0:0:0:0:
448,192,5942,1,2,0:0:0:0:
64,192,5942,1,0,0:0:0:0:
192,192,6099,1,0,0:0:0:0:
320,192,6256,1,2,0:0:0:0:
448,192,6256,1,0,0:0:0:0:
64,192,6413,1,0,0:0:0:0:
192,192,6465,1,0,0:0:0:0:
320,192,6517,1,0,0:0:0:0:
448,192,6570,1,2,0:0:0:0:
320,192,6727,1,0,0:0:0:0:
192,192,6805,1,0,0:0:0:0:
64,192,6884,1,2,0:0:0:0:
320,192,7041,1,0,0:0:0:0:
448,192,7198,1,2,0:0:0:0:
192,192,7198,1,0,0:0:0:0:
64,192,7355,1,0,0:0:0:0:
320,192,7512,1,2,0:0:0:0:
192,192,7512,1,0,0:0:0:0:
448,192,7669,1,0,0:0:0:0:
320,192,7722,1,0,0:0:0:0:
192,192,7774,1,0,0:0:0:0:
64,192,7826,1,2,0:0:0:0:
320,192,7983,1,0,0:0:0:0:
192,192,8062,1,0,0:0:0:0:
448,192,8140,1,2,0:0:0:0:
192,192,8298,1,0,0:0:0:0:
64,192,8455,1,2,0:0:0:0:
448,192,8455,1,0,0:0:0:0:
320,192,8612,1,0,0:0:0:0:
64,192,8769,1,2,0:0:0:0:
192,192,8769,1,0,0:0:0:0:
448,192,8926,1,0,0:0:0:0:
320,192,8978,1,0,0:0:0:0:
192,192,9031,1,0,0:0:0:0:
64,192,9083,1,2,0:0:0:0:
192,192,9240,1,0,0:0:0:0:
320,192,9319,1,0,0:0:0:0:
448,192,9397,1,2,0:0:0:0:
192,192,9554,1,0,0:0:0:0:
64,192,9711,1,2,0:0:0:0:
320,192,9711,1,0,0:0:0:0:
448,192,9868,1,0,0:0:0:0:
320,192,10025,1,2,0:0:0:0:
192,192,10025,1,0,0:0:0:0:
64,192,10182,1,0,0:0:0:0:
192,192,10235,1,0,0:0:0:0:
320,192,10287,1,0,0:0:0:0:
448,192,10339,1,2,0:0:0:0:
64,192,10497,1,0,0:0:0:0:
320,192,10575,1,0,0:0:0:0:
192,192,10654,1,2,0:0:0:0:
320,192,10811,1,0,0:0:0:0:
64,192,10968,1,2,0:0:0:0:
448,192,10968,1,0,0:0:0:0:
192,192,11125,1,0,0:0:0:0:
64,192,11282,1,2,0:0:0:0:
320,192,11282,1,0,0:0:0:0:
448,192,11439,1,0,0:0:0:0:
320,192,11491,1,0,0:0:0:0:
192,192,11544,1,0,0:0:0:0:
64,192,11596,1,2,0:0:0:0:
192,192,11753,1,0,0:0:0:0:
320,192,11832,1,0,0:0:0:0:
448,192,11910,1,2,0:0:0:0:
192,192,12067,1,0,0:0:0:0:
64,192,12224,1,2,0:0:0:0:
320,192,12224,1,0,0:0:0:0:
448,192,12381,1,0,0:0:0:0:
64,192,12538,1,4,0:0:0:0:
192,192,12538,1,2,0:0:0:0:
320,192,12695,1,0,0:0:0:0:
320,192,12853,1,4,0:0:0:0:
64,192,12853,1,2,0:0:0:0:
320,192,13010,1,0,0:0:0:0:
64,192,13167,1,4,0:0:0:0:
320,192,13167,1,2,0:0:0:0:
320,192,13324,1,0,0:0:0:0:
64,192,13481,1,4,0:0:0:0:
448,192,13481,1,2,0:0:0:0:
192,192,13638,1,0,0:0:0:0:
64,192,13795,1,4,0:0:0:0:
320,192,13795,1,2,0:0:0:0:
448,192,13795,1,0,0:0:0:0:
192,192,13952,1,0,0:0:0:0:
448,192,14109,1,2,0:0:0:0:
64,192,14266,1,0,0:0:0:0:
320,192,14423,1,2,0:0:0:0:
192,192,14580,1,0,0:0:0:0:
64,192,14737,1,2,0:0:0:0:
448,192,14737,1,0,0:0:0:0:
320,192,14894,1,0,0:0:0:0:
192,192,15051,1,2,0:0:0:0:
448,192,15051,1,0,0:0:0:0:
64,192,15209,1,0,0:0:0:0:
192,192,15366,1,2,0:0:0:0:
320,192,15366,1,0,0:0:0:0:
448,192,15523,1,0,0:0:0:0:
64,192,15680,1,2,0:0:0:0:
320,192,15680,1,0,0:0:0:0:
320,192,15837,1,0,0:0:0:0:
448,192,15994,1,2,0:0:0:0:
320,192,15994,1,0,0:0:0:0:
192,192,16151,1,0,0:0:0:0:
448,192,16308,1,0,0:0:0:0:
64,192,16308,1,2,0:0:0:0:
320,192,16465,1,0,0:0:0:0:
448,192,16622,1,2,0:0:0:0:
64,192,16779,1,0,0:0:0:0:
192,192,16936,1,2,0:0:0:0:
448,192,17093,1,0,0:0:0:0:
64,192,17250,1,2,0:0:0:0:
320,192,17408,1,0,0:0:0:0:
192,192,17565,1,2,0:0:0:0:
64,192,17722,1,0,0:0:0:0:
320,192,17879,1,2,0:0:0:0:
448,192,17879,1,0,0:0:0:0:
192,192,18036,1,0,0:0:0:0:
64,192,18193,1,2,0:0:0:0:
192,192,18193,1,0,0:0:0:0:
192,192,18350,1,0,0:0:0:0:
320,192,18507,1,2,0:0:0:0:
448,192,18507,1,0,0:0:0:0:
64,192,18664,1,0,0:0:0:0:
448,192,18821,1,4,0:0:0:0:
192,192,18821,1,2,0:0:0:0:
320,192,18821,1,0,0:0:0:0:
64,192,18978,1,0,0:0:0:0:
448,192,19135,1,2,0:0:0:0:
320,192,19292,1,0,0:0:0:0:
192,192,19449,1,2,0:0:0:0:
448,192,19606,1,0,0:0:0:0:
64,192,19764,1,2,0:0:0:0:
320,192,19921,1,0,0:0:0:0:
64,192,20078,1,2,0:0:0:0:
192,192,20078,1,4,0:0:0:0:
448,192,20078,1,0,0:0:0:0:
320,192,20235,1,0,0:0:0:0:
64,192,20392,1,2,0:0:0:0:
448,192,20392,1,0,0:0:0:0:
192,192,20549,1,0,0:0:0:0:
448,192,20706,1,2,0:0:0:0:
320,192,20706,1,0,0:0:0:0:
64,192,20863,1,0,0:0:0:0:
192,192,21020,1,2,0:0:0:0:
448,192,21020,1,0,0:0:0:0:
64,192,21177,1,0,0:0:0:0:
320,192,21334,1,0,0:0:0:0:
448,192,21334,1,2,0:0:0:0:
192,192,21334,1,4,0:0:0:0:
320,192,21648,1,2,0:0:0:0:
448,192,21648,1,4,0:0:0:0:
64,192,21962,1,4,0:0:0:0:
192,192,21962,1,2,0:0:0:0:
320,192,22120,1,4,0:0:0:0:
448,192,22120,1,2,0:0:0:0:
64,192,22434,1,2,0:0:0:0:
192,192,22434,1,4,0:0:0:0:
448,192,22591,1,0,0:0:0:0:
192,192,22748,1,0,0:0:0:0:
320,192,22748,1,0,0:0:0:0:
320,192,23062,1,0,0:0:0:0:
448,192,23062,1,0,0:0:0:0:
64,192,23219,1,0,0:0:0:0:
192,192,23219,1,0,0:0:0:0:
320,192,23376,1,0,0:0:0:0:
448,192,23376,1,0,0:0:0:0:
64,192,23533,1,0,0:0:0:0:
192,192,23533,1,0,0:0:0:0:
320,192,23847,1,2,0:0:0:0:
64,192,23847,1,0,0:0:0:0:
448,192,23847,1,4,0:0:0:0:
192,192,23926,1,0,0:0:0:0:
448,192,24083,1,0,0:0:0:0:
64,192,24161,1,2,0:0:0:0:
192,192,24240,1,0,0:0:0:0:
320,192,24319,1,0,0:0:0:0:
64,192,24476,1,2,0:0:0:0:
320,192,24633,1,0,0:0:0:0:
192,192,24711,1,0,0:0:0:0:
448,192,24790,128,2,25104:0:0:0:0:
64,192,25104,1,2,0:0:0:0:
320,192,25261,1,0,0:0:0:0:
448,192,25339,1,0,0:0:0:0:
192,192,25418,1,2,0:0:0:0:
320,192,25575,1,0,0:0:0:0:
64,192,25732,1,2,0:0:0:0:
448,192,25889,1,0,0:0:0:0:
320,192,26046,1,2,0:0:0:0:
192,192,26203,1,0,0:0:0:0:
64,192,26360,1,2,0:0:0:0:
320,192,26439,1,0,0:0:0:0:
448,192,26596,1,0,0:0:0:0:
64,192,26675,1,2,0:0:0:0:
320,192,26753,1,0,0:0:0:0:
192,192,26832,1,0,0:0:0:0:
448,192,26989,1,2,0:0:0:0:
192,192,27146,1,0,0:0:0:0:
320,192,27224,1,0,0:0:0:0:
64,192,27303,128,2,27617:0:0:0:0:
192,192,27617,1,2,0:0:0:0:
448,192,27774,1,0,0:0:0:0:
64,192,27853,1,0,0:0:0:0:
192,192,27931,1,2,0:0:0:0:
320,192,28088,1,0,0:0:0:0:
64,192,28245,1,2,0:0:0:0:
448,192,28402,1,0,0:0:0:0:
192,192,28559,1,2,0:0:0:0:
64,192,28559,1,0,0:0:0:0:
320,192,28716,1,2,0:0:0:0:
448,192,28716,1,0,0:0:0:0:
64,192,28873,1,2,0:0:0:0:
448,192,28873,1,4,0:0:0:0:
192,192,28873,1,0,0:0:0:0:
320,192,28952,1,2,0:0:0:0:
192,192,29109,1,2,0:0:0:0:
320,192,29266,1,2,0:0:0:0:
192,192,29345,1,2,0:0:0:0:
320,192,29502,1,2,0:0:0:0:
192,192,29659,1,2,0:0:0:0:
320,192,29737,1,2,0:0:0:0:
64,192,29816,1,2,0:0:0:0:
448,192,29816,1,4,0:0:0:0:
64,192,30130,1,2,0:0:0:0:
192,192,30130,1,4,0:0:0:0:
320,192,30287,1,2,0:0:0:0:
192,192,30366,1,2,0:0:0:0:
64,192,30444,1,2,0:0:0:0:
448,192,30601,1,2,0:0:0:0:
192,192,30915,1,2,0:0:0:0:
320,192,31072,1,2,0:0:0:0:
448,192,31072,1,4,0:0:0:0:
192,192,31229,1,2,0:0:0:0:
64,192,31387,1,4,0:0:0:0:
448,192,31387,1,2,0:0:0:0:
320,192,31544,1,2,0:0:0:0:
192,192,31622,1,2,0:0:0:0:
64,192,31701,1,2,0:0:0:0:
448,192,31701,1,4,0:0:0:0:
320,192,31779,1,2,0:0:0:0:
192,192,31858,1,2,0:0:0:0:
64,192,31936,1,2,0:0:0:0:
320,192,32015,1,4,0:0:0:0:
448,192,32015,1,2,0:0:0:0:
64,192,32172,1,4,0:0:0:0:
192,192,32172,1,2,0:0:0:0:
64,192,32329,1,4,0:0:0:0:
320,192,32329,1,2,0:0:0:0:
192,192,32486,1,2,0:0:0:0:
448,192,32486,1,4,0:0:0:0:
192,192,32800,1,0,0:0:0:0:
320,192,32800,1,0,0:0:0:0:
64,192,33114,1,0,0:0:0:0:
192,192,33114,1,0,0:0:0:0:
320,192,33271,1,0,0:0:0:0:
448,192,33271,1,0,0:0:0:0:
64,192,33428,1,0,0:0:0:0:
192,192,33428,1,0,0:0:0:0:
320,192,33586,1,0,0:0:0:0:
448,192,33586,1,0,0:0:0:0:
64,192,33900,1,4,0:0:0:0:
192,192,33900,1,2,0:0:0:0:
448,192,33900,1,0,0:0:0:0:
320,192,33978,1,0,0:0:0:0:
192,192,34135,1,0,0:0:0:0:
448,192,34214,1,2,0:0:0:0:
64,192,34292,1,0,0:0:0:0:
320,192,34371,1,0,0:0:0:0:
64,192,34528,1,2,0:0:0:0:
448,192,34528,1,0,0:0:0:0:
192,192,34685,1,0,0:0:0:0:
320,192,34764,1,0,0:0:0:0:
448,192,34842,128,2,35156:0:0:0:0:
64,192,35156,1,2,0:0:0:0:
192,192,35156,1,0,0:0:0:0:
320,192,35313,1,0,0:0:0:0:
192,192,35392,1,0,0:0:0:0:
448,192,35470,1,2,0:0:0:0:
320,192,35627,1,0,0:0:0:0:
448,192,35784,1,2,0:0:0:0:
64,192,35784,1,0,0:0:0:0:
320,192,35942,1,0,0:0:0:0:
64,192,36099,1,2,0:0:0:0:
192,192,36099,1,0,0:0:0:0:
448,192,36256,1,0,0:0:0:0:
192,192,36413,1,2,0:0:0:0:
320,192,36413,1,0,0:0:0:0:
64,192,36491,1,0,0:0:0:0:
320,192,36648,1,0,0:0:0:0:
448,192,36727,1,2,0:0:0:0:
64,192,36805,1,0,0:0:0:0:
192,192,36884,1,0,0:0:0:0:
448,192,37041,1,2,0:0:0:0:
320,192,37041,1,0,0:0:0:0:
64,192,37198,1,0,0:0:0:0:
192,192,37277,1,0,0:0:0:0:
320,192,37355,128,2,37669:0:0:0:0:
448,192,37669,1,2,0:0:0:0:
64,192,37669,1,0,0:0:0:0:
192,192,37826,1,0,0:0:0:0:
320,192,37905,1,0,0:0:0:0:
64,192,37983,1,2,0:0:0:0:
192,192,38140,1,0,0:0:0:0:
320,192,38298,1,2,0:0:0:0:
448,192,38298,1,0,0:0:0:0:
64,192,38455,1,0,0:0:0:0:
448,192,38612,1,2,0:0:0:0:
192,192,38612,1,0,0:0:0:0:
64,192,38769,1,0,0:0:0:0:
320,192,38926,1,2,0:0:0:0:
448,192,38926,1,0,0:0:0:0:
192,192,39004,1,0,0:0:0:0:
64,192,39161,1,0,0:0:0:0:
448,192,39240,1,2,0:0:0:0:
192,192,39319,1,0,0:0:0:0:
320,192,39397,1,0,0:0:0:0:
64,192,39554,1,2,0:0:0:0:
192,192,39554,1,0,0:0:0:0:
320,192,39711,1,0,0:0:0:0:
448,192,39790,1,0,0:0:0:0:
64,192,39868,128,2,40182:0:0:0:0:
320,192,40182,1,2,0:0:0:0:
448,192,40182,1,0,0:0:0:0:
192,192,40339,1,0,0:0:0:0:
320,192,40418,1,0,0:0:0:0:
448,192,40497,1,2,0:0:0:0:
64,192,40654,1,0,0:0:0:0:
320,192,40811,1,2,0:0:0:0:
448,192,40811,1,0,0:0:0:0:
192,192,40968,1,0,0:0:0:0:
320,192,41125,1,2,0:0:0:0:
64,192,41125,1,0,0:0:0:0:
192,192,41282,1,0,0:0:0:0:
448,192,41439,1,2,0:0:0:0:
64,192,41439,1,0,0:0:0:0:
320,192,41596,1,0,0:0:0:0:
448,192,41675,1,0,0:0:0:0:
192,192,41753,1,2,0:0:0:0:
320,192,41832,1,0,0:0:0:0:
64,192,41910,1,0,0:0:0:0:
192,192,41989,1,0,0:0:0:0:
448,192,42067,1,2,0:0:0:0:
320,192,42067,1,0,0:0:0:0:
64,192,42224,1,0,0:0:0:0:
192,192,42381,1,2,0:0:0:0:
448,192,42381,1,0,0:0:0:0:
320,192,42538,1,0,0:0:0:0:
64,192,42695,1,2,0:0:0:0:
448,192,42695,1,0,0:0:0:0:
192,192,42853,1,0,0:0:0:0:
320,192,43010,1,2,0:0:0:0:
448,192,43010,1,0,0:0:0:0:
192,192,43167,1,0,0:0:0:0:
448,192,43324,1,2,0:0:0:0:
64,192,43324,1,0,0:0:0:0:
320,192,43481,1,0,0:0:0:0:
64,192,43638,1,2,0:0:0:0:
192,192,43638,1,0,0:0:0:0:
320,192,43795,1,0,0:0:0:0:
64,192,43952,1,2,0:0:0:0:
448,192,43952,1,4,0:0:0:0:
192,192,43952,1,0,0:0:0:0:
320,192,44031,1,0,0:0:0:0:
192,192,44188,1,0,0:0:0:0:
448,192,44266,1,2,0:0:0:0:
64,192,44345,1,0,0:0:0:0:
320,192,44423,1,0,0:0:0:0:
64,192,44580,1,2,0:0:0:0:
192,192,44580,1,0,0:0:0:0:
320,192,44737,1,0,0:0:0:0:
192,192,44816,1,0,0:0:0:0:
448,192,44894,128,2,45209:0:0:0:0:
192,192,45209,1,2,0:0:0:0:
64,192,45209,1,0,0:0:0:0:
320,192,45366,1,0,0:0:0:0:
192,192,45444,1,0,0:0:0:0:
64,192,45523,1,2,0:0:0:0:
448,192,45680,1,0,0:0:0:0:
192,192,45837,1,2,0:0:0:0:
64,192,45837,1,0,0:0:0:0:
320,192,45994,1,0,0:0:0:0:
192,192,46151,1,2,0:0:0:0:
448,192,46151,1,0,0:0:0:0:
64,192,46308,1,0,0:0:0:0:
320,192,46465,1,0,0:0:0:0:
448,192,46465,1,2,0:0:0:0:
192,192,46544,1,0,0:0:0:0:
64,192,46701,1,0,0:0:0:0:
192,192,46779,1,2,0:0:0:0:
448,192,46858,1,0,0:0:0:0:
320,192,46936,1,0,0:0:0:0:
448,192,47093,1,0,0:0:0:0:
64,192,47093,1,2,0:0:0:0:
192,192,47250,1,0,0:0:0:0:
320,192,47329,1,0,0:0:0:0:
64,192,47408,128,2,47722:0:0:0:0:
320,192,47722,1,2,0:0:0:0:
192,192,47722,1,0,0:0:0:0:
448,192,47879,1,0,0:0:0:0:
320,192,47957,1,0,0:0:0:0:
192,192,48036,1,2,0:0:0:0:
64,192,48193,1,0,0:0:0:0:
320,192,48350,1,2,0:0:0:0:
448,192,48350,1,0,0:0:0:0:
192,192,48507,1,0,0:0:0:0:
320,192,48664,1,2,0:0:0:0:
64,192,48664,1,0,0:0:0:0:
192,192,48821,1,0,0:0:0:0:
64,192,48978,1,4,0:0:0:0:
448,192,48978,1,2,0:0:0:0:
192,192,49057,1,2,0:0:0:0:
320,192,49135,1,2,0:0:0:0:
448,192,49214,1,2,0:0:0:0:
192,192,49292,1,2,0:0:0:0:
64,192,49371,1,2,0:0:0:0:
448,192,49449,1,2,0:0:0:0:
320,192,49528,1,2,0:0:0:0:
64,192,49606,1,2,0:0:0:0:
192,192,49606,1,0,0:0:0:0:
320,192,49764,1,0,0:0:0:0:
192,192,49842,1,0,0:0:0:0:
64,192,49921,1,2,0:0:0:0:
448,192,49921,1,4,0:0:0:0:
448,192,50235,1,4,0:0:0:0:
64,192,50235,1,2,0:0:0:0:
320,192,50313,1,2,0:0:0:0:
192,192,50392,1,2,0:0:0:0:
448,192,50470,1,2,0:0:0:0:
64,192,50549,1,2,0:0:0:0:
192,192,50627,1,2,0:0:0:0:
320,192,50706,1,2,0:0:0:0:
448,192,50784,1,2,0:0:0:0:
192,192,50863,1,2,0:0:0:0:
64,192,50863,1,0,0:0:0:0:
320,192,51020,1,0,0:0:0:0:
64,192,51177,1,4,0:0:0:0:
448,192,51177,1,2,0:0:0:0:
192,192,51334,1,0,0:0:0:0:
320,192,51491,1,4,0:0:0:0:
448,192,51491,1,2,0:0:0:0:
64,192,51570,1,2,0:0:0:0:
192,192,51648,1,2,0:0:0:0:
320,192,51727,1,2,0:0:0:0:
64,192,51805,1,4,0:0:0:0:
192,192,51805,1,2,0:0:0:0:
448,192,51884,1,2,0:0:0:0:
320,192,51962,1,2,0:0:0:0:
192,192,52041,1,2,0:0:0:0:
448,192,52120,1,2,0:0:0:0:
320,192,52120,1,4,0:0:0:0:
64,192,52277,1,2,0:0:0:0:
320,192,52277,1,4,0:0:0:0:
192,192,52434,1,2,0:0:0:0:
448,192,52434,1,4,0:0:0:0:
64,192,52591,1,4,0:0:0:0:
448,192,52591,1,2,0:0:0:0:
192,192,52905,1,2,0:0:0:0:
64,192,52905,1,4,0:0:0:0:
192,192,53219,1,2,0:0:0:0:
320,192,53219,1,4,0:0:0:0:
64,192,53376,1,2,0:0:0:0:
448,192,53376,1,4,0:0:0:0:
192,192,53533,1,2,0:0:0:0:
320,192,53533,1,4,0:0:0:0:
64,192,53690,1,2,0:0:0:0:
448,192,53690,1,4,0:0:0:0:
64,192,54004,1,4,0:0:0:0:
192,192,54004,1,0,0:0:0:0:
320,192,54161,1,0,0:0:0:0:
448,192,54319,1,0,0:0:0:0:
192,192,54476,1,0,0:0:0:0:
320,192,54633,1,0,0:0:0:0:
64,192,54790,1,0,0:0:0:0:
192,192,54947,1,0,0:0:0:0:
448,192,54947,1,0,0:0:0:0:
64,192,55261,1,0,0:0:0:0:
448,192,55261,1,0,0:0:0:0:
64,192,55575,1,0,0:0:0:0:
320,192,55575,1,0,0:0:0:0:
192,192,55889,1,0,0:0:0:0:
320,192,55889,1,0,0:0:0:0:
64,192,56203,1,0,0:0:0:0:
192,192,56203,1,0,0:0:0:0:
320,192,56517,1,0,0:0:0:0:
448,192,56517,1,0,0:0:0:0:
64,192,56675,1,0,0:0:0:0:
192,192,56832,1,0,0:0:0:0:
320,192,56989,1,0,0:0:0:0:
64,192,57146,1,0,0:0:0:0:
192,192,57303,1,0,0:0:0:0:
320,192,57460,1,0,0:0:0:0:
448,192,57617,1,0,0:0:0:0:
64,192,57774,1,0,0:0:0:0:
320,192,57931,1,0,0:0:0:0:
448,192,58088,1,0,0:0:0:0:
192,192,58088,1,0,0:0:0:0:
192,192,58402,1,0,0:0:0:0:
320,192,58402,1,0,0:0:0:0:
64,192,58716,1,0,0:0:0:0:
448,192,58716,1,0,0:0:0:0:
64,192,59031,1,2,0:0:0:0:
192,192,59031,1,4,0:0:0:0:
448,192,59031,1,0,0:0:0:0:
320,192,59188,1,0,0:0:0:0:
64,192,59345,1,2,0:0:0:0:
448,192,59502,1,0,0:0:0:0:
320,192,59659,1,2,0:0:0:0:
64,192,59816,1,0,0:0:0:0:
192,192,59973,1,2,0:0:0:0:
320,192,60130,1,0,0:0:0:0:
64,192,60287,1,2,0:0:0:0:
448,192,60444,1,0,0:0:0:0:
64,192,60601,1,2,0:0:0:0:
320,192,60601,1,0,0:0:0:0:
192,192,60915,1,2,0:0:0:0:
320,192,60915,1,0,0:0:0:0:
192,192,61229,1,2,0:0:0:0:
448,192,61229,1,0,0:0:0:0:
320,192,61544,1,2,0:0:0:0:
448,192,61544,1,0,0:0:0:0:
64,192,61701,1,0,0:0:0:0:
192,192,61858,1,2,0:0:0:0:
320,192,62015,1,0,0:0:0:0:
64,192,62172,1,2,0:0:0:0:
448,192,62172,1,0,0:0:0:0:
192,192,62329,1,0,0:0:0:0:
320,192,62486,1,2,0:0:0:0:
448,192,62643,1,0,0:0:0:0:
64,192,62800,1,4,0:0:0:0:
192,192,62800,1,2,0:0:0:0:
64,192,63114,1,2,0:0:0:0:
320,192,63114,1,4,0:0:0:0:
320,192,63428,1,4,0:0:0:0:
448,192,63428,1,2,0:0:0:0:
64,192,63743,1,2,0:0:0:0:
192,192,63743,1,4,0:0:0:0:
64,192,64057,1,4,0:0:0:0:
448,192,64057,1,2,0:0:0:0:
320,192,64057,1,0,0:0:0:0:
192,192,64214,1,0,0:0:0:0:
320,192,64371,1,2,0:0:0:0:
448,192,64528,1,0,0:0:0:0:
64,192,64685,1,2,0:0:0:0:
320,192,64842,1,0,0:0:0:0:
448,192,64999,1,2,0:0:0:0:
192,192,64999,1,0,0:0:0:0:
64,192,65156,1,0,0:0:0:0:
320,192,65313,1,2,0:0:0:0:
448,192,65313,1,0,0:0:0:0:
192,192,65470,1,0,0:0:0:0:
64,192,65627,1,2,0:0:0:0:
320,192,65627,1,0,0:0:0:0:
448,192,65784,1,0,0:0:0:0:
192,192,65942,1,2,0:0:0:0:
320,192,65942,1,0,0:0:0:0:
64,192,66099,1,0,0:0:0:0:
192,192,66256,1,2,0:0:0:0:
448,192,66256,1,0,0:0:0:0:
320,192,66413,1,0,0:0:0:0:
64,192,66570,1,2,0:0:0:0:
448,192,66570,1,0,0:0:0:0:
192,192,66727,1,0,0:0:0:0:
320,192,66884,1,2,0:0:0:0:
448,192,67041,1,0,0:0:0:0:
192,192,67198,1,2,0:0:0:0:
320,192,67355,1,0,0:0:0:0:
64,192,67512,1,2,0:0:0:0:
192,192,67669,1,0,0:0:0:0:
448,192,67826,1,2,0:0:0:0:
64,192,67983,1,0,0:0:0:0:
320,192,68140,1,2,0:0:0:0:
448,192,68140,1,0,0:0:0:0:
192,192,68298,1,0,0:0:0:0:
64,192,68455,1,2,0:0:0:0:
448,192,68455,1,0,0:0:0:0:
320,192,68612,1,0,0:0:0:0:
64,192,68769,1,2,0:0:0:0:
192,192,68769,1,0,0:0:0:0:
320,192,68926,1,0,0:0:0:0:
64,192,69083,1,2,0:0:0:0:
448,192,69083,1,4,0:0:0:0:
192,192,69083,1,0,0:0:0:0:
320,192,69240,1,0,0:0:0:0:
192,192,69397,1,2,0:0:0:0:
64,192,69554,1,0,0:0:0:0:
320,192,69711,1,2,0:0:0:0:
448,192,69868,1,0,0:0:0:0:
192,192,70025,1,2,0:0:0:0:
320,192,70182,1,0,0:0:0:0:
64,192,70339,1,2,0:0:0:0:
192,192,70497,1,0,0:0:0:0:
320,192,70654,1,2,0:0:0:0:
448,192,70654,1,0,0:0:0:0:
64,192,70811,1,0,0:0:0:0:
320,192,70968,1,2,0:0:0:0:
192,192,70968,1,0,0:0:0:0:
448,192,71125,1,0,0:0:0:0:
64,192,71282,1,2,0:0:0:0:
320,192,71282,1,0,0:0:0:0:
192,192,71439,1,0,0:0:0:0:
64,192,71596,1,2,0:0:0:0:
448,192,71596,1,0,0:0:0:0:
320,192,71753,1,0,0:0:0:0:
448,192,71910,1,2,0:0:0:0:
192,192,72067,1,0,0:0:0:0:
320,192,72224,1,0,0:0:0:0:
64,192,72224,1,0,0:0:0:0:
192,192,72303,1,0,0:0:0:0:
448,192,72381,1,2,0:0:0:0:
320,192,72460,1,2,0:0:0:0:
64,192,72538,1,2,0:0:0:0:
192,192,72617,1,2,0:0:0:0:
448,192,72695,1,2,0:0:0:0:
320,192,72774,1,2,0:0:0:0:
64,192,73010,1,2,0:0:0:0:
192,192,73010,1,4,0:0:0:0:
192,192,73324,1,4,0:0:0:0:
320,192,73324,1,2,0:0:0:0:
64,192,73481,1,2,0:0:0:0:
448,192,73481,1,4,0:0:0:0:
192,192,73638,1,2,0:0:0:0:
320,192,73638,1,4,0:0:0:0:
64,192,73795,1,2,0:0:0:0:
448,192,73795,1,4,0:0:0:0:
64,192,74109,1,4,0:0:0:0:
448,192,74109,1,2,0:0:0:0:
192,192,74188,1,0,0:0:0:0:
320,192,74266,1,0,0:0:0:0:
64,192,74345,1,0,0:0:0:0:
448,192,74423,1,2,0:0:0:0:
192,192,74502,1,0,0:0:0:0:
320,192,74580,1,0,0:0:0:0:
64,192,74659,1,0,0:0:0:0:
192,192,74737,1,2,0:0:0:0:
448,192,74816,1,0,0:0:0:0:
64,192,74894,1,0,0:0:0:0:
320,192,74973,1,0,0:0:0:0:
192,192,75051,1,2,0:0:0:0:
448,192,75130,1,0,0:0:0:0:
320,192,75209,1,0,0:0:0:0:
64,192,75287,1,0,0:0:0:0:
448,192,75366,1,2,0:0:0:0:
192,192,75444,1,0,0:0:0:0:
64,192,75523,1,0,0:0:0:0:
448,192,75601,1,0,0:0:0:0:
192,192,75680,1,2,0:0:0:0:
320,192,75758,1,0,0:0:0:0:
448,192,75837,1,0,0:0:0:0:
64,192,75915,1,0,0:0:0:0:
320,192,75994,1,2,0:0:0:0:
192,192,76072,1,0,0:0:0:0:
320,192,76151,1,0,0:0:0:0:
192,192,76229,1,0,0:0:0:0:
320,192,76308,128,2,76622:0:0:0:0:
64,192,76622,1,2,0:0:0:0:
192,192,76701,1,0,0:0:0:0:
320,192,76779,1,0,0:0:0:0:
64,192,76858,1,0,0:0:0:0:
448,192,76936,1,2,0:0:0:0:
192,192,77015,1,0,0:0:0:0:
320,192,77093,1,0,0:0:0:0:
64,192,77172,1,0,0:0:0:0:
192,192,77250,1,2,0:0:0:0:
448,192,77329,1,0,0:0:0:0:
64,192,77408,1,0,0:0:0:0:
320,192,77486,1,0,0:0:0:0:
192,192,77565,1,2,0:0:0:0:
64,192,77643,1,0,0:0:0:0:
320,192,77722,1,0,0:0:0:0:
192,192,77800,1,0,0:0:0:0:
448,192,77879,1,2,0:0:0:0:
64,192,77957,1,0,0:0:0:0:
320,192,78036,1,0,0:0:0:0:
192,192,78114,1,0,0:0:0:0:
448,192,78193,1,2,0:0:0:0:
320,192,78271,1,0,0:0:0:0:
64,192,78350,1,0,0:0:0:0:
448,192,78428,1,0,0:0:0:0:
192,192,78507,1,2,0:0:0:0:
320,192,78586,1,0,0:0:0:0:
192,192,78664,1,0,0:0:0:0:
320,192,78743,1,0,0:0:0:0:
192,192,78821,128,2,79135:0:0:0:0:
64,192,79135,1,2,0:0:0:0:
448,192,79135,1,4,0:0:0:0:
320,192,79214,1,0,0:0:0:0:
192,192,79292,1,0,0:0:0:0:
448,192,79371,1,0,0:0:0:0:
64,192,79449,1,2,0:0:0:0:
192,192,79528,1,0,0:0:0:0:
320,192,79606,1,0,0:0:0:0:
64,192,79685,1,0,0:0:0:0:
448,192,79764,1,2,0:0:0:0:
320,192,79842,1,0,0:0:0:0:
192,192,79921,1,0,0:0:0:0:
448,192,79999,1,0,0:0:0:0:
64,192,80078,1,2,0:0:0:0:
192,192,80156,1,0,0:0:0:0:
320,192,80235,1,0,0:0:0:0:
64,192,80313,1,0,0:0:0:0:
320,192,80392,1,4,0:0:0:0:
448,192,80392,1,2,0:0:0:0:
192,192,80470,1,0,0:0:0:0:
64,192,80549,1,0,0:0:0:0:
320,192,80627,1,0,0:0:0:0:
192,192,80706,1,2,0:0:0:0:
448,192,80784,1,0,0:0:0:0:
320,192,80863,1,0,0:0:0:0:
64,192,80942,1,0,0:0:0:0:
448,192,81020,1,2,0:0:0:0:
192,192,81099,1,0,0:0:0:0:
320,192,81177,1,0,0:0:0:0:
64,192,81256,1,0,0:0:0:0:
192,192,81334,1,2,0:0:0:0:
448,192,81413,1,0,0:0:0:0:
320,192,81491,1,0,0:0:0:0:
192,192,81570,1,0,0:0:0:0:
64,192,81648,1,2,0:0:0:0:
448,192,81648,1,4,0:0:0:0:
320,192,81727,1,0,0:0:0:0:
192,192,81805,1,0,0:0:0:0:
320,192,81884,1,0,0:0:0:0:
64,192,81962,1,2,0:0:0:0:
448,192,81962,1,4,0:0:0:0:
192,192,82041,1,0,0:0:0:0:
320,192,82120,1,0,0:0:0:0:
448,192,82198,1,0,0:0:0:0:
64,192,82277,1,2,0:0:0:0:
192,192,82277,1,4,0:0:0:0:
320,192,82355,1,0,0:0:0:0:
64,192,82434,1,2,0:0:0:0:
192,192,82434,1,4,0:0:0:0:
448,192,82512,1,0,0:0:0:0:
320,192,82591,1,0,0:0:0:0:
192,192,82669,1,0,0:0:0:0:
448,192,82748,1,2,0:0:0:0:
64,192,82748,1,4,0:0:0:0:
64,192,83062,1,0,0:0:0:0:
192,192,83062,1,0,0:0:0:0:
192,192,83376,1,0,0:0:0:0:
320,192,83376,1,0,0:0:0:0:
64,192,83533,1,0,0:0:0:0:
448,192,83533,1,0,0:0:0:0:
192,192,83690,1,0,0:0:0:0:
320,192,83690,1,0,0:0:0:0:
64,192,83847,1,0,0:0:0:0:
448,192,83847,1,0,0:0:0:0:
192,192,84319,1,2,0:0:0:0:
320,192,84319,1,4,0:0:0:0:
64,192,84633,1,2,0:0:0:0:
192,192,84633,1,4,0:0:0:0:
320,192,84790,1,4,0:0:0:0:
448,192,84790,1,2,0:0:0:0:
64,192,84947,1,2,0:0:0:0:
192,192,84947,1,4,0:0:0:0:
448,192,85104,1,4,0:0:0:0:
320,192,85104,128,2,86360:0:0:0:0:
64,192,86360,1,0,0:0:0:0:
448,192,86360,1,0,0:0:0:0:
192,192,86675,1,2,0:0:0:0:
320,192,86675,1,4,0:0:0:0:
64,192,86753,1,0,0:0:0:0:
448,192,86753,1,0,0:0:0:0:
192,192,86910,1,0,0:0:0:0:
320,192,86910,1,0,0:0:0:0:
64,192,87067,1,0,0:0:0:0:
448,192,87067,1,0,0:0:0:0:
192,192,87146,1,0,0:0:0:0:
320,192,87146,1,0,0:0:0:0:
64,192,87303,1,2,0:0:0:0:
448,192,87303,1,0,0:0:0:0:
192,192,87460,1,0,0:0:0:0:
320,192,87538,1,0,0:0:0:0:
448,192,87617,128,2,88245:0:0:0:0:
64,192,87617,1,0,0:0:0:0:
320,192,87931,128,2,88559:0:0:0:0:
192,192,87931,1,0,0:0:0:0:
192,192,88245,128,2,88873:0:0:0:0:
64,192,88245,1,0,0:0:0:0:
64,192,88559,128,2,89188:0:0:0:0:
448,192,88559,1,0,0:0:0:0:
448,192,88873,128,2,89188:0:0:0:0:
320,192,88873,1,0,0:0:0:0:
192,192,89188,1,2,0:0:0:0:
320,192,89188,1,0,0:0:0:0:
64,192,89266,1,0,0:0:0:0:
448,192,89266,1,0,0:0:0:0:
192,192,89423,1,0,0:0:0:0:
320,192,89423,1,0,0:0:0:0:
64,192,89580,1,0,0:0:0:0:
448,192,89580,1,0,0:0:0:0:
192,192,89659,1,0,0:0:0:0:
320,192,89659,1,0,0:0:0:0:
64,192,89816,1,2,0:0:0:0:
448,192,89816,1,0,0:0:0:0:
320,192,89973,1,0,0:0:0:0:
192,192,90051,1,0,0:0:0:0:
64,192,90130,1,2,0:0:0:0:
448,192,90130,128,0,90444:0:0:0:0:
64,192,90444,1,2,0:0:0:0:
320,192,90444,128,0,90758:0:0:0:0:
192,192,90758,128,2,91387:0:0:0:0:
64,192,90758,128,0,91072:0:0:0:0:
320,192,91072,128,2,91701:0:0:0:0:
448,192,91072,1,0,0:0:0:0:
448,192,91387,128,2,91701:0:0:0:0:
64,192,91387,1,0,0:0:0:0:
64,192,91701,1,2,0:0:0:0:
192,192,91701,1,0,0:0:0:0:
320,192,91779,1,0,0:0:0:0:
448,192,91779,1,0,0:0:0:0:
192,192,91936,1,0,0:0:0:0:
64,192,91936,1,0,0:0:0:0:
320,192,92093,1,0,0:0:0:0:
448,192,92093,1,0,0:0:0:0:
192,192,92172,1,0,0:0:0:0:
64,192,92172,1,0,0:0:0:0:
320,192,92329,1,2,0:0:0:0:
448,192,92329,1,0,0:0:0:0:
192,192,92486,1,0,0:0:0:0:
320,192,92565,1,0,0:0:0:0:
64,192,92643,1,2,0:0:0:0:
448,192,92643,128,0,92957:0:0:0:0:
64,192,92957,1,2,0:0:0:0:
192,192,92957,1,0,0:0:0:0:
320,192,93114,1,2,0:0:0:0:
448,192,93114,1,0,0:0:0:0:
64,192,93271,1,2,0:0:0:0:
192,192,93271,1,0,0:0:0:0:
320,192,93428,1,2,0:0:0:0:
448,192,93428,1,0,0:0:0:0:
64,192,93586,1,2,0:0:0:0:
320,192,93586,1,0,0:0:0:0:
192,192,93664,1,2,0:0:0:0:
320,192,93743,1,2,0:0:0:0:
448,192,93821,1,2,0:0:0:0:
64,192,93900,1,2,0:0:0:0:
320,192,93978,1,2,0:0:0:0:
192,192,94057,1,2,0:0:0:0:
64,192,94135,1,2,0:0:0:0:
320,192,94214,1,4,0:0:0:0:
448,192,94214,1,2,0:0:0:0:
192,192,94371,1,6,0:0:0:0:
320,192,94449,1,0,0:0:0:0:
64,192,94528,1,6,0:0:0:0:
448,192,94606,1,0,0:0:0:0:
192,192,94685,1,6,0:0:0:0:
320,192,94764,1,0,0:0:0:0:
64,192,94842,1,0,0:0:0:0:
192,192,94999,1,2,0:0:0:0:
320,192,94999,1,4,0:0:0:0:
64,192,95156,1,4,0:0:0:0:
448,192,95156,1,2,0:0:0:0:
320,192,95313,1,2,0:0:0:0:
448,192,95313,1,4,0:0:0:0:
64,192,95627,1,4,0:0:0:0:
192,192,95627,1,2,0:0:0:0:
64,192,95942,1,4,0:0:0:0:
320,192,95942,1,2,0:0:0:0:
320,192,96099,1,2,0:0:0:0:
448,192,96099,1,4,0:0:0:0:
64,192,96256,1,2,0:0:0:0:
192,192,96256,1,4,0:0:0:0:
64,192,96413,1,2,0:0:0:0:
320,192,96413,1,4,0:0:0:0:
320,192,96570,1,2,0:0:0:0:
448,192,96570,1,4,0:0:0:0:
192,192,96727,1,4,0:0:0:0:
64,192,96727,128,2,96884:0:0:0:0:
448,192,96727,1,0,0:0:0:0:
320,192,96884,128,0,97041:0:0:0:0:
448,192,97041,128,2,97198:0:0:0:0:
192,192,97041,1,0,0:0:0:0:
64,192,97198,128,0,97355:0:0:0:0:
192,192,97355,128,2,97512:0:0:0:0:
320,192,97355,1,0,0:0:0:0:
448,192,97512,1,0,0:0:0:0:
320,192,97565,1,0,0:0:0:0:
192,192,97617,1,0,0:0:0:0:
64,192,97669,128,2,97826:0:0:0:0:
192,192,97826,128,0,97983:0:0:0:0:
320,192,97983,128,2,98140:0:0:0:0:
448,192,97983,1,0,0:0:0:0:
64,192,98140,128,0,98298:0:0:0:0:
320,192,98298,1,2,0:0:0:0:
192,192,98298,128,0,98455:0:0:0:0:
448,192,98455,128,0,98612:0:0:0:0:
320,192,98612,128,2,98769:0:0:0:0:
192,192,98612,1,0,0:0:0:0:
64,192,98769,1,0,0:0:0:0:
192,192,98821,1,0,0:0:0:0:
320,192,98873,1,0,0:0:0:0:
448,192,98926,128,2,99083:0:0:0:0:
64,192,99083,128,0,99240:0:0:0:0:
192,192,99240,128,2,99397:0:0:0:0:
320,192,99240,1,0,0:0:0:0:
448,192,99397,1,0,0:0:0:0:
320,192,99449,1,0,0:0:0:0:
192,192,99502,1,0,0:0:0:0:
64,192,99554,128,2,99711:0:0:0:0:
192,192,99711,128,0,99868:0:0:0:0:
448,192,99868,128,2,100025:0:0:0:0:
320,192,99868,1,0,0:0:0:0:
64,192,100025,128,0,100182:0:0:0:0:
192,192,100182,128,2,100339:0:0:0:0:
448,192,100182,1,0,0:0:0:0:
320,192,100339,128,0,100497:0:0:0:0:
64,192,100497,1,6,0:0:0:0:
192,192,100549,1,0,0:0:0:0:
320,192,100601,1,0,0:0:0:0:
448,192,100654,128,0,100811:0:0:0:0:
192,192,100811,1,6,0:0:0:0:
320,192,100863,1,0,0:0:0:0:
448,192,100915,1,0,0:0:0:0:
64,192,100968,128,0,101125:0:0:0:0:
320,192,101125,1,6,0:0:0:0:
192,192,101177,1,0,0:0:0:0:
64,192,101229,1,0,0:0:0:0:
448,192,101282,128,0,101439:0:0:0:0:
192,192,101439,1,6,0:0:0:0:
320,192,101491,1,0,0:0:0:0:
448,192,101544,1,0,0:0:0:0:
64,192,101596,128,0,101753:0:0:0:0:
320,192,101753,1,2,0:0:0:0:
448,192,101753,1,4,0:0:0:0:
64,192,101832,1,2,0:0:0:0:
192,192,101832,1,0,0:0:0:0:
320,192,101989,1,2,0:0:0:0:
448,192,101989,1,0,0:0:0:0:
64,192,102146,1,2,0:0:0:0:
192,192,102146,1,0,0:0:0:0:
320,192,102224,1,2,0:0:0:0:
448,192,102224,1,0,0:0:0:0:
64,192,102381,1,2,0:0:0:0:
192,192,102381,1,0,0:0:0:0:
320,192,102538,1,2,0:0:0:0:
192,192,102617,1,2,0:0:0:0:
64,192,102695,1,4,0:0:0:0:
448,192,102695,1,2,0:0:0:0:
64,192,103010,1,4,0:0:0:0:
192,192,103010,1,2,0:0:0:0:
448,192,103088,1,2,0:0:0:0:
320,192,103088,1,0,0:0:0:0:
64,192,103245,1,2,0:0:0:0:
192,192,103245,1,0,0:0:0:0:
320,192,103402,1,2,0:0:0:0:
448,192,103402,1,0,0:0:0:0:
64,192,103481,1,2,0:0:0:0:
192,192,103481,1,0,0:0:0:0:
320,192,103638,1,2,0:0:0:0:
448,192,103638,1,0,0:0:0:0:
192,192,103795,1,2,0:0:0:0:
320,192,103873,1,2,0:0:0:0:
64,192,103952,1,4,0:0:0:0:
448,192,103952,1,2,0:0:0:0:
192,192,104109,1,0,0:0:0:0:
448,192,104266,1,2,0:0:0:0:
320,192,104266,1,4,0:0:0:0:
64,192,104345,1,2,0:0:0:0:
192,192,104423,1,2,0:0:0:0:
320,192,104502,1,2,0:0:0:0:
64,192,104580,1,4,0:0:0:0:
448,192,104580,1,2,0:0:0:0:
192,192,104659,1,2,0:0:0:0:
320,192,104737,1,2,0:0:0:0:
448,192,104816,1,2,0:0:0:0:
64,192,104894,1,2,0:0:0:0:
192,192,104894,1,4,0:0:0:0:
64,192,105051,1,4,0:0:0:0:
320,192,105051,1,2,0:0:0:0:
192,192,105209,1,2,0:0:0:0:
448,192,105209,1,4,0:0:0:0:
320,192,105366,1,4,0:0:0:0:
448,192,105366,1,2,0:0:0:0:
64,192,105680,1,2,0:0:0:0:
192,192,105680,1,4,0:0:0:0:
192,192,105994,1,4,0:0:0:0:
320,192,105994,1,2,0:0:0:0:
448,192,106151,1,2,0:0:0:0:
64,192,106151,1,4,0:0:0:0:
192,192,106308,1,4,0:0:0:0:
320,192,106308,1,2,0:0:0:0:
64,192,106465,1,2,0:0:0:0:
448,192,106465,1,4,0:0:0:0:
192,192,106779,1,4,0:0:0:0:
320,192,106779,1,0,0:0:0:0:
