osu file format v14

[General]
AudioFilename: audio.mp3
AudioLeadIn: 0
PreviewTime: 44807
Countdown: 0
SampleSet: Normal
StackLeniency: 0.7
Mode: 1
LetterboxInBreaks: 0
WidescreenStoryboard: 1

[Editor]
Bookmarks: 864,14385,27906,34666,44807,58328,73540
DistanceSpacing: 0.8
BeatDivisor: 2
GridSize: 16
TimelineZoom: 1

[Metadata]
Title:Ippan Dansei Dappun Series Konsei Sanbu Gasshou
TitleUnicode:一般男性脱糞シリーズ 混成三部合唱
Artist:yuyuuta
ArtistUnicode:ゆゆうた
Creator:Mrriichi
Version:Hutsuu
Source:niconico
Tags:karasawa takahiro
BeatmapID:1450412
BeatmapSetID:685362

[Difficulty]
HPDrainRate:5
CircleSize:5
OverallDifficulty:5
ApproachRate:5
SliderMultiplier:1.4
SliderTickRate:1

[Events]
//Background and Video events
0,0,"CvXEYKyVYAEdaHb.jpg",0,0
//Break Periods
//Storyboard Layer 0 (Background)
//Storyboard Layer 1 (Fail)
//Storyboard Layer 2 (Pass)
//Storyboard Layer 3 (Foreground)
//Storyboard Sound Samples

[TimingPoints]
864,422.535211267606,4,1,0,75,1,0

[HitObjects]
128,192,864,5,0,0:0:0:0:
112,176,1286,1,2,0:0:0:0:
112,176,1497,1,0,0:0:0:0:
144,128,1920,1,0,0:0:0:0:
144,128,2131,1,0,0:0:0:0:
144,128,2342,1,2,0:0:0:0:
128,224,2448,1,2,0:0:0:0:
144,128,2554,1,0,0:0:0:0:
144,128,2765,1,0,0:0:0:0:
144,128,2976,1,2,0:0:0:0:
144,128,3187,1,0,0:0:0:0:
144,128,3610,1,2,0:0:0:0:
144,128,3821,1,0,0:0:0:0:
144,128,4033,1,2,0:0:0:0:
144,128,4244,1,2,0:0:0:0:
144,128,4455,1,0,0:0:0:0:
144,128,4878,1,2,0:0:0:0:
144,128,5300,1,2,0:0:0:0:
144,128,5511,1,0,0:0:0:0:
304,224,5723,1,0,0:0:0:0:
304,224,5828,1,0,0:0:0:0:
304,224,5934,1,2,0:0:0:0:
48,224,6145,1,0,0:0:0:0:
464,304,6356,1,2,0:0:0:0:
144,240,6568,1,0,0:0:0:0:
144,240,6990,1,0,0:0:0:0:
144,240,7202,1,0,0:0:0:0:
144,240,7413,1,2,0:0:0:0:
400,208,7624,1,0,0:0:0:0:
272,224,8047,1,0,0:0:0:0:
272,224,8258,1,2,0:0:0:0:
272,224,8680,1,0,0:0:0:0:
272,224,8892,1,0,0:0:0:0:
272,224,9103,1,2,0:0:0:0:
256,224,9525,1,0,0:0:0:0:
256,224,9737,1,2,0:0:0:0:
256,224,9948,1,2,0:0:0:0:
256,224,10371,1,0,0:0:0:0:
256,224,10582,1,2,0:0:0:0:
256,224,11004,1,4,0:0:0:0:
256,224,11427,1,4,0:0:0:0:
256,224,11849,1,0,0:0:0:0:
256,224,12061,1,2,0:0:0:0:
336,176,12272,1,0,0:0:0:0:
256,224,12483,1,2,0:0:0:0:
192,192,12906,1,2,0:0:0:0:
192,192,13117,1,0,0:0:0:0:
240,160,13328,1,2,0:0:0:0:
240,160,13434,1,2,0:0:0:0:
240,160,13540,1,0,0:0:0:0:
208,208,13751,1,0,0:0:0:0:
192,224,13962,1,2,0:0:0:0:
112,224,14385,1,0,0:0:0:0:
112,224,14807,1,2,0:0:0:0:
112,224,15018,1,0,0:0:0:0:
112,224,15441,1,2,0:0:0:0:
112,224,15652,1,0,0:0:0:0:
112,224,15864,1,2,0:0:0:0:
112,224,16075,1,0,0:0:0:0:
112,224,16497,1,2,0:0:0:0:
112,224,16709,1,0,0:0:0:0:
112,224,17131,1,2,0:0:0:0:
112,224,17342,1,0,0:0:0:0:
112,224,17554,1,0,0:0:0:0:
112,224,17765,1,2,0:0:0:0:
112,224,18187,1,0,0:0:0:0:
112,224,18399,1,2,0:0:0:0:
112,224,18821,1,0,0:0:0:0:
112,224,19033,1,2,0:0:0:0:
112,224,19244,1,0,0:0:0:0:
112,224,19455,1,2,0:0:0:0:
112,224,19878,1,0,0:0:0:0:
112,224,20089,1,0,0:0:0:0:
112,224,20300,1,2,0:0:0:0:
112,224,20511,1,0,0:0:0:0:
112,224,20723,1,2,0:0:0:0:
112,224,20934,1,2,0:0:0:0:
112,224,21145,1,0,0:0:0:0:
160,176,21568,1,2,0:0:0:0:
160,176,21779,1,0,0:0:0:0:
160,176,22202,1,2,0:0:0:0:
160,176,22413,1,0,0:0:0:0:
160,176,22624,1,2,0:0:0:0:
160,176,22835,1,0,0:0:0:0:
160,176,23258,1,2,0:0:0:0:
160,176,23469,1,0,0:0:0:0:
160,176,23892,1,2,0:0:0:0:
160,176,24103,1,0,0:0:0:0:
160,176,24314,1,0,0:0:0:0:
160,176,24525,1,2,0:0:0:0:
160,176,24948,1,0,0:0:0:0:
160,176,25159,1,2,0:0:0:0:
160,176,25371,1,0,0:0:0:0:
160,176,25582,1,2,0:0:0:0:
160,176,25793,1,2,0:0:0:0:
160,176,26004,1,0,0:0:0:0:
160,176,26427,1,0,0:0:0:0:
160,176,26638,1,2,0:0:0:0:
160,176,26849,1,2,0:0:0:0:
160,176,27061,1,0,0:0:0:0:
160,176,27272,1,2,0:0:0:0:
128,176,27483,1,0,0:0:0:0:
288,128,27694,1,2,0:0:0:0:
288,128,27800,1,2,0:0:0:0:
288,128,27906,1,0,0:0:0:0:
224,176,28328,1,2,0:0:0:0:
224,176,28540,1,0,0:0:0:0:
224,176,28962,1,2,0:0:0:0:
224,176,29173,1,0,0:0:0:0:
224,176,29385,1,2,0:0:0:0:
224,176,29596,1,0,0:0:0:0:
224,176,30018,1,2,0:0:0:0:
224,176,30230,1,0,0:0:0:0:
224,176,30652,1,2,0:0:0:0:
224,176,30864,1,0,0:0:0:0:
224,176,31075,1,0,0:0:0:0:
224,176,31286,1,2,0:0:0:0:
112,224,31709,1,0,0:0:0:0:
112,224,31920,1,0,0:0:0:0:
112,224,32131,1,2,0:0:0:0:
112,224,32342,1,0,0:0:0:0:
112,224,32554,1,2,0:0:0:0:
112,224,32765,1,2,0:0:0:0:
112,224,32976,1,0,0:0:0:0:
144,208,33399,1,2,0:0:0:0:
144,208,33610,1,0,0:0:0:0:
144,208,34033,1,2,0:0:0:0:
144,208,34244,1,0,0:0:0:0:
144,208,34455,1,2,0:0:0:0:
256,192,34561,1,2,0:0:0:0:
144,208,34666,1,0,0:0:0:0:
224,208,35089,1,2,0:0:0:0:
224,208,35300,1,0,0:0:0:0:
224,208,35511,1,2,0:0:0:0:
224,208,35723,1,0,0:0:0:0:
240,256,35934,1,2,0:0:0:0:
272,192,36145,1,0,0:0:0:0:
272,208,36251,1,0,0:0:0:0:
240,256,36356,1,2,0:0:0:0:
240,256,36568,1,2,0:0:0:0:
240,256,36779,1,0,0:0:0:0:
240,256,36990,1,2,0:0:0:0:
240,256,37202,1,2,0:0:0:0:
240,256,37413,1,0,0:0:0:0:
240,256,37624,1,2,0:0:0:0:
240,256,37835,1,0,0:0:0:0:
240,256,38047,1,2,0:0:0:0:
224,208,38469,1,0,0:0:0:0:
224,208,38680,1,2,0:0:0:0:
224,208,38891,1,0,0:0:0:0:
224,208,39103,1,2,0:0:0:0:
240,256,39314,1,0,0:0:0:0:
240,256,39525,1,2,0:0:0:0:
272,208,39631,1,2,0:0:0:0:
240,256,39736,1,0,0:0:0:0:
240,256,39948,1,0,0:0:0:0:
240,256,40159,1,2,0:0:0:0:
240,256,40371,1,0,0:0:0:0:
240,256,40582,1,0,0:0:0:0:
240,256,40793,1,2,0:0:0:0:
240,256,41004,1,0,0:0:0:0:
240,256,41215,1,2,0:0:0:0:
240,256,41427,1,0,0:0:0:0:
208,192,41849,1,2,0:0:0:0:
208,192,42061,1,2,0:0:0:0:
208,192,42272,1,0,0:0:0:0:
208,192,42483,1,2,0:0:0:0:
208,192,42906,1,4,0:0:0:0:
192,192,44807,1,0,0:0:0:0:
224,208,45230,1,2,0:0:0:0:
224,208,45441,1,0,0:0:0:0:
224,208,45652,1,2,0:0:0:0:
224,208,45864,1,0,0:0:0:0:
240,256,46075,1,2,0:0:0:0:
272,192,46286,1,2,0:0:0:0:
384,288,46392,1,2,0:0:0:0:
240,256,46497,1,0,0:0:0:0:
240,256,46709,1,2,0:0:0:0:
240,256,46920,1,0,0:0:0:0:
240,256,47131,1,2,0:0:0:0:
240,256,47343,1,2,0:0:0:0:
240,256,47554,1,0,0:0:0:0:
240,256,47765,1,2,0:0:0:0:
240,256,47976,1,0,0:0:0:0:
240,256,48187,1,2,0:0:0:0:
224,208,48610,1,0,0:0:0:0:
224,208,48821,1,2,0:0:0:0:
336,272,48927,1,2,0:0:0:0:
224,208,49032,1,0,0:0:0:0:
224,208,49244,1,0,0:0:0:0:
240,256,49455,1,2,0:0:0:0:
240,256,49666,1,2,0:0:0:0:
240,256,49877,1,0,0:0:0:0:
240,256,50089,1,0,0:0:0:0:
400,272,50194,1,0,0:0:0:0:
240,256,50300,1,2,0:0:0:0:
240,256,50512,1,0,0:0:0:0:
240,256,50723,1,2,0:0:0:0:
240,160,50934,1,0,0:0:0:0:
240,256,51145,1,2,0:0:0:0:
240,256,51568,1,0,0:0:0:0:
224,208,51991,1,2,0:0:0:0:
224,208,52202,1,0,0:0:0:0:
224,208,52413,1,2,0:0:0:0:
224,208,52625,1,0,0:0:0:0:
240,256,52836,1,2,0:0:0:0:
272,192,53047,1,2,0:0:0:0:
384,288,53153,1,2,0:0:0:0:
240,256,53258,1,0,0:0:0:0:
240,256,53470,1,2,0:0:0:0:
240,256,53681,1,0,0:0:0:0:
240,256,53892,1,2,0:0:0:0:
240,256,54104,1,2,0:0:0:0:
240,256,54315,1,0,0:0:0:0:
240,256,54526,1,2,0:0:0:0:
240,256,54737,1,0,0:0:0:0:
240,256,54948,1,2,0:0:0:0:
224,208,55371,1,0,0:0:0:0:
224,208,55582,1,2,0:0:0:0:
336,272,55688,1,2,0:0:0:0:
224,208,55793,1,0,0:0:0:0:
224,208,56005,1,0,0:0:0:0:
240,256,56216,1,2,0:0:0:0:
240,256,56427,1,2,0:0:0:0:
240,256,56638,1,0,0:0:0:0:
240,256,56850,1,0,0:0:0:0:
400,272,56955,1,0,0:0:0:0:
240,256,57061,1,2,0:0:0:0:
240,256,57273,1,0,0:0:0:0:
160,208,57694,1,0,0:0:0:0:
144,208,57906,1,6,0:0:0:0:
192,192,58328,1,0,0:0:0:0:
224,208,58751,1,2,0:0:0:0:
224,208,58962,1,0,0:0:0:0:
224,208,59173,1,2,0:0:0:0:
224,208,59385,1,0,0:0:0:0:
240,256,59596,1,2,0:0:0:0:
272,192,59807,1,2,0:0:0:0:
384,288,59913,1,2,0:0:0:0:
240,256,60018,1,0,0:0:0:0:
240,256,60230,1,2,0:0:0:0:
240,256,60441,1,0,0:0:0:0:
240,256,60652,1,2,0:0:0:0:
240,256,60864,1,2,0:0:0:0:
240,256,61075,1,0,0:0:0:0:
240,256,61286,1,2,0:0:0:0:
240,256,61497,1,0,0:0:0:0:
240,256,61708,1,2,0:0:0:0:
224,208,62131,1,0,0:0:0:0:
224,208,62342,1,2,0:0:0:0:
336,272,62448,1,2,0:0:0:0:
224,208,62553,1,0,0:0:0:0:
224,208,62765,1,0,0:0:0:0:
240,256,62976,1,2,0:0:0:0:
240,256,63187,1,2,0:0:0:0:
240,256,63398,1,0,0:0:0:0:
240,256,63610,1,0,0:0:0:0:
400,272,63715,1,0,0:0:0:0:
240,256,63821,1,2,0:0:0:0:
240,256,64033,1,0,0:0:0:0:
240,256,64244,1,2,0:0:0:0:
240,160,64455,1,0,0:0:0:0:
240,256,64666,1,2,0:0:0:0:
240,256,65089,1,0,0:0:0:0:
224,208,65512,1,2,0:0:0:0:
224,208,65723,1,0,0:0:0:0:
224,208,65934,1,2,0:0:0:0:
224,208,66146,1,0,0:0:0:0:
240,256,66357,1,2,0:0:0:0:
272,192,66568,1,2,0:0:0:0:
384,288,66674,1,2,0:0:0:0:
240,256,66779,1,0,0:0:0:0:
240,256,66991,1,2,0:0:0:0:
240,256,67202,1,0,0:0:0:0:
240,256,67413,1,2,0:0:0:0:
240,256,67625,1,2,0:0:0:0:
240,256,67836,1,0,0:0:0:0:
240,256,68047,1,2,0:0:0:0:
240,256,68258,1,0,0:0:0:0:
240,256,68469,1,2,0:0:0:0:
224,208,68892,1,0,0:0:0:0:
224,208,69103,1,2,0:0:0:0:
336,272,69209,1,2,0:0:0:0:
224,208,69314,1,0,0:0:0:0:
224,208,69526,1,0,0:0:0:0:
240,256,69737,1,2,0:0:0:0:
240,256,69948,1,2,0:0:0:0:
240,256,70159,1,0,0:0:0:0:
240,256,70371,1,0,0:0:0:0:
400,272,70476,1,0,0:0:0:0:
240,256,70582,1,2,0:0:0:0:
240,256,70794,1,4,0:0:0:0:
160,208,71215,1,4,0:0:0:0:
288,192,71638,1,4,0:0:0:0:
64,176,71849,1,2,0:0:0:0:
288,160,72272,1,0,0:0:0:0:
288,160,72483,1,2,0:0:0:0:
288,160,72694,1,0,0:0:0:0:
288,160,72906,1,2,0:0:0:0:
288,160,73117,1,0,0:0:0:0:
288,160,73328,1,2,0:0:0:0:
