osu file format v14

[General]
AudioFilename: audio.mp3
AudioLeadIn: 0
PreviewTime: 181372
Countdown: 0
SampleSet: Normal
StackLeniency: 0.7
Mode: 0
LetterboxInBreaks: 0
WidescreenStoryboard: 1

[Editor]
Bookmarks: 510,2009,2224,3081,3938,5224,5652,6509,7367,8009,9402,9724,10152,10367,11759,11867,11974,12081,12188,12295,12514,12836,13152,13474,14229,15295,15509,15938,16902,17438,17652,18295,18509,18724,19152,19367,20652,20759,20867,20974,21081,22045,22152,22367,22581,22795,23009,23117,23438,23652,23867,24081,24295,24509,25152,25581,26009,26224,27295,27938,28152,28367,29438,29492,29545,29599,29652,41652,41759,41920,42027,42188,42349,42509,42670,42884,42992,43206,43367,43527,43688,43849,44063,44224,44384,44599,44759,44920,45081,45295,45456,45670,45831,45992,46206,46420,46581,46795,46956,47170,47331,47545,47759,47974,48134,48349,48563,48724,48938,49099,49313,49474,49634,49795,49956,50117,50277,50492,50652,50867,51027,51188,51402,51563,51777,51992,52152,52367,52581,52795,52956,53170,53331,53492,53706,53867,54027,54188,54349,54509,54724,54884,55045,55206,55366,55374,55588,55802,55909,56124,56231,56445,56659,56766,56981,57195,57409,57624,57731,57945,58159,58374,58588,58802,59016,59231,59445,59659,59874,60088,60195,60409,60624,60838,61052,61266,61481,61695,61909,62231,69087,69141,69301,69462,69569,69730,69837,69998,70159,70319,70373,70426,70587,70641,70694,70801,70855,70962,71069,71176,71230,71337,71391,71498,71551,71605,71658,71766,71819,71926,71980,72033,72087,72141,72248,72301,72408,72462,72623,72783,72837,72891,72944,72998,73051,73105,73158,73266,73373,73480,73587,73694,73801,73855,73908,73962,74016,74069,74123,74176,74230,74444,74551,74766,93087,95658,127373,154801,178801,182229
DistanceSpacing: 1.8
BeatDivisor: 4
GridSize: 4
TimelineZoom: 3.399999

[Metadata]
Title:Story of Hope
TitleUnicode:Story of Hope
Artist:yuyoyuppe
ArtistUnicode:ゆよゆっぺ
Creator:MikasaSerket
Version:Light Insane
Source:
Tags:Draw the Emotional Megurine Luka Hatsune Miku
BeatmapID:1219432
BeatmapSetID:575938

[Difficulty]
HPDrainRate:4
CircleSize:3.8
OverallDifficulty:7.4
ApproachRate:9
SliderMultiplier:0.7
SliderTickRate:1

[Events]
//Background and Video events
0,0,"pretty.jpg",0,0
//Break Periods
2,43781,54774
2,60716,68487
//Storyboard Layer 0 (Background)
//Storyboard Layer 1 (Fail)
//Storyboard Layer 2 (Pass)
//Storyboard Layer 3 (Foreground)
//Storyboard Layer 4 (Overlay)
//Storyboard Sound Samples

[TimingPoints]
510,214.285714285714,4,1,1,60,1,0
3081,-86.9565217391304,4,1,1,60,0,0
3938,-100,4,1,1,60,0,0
6938,-86.9565217391304,4,1,1,60,0,0
7367,-100,4,1,1,60,0,0
8009,-117.647058823529,4,1,1,60,0,0
9081,-100,4,1,1,60,0,0
10795,-86.9565217391304,4,1,1,60,0,0
12509,-100,4,1,1,60,0,0
13795,-200,4,3,2,60,0,0
14224,-74.0740740740741,4,1,1,60,0,1
27938,-117.647058823529,4,1,1,60,0,0
41652,-100,4,1,1,60,0,0
55374,428.571428571429,4,2,0,35,1,0
55374,-200,4,2,0,35,0,0
65659,214.285714285714,4,1,0,100,1,0
69087,-76.9230769230769,4,1,1,60,0,1
78944,-76.9230769230769,4,1,3,60,0,1
78998,-76.9230769230769,4,1,1,60,0,1
93087,-100,4,1,0,60,0,0
127373,-100,4,1,0,60,0,1
154801,428.571428571429,4,1,0,100,1,0
178801,1714.28571428571,4,2,0,30,1,0
182229,428.571428571429,4,1,1,60,1,0
195943,214.285714285714,4,1,0,100,1,1
204514,-100,4,1,0,100,0,0
206228,-100,4,1,0,100,0,1
213085,-100,4,1,0,100,0,0

[Colours]
Combo1 : 248,237,238
Combo2 : 228,165,171
Combo3 : 215,83,103
Combo4 : 173,119,181
Combo5 : 192,167,216
Combo6 : 237,192,254

[HitObjects]
433,150,510,6,0,L|435:219,1,70,4|0,0:0|0:0,0:0:0:0:
505,320,831,2,0,P|516:287|512:251,1,70,0|0,0:0|0:0,3:0:0:0:
435,219,1152,2,0,B|392:208|392:208|291:219,1,140
230,265,1795,1,0,0:0:0:0:
193,57,2224,6,0,P|158:66|121:62,1,70
48,79,2545,2,0,P|51:43|67:9,2,70
0,151,3081,6,0,P|36:167|76:163,1,80.5000015354157,0|0,3:0|3:0,3:0:0:0:
157,192,3402,2,0,P|162:151|142:108,2,80.5000015354157,0|0|0,3:0|3:0|3:0,3:0:0:0:
70,248,3938,6,0,L|65:321,1,70,4|0,0:0|0:0,0:0:0:0:
158,379,4259,2,0,P|164:349|155:308,1,70
217,249,4581,2,0,B|260:260|260:260|361:249,1,140
425,205,5117,1,0,0:0:0:0:
487,260,5224,6,0,P|482:290|459:325,1,70,0|0,3:0|3:0,0:0:0:0:
426,198,5652,6,0,L|422:124,1,70,0|8,0:0|3:0,0:0:0:0:
394,49,5974,2,0,P|430:45|462:54,1,70
335,103,6295,2,0,P|320:79|320:29,2,70,8|0|8,3:0|0:0|3:0,0:0:0:0:
235,38,6938,6,0,P|207:41|180:39,1,40.2500007677078,0|0,3:0|3:0,3:0:0:0:
120,70,7152,2,0,P|92:67|65:69,1,40.2500007677078,0|0,3:0|3:0,3:0:0:0:
5,30,7367,6,0,L|-1:105,1,70,4|8,0:0|3:0,0:0:0:0:
2,183,7688,2,0,P|35:165|69:166,1,70
144,208,8009,2,0,P|96:219|68:158,1,119.000002269745,8|8,3:0|3:0,0:0:0:0:
10,288,8867,1,8,3:0:0:0:
56,361,9081,6,0,L|132:355,1,70,0|8,0:0|3:0,0:0:0:0:
191,303,9402,2,0,L|267:309,1,70
344,314,9724,2,0,P|342:348|357:379,2,70,8|0|8,3:0|0:0|3:0,0:0:0:0:
430,289,10367,2,0,L|426:219,1,70,0|8,0:0|3:0,0:0:0:0:
369,169,10688,1,0,0:0:0:0:
300,199,10795,6,0,L|219:196,1,80.5000015354157,4|8,0:0|3:0,0:0:0:0:
195,273,11117,2,0,P|161:254|140:210,1,80.5000015354157
73,162,11438,2,0,P|73:200|45:241,1,80.5000015354157,8|0,3:0|0:0,0:0:0:0:
0,178,11759,6,0,L|3:125,1,40.2500007677078,0|0,3:0|3:0,3:0:0:0:
55,64,11974,2,0,P|77:67|101:64,1,40.2500007677078
176,95,12188,2,0,P|198:92|222:95,1,40.2500007677078
314,62,12509,5,8,3:0:0:0:
314,62,12617,1,0,0:0:0:0:
335,177,12831,5,8,3:0:0:0:
335,177,12939,1,0,0:0:0:0:
451,140,13152,5,8,3:0:0:0:
451,140,13260,1,0,0:0:0:0:
506,241,13474,5,8,3:0:0:0:
506,241,13582,1,0,0:0:0:0:
494,36,13795,5,0,3:0:0:0:
424,291,14224,6,0,B|391:303|391:303|313:295,1,94.5000003604889,4|8,0:0|3:0,0:0:0:0:
253,309,14545,2,0,P|241:356|186:379,1,94.5000003604889
175,299,14867,2,0,B|168:273|168:273|181:192,2,94.5000003604889,8|0|8,3:0|0:0|3:0,0:0:0:0:
64,363,15509,2,0,L|67:302,1,47.2500001802444
27,239,15724,2,0,L|24:178,1,47.2500001802444,8|0,3:0|0:0,0:0:0:0:
66,117,15938,6,0,B|100:128|100:128|166:122,1,94.5000003604889,4|8,0:0|3:0,0:0:0:0:
229,169,16259,2,0,P|240:203|309:228,1,94.5000003604889
309,145,16581,2,0,L|305:41,1,94.5000003604889,8|0,3:0|0:0,0:0:0:0:
228,29,16902,2,0,P|203:39|173:39,2,47.2500001802444,0|8|0,0:0|3:0|0:0,0:0:0:0:
97,59,17224,2,0,P|72:49|42:49,2,47.2500001802444,0|0|8,0:0|0:0|3:0,0:0:0:0:
361,44,17652,6,0,P|366:92|411:122,1,94.5000003604889,4|8,0:0|3:0,0:0:0:0:
495,187,17974,2,0,L|490:85,1,94.5000003604889
439,34,18295,1,8,3:0:0:0:
466,276,18509,2,0,P|492:280|528:274,1,47.2500001802444
392,311,18724,2,0,P|366:307|330:313,1,47.2500001802444,8|0,3:0|0:0,0:0:0:0:
260,300,18938,2,0,P|259:335|308:383,1,94.5000003604889,0|8,0:0|3:0,0:0:0:0:
297,227,19367,6,0,B|259:235|259:235|187:225,1,94.5000003604889,4|8,0:0|3:0,0:0:0:0:
123,258,19688,2,0,P|134:304|111:354,1,94.5000003604889
39,269,20009,2,0,L|44:159,2,94.5000003604889,8|0|8,3:0|0:0|3:0,0:0:0:0:
137,174,20652,6,8,P|159:169|180:152,1,47.2500001802444,8|8,3:0|3:0,3:0:0:0:
75,102,20867,2,8,P|53:97|32:80,1,47.2500001802444,8|8,3:0|3:0,3:0:0:0:
161,38,21081,6,0,B|191:45|191:45|264:40,1,94.5000003604889,4|8,0:0|3:0,0:0:0:0:
352,96,21402,2,0,P|367:59|356:4,1,94.5000003604889
272,116,21724,2,0,L|276:220,1,94.5000003604889,8|0,3:0|0:0,0:0:0:0:
396,192,22045,2,0,P|421:195|459:191,1,47.2500001802444,0|8,0:0|3:0,0:0:0:0:
368,276,22259,2,0,P|343:273|304:277,1,47.2500001802444
397,354,22474,2,0,L|465:355,1,47.2500001802444,0|8,0:0|3:0,0:0:0:0:
183,330,22795,6,0,B|148:340|148:340|88:330,1,94.5000003604889,4|8,0:0|3:0,0:0:0:0:
5,363,23117,2,0,L|10:250,1,94.5000003604889
86,156,23438,2,0,P|99:191|72:260,2,94.5000003604889,8|0|8,3:0|0:0|3:0,0:0:0:0:
12,83,24081,2,0,L|74:80,1,47.2500001802444
130,40,24295,2,0,L|192:43,1,47.2500001802444,8|0,3:0|0:0,0:0:0:0:
252,90,24509,6,0,B|242:126|242:126|252:203,1,94.5000003604889,4|8,0:0|3:0,0:0:0:0:
340,84,24831,2,0,P|319:30|269:7,1,94.5000003604889
404,24,25152,2,0,L|499:22,1,94.5000003604889,8|0,3:0|0:0,0:0:0:0:
481,103,25474,2,0,P|478:129|485:166,1,47.2500001802444,0|8,0:0|3:0,0:0:0:0:
431,215,25688,2,0,P|434:241|427:278,1,47.2500001802444
488,318,25902,2,0,L|487:370,1,47.2500001802444,0|8,0:0|3:0,0:0:0:0:
326,340,26224,6,0,P|352:343|375:338,2,47.2500001802444,4|0|0,0:0|0:0|0:0,0:0:0:0:
257,290,26545,2,0,P|254:264|259:241,2,47.2500001802444,4|0|0,0:0|0:0|0:0,0:0:0:0:
197,344,26867,2,0,L|136:346,1,47.2500001802444,8|0,3:0|0:0,0:0:0:0:
64,352,27081,6,0,P|72:320|68:292,1,47.2500001802444
20,240,27295,2,0,P|12:208|16:180,1,47.2500001802444
24,108,27509,2,0,L|76:112,1,47.2500001802444
208,108,27724,2,0,L|156:104,1,47.2500001802444
192,8,27938,6,0,L|258:10,1,59.5000011348725,4|0,0:0|0:0,0:0:0:0:
348,60,28367,2,0,P|354:27|350:0,2,59.5000011348725
292,152,29009,2,0,P|286:185|290:212,1,59.5000011348725
360,292,29438,1,0,0:0:0:0:
436,220,29652,6,0,L|432:156,1,59.5000011348725
344,100,30081,2,0,P|311:106|285:103,1,59.5000011348725
200,168,30509,2,0,L|196:232,2,59.5000011348725
176,64,31152,1,0,0:0:0:0:
80,112,31367,6,0,P|52:120|12:112,1,59.5000011348725,4|0,0:0|0:0,0:0:0:0:
76,208,31795,2,0,P|104:215|134:242,1,59.5000011348725
120,340,32224,2,0,L|52:344,2,59.5000011348725,0|0|8,0:0|0:0|3:0,0:0:0:0:
196,264,32867,1,0,0:0:0:0:
260,352,33081,6,0,P|288:364|320:364,1,59.5000011348725
420,336,33509,2,0,L|416:276,1,59.5000011348725
460,176,33938,2,0,L|464:116,2,59.5000011348725
460,216,34581,1,0,0:0:0:0:
392,136,34795,6,0,B|348:128|348:128|272:136,1,119.000002269745,4|0,0:0|0:0,0:0:0:0:
176,96,35438,2,0,P|161:152|191:208,1,119.000002269745
100,268,36081,2,0,P|68:270|39:267,1,59.5000011348725
44,160,36509,6,0,P|100:175|156:145,1,119.000002269745
204,56,37152,2,0,P|189:112|219:167,1,119.000002269745
400,97,37795,2,0,P|432:99|461:96,1,59.5000011348725
221,45,38224,6,0,B|178:56|178:56|96:47,1,119.000002269745,4|0,0:0|0:0,0:0:0:0:
112,176,39938,2,0,L|72:176,3,29.7500005674362
400,176,40581,2,0,L|440:176,3,29.7500005674362
272,212,41224,1,0,0:0:0:0:
78,126,41652,6,0,B|54:132|54:132|4:128,1,70,4|0,0:0|0:0,0:0:0:0:
140,50,41974,2,0,P|150:81|191:104,1,70
264,134,42295,2,0,B|270:110|270:110|266:60,1,70
156,205,42724,2,0,P|158:227|155:253,1,35
152,318,42938,2,0,P|129:313|82:317,1,70
259,273,43367,6,0,B|266:253|266:253|258:193,1,70
58,122,55374,6,0,L|54:267,1,140
454,262,58802,6,0,L|458:117,1,140
164,224,69087,6,0,L|62:232,1,90.9999958343508,4|8,0:0|3:0,0:0:0:0:
0,191,69409,2,0,P|18:146|0:94,1,90.9999958343508
106,51,69730,2,0,L|98:153,2,90.9999958343508,8|0|8,3:0|0:0|3:0,0:0:0:0:
182,19,70266,1,0,0:0:0:0:
255,55,70373,2,0,P|279:59|319:55,1,45.4999979171754,8|0,3:0|0:0,0:0:0:0:
379,38,70587,2,0,P|403:34|443:38,1,45.4999979171754
497,69,70801,6,0,L|491:170,1,90.9999958343508,4|8,0:0|3:0,0:0:0:0:
428,253,71123,2,0,P|391:213|386:163,1,90.9999958343508,0|0,0:0|3:0,0:0:0:0:
512,256,71444,2,0,P|495:308|455:337,1,90.9999958343508,8|0,3:0|0:0,0:0:0:0:
396,370,71766,1,0,0:0:0:0:
322,333,71873,2,0,L|266:335,1,45.4999979171754
196,319,72087,2,0,P|192:291|201:265,2,45.4999979171754
126,361,72408,1,0,0:0:0:0:
50,328,72516,6,0,B|60:292|60:292|50:231,1,90.9999958343508,4|8,0:0|3:0,0:0:0:0:
6,170,72837,2,0,L|110:166,1,90.9999958343508
168,206,73158,2,0,P|178:163|152:109,2,90.9999958343508,8|0|8,3:0|0:0|3:0,0:0:0:0:
306,153,73801,1,0,0:0:0:0:
344,144,73908,1,0,0:0:0:0:
384,136,74016,1,0,0:0:0:0:
422,127,74123,1,0,0:0:0:0:
326,36,74230,6,0,P|277:46|230:26,1,90.9999958343508,4|0,0:0|0:0,0:0:0:0:
422,127,74551,2,0,P|471:117|518:137,1,90.9999958343508,4|0,0:0|0:0,0:0:0:0:
460,196,74873,2,0,L|456:249,1,45.4999979171754
451,323,75087,2,0,B|405:314|405:314|342:322,1,90.9999958343508
291,362,75408,1,0,0:0:0:0:
224,312,75516,2,0,P|225:287|218:251,1,45.4999979171754
145,329,75730,2,0,P|144:354|151:390,1,45.4999979171754,0|0,3:0|3:0,3:0:0:0:
31,341,75944,6,0,L|29:234,1,90.9999958343508,4|0,0:0|0:0,0:0:0:0:
139,161,76266,2,0,P|140:203|101:249,1,90.9999958343508
65,177,76587,2,0,L|12:179,1,45.4999979171754
3,101,76801,2,0,B|18:70|18:70|12:8,2,90.9999958343508
85,107,77337,1,0,0:0:0:0:
166,113,77444,1,0,0:0:0:0:
247,115,77551,1,0,0:0:0:0:
334,60,77658,6,0,B|370:68|370:68|438:60,1,90.9999958343508,4|0,0:0|0:0,0:0:0:0:
475,129,77980,2,0,B|474:232,1,90.9999958343508
481,302,78301,2,0,P|436:297|405:265,1,90.9999958343508
475,220,78623,1,0,0:0:0:0:
481,302,78730,2,0,L|479:355,1,45.4999979171754
351,330,78944,2,0,L|354:224,1,90.9999958343508,4|0,0:0|0:0,0:0:0:0:
224,341,79373,6,0,B|198:334|198:334|124:339,1,90.9999958343508
23,374,79694,2,0,P|40:334|29:275,1,90.9999958343508
101,197,80016,2,0,P|57:202|15:184,1,90.9999958343508
4,103,80337,1,0,0:0:0:0:
66,50,80444,2,0,P|83:48|114:49,1,45.4999979171754
184,85,80658,2,0,P|201:87|232:86,1,45.4999979171754
301,45,80873,2,0,P|318:43|349:44,1,45.4999979171754
428,41,81087,6,0,B|421:79|421:79|426:142,1,90.9999958343508,4|0,0:0|0:0,0:0:0:0:
454,215,81408,2,0,P|488:199|510:137,1,90.9999958343508
364,226,81730,2,0,P|375:260|433:301,1,90.9999958343508
460,364,82051,1,0,0:0:0:0:
378,364,82158,1,0,0:0:0:0:
295,364,82266,1,0,0:0:0:0:
213,363,82373,2,0,L|214:306,1,45.4999979171754
111,291,82587,2,0,L|113:353,1,45.4999979171754
