osu file format v14

[General]
AudioFilename: audio.mp3
AudioLeadIn: 0
PreviewTime: 181372
Countdown: 0
SampleSet: Normal
StackLeniency: 0.7
Mode: 0
LetterboxInBreaks: 0
WidescreenStoryboard: 1

[Editor]
Bookmarks: 510,724,831,1045,1152,1581,1795,2009,2867,3081,3134,3188,3295,3509,3724,5009,5117,5224,6509,6617,6724,6831,6938,7045,7152,7206,7259,7367,7688,8438,8867,9081,12509,12617,12831,12938,13152,13259,13474,13581,13795,14867,15081,16259,16474,16581,16795,57516
DistanceSpacing: 2
BeatDivisor: 4
GridSize: 4
TimelineZoom: 3.399999

[Metadata]
Title:Story of Hope
TitleUnicode:Story of Hope
Artist:yuyoyuppe
ArtistUnicode:ゆよゆっぺ
Creator:MikasaSerket
Version:Insane
Source:
Tags:Draw the Emotional Megurine Luka Hatsune Miku
BeatmapID:1219431
BeatmapSetID:575938

[Difficulty]
HPDrainRate:4.2
CircleSize:4
OverallDifficulty:7.8
ApproachRate:9.2
SliderMultiplier:1
SliderTickRate:1

[Events]
//Background and Video events
0,0,"pretty.jpg",0,0
//Break Periods
//Storyboard Layer 0 (Background)
//Storyboard Layer 1 (Fail)
//Storyboard Layer 2 (Pass)
//Storyboard Layer 3 (Foreground)
//Storyboard Layer 4 (Overlay)
//Storyboard Sound Samples

[TimingPoints]
510,214.285714285714,4,1,1,60,1,0
510,-138.888888888889,4,1,1,60,0,0
2009,-138.888888888889,4,1,1,30,0,0
2224,-138.888888888889,4,1,1,60,0,0
5652,-121.951219512195,4,1,1,60,0,0
6509,-138.888888888889,4,1,1,60,0,0
13795,-200,4,3,1,60,0,0
14224,-58.8235294117647,4,1,1,60,0,1
27938,-117.647058823529,4,1,1,60,0,0
41652,-100,4,1,1,60,0,0
55374,428.571428571429,4,2,0,35,1,0
55374,-200,4,2,0,35,0,0
65659,214.285714285714,4,1,0,100,1,0
69087,-76.9230769230769,4,1,1,60,0,1
78944,-76.9230769230769,4,1,3,60,0,1
78998,-76.9230769230769,4,1,1,60,0,1
93087,-100,4,1,0,60,0,0
127373,-100,4,1,0,60,0,1
154801,428.571428571429,4,1,0,100,1,0
178801,1714.28571428571,4,2,0,30,1,0
182229,428.571428571429,4,1,1,60,1,0
195943,214.285714285714,4,1,0,100,1,1
204514,-100,4,1,0,100,0,0
206228,-100,4,1,0,100,0,1
213085,-100,4,1,0,100,0,0

[Colours]
Combo1 : 248,237,238
Combo2 : 228,165,171
Combo3 : 215,83,103
Combo4 : 173,119,181
Combo5 : 192,167,216
Combo6 : 237,192,254

[HitObjects]
80,180,510,6,0,B|74:208|74:208|78:257,1,72.0000017578125,4|0,0:0|0:0,0:0:0:0:
208,148,831,2,0,B|214:120|214:120|210:71,1,72.0000017578125
75,146,1152,2,0,B|64:173|64:173|64:290,1,144.000003515625
4,360,1795,1,4,0:0:0:0:
10,372,2009,1,0,0:0:0:0:
164,316,2224,6,0,L|212:317,2,36.0000008789063
100,223,2545,2,0,L|52:224,2,36.0000008789063
172,128,2867,2,0,L|220:129,1,36.0000008789063
301,76,3081,1,0,3:3:0:0:
299,60,3134,1,0,3:3:0:0:
297,44,3188,2,0,L|296:-4,1,36.0000008789063,0|0,3:3|3:3,3:3:0:0:
400,95,3402,1,0,0:0:0:0:
240,184,3509,2,0,P|217:166|207:147,1,36.0000008789063,8|0,3:0|0:0,0:0:0:0:
320,264,3724,2,0,P|302:287|283:297,1,36.0000008789063
406,178,3938,6,0,B|433:170|433:170|519:181,2,108.000002636719,4|0|4,0:0|0:0|0:0,0:0:0:0:
284,152,4795,1,0,0:0:0:0:
308,276,5009,2,0,P|311:295|308:316,1,36.0000008789063
248,368,5224,2,0,B|163:367,1,72.0000017578125,8|0,3:0|0:0,0:0:0:0:
36,384,5545,1,0,0:0:0:0:
104,288,5652,6,0,B|112:252|112:252|106:200,1,82.0000012512207,4|0,0:0|0:0,0:0:0:0:
16,240,5974,1,0,0:0:0:0:
192,164,6081,2,0,P|173:125|128:92,1,82.0000012512207,4|0,1:0|3:0,3:0:0:0:
52,140,6403,1,0,3:0:0:0:
127,356,6509,6,0,L|166:359,1,36.0000008789063
240,328,6724,2,0,L|279:325,1,36.0000008789063
360,360,6938,2,0,L|399:363,1,36.0000008789063
496,288,7152,2,0,L|496:258,2,18.0000004394531
472,160,7367,6,0,B|443:171|443:171|388:163,1,72.0000017578125,4|0,0:0|0:0,0:0:0:0:
308,92,7688,2,0,B|289:55|305:8,1,72.0000017578125
316,184,8009,2,0,B|329:224|329:224|318:301,1,108.000002636719
256,360,8438,1,8,3:0:0:0:
247,372,8867,1,8,3:0:0:0:
124,284,9081,6,0,P|148:292|208:280,1,72.0000017578125
16,252,9402,2,0,B|7:277|7:277|20:336,1,72.0000017578125
72,160,9724,2,0,P|47:151|-13:155,2,72.0000017578125
212,156,10367,2,0,P|220:133|221:110,1,36.0000008789063
100,48,10581,2,0,P|104:71|115:92,1,36.0000008789063
284,44,10795,6,0,B|244:24|244:24|168:32,2,108.000002636719,4|0|0,0:0|0:0|0:0,0:0:0:0:
384,16,11545,1,0,0:0:0:0:
440,96,11652,2,0,L|436:181,1,72.0000017578125
380,248,11974,1,0,0:0:0:0:
284,204,12081,2,0,P|280:188|281:164,1,36.0000008789063
400,260,12295,2,0,P|404:276|403:300,1,36.0000008789063
284,364,12509,5,0,0:0:0:0:
292,368,12617,1,0,0:0:0:0:
124,212,12831,5,0,0:0:0:0:
124,224,12939,1,0,0:0:0:0:
116,364,13152,5,0,0:0:0:0:
116,372,13260,1,0,0:0:0:0:
284,204,13474,5,0,0:0:0:0:
288,196,13582,1,0,0:0:0:0:
36,300,13795,6,0,B|32:284|32:284|40:264|40:264|36:220,1,75
0,76,14224,6,0,P|68:100|112:16,1,170.000003242493,4|8,0:0|3:0,0:0:0:0:
176,100,14545,2,0,B|164:156|164:156|184:296,1,170.000003242493,0|0,3:0|3:0,3:0:0:0:
240,168,14867,1,0,0:0:0:0:
68,200,15081,6,0,P|64:242|77:282,1,85.0000016212464
136,360,15295,2,0,L|248:352,1,85.0000016212464
336,324,15509,6,0,P|339:281|326:241,1,85.0000016212464
268,164,15723,2,0,L|156:172,1,85.0000016212464
392,164,15938,6,0,L|368:-32,1,170.000003242493
