osu file format v14

[General]
AudioFilename: audio.mp3
AudioLeadIn: 0
PreviewTime: 181372
Countdown: 0
SampleSet: Normal
StackLeniency: 0.7
Mode: 0
LetterboxInBreaks: 0
WidescreenStoryboard: 1

[Editor]
Bookmarks: 510,724,831,1045,1152,1581,1795,2009,2867,3081,3134,3188,3295,3509,3724,5009,5117,5224,6509,6617,6724,6831,6938,7045,7152,7206,7259,7367,7688,8438,8867,9081,12509,12617,12831,12938,13152,13259,13474,13581,13795,14867,15081,16259,16474,16581,16795,57516,141087,150516,150944,172586,176015,192514,192943,193371,193800,197978,208800,210300
DistanceSpacing: 1.2
BeatDivisor: 4
GridSize: 8
TimelineZoom: 3.399999

[Metadata]
Title:Story of Hope
TitleUnicode:Story of Hope
Artist:yuyoyuppe
ArtistUnicode:ゆよゆっぺ
Creator:MikasaSerket
Version:Extra
Source:
Tags:Draw the Emotional Megurine Luka Hatsune Miku
BeatmapID:2649700
BeatmapSetID:575938

[Difficulty]
HPDrainRate:6
CircleSize:4.2
OverallDifficulty:8.5
ApproachRate:9.2
SliderMultiplier:1.2
SliderTickRate:1

[Events]
//Background and Video events
0,0,"pretty.jpg",0,0
//Break Periods
//Storyboard Layer 0 (Background)
//Storyboard Layer 1 (Fail)
//Storyboard Layer 2 (Pass)
//Storyboard Layer 3 (Foreground)
//Storyboard Layer 4 (Overlay)
//Storyboard Sound Samples

[TimingPoints]
510,214.285714285714,4,1,1,60,1,0
510,-138.888888888889,4,1,1,60,0,0
2009,-138.888888888889,4,1,1,30,0,0
2224,-138.888888888889,4,1,1,60,0,0
5652,-121.951219512195,4,1,1,60,0,0
6509,-138.888888888889,4,1,1,60,0,0
13795,-200,4,3,1,60,0,0
14224,-100,4,1,1,60,0,1
27938,-117.647058823529,4,1,1,60,0,0
41652,-100,4,1,1,60,0,0
55374,428.571428571429,4,2,0,35,1,0
55374,-200,4,2,0,35,0,0
65659,214.285714285714,4,1,0,100,1,0
69087,-83.3333333333333,4,1,1,60,0,1
78944,-76.9230769230769,4,1,3,60,0,1
78998,-76.9230769230769,4,1,1,60,0,1
93087,-100,4,1,0,60,0,0
127373,-71.4285714285714,4,1,0,60,0,1
154801,428.571428571429,4,2,0,100,1,0
154801,-133.333333333333,4,2,0,100,0,0
178801,1714.28571428571,4,2,0,30,1,0
178801,-333.333333333333,4,2,0,30,0,0
182229,428.571428571429,4,1,1,60,1,0
187371,-50,4,1,1,60,0,0
189086,-100,4,1,1,60,0,0
192514,-100,4,1,1,60,0,0
192943,-83.3333333333333,4,1,1,60,0,0
193371,-71.4285714285714,4,1,1,60,0,0
193800,-62.5,4,1,1,60,0,0
195943,214.285714285714,4,1,0,100,1,1
195943,-71.4285714285714,4,1,0,100,0,1
204514,-100,4,1,0,100,0,0
206228,-68.9655172413793,4,1,0,100,0,1
209657,-100,4,1,0,100,0,1
209978,-80,4,1,0,100,0,1
210300,-74.0740740740741,4,1,0,100,0,1
210514,-68.9655172413793,4,1,0,100,0,1
210514,-68.9655172413793,4,1,0,100,0,1
213085,-100,4,1,0,100,0,0

[Colours]
Combo1 : 248,237,238
Combo2 : 228,165,171
Combo3 : 215,83,103
Combo4 : 173,119,181
Combo5 : 192,167,216
Combo6 : 237,192,254

[HitObjects]
82,262,141087,6,0,B|94:281|94:281|90:354,1,83.9999974365235
3,294,141301,1,0,0:0:0:0:
0,217,141408,2,0,P|68:173|152:194,1,167.999994873047
211,124,141730,1,0,0:0:0:0:
214,158,141837,1,0,0:0:0:0:
354,223,141944,6,0,P|328:251|320:313,2,83.9999974365235
486,165,142266,1,0,0:0:0:0:
461,138,142373,2,0,P|435:110|427:48,2,83.9999974365235
493,383,142801,6,0,P|422:362|388:270,1,167.999994873047
293,166,143123,2,0,L|283:319,1,125.999996154785
207,364,143444,2,0,B|171:370|171:370|141:359|122:336,1,83.9999974365235
38,320,143658,1,0,0:0:0:0:
44,279,143766,1,0,0:0:0:0:
49,239,143873,1,0,0:0:0:0:
52,198,143980,1,0,0:0:0:0:
3,109,144087,5,0,0:0:0:0:
20,120,144194,1,0,0:0:0:0:
40,126,144301,1,0,0:0:0:0:
62,127,144408,1,0,0:0:0:0:
148,0,144516,6,0,P|139:36|228:110,1,167.999994873047
369,139,144837,2,0,P|370:91|352:60,1,83.9999974365235
293,186,145051,1,0,0:0:0:0:
323,210,145158,2,0,B|389:250|414:180|488:220,1,167.999994873047
511,119,145480,1,0,0:0:0:0:
509,79,145587,1,0,0:0:0:0:
505,38,145694,1,0,0:0:0:0:
399,0,145801,1,0,0:0:0:0:
397,21,145908,1,0,0:0:0:0:
394,48,146016,1,0,0:0:0:0:
328,214,146230,6,0,L|354:396,1,167.999994873047
433,337,146551,2,0,P|484:308|485:204,1,167.999994873047
243,365,146873,2,0,P|192:336|200:230,1,167.999994873047
221,223,147194,1,0,0:0:0:0:
242,224,147301,1,0,0:0:0:0:
260,235,147408,1,0,0:0:0:0:
185,169,147516,5,0,0:0:0:0:
118,198,147623,1,0,0:0:0:0:
47,187,147730,1,0,0:0:0:0:
0,131,147837,1,0,0:0:0:0:
110,6,147944,6,0,L|89:177,1,167.999994873047
66,237,148266,2,0,P|14:246|-9:266,1,83.9999974365235
182,371,148480,1,0,0:0:0:0:
156,353,148587,2,0,P|106:334|76:340,1,83.9999974365235
263,245,148801,6,0,L|271:332,2,83.9999974365235
171,181,149123,2,0,P|139:163|117:117,1,83.9999974365235
263,100,149337,1,0,0:0:0:0:
272,77,149444,2,0,P|300:42|338:28,1,83.9999974365235
489,85,149658,6,0,L|513:256,1,167.999994873047
500,373,149980,2,0,P|460:344|406:345,1,83.9999974365235
344,276,150194,1,0,0:0:0:0:
321,294,150301,2,0,P|281:323|227:322,1,83.9999974365235
161,370,150516,6,0,L|148:278,1,83.9999974365235
55,272,150730,2,0,L|89:185,1,83.9999974365235
168,115,150944,2,0,L|181:207,1,83.9999974365235
274,213,151158,2,0,L|239:299,1,83.9999974365235
59,194,151373,6,0,P|32:167|-15:149,2,83.9999974365235
187,81,151694,2,0,P|194:46|182:-3,2,83.9999974365235,0|0|0,3:0|0:0|3:0,0:0:0:0:
340,205,152016,2,0,P|376:192|408:161,2,83.9999974365235,0|0|0,3:0|0:0|3:0,0:0:0:0:
212,328,152337,2,0,P|241:353|284:365,2,83.9999974365235,0|0|0,3:0|0:0|3:0,0:0:0:0:
126,329,152658,1,0,0:0:0:0:
138,271,152766,1,0,0:0:0:0:
191,242,152873,1,0,0:0:0:0:
248,259,152980,1,0,0:0:0:0:
344,351,153087,5,0,0:0:0:0:
390,264,153194,1,0,0:0:0:0:
503,242,153408,5,0,0:0:0:0:
445,140,153516,1,0,0:0:0:0:
498,27,153730,5,0,0:0:0:0:
473,11,153837,1,0,0:0:0:0:
315,95,153944,5,0,0:0:0:0:
281,109,153998,1,0,0:0:0:0:
247,107,154051,1,0,0:0:0:0:
214,93,154105,1,0,0:0:0:0:
194,86,154158,53,0,0:0:0:0:
175,83,154212,1,0,0:0:0:0:
156,86,154266,1,0,0:0:0:0:
139,96,154319,1,0,0:0:0:0:
127,110,154373,1,0,0:0:0:0:
196,49,154480,5,0,0:0:0:0:
267,102,154587,1,0,0:0:0:0:
248,189,154694,1,0,0:0:0:0:
146,192,154801,6,0,L|52:178,2,90.0000034332277
382,300,156515,2,0,L|476:314,2,90.0000034332277
224,274,158229,2,0,P|214:312|234:366,2,90.0000034332277
317,197,159408,6,0,L|321:120,2,67.5000025749207
187,257,160372,1,0,0:0:0:0:
223,333,160693,1,0,0:0:0:0:
157,252,161015,1,0,0:0:0:0:
256,337,161336,1,0,0:0:0:0:
121,254,161658,6,0,P|101:262|67:261,2,45.0000017166138
202,165,162515,1,0,0:0:0:0:
381,149,163372,6,0,P|401:157|435:156,2,45.0000017166138
264,16,164229,1,0,0:0:0:0:
41,74,165086,6,0,P|26:47|22:18,2,45.0000017166138
258,196,165943,1,0,0:0:0:0:
164,70,166265,1,0,0:0:0:0:
50,220,166586,2,0,P|61:242|107:266,2,67.5000025749207
233,357,167551,1,0,0:0:0:0:
396,238,167872,1,0,0:0:0:0:
343,136,168086,1,0,0:0:0:0:
179,156,168515,6,0,L|193:257,1,90.0000034332277
333,308,169158,2,0,B|313:312|303:321|303:321|278:313|278:313|251:362|185:372|151:356|126:318|133:259|192:244,1,315.000012016297
76,50,171515,2,0,P|111:82|120:85,1,45.0000017166138
201,109,171943,2,0,P|246:100|284:50,1,90.0000034332277
271,217,172586,2,0,B|293:250|332:256|365:251|400:188|376:170|376:170|404:156|404:156|380:115|425:69|493:78|528:112|527:172,1,405.000015449524
232,227,174943,2,0,P|190:227|172:237,1,45.0000017166138
100,240,175372,2,0,L|111:338,1,90.0000034332277
0,240,176015,2,0,B|-25:168|20:102|20:102|62:96|110:115|110:115|140:56|140:56|173:97|233:110|288:61,1,450.000017166138
388,35,178372,6,0,P|391:61|391:85,1,45.0000017166138
283,192,178801,6,0,L|227:192,1,53.9999983520508
19,340,182229,6,0,P|-4:293|13:232,2,90
63,356,182979,2,0,L|95:358,1,30
179,227,183300,2,0,P|157:218|108:222,2,60
300,181,183943,6,0,P|323:134|306:73,2,90
262,179,184693,1,0,0:0:0:0:
226,175,184800,1,0,0:0:0:0:
200,61,185014,1,0,0:0:0:0:
305,13,185229,1,0,0:0:0:0:
405,69,185443,1,0,0:0:0:0:
394,188,185657,6,0,B|378:230|378:230|396:261|396:261|386:308,1,120
328,368,186300,1,0,0:0:0:0:
238,271,186514,2,0,P|268:264|302:274,1,60
397,327,186943,1,0,0:0:0:0:
501,284,187157,1,0,0:0:0:0:
495,257,187264,1,0,0:0:0:0:
492,226,187371,6,0,L|497:164,1,60
468,70,187586,1,0,0:0:0:0:
342,137,187693,2,0,P|376:149|423:135,1,60
450,59,187908,1,0,0:0:0:0:
244,144,188014,2,0,P|250:179|286:213,1,60
330,45,188229,6,0,L|315:11,2,30
233,97,188443,2,0,L|226:128,2,30
159,30,188657,1,0,0:0:0:0:
73,48,188764,1,0,0:0:0:0:
43,130,188871,1,0,0:0:0:0:
96,200,188979,1,0,0:0:0:0:
231,195,189086,6,0,L|300:201,1,60
351,257,189407,2,0,L|420:251,1,60
467,183,189729,1,0,0:0:0:0:
294,73,189943,2,0,P|285:110|292:136,1,60
351,257,190371,2,0,P|360:294|353:320,1,60
171,369,190800,6,0,L|183:271,2,90
20,365,191657,1,0,0:0:0:0:
0,208,191871,1,0,0:0:0:0:
12,211,191925,1,0,0:0:0:0:
24,214,191979,1,0,0:0:0:0:
35,217,192032,1,0,0:0:0:0:
47,220,192086,1,0,0:0:0:0:
135,160,192300,1,0,0:0:0:0:
232,217,192514,6,0,P|231:234|236:254,1,30
269,144,192729,2,0,P|270:127|265:107,1,30
205,222,192943,6,0,P|195:245|192:276,1,35.9999989013672
295,138,193158,2,0,P|305:115|308:84,1,35.9999989013672
165,216,193371,6,0,P|145:236|125:275,1,41.9999987182618
335,143,193586,2,0,P|361:116|379:81,1,41.9999987182618
23,211,193800,6,0,P|44:199|67:192,1,48
465,145,194015,2,0,P|445:158|423:166,1,48
256,130,194229,6,0,L|256:66,2,48
188,184,194550,5,0,0:0:0:0:
213,266,194657,1,0,0:0:0:0:
299,267,194764,1,0,0:0:0:0:
329,183,194871,1,0,0:0:0:0:
256,192,195086,12,0,195729,0:0:0:0:
479,190,195943,6,0,P|448:149|340:177,1,167.999994873047
211,147,196264,2,0,P|242:188|350:160,1,167.999994873047
294,12,196585,2,0,B|270:35|270:35|283:114,1,83.9999974365235
155,96,196800,2,0,B|162:128|162:128|237:156,1,83.9999974365235
344,314,197014,6,0,L|349:222,1,83.9999974365235
226,178,197228,1,0,0:0:0:0:
196,168,197335,1,0,0:0:0:0:
131,140,197443,2,0,L|136:232,1,83.9999974365235
375,356,197657,6,0,B|389:293|389:293|368:249|368:249|386:175,1,167.999994873047
125,44,197978,2,0,B|139:107|139:107|118:151|118:151|136:225,1,188.999994232178,0|0,0:0|0:0,3:0:0:0:
52,288,198300,1,0,0:0:0:0:
0,110,198514,1,0,0:0:0:0:
43,90,198621,1,0,0:0:0:0:
87,68,198728,1,0,0:0:0:0:
238,159,198943,1,0,0:0:0:0:
245,213,199050,1,0,0:0:0:0:
252,264,199157,1,0,0:0:0:0:
0,384,199371,6,0,P|49:322|162:336,1,167.999994873047
199,227,199693,1,0,0:0:0:0:
205,253,199800,2,0,P|227:298|284:339,1,83.9999974365235
433,373,200014,2,0,P|383:376|319:347,1,83.9999974365235
435,267,200228,6,0,B|469:264|469:264|486:268|511:289,2,83.9999974365235
379,156,200550,1,0,0:0:0:0:
239,196,200657,6,0,B|205:199|205:199|188:195|162:173,2,83.9999974365235
377,124,200978,1,0,0:0:0:0:
339,7,201085,6,0,L|344:90,1,83.9999974365235
191,69,201300,2,0,P|114:75|85:-9,2,167.999994873047
24,246,201943,1,0,0:0:0:0:
36,303,202050,1,0,0:0:0:0:
51,358,202157,1,0,0:0:0:0:
217,256,202371,1,0,0:0:0:0:
223,198,202478,1,0,0:0:0:0:
229,140,202585,1,0,0:0:0:0:
222,316,202800,6,0,P|257:293|299:287,1,83.9999974365235
57,367,203014,2,0,B|65:338|65:338|89:320|89:320|107:261,2,83.9999974365235,0|0|0,0:0|2:0|0:0,0:0:0:0:
0,261,203335,1,0,0:0:0:0:
127,103,203443,2,0,B|103:185,1,83.9999974365235,0|0,0:0|3:0,0:0:0:0:
303,277,203657,5,0,0:0:0:0:
310,250,203764,1,0,0:0:0:0:
318,222,203871,1,0,0:0:0:0:
326,196,203978,1,0,0:0:0:0:
239,130,204085,5,0,0:0:0:0:
162,230,204193,1,0,0:0:0:0:
238,326,204300,1,0,0:0:0:0:
359,292,204407,1,0,0:0:0:0:
378,160,204514,6,0,B|365:113|365:113|374:76|374:76|363:44,1,120
487,153,204835,2,0,P|433:136|371:164,1,120
439,218,205157,1,0,0:0:0:0:
26,337,206228,6,0,P|48:278|71:265,1,87.0000026550294
241,217,206443,1,0,0:0:0:0:
152,296,206550,2,0,P|72:256|72:146,1,174.000005310059
206,64,206871,2,0,L|305:77,1,87.0000026550294,0|0,3:0|3:0,3:0:0:0:
424,183,207085,5,0,0:0:0:0:
437,223,207193,1,0,0:0:0:0:
449,265,207300,2,0,B|443:364,1,87.0000026550294
244,257,207514,1,0,0:0:0:0:
231,217,207622,1,0,0:0:0:0:
219,175,207729,2,0,B|225:76,1,87.0000026550294
459,43,207942,6,0,P|449:111|352:137,1,174.000005310059,0|0,3:0|3:0,3:0:0:0:
313,49,208264,1,0,0:0:0:0:
511,204,208371,2,0,P|488:179|418:167,1,87.0000026550294,0|0,3:3|2:3,3:3:0:0:
354,359,208585,2,0,P|386:351|431:297,1,87.0000026550294,0|0,3:3|2:3,3:3:0:0:
215,104,208800,5,0,0:0:0:0:
233,137,208908,1,0,0:0:0:0:
271,156,209015,2,0,B|301:142|301:142|370:150,1,87.0000026550294
250,273,209228,5,0,0:0:0:0:
210,289,209336,1,0,0:0:0:0:
189,328,209443,2,0,B|159:314|159:314|105:320,1,87.0000026550294
9,152,209657,6,0,P|46:133|62:106,1,60,0|0,3:0|0:0,0:0:0:0:
28,37,209871,1,0,0:0:0:0:
173,139,209978,2,0,P|154:101|114:80,1,75,0|0,3:0|0:0,0:0:0:0:
25,9,210192,1,0,0:0:0:0:
233,6,210300,2,0,L|315:27,1,81.0000003089905,0|0,3:0|0:0,0:0:0:0:
452,93,210514,5,0,0:0:0:0:
418,129,210622,1,0,0:0:0:0:
385,162,210728,2,0,L|293:188,1,87.0000026550294,0|0,3:0|0:0,0:0:0:0:
150,120,210942,1,0,0:0:0:0:
135,168,211050,1,0,0:0:0:0:
123,213,211156,2,0,L|145:294,1,81.0000003089905,0|0,3:0|0:0,0:0:0:0:
311,383,211371,6,0,P|370:371|401:342,1,87.0000026550294
382,168,211585,1,0,0:0:0:0:
315,216,211692,2,0,B|302:240|302:240|318:304,1,87.0000026550294
431,342,211907,1,0,0:0:0:0:
512,216,212014,2,0,B|519:190|519:190|509:128,1,87.0000026550294
417,43,212228,5,4,0:0:0:0:
337,25,212336,1,0,0:0:0:0:
271,75,212443,2,0,L|286:161,1,87.0000026550294
142,251,212657,1,0,0:0:0:0:
228,346,212765,1,0,0:0:0:0:
377,304,212872,2,0,P|352:276|286:264,1,87.0000026550294
147,100,213085,6,0,B|155:136|155:136|140:166|140:166|150:214,1,120
10,312,213407,2,0,B|58:322|58:322|88:307|88:307|144:320,1,120
282,365,213728,2,0,L|276:223,1,120
262,207,214050,1,0,0:0:0:0:
340,158,214157,1,0,0:0:0:0:
