osu file format v14

[General]
AudioFilename: audio.mp3
AudioLeadIn: 0
PreviewTime: 181372
Countdown: 0
SampleSet: Normal
StackLeniency: 0.7
Mode: 0
LetterboxInBreaks: 0
WidescreenStoryboard: 1

[Editor]
Bookmarks: 510,724,938,1152,1367,1581,1795,2009,2224,2438,2652,2867,3081,3295,3509,3724,3938,4152,4367,4581,4795,5009,5224,5438,5652,5867,6081,6295,6509,6724,6938,7152,7367,7581,7795,8009,8224,8438,8652,8867,9081,9295,9509,9724,9938,10152,14224,34152,37581,37795,38009,38224,38438,38652,38867,39081,39295,39509,39724,39938,40152,40367,40581,40795,41009,41224,41438,41652,42724,44438,51938,68230,68444,68659,68873,69087,93087,93301,93516,93730,93944,94158,94373,94587,94801,95016,95230,95444,95658,95873,96087,96301,96516,96730,96944,97158,97373,97587,97801,98016,98230,98444,98658,98873,99087,99301,99516,99730,99944,100373,100801,101016,101444,101658,102087,102516,102730,127373,154801,178801,182657
DistanceSpacing: 1.6
BeatDivisor: 4
GridSize: 4
TimelineZoom: 3.399999

[Metadata]
Title:Story of Hope
TitleUnicode:Story of Hope
Artist:yuyoyuppe
ArtistUnicode:ゆよゆっぺ
Creator:MikasaSerket
Version:Easy
Source:
Tags:Draw the Emotional Megurine Luka Hatsune Miku
BeatmapID:1219430
BeatmapSetID:575938

[Difficulty]
HPDrainRate:0.8
CircleSize:3.2
OverallDifficulty:3.2
ApproachRate:3.2
SliderMultiplier:0.400000005960464
SliderTickRate:1

[Events]
//Background and Video events
0,0,"pretty.jpg",0,0
//Break Periods
2,28138,40237
2,55574,64244
2,155001,177386
//Storyboard Layer 0 (Background)
//Storyboard Layer 1 (Fail)
//Storyboard Layer 2 (Pass)
//Storyboard Layer 3 (Foreground)
//Storyboard Sound Samples

[TimingPoints]
510,214.285714285714,4,1,1,60,1,0
510,-117.647058823529,4,1,1,60,0,0
13795,-200,4,3,2,60,0,0
14224,-105.263157894737,4,1,1,60,0,1
27938,-117.647058823529,4,1,1,60,0,0
55374,428.571428571429,4,2,0,35,1,0
65659,214.285714285714,4,1,1,80,1,0
68444,-200,4,2,0,5,0,0
69087,-105.263157894737,4,1,1,60,0,1
78944,-105.263157894737,4,1,3,20,0,1
79373,-105.263157894737,4,1,1,60,0,1
93087,-117.647058823529,4,1,1,60,0,0
113658,-200,4,1,1,60,0,0
127373,-105.263157894737,4,1,1,60,0,1
154801,428.571428571429,4,2,0,5,1,0
178801,1714.28571428571,4,2,0,30,1,0
182229,428.571428571429,4,1,1,60,1,0
195943,214.285714285714,4,1,1,60,1,1
195943,-100,4,1,1,60,0,1
204514,-100,4,1,1,30,0,0
206228,-100,4,1,1,60,0,1
213085,-117.647058823529,4,1,1,60,0,0

[Colours]
Combo1 : 248,237,238
Combo2 : 228,165,171
Combo3 : 215,83,103
Combo4 : 173,119,181
Combo5 : 192,167,216
Combo6 : 237,192,254

[HitObjects]
88,105,510,6,0,P|77:62|24:39,2,102.000003465414,4|0|0,0:0|0:0|0:0,3:0:0:0:
29,221,2224,2,0,B|50:217|50:217|99:219,1,68.000002310276
155,281,2867,2,0,P|151:318|158:354,2,68.000002310276
222,229,3938,6,0,B|229:198|229:198|223:121,2,102.000003465414,4|0|0,0:0|0:0|0:0,0:0:0:0:
320,313,5652,2,0,L|389:311,1,68.000002310276
468,283,6296,2,0,P|473:311|466:352,2,68.000002310276
453,199,7367,6,0,B|424:207|424:207|348:203,2,102.000003465414,4|0|0,0:0|0:0|0:0,0:0:0:0:
289,153,9081,2,0,P|307:102|293:56,1,102.000003465414
220,101,9938,2,0,B|188:96|188:96|115:101,1,102.000003465414
37,128,10795,6,0,L|28:26,2,102.000003465414,4|0|0,0:0|0:0|0:0,0:0:0:0:
159,245,12509,2,0,B|256:282|256:198|358:247,1,204.000006930828
472,263,14224,6,0,B|464:306|464:306|467:381,2,113.999998654604,4|8|0,0:0|3:0|0:0,0:0:0:0:
372,193,15938,2,0,P|314:206|267:176,2,113.999998654604,4|8|0,0:0|3:0|0:0,0:0:0:0:
397,73,17652,2,0,B|436:65|436:65|517:71,2,113.999998654604,4|8|0,0:0|3:0|0:0,0:0:0:0:
275,77,19367,2,0,P|211:79|190:39,1,113.999998654604,4|0,0:0|0:0,0:0:0:0:
99,18,20224,2,0,P|112:72|100:132,1,113.999998654604,8|0,3:0|0:0,0:0:0:0:
127,222,21081,6,0,P|73:205|18:219,2,113.999998654604,4|8|0,0:0|3:0|0:0,0:0:0:0:
247,236,22795,2,0,B|241:271|241:271|251:351,2,113.999998654604,4|8|0,0:0|3:0|0:0,0:0:0:0:
363,198,24510,2,0,P|416:214|471:200,2,113.999998654604,4|8|0,0:0|3:0|0:0,0:0:0:0:
256,192,26224,12,4,27938,0:0:0:0:
73,19,41652,6,0,P|86:71|11:136,1,136.000004620552,4|0,0:0|0:0,0:0:0:0:
5,175,42724,2,0,P|2:215|5:248,1,68.000002310276,8|0,3:0|0:0,0:0:0:0:
46,277,43367,2,0,B|115:304|115:257|193:280,1,136.000004620552
232,287,44438,2,0,P|229:327|232:360,1,68.000002310276,8|0,3:0|0:0,0:0:0:0:
285,362,45081,6,0,P|337:370|358:300,1,136.000004620552,4|0,0:0|0:0,0:0:0:0:
408,279,46152,2,0,P|448:282|481:279,1,68.000002310276,8|0,3:0|0:0,0:0:0:0:
494,228,46795,2,0,B|474:187|474:187|478:96,1,136.000004620552,4|0,0:0|0:0,0:0:0:0:
435,62,47867,2,0,P|395:65|362:62,1,68.000002310276,8|0,3:0|0:0,0:0:0:0:
315,45,48509,6,0,P|346:77|342:142,2,102.000003465414,4|8|0,0:0|3:0|0:0,0:0:0:0:
206,55,50224,2,0,L|81:50,2,102.000003465414,0|8|0,0:0|3:0|0:0,0:0:0:0:
240,158,51938,2,0,B|232:194|232:194|246:272,2,102.000003465414,4|8|0,0:0|3:0|0:0,0:0:0:0:
348,165,53652,2,0,P|388:145|464:166,2,102.000003465414
348,165,55374,1,4,0:0:0:0:
256,192,65659,12,0,68444,0:0:0:0:
135,120,69087,6,0,P|126:205|47:225,1,151.999998206138,4|0,0:0|0:0,0:0:0:0:
18,119,70373,1,0,0:0:0:0:
104,34,70801,2,0,B|179:52|179:1|268:33,1,151.999998206138,4|0,0:0|0:0,0:0:0:0:
372,4,72087,1,0,0:0:0:0:
447,99,72516,6,0,B|447:152|447:152|436:189|436:189|435:253,1,151.999998206138,4|0,0:0|0:0,0:0:0:0:
468,366,73801,1,0,0:0:0:0:
349,339,74230,2,0,B|304:342|272:320|272:320|245:342|191:340,1,151.999998206138,4|0,0:0|0:0,0:0:0:0:
88,374,75516,1,0,0:0:0:0:
13,278,75944,6,0,B|26:219|26:219|12:120,1,151.999998206138,4|0,0:0|0:0,0:0:0:0:
81,27,77230,1,0,0:0:0:0:
174,104,77658,2,0,P|225:150|286:99,1,151.999998206138,4|0,0:0|0:0,0:0:0:0:
376,29,78944,1,4,0:0:0:0:
470,105,79373,6,0,B|452:176|499:177|469:263,1,151.999998206138,4|0,0:0|0:0,0:0:0:0:
376,329,80658,1,0,0:0:0:0:
376,329,81087,2,0,P|319:314|256:344,2,113.999998654604,4|0|0,0:0|0:0|0:0,0:0:0:0:
291,241,82801,6,0,B|236:254|236:254|128:241,1,151.999998206138,4|0,0:0|0:0,0:0:0:0:
80,347,84087,1,0,0:0:0:0:
3,252,84516,2,0,B|3:203|3:203|17:157|17:157|17:66,1,151.999998206138,4|0,0:0|0:0,0:0:0:0:
101,15,85801,1,0,0:0:0:0:
183,104,86230,6,0,B|256:136|256:83|350:105,1,151.999998206138,4|0,0:0|0:0,0:0:0:0:
428,27,87516,1,0,0:0:0:0:
495,127,87944,2,0,B|495:176|495:176|509:222|509:222|509:313,1,151.999998206138,4|0,0:0|0:0,0:0:0:0:
424,364,89230,1,0,0:0:0:0:
308,328,89658,6,0,P|276:280|296:224,2,113.999998654604,4|0|0,0:0|0:0|0:0,0:0:0:0:
188,356,91373,2,0,B|160:349|160:349|84:356,2,75.9999991030692,4|0|0,0:0|0:0|0:0,0:0:0:0:
99,60,93087,6,0,B|64:72|64:72|-16:64,2,102.000003465414,4|0|0,0:0|0:0|0:0,3:0:0:0:
203,29,94801,2,0,P|203:71|178:120,1,68.000002310276,4|0,0:0|0:0,0:0:0:0:
160,173,95444,2,0,B|129:169|129:169|85:175,2,68.000002310276
151,257,96516,6,0,P|141:306|172:361,2,102.000003465414,4|0|0,0:0|0:0|0:0,0:0:0:0:
262,186,98230,2,0,B|291:180|291:180|364:187,1,102.000003465414
406,219,99087,2,0,P|370:258|380:324,1,102.000003465414
297,353,99944,6,0,B|255:345|255:345|154:351,1,136.000004620552,4|0,0:0|0:0,0:0:0:0:
109,366,101016,2,0,P|118:329|110:297,1,68.000002310276
59,284,101658,2,0,P|32:211|52:154,1,136.000004620552
57,90,102730,2,0,B|79:96|79:96|128:93,1,68.000002310276
168,61,103373,6,0,B|230:48|230:93|303:61,1,136.000004620552,4|0,0:0|0:0,0:0:0:0:
350,40,104444,2,0,P|370:55|414:57,1,68.000002310276
458,86,105087,2,0,B|443:119|443:119|441:225,1,136.000004620552
434,272,106158,2,0,P|405:260|364:265,1,68.000002310276
314,258,106801,6,0,B|324:295|324:295|317:361,2,102.000003465414,4|0|0,0:0|0:0|0:0,0:0:0:0:
214,303,108516,2,0,P|173:313|111:297,2,102.000003465414,4|0|0,0:0|0:0|0:0,0:0:0:0:
228,195,110230,2,0,L|229:92,2,102.000003465414,4|0|0,0:0|0:0|0:0,0:0:0:0:
334,170,111944,2,0,P|381:184|437:171,2,102.000003465414,4|0|0,0:0|0:0|0:0,0:0:0:0:
317,61,113658,6,0,B|237:93|237:43|160:61,1,160.000002384186,4|0,0:0|0:0,0:0:0:0:
57,114,117087,2,0,P|72:162|-14:188,1,160.000002384186,4|0,0:0|0:0,0:0:0:0:
65,324,120516,2,0,B|127:323|127:323|162:333|162:333|225:333,1,160.000002384186,4|0,0:0|0:0,0:0:0:0:
437,354,123944,2,0,P|403:306|458:236,1,160.000002384186,4|0,0:0|0:0,0:0:0:0:
47,24,127373,6,0,P|71:91|18:139,1,151.999998206138,4|0,0:0|0:0,0:0:0:0:
10,260,128658,1,0,0:0:0:0:
89,352,129087,2,0,B|162:379|162:329|245:359,1,151.999998206138,4|0,0:0|0:0,0:0:0:0:
346,301,130373,1,0,0:0:0:0:
441,375,130801,2,0,P|469:307|443:230,1,151.999998206138,4|0,0:0|0:0,0:0:0:0:
494,122,132087,1,0,0:0:0:0:
418,26,132516,6,0,B|360:26|360:26|328:35|328:35|264:35,1,151.999998206138,4|0,0:0|0:0,0:0:0:0:
149,63,133801,2,0,P|126:65|105:61,1,37.9999995515346
55,38,134230,6,0,B|67:84|67:84|69:195,1,151.999998206138,4|0,0:0|0:0,0:0:0:0:
8,294,135516,1,0,0:0:0:0:
115,350,135944,2,0,B|160:341|190:366|190:366|217:342|262:349,1,151.999998206138,4|0,0:0|0:0,0:0:0:0:
377,372,137230,1,0,0:0:0:0:
479,306,137658,2,0,P|453:246|510:183,1,151.999998206138,4|0,0:0|0:0,0:0:0:0:
491,63,138944,1,0,0:0:0:0:
370,81,139373,6,0,B|329:72|329:72|249:79,1,113.999998654604,4|0,0:0|0:0,0:0:0:0:
223,128,140230,2,0,B|182:137|182:137|102:130,1,113.999998654604
62,168,141087,6,0,P|89:98|40:44,2,151.999998206138,4|0|0,0:0|0:0|0:0,0:0:0:0:
15,280,143230,1,0,0:0:0:0:
105,360,143658,2,0,P|167:345|215:367,1,113.999998654604
249,316,144516,2,0,B|242:283|242:283|243:196,2,113.999998654604,4|0|0,0:0|0:0|0:0,0:0:0:0:
369,336,146230,2,0,P|434:354|445:282,1,151.999998206138
375,190,147516,1,0,0:0:0:0:
492,160,147944,6,0,B|505:114|505:114|496:8,2,151.999998206138,4|0|0,0:0|0:0|0:0,0:0:0:0:
389,94,150087,1,0,0:0:0:0:
288,143,150516,2,0,P|234:130|175:145,1,113.999998654604
136,99,151373,2,0,P|170:140|41:139,1,303.999996412277
104,158,153944,6,0,L|106:315,1,151.999998206138
226,192,178801,6,0,L|289:192,1,60.0000008940696
61,28,182229,6,0,P|66:60|47:106,1,80.0000011920928,4|0,0:0|0:0,0:0:0:0:
45,183,183514,1,0,0:0:0:0:
121,159,183943,2,0,B|146:154|146:154|206:158,1,80.0000011920928,4|0,0:0|0:0,0:0:0:0:
274,187,185229,1,0,0:0:0:0:
323,124,185657,2,0,P|310:88|315:43,1,80.0000011920928,4|0,0:0|0:0,0:0:0:0:
386,12,186943,1,0,0:0:0:0:
461,39,187371,6,0,B|466:77|466:77|462:161,1,120.000001788139
476,237,189086,6,0,P|439:226|394:237,1,80.0000011920928
320,221,190371,1,0,0:0:0:0:
258,272,190800,2,0,B|262:301|262:301|259:353,1,80.0000011920928,4|0,0:0|0:0,0:0:0:0:
256,192,192514,12,0,195086,0:0:0:0:
405,32,195943,6,0,P|389:57|472:114,1,160.000002384186,4|0,0:0|0:0,0:0:0:0:
504,238,197228,1,0,0:0:0:0:
439,348,197657,2,0,B|373:338|373:338|278:348,1,160.000002384186,4|0,0:0|0:0,0:0:0:0:
153,366,198943,1,0,0:0:0:0:
45,296,199371,6,0,B|25:214|78:214|48:134,1,160.000002384186,4|0,0:0|0:0,0:0:0:0:
9,17,200657,1,0,0:0:0:0:
130,57,201085,2,0,P|174:82|257:27,1,160.000002384186
383,13,202371,1,0,0:0:0:0:
463,112,202800,6,0,B|464:162|464:162|477:201|477:201|477:271,1,160.000002384186,4|0,0:0|0:0,0:0:0:0:
403,374,204085,1,0,0:0:0:0:
299,298,204514,2,0,P|292:275|301:214,2,80.0000011920928,4|0|0,0:0|0:0|0:0,0:0:0:0:
50,360,206228,6,0,P|16:329|41:226,1,160.000002384186,4|0,0:0|0:0,0:0:0:0:
19,101,207514,1,0,0:0:0:0:
135,47,207942,2,0,B|202:58|202:58|299:51,1,160.000002384186,4|0,0:0|0:0,0:0:0:0:
419,24,209228,1,0,0:0:0:0:
488,131,209657,2,0,B|463:207|525:206|490:286,1,160.000002384186,4|0,0:0|0:0,0:0:0:0:
384,357,210942,1,0,0:0:0:0:
268,302,211371,2,0,L|147:305,2,120.000001788139,4|0|0,0:0|0:0|0:0,0:0:0:0:
318,205,213085,6,0,P|324:165|297:109,2,102.000003465414,4|0|0,0:0|0:0|0:0,0:0:0:0:
214,170,214800,2,0,B|186:164|186:164|109:172,1,102.000003465414,4|0,0:0|0:0,0:0:0:0:
92,222,215657,2,0,P|51:256|47:304,1,102.000003465414,0|0,3:0|3:0,3:0:0:0:
93,329,216514,2,0,L|202:326,2,102.000003465414,4|0|0,0:0|0:0|0:0,0:0:0:0:
256,192,218228,12,0,219942,3:0:0:0:
