osu file format v14

[General]
AudioFilename: audio.mp3
AudioLeadIn: 0
PreviewTime: 17024
Countdown: 0
SampleSet: Normal
StackLeniency: 0.7
Mode: 1
LetterboxInBreaks: 0
WidescreenStoryboard: 1

[Editor]
Bookmarks: 2341,2972,4078,5025,6130,6762,7867,14818,30293,33766,47658,61761,77024,89655,102288,107023,121231,136389,166711,204606,229867,242499
DistanceSpacing: 1
BeatDivisor: 6
GridSize: 32
TimelineZoom: 3.049999

[Metadata]
Title:Leia - Remind
TitleUnicode:Leia - Remind
Artist:Yuyoyuppe
ArtistUnicode:ゆよゆっぺ
Creator:Eyenine
Version:Reon
Source:
Tags:rock japanese vocaloid vocarock megurine luka v4x 巡音ルカ planetary suicide story of hope draw the emotional dj'tekina//something dj tekina something meola yupeyupe
BeatmapID:2795726
BeatmapSetID:1350334

[Difficulty]
HPDrainRate:5
CircleSize:5
OverallDifficulty:6.5
ApproachRate:5
SliderMultiplier:1.4
SliderTickRate:1

[Events]
//Background and Video events
0,0,"daisy.jpg",0,0
//Break Periods
//Storyboard Layer 0 (Background)
//Storyboard Layer 1 (Fail)
//Storyboard Layer 2 (Pass)
//Storyboard Layer 3 (Foreground)
//Storyboard Layer 4 (Overlay)
//Storyboard Sound Samples

[TimingPoints]
1236,315.789473684211,6,1,0,100,1,0
1236,-93.0232558139535,6,1,0,100,0,0
2617,-80.6451612903226,6,1,0,100,0,0
2972,315.789473684211,7,1,0,100,1,0
2972,-93.0232558139535,7,1,0,100,0,0
5025,315.789473684211,6,1,0,100,1,0
5025,-93.0232558139535,6,1,0,100,0,0
6367,-80.6451612903226,6,1,0,100,0,0
6735,-93.0232558139535,6,1,0,100,0,0
6762,315.789473684211,6,1,0,100,1,0
6762,-93.0232558139535,6,1,0,100,0,0
8499,315.789473684211,6,1,0,100,1,0
8499,-93.0232558139535,4,1,0,100,0,0
10078,315.789473684211,7,1,0,100,1,0
10078,-93.0232558139535,7,1,0,100,0,0
12288,315.789473684211,8,1,0,100,1,0
12288,-93.0232558139535,8,1,0,100,0,0
12840,-80.6451612903226,8,1,0,100,0,0
13314,-93.0232558139535,8,1,0,100,0,0
14814,315.789473684211,9,1,0,80,1,0
14814,-92.5925925925926,9,1,0,80,0,0
15285,-101.26582278481,9,1,0,80,0,0
15759,-108.108108108108,9,1,0,80,0,0
16233,-115.942028985507,9,1,0,80,0,0
16545,-121.827460640593,9,1,0,80,0,0
16656,-121.521448535667,9,1,0,80,0,0
16824,-121.212121212121,6,1,0,80,0,0
16903,-119.402985074627,6,1,0,80,0,0
16982,-117.647058823529,3,1,0,90,0,8
17061,-115.107913669065,3,1,0,90,0,8
17140,-112.676056338028,3,1,0,90,0,8
17219,-110.344827586207,3,1,0,90,0,8
17298,-108.108108108108,3,1,0,90,0,8
17456,-103.896103896104,3,1,0,90,0,8
17656,315.789473684211,5,1,0,100,1,8
17656,-95.2380952380952,5,1,0,100,0,0
17657,315.789473684211,5,1,0,100,1,1
17657,-95.2380952380952,5,1,0,100,0,1
30288,315.789473684211,11,1,0,100,1,1
30288,-90.9090909090909,11,1,0,100,0,1
30682,-90.0900900900901,11,1,0,100,0,1
31051,-89.2857142857143,11,1,0,100,0,1
31551,-88.4955752212389,11,1,0,100,0,1
32024,-87.719298245614,11,1,0,100,0,1
32524,-86.9565217391304,11,1,0,100,0,1
32945,-90.9090909090909,11,1,0,100,0,1
33024,-88.8888888888889,11,1,0,100,0,1
33077,-86.9565217391304,11,1,0,100,0,1
33248,-90.9090909090909,11,1,0,100,0,1
33327,-89.5522361327691,11,1,0,100,0,1
33406,-88.2353200692118,11,1,0,100,0,1
33485,-86.9565217391304,11,1,0,100,0,1
33564,-85.7142832653062,11,1,0,100,0,1
33643,-84.5070660583285,11,1,0,100,0,1
33722,-80,11,1,0,100,0,1
33761,315.789473684211,6,1,0,100,1,8
33761,-80,6,1,0,100,0,0
33762,315.789473684211,6,1,0,100,1,0
33762,-80,6,1,0,100,0,0
34075,-99.00990099,6,1,0,80,0,0
34233,-99.50248756,6,1,0,80,0,0
34548,-100,6,1,0,80,0,0
34706,-100.5025126,6,1,0,80,0,0
34864,-101.010101,6,1,0,80,0,0
34943,-101.5228426,6,1,0,80,0,0
35022,-102.0408163,6,1,0,80,0,0
35180,-102.5641026,6,1,0,80,0,0
35259,-103.0927835,6,1,0,80,0,0
35338,-103.626943,6,1,0,80,0,0
35496,-104.1666667,6,1,0,80,0,0
35654,-104.7120419,6,1,0,80,0,0
35811,-105.2631579,6,1,0,80,0,0
36127,-105.8201058,6,1,0,80,0,0
36443,-106.3829787,6,1,0,80,0,0
36601,-106.9518717,6,1,0,80,0,0
36917,-107.5268817,6,1,0,80,0,0
37236,315.789473684211,6,1,0,80,1,0
37236,-108.1081081,6,1,0,80,0,0
37390,-108.6956522,6,1,0,80,0,0
37706,-109.2896175,6,1,0,80,0,0
38022,-109.8901099,6,1,0,80,0,0
38180,-110.4972376,6,1,0,80,0,0
38259,-111.1111111,6,1,0,80,0,0
40709,315.789473684211,6,1,0,80,1,0
40709,-111.111111111111,6,1,0,80,0,0
44183,315.789473684211,6,1,0,80,1,0
44183,-111.1111111,6,1,0,80,0,0
47656,315.789473684211,6,1,0,80,1,8
47656,-111.1111111,6,1,0,80,0,0
47657,315.789473684211,6,1,0,80,1,0
47657,-111.1111111,6,1,0,80,0,0
51130,315.789473684211,6,1,0,80,1,0
51130,-111.1111111,6,1,0,80,0,0
54604,315.789473684211,6,1,0,80,1,0
54604,-111.1111111,6,1,0,80,0,0
58078,315.789473684211,6,1,0,80,1,0
58078,-111.1111111,6,1,0,80,0,0
59969,-109.6774194,6,1,0,80,0,0
60048,-108.2802548,6,1,0,80,0,0
60127,-106.918239,6,1,0,80,0,0
60285,-105.5900621,6,1,0,80,0,0
60443,-104.2944785,6,1,0,80,0,0
60601,-103.030303,6,1,0,80,0,0
60759,-101.7964072,6,1,0,80,0,0
60917,-100.591716,6,1,0,80,0,0
60996,-99.41520468,6,1,0,80,0,0
61075,-98.26589595,6,1,0,80,0,0
61154,-97.14285714,6,1,0,80,0,0
61233,-96.04519774,6,1,0,80,0,0
61390,-94.97206704,6,1,0,80,0,0
61469,-93.92265193,6,1,0,80,0,0
61548,-92.89617486,6,1,0,80,0,0
61706,-91.89189189,6,1,0,80,0,0
61867,315.789473684211,6,1,0,100,1,0
61867,-90.9090909090909,6,1,0,100,0,0
62021,-125,6,1,0,60,0,0
69364,-111.111111111111,6,1,0,80,0,0
73179,-105.263157894737,6,1,0,80,0,0
76153,-105.263157894737,6,1,0,30,0,0
77024,315.789473684211,5,1,0,100,1,8
77024,-95.2380952380952,5,1,0,100,0,8
77025,315.789473684211,5,1,0,100,1,1
77025,-95.2380952380952,5,1,0,100,0,9
102008,-94.5626477541371,5,1,0,100,0,9
102087,-93.8967136150235,5,1,0,100,0,9
102166,-93.2400932400932,5,1,0,100,0,9
102288,315.789473684211,3,1,0,100,1,1
102288,-86.95652174,3,1,0,100,0,1
102443,-90.63426767,3,1,0,100,0,1
102522,-90.49747822,3,1,0,100,0,1
102601,-90.36110104,3,1,0,100,0,1
102759,-86.2064259,3,1,0,100,0,1
102917,-89.81967804,3,1,0,100,0,1
102996,-89.68533455,3,1,0,100,0,1
103075,-89.55139233,3,1,0,100,0,1
103233,-85.46916019,3,1,0,100,0,1
103390,-89.0212734,3,1,0,100,0,1
103469,-88.88930589,3,1,0,100,0,1
103548,-88.75772906,3,1,0,100,0,1
103706,-84.74591432,3,1,0,100,0,1
103864,-88.23529412,3,1,0,100,0,1
103943,-88.10564494,3,1,0,100,0,1
104022,-87.9763762,3,1,0,100,0,1
104180,-84.0333153,3,1,0,100,0,1
104338,-87.46307238,3,1,0,100,0,1
104417,-87.33568097,3,1,0,100,0,1
104496,-87.20866011,3,1,0,100,0,1
104654,-83.33260034,3,1,0,100,0,1
104811,-86.70583713,3,1,0,100,0,1
104890,-86.58064044,3,1,0,100,0,1
104969,-86.45580479,3,1,0,100,0,1
105127,-82.64491647,3,1,0,100,0,1
105285,-85.96004137,3,1,0,100,0,1
105364,-85.83698764,3,1,0,100,0,1
105443,-85.71428571,3,1,0,100,0,1
105601,-81.96707128,3,1,0,100,0,1
105759,-85.22696605,3,1,0,100,0,1
105838,-85.10600072,3,1,0,100,0,1
105917,-84.98537828,3,1,0,100,0,1
106075,-81.30025487,3,1,0,100,0,1
106233,-84.50628847,3,1,0,100,0,1
106311,-84.38886217,3,1,0,100,0,1
106390,-84.27026258,3,1,0,100,0,1
106548,-80.64557318,3,1,0,100,0,1
106706,-83.79917917,3,1,0,100,0,1
106785,-83.68223011,3,1,0,100,0,1
106864,-83.56560703,3,1,0,100,0,1
107024,315.789473684211,6,1,0,90,1,9
107024,-80,6,1,0,90,0,1
107025,315.789473684211,6,1,0,90,1,0
107025,-80,6,1,0,90,0,0
107100,-100,6,1,0,90,0,0
110103,-80,6,1,0,90,0,0
110498,-100,6,1,0,90,0,0
110499,315.789473684211,6,1,0,90,1,0
110538,-100,6,1,0,90,0,0
113459,-95.2380952380952,6,1,0,90,0,0
113538,-93.0232558139535,6,1,0,90,0,0
113617,-90.9090909090909,6,1,0,90,0,0
113775,-86.9565217391304,6,1,0,90,0,0
113972,315.789473684211,6,1,0,90,1,0
113972,-80,6,1,0,90,0,0
114090,-100,6,1,0,90,0,0
117090,-80,6,1,0,90,0,0
117445,-100,6,1,0,90,0,0
117446,315.789473684211,6,1,0,90,1,0
117485,-100,6,1,0,90,0,0
119336,-100,6,1,0,90,0,0
119494,-98.35980484,6,1,0,90,0,0
119652,-96.77254622,6,1,0,90,0,0
119809,-95.24527543,6,1,0,90,0,0
119967,-93.75618444,6,1,0,90,0,0
120125,-92.31293843,6,1,0,90,0,0
120283,-90.91345231,6,1,0,90,0,0
120441,-89.5557656,6,1,0,90,0,0
120520,-88.89201614,6,1,0,90,0,0
120599,-88.23803315,6,1,0,90,0,0
120757,-86.95851689,6,1,0,90,0,0
120915,-85.71557807,6,1,0,90,0,0
121073,-84.50767035,6,1,0,90,0,0
121235,315.789473684211,6,1,0,90,1,8
121235,-80,6,1,0,90,0,0
121236,315.789473684211,6,1,0,90,1,0
121236,-80,6,1,0,90,0,0
122222,-100,6,1,0,90,0,0
123091,-80,6,1,0,90,0,0
124117,-100,6,1,0,90,0,0
124986,-80,6,1,0,90,0,0
126012,-100,6,1,0,90,0,0
126880,-80,6,1,0,90,0,0
127906,-100,6,1,0,90,0,0
127986,-96.774224765879,6,1,0,90,0,0
128143,-93.7499707031342,6,1,0,90,0,0
128222,-92.3077207100679,6,1,0,90,0,0
128301,-90.9090909090909,6,1,0,90,0,0
128380,-89.5522361327691,6,1,0,90,0,0
128459,-88.2353200692118,6,1,0,90,0,0
128617,-85.7142612244968,6,1,0,90,0,0
128696,-84.5070660583285,6,1,0,90,0,0
128775,-80,6,1,0,90,0,0
129801,-100,6,1,0,90,0,0
130670,-80,6,1,0,90,0,0
131696,-100,6,1,0,90,0,0
132564,-80,6,1,0,90,0,0
132683,-100,6,1,0,90,0,0
134495,-100,6,1,0,90,0,0
134653,-99.17268824,6,1,0,90,0,0
134732,-98.76414455,6,1,0,90,0,0
134810,-98.36406128,6,1,0,90,0,0
134968,-97.56348838,6,1,0,90,0,0
135126,-96.77584181,6,1,0,90,0,0
135205,-96.38676845,6,1,0,90,0,0
135284,-96.00081099,6,1,0,90,0,0
135363,-95.61793215,6,1,0,90,0,0
135442,-95.23809524,6,1,0,90,0,0
135600,-94.48740334,6,1,0,90,0,0
135679,-94.11647784,6,1,0,90,0,0
135758,-93.7484532,6,1,0,90,0,0
135837,-93.38329553,6,1,0,90,0,0
135916,-93.02097147,6,1,0,90,0,0
135995,-92.66144814,6,1,0,90,0,0
136074,-92.30469321,6,1,0,90,0,0
136153,-91.95067482,6,1,0,90,0,0
136232,-91.59936161,6,1,0,90,0,0
136310,-91.25511925,6,1,0,90,0,0
136350,-100,6,1,0,100,0,0
136389,-90.90909091,6,1,0,100,0,0
136547,-91.60342244,6,1,0,100,0,0
136705,-92.30844172,6,1,0,100,0,0
136863,-93.02439743,6,1,0,100,0,0
137021,-93.75154603,6,1,0,100,0,0
137179,-94.49015208,6,1,0,100,0,0
137337,-95.24048852,6,1,0,100,0,0
137495,-96.00283702,6,1,0,100,0,0
137574,-96.38860631,6,1,0,100,0,0
137653,-96.77748838,6,1,0,100,0,0
137810,-97.55971993,6,1,0,100,0,0
137968,-98.35980484,6,1,0,100,0,0
138126,-99.17312121,6,1,0,100,0,0
138205,-99.58484419,6,1,0,100,0,0
138284,-100,6,1,0,100,0,0
164814,-100,6,1,0,100,0,0
164893,-99.58506224,6,1,0,100,0,0
164972,-99.17355372,6,1,0,100,0,0
165051,-98.7654321,6,1,0,100,0,0
165130,-98.36065574,6,1,0,100,0,0
165209,-97.95918367,6,1,0,100,0,0
165288,-97.56097561,6,1,0,100,0,0
165367,-97.1659919,6,1,0,100,0,0
165446,-96.77419355,6,1,0,100,0,0
165525,-96.38554217,6,1,0,100,0,0
165604,-96,6,1,0,100,0,0
165683,-95.61752988,6,1,0,100,0,0
165762,-95.23809524,6,1,0,100,0,0
165841,-94.86166008,6,1,0,100,0,0
165920,-94.48818898,6,1,0,100,0,0
165999,-94.11764706,6,1,0,100,0,0
166078,-93.75,6,1,0,100,0,0
166157,-93.38521401,6,1,0,100,0,0
166236,-93.02325581,6,1,0,100,0,0
166314,-92.66409266,6,1,0,100,0,0
166393,-92.30769231,6,1,0,100,0,0
166472,-91.95402299,6,1,0,100,0,0
166551,-91.60305344,6,1,0,100,0,0
166630,-91.25475285,6,1,0,100,0,0
166709,315.789473684211,5,1,0,100,1,0
166709,-90.90909091,5,1,0,100,0,0
166824,-100,5,1,0,50,0,0
167654,-103.2258065,5,1,0,50,0,0
168285,-106.6666667,5,1,0,50,0,0
169233,-110.3448276,5,1,0,50,0,0
169864,-114.2857143,5,1,0,50,0,0
170811,-118.5185185,5,1,0,50,0,0
171443,-123.0769231,5,1,0,50,0,0
172390,-128,5,1,0,50,0,0
173022,-133.3333333,5,1,0,50,0,0
179298,-125,5,1,0,60,0,0
191969,-125,5,1,0,60,0,0
192917,-123.3480176,5,1,0,60,0,0
193548,-121.7391304,5,1,0,60,0,0
194496,-120.1716738,5,1,0,60,0,0
194811,-118.6440678,5,1,0,60,0,0
195127,-117.1548117,5,1,0,60,0,0
196075,-115.7024793,5,1,0,60,0,0
196706,-114.2857143,5,1,0,60,0,0
197654,-112.9032258,5,1,0,60,0,0
197969,-111.5537849,5,1,0,60,0,0
198285,-110.2362205,5,1,0,60,0,0
199233,-108.9494163,5,1,0,60,0,0
199864,-107.6923077,5,1,0,60,0,0
200811,-106.4638783,5,1,0,60,0,0
201127,-105.2631579,5,1,0,60,0,0
201403,-133.333333333333,5,1,0,30,0,0
203929,-111.111111111111,5,1,0,80,0,0
203969,-111.1111111,5,1,0,80,0,0
204048,-108.892922,5,1,0,80,0,0
204127,-106.7615658,5,1,0,80,0,0
204206,-104.7120419,5,1,0,80,0,0
204284,-102.739726,5,1,0,80,0,0
204442,-100.8403361,5,1,0,80,0,0
204603,-90.9090909090909,5,1,0,100,0,1
229866,-90.9090909090909,5,1,0,100,0,1
242498,315.789473684211,3,1,0,100,1,0
242498,-90.9090909090909,3,1,0,100,0,0
250037,-100,3,1,0,20,0,0

[HitObjects]
160,128,1236,5,0,0:0:0:0:
160,128,1314,1,0,0:0:0:0:
160,128,1393,1,0,0:0:0:0:
160,128,1551,1,0,0:0:0:0:
160,128,1630,1,0,0:0:0:0:
160,128,1709,1,0,0:0:0:0:
352,128,1867,1,8,0:0:0:0:
352,128,2025,1,8,0:0:0:0:
352,128,2183,1,8,0:0:0:0:
160,128,2341,1,0,0:0:0:0:
160,128,2420,1,0,0:0:0:0:
160,128,2499,1,0,0:0:0:0:
352,256,2657,1,12,0:0:0:0:
352,256,2814,1,12,0:0:0:0:
160,128,2972,1,0,0:0:0:0:
160,128,3050,1,0,0:0:0:0:
160,128,3129,1,0,0:0:0:0:
160,128,3287,1,0,0:0:0:0:
160,128,3366,1,0,0:0:0:0:
160,128,3445,1,0,0:0:0:0:
352,128,3603,1,8,0:0:0:0:
352,128,3761,1,8,0:0:0:0:
352,128,3919,1,8,0:0:0:0:
160,128,4077,1,0,0:0:0:0:
160,128,4156,1,0,0:0:0:0:
160,128,4235,1,0,0:0:0:0:
352,128,4393,1,8,0:0:0:0:
160,128,4550,1,0,0:0:0:0:
160,128,4629,1,0,0:0:0:0:
352,128,4708,1,8,0:0:0:0:
352,128,4866,1,8,0:0:0:0:
160,128,5025,1,0,0:0:0:0:
160,128,5103,1,0,0:0:0:0:
160,128,5182,1,0,0:0:0:0:
160,128,5340,1,0,0:0:0:0:
160,128,5419,1,0,0:0:0:0:
160,128,5498,1,0,0:0:0:0:
352,128,5656,1,8,0:0:0:0:
352,128,5814,1,8,0:0:0:0:
352,128,5972,1,8,0:0:0:0:
160,128,6130,1,0,0:0:0:0:
160,128,6209,1,0,0:0:0:0:
160,128,6288,1,0,0:0:0:0:
352,256,6446,1,12,0:0:0:0:
352,256,6603,1,12,0:0:0:0:
160,128,6762,1,0,0:0:0:0:
160,128,6840,1,0,0:0:0:0:
160,128,6919,1,0,0:0:0:0:
160,128,7077,1,0,0:0:0:0:
160,128,7156,1,0,0:0:0:0:
160,128,7235,1,0,0:0:0:0:
352,128,7393,1,8,0:0:0:0:
352,128,7551,1,8,0:0:0:0:
352,128,7709,1,8,0:0:0:0:
160,128,7867,1,0,0:0:0:0:
160,128,7946,1,0,0:0:0:0:
160,128,8025,1,0,0:0:0:0:
352,128,8183,1,8,0:0:0:0:
160,128,8262,1,0,0:0:0:0:
160,128,8340,1,0,0:0:0:0:
160,128,8419,1,0,0:0:0:0:
352,256,8499,1,12,0:0:0:0:
160,128,8814,1,0,0:0:0:0:
160,128,8893,1,0,0:0:0:0:
352,256,8972,1,12,0:0:0:0:
160,128,9288,1,0,0:0:0:0:
160,128,9367,1,0,0:0:0:0:
352,256,9446,1,12,0:0:0:0:
160,128,9762,1,0,0:0:0:0:
160,128,9841,1,0,0:0:0:0:
352,256,9920,1,12,0:0:0:0:
160,128,10078,1,0,0:0:0:0:
160,128,10156,1,0,0:0:0:0:
160,128,10235,1,0,0:0:0:0:
160,128,10314,1,0,0:0:0:0:
160,128,10393,1,0,0:0:0:0:
160,128,10472,1,0,0:0:0:0:
160,128,10551,1,0,0:0:0:0:
160,128,10630,1,0,0:0:0:0:
352,128,10709,1,8,0:0:0:0:
352,128,10867,1,8,0:0:0:0:
160,128,11025,1,0,0:0:0:0:
160,128,11104,1,0,0:0:0:0:
160,128,11183,1,0,0:0:0:0:
160,128,11341,1,0,0:0:0:0:
160,128,11420,1,0,0:0:0:0:
160,128,11499,1,0,0:0:0:0:
352,256,11656,1,12,0:0:0:0:
352,256,11893,1,12,0:0:0:0:
352,256,12130,1,12,0:0:0:0:
160,128,12288,1,0,0:0:0:0:
160,128,12366,1,0,0:0:0:0:
160,128,12445,1,0,0:0:0:0:
160,128,12603,1,0,0:0:0:0:
160,128,12682,1,0,0:0:0:0:
160,128,12761,1,0,0:0:0:0:
352,256,12919,1,12,0:0:0:0:
352,256,13077,1,12,0:0:0:0:
352,256,13235,1,12,0:0:0:0:
160,128,13393,1,0,0:0:0:0:
160,128,13472,1,0,0:0:0:0:
160,128,13551,1,0,0:0:0:0:
352,128,13709,1,8,0:0:0:0:
352,128,13866,1,8,0:0:0:0:
352,128,13945,1,8,0:0:0:0:
160,128,14024,1,0,0:0:0:0:
160,128,14103,1,0,0:0:0:0:
352,128,14182,1,8,0:0:0:0:
352,128,14235,1,8,0:0:0:0:
352,128,14288,1,8,0:0:0:0:
160,128,14340,1,0,0:0:0:0:
160,128,14393,1,0,0:0:0:0:
160,128,14445,1,0,0:0:0:0:
352,128,14524,1,8,0:0:0:0:
160,128,14656,1,0,0:0:0:0:
160,256,14814,1,4,0:0:0:0:
352,128,15287,1,8,0:0:0:0:
352,128,15761,1,8,0:0:0:0:
352,128,16235,1,8,0:0:0:0:
352,128,16550,1,8,0:0:0:0:
352,128,16708,1,8,0:0:0:0:
160,128,16866,1,0,0:0:0:0:
160,128,16945,1,0,0:0:0:0:
352,128,17024,1,8,0:0:0:0:
352,128,17103,1,8,0:0:0:0:
160,128,17182,1,0,0:0:0:0:
160,128,17261,1,0,0:0:0:0:
352,128,17340,1,8,0:0:0:0:
160,256,17657,1,4,0:0:0:0:
160,128,17814,1,0,0:0:0:0:
352,128,18130,1,8,0:0:0:0:
160,128,18446,1,0,0:0:0:0:
352,128,18604,1,8,0:0:0:0:
160,128,18762,1,0,0:0:0:0:
160,128,18841,1,0,0:0:0:0:
352,128,18920,1,8,0:0:0:0:
352,128,19078,1,8,0:0:0:0:
160,256,19235,1,4,0:0:0:0:
160,128,19393,1,0,0:0:0:0:
160,128,19709,1,0,0:0:0:0:
352,128,20025,1,8,0:0:0:0:
160,128,20183,1,0,0:0:0:0:
160,128,20262,1,0,0:0:0:0:
160,128,20341,1,0,0:0:0:0:
160,128,20420,1,0,0:0:0:0:
352,128,20499,1,8,0:0:0:0:
352,128,20657,1,8,0:0:0:0:
160,256,20814,1,4,0:0:0:0:
160,128,20972,1,0,0:0:0:0:
352,128,21288,1,8,0:0:0:0:
160,128,21604,1,0,0:0:0:0:
352,128,21762,1,8,0:0:0:0:
160,128,21920,1,0,0:0:0:0:
160,128,21999,1,0,0:0:0:0:
352,128,22078,1,8,0:0:0:0:
160,128,22235,1,0,0:0:0:0:
352,256,22393,1,12,0:0:0:0:
352,128,22551,1,8,0:0:0:0:
352,128,22867,1,8,0:0:0:0:
160,128,23183,1,0,0:0:0:0:
160,128,23262,1,0,0:0:0:0:
352,128,23341,1,8,0:0:0:0:
352,128,23420,1,8,0:0:0:0:
160,128,23499,1,0,0:0:0:0:
160,128,23578,1,0,0:0:0:0:
352,128,23657,1,8,0:0:0:0:
352,128,23814,1,8,0:0:0:0:
160,256,23972,1,4,0:0:0:0:
160,128,24130,1,0,0:0:0:0:
352,128,24446,1,8,0:0:0:0:
160,128,24762,1,0,0:0:0:0:
352,128,24920,1,8,0:0:0:0:
160,128,25078,1,0,0:0:0:0:
160,128,25157,1,0,0:0:0:0:
352,128,25235,1,8,0:0:0:0:
352,128,25393,1,8,0:0:0:0:
160,256,25551,1,4,0:0:0:0:
160,128,25709,1,0,0:0:0:0:
160,128,26025,1,0,0:0:0:0:
352,128,26341,1,8,0:0:0:0:
160,128,26499,1,0,0:0:0:0:
160,128,26578,1,0,0:0:0:0:
160,128,26657,1,0,0:0:0:0:
160,128,26735,1,0,0:0:0:0:
352,128,26814,1,8,0:0:0:0:
352,128,26972,1,8,0:0:0:0:
160,256,27130,1,4,0:0:0:0:
160,128,27288,1,0,0:0:0:0:
352,128,27604,1,8,0:0:0:0:
160,128,27920,1,0,0:0:0:0:
352,128,28078,1,8,0:0:0:0:
352,128,28157,1,8,0:0:0:0:
160,128,28235,1,0,0:0:0:0:
160,128,28314,1,0,0:0:0:0:
352,128,28393,1,8,0:0:0:0:
160,128,28551,1,0,0:0:0:0:
352,256,28709,1,12,0:0:0:0:
160,128,28867,1,0,0:0:0:0:
352,128,29025,1,8,0:0:0:0:
160,128,29183,1,0,0:0:0:0:
160,128,29262,1,0,0:0:0:0:
352,128,29341,1,8,0:0:0:0:
160,128,29499,1,0,0:0:0:0:
160,128,29578,1,0,0:0:0:0:
352,128,29657,1,8,0:0:0:0:
160,128,29735,1,0,0:0:0:0:
160,128,29814,1,0,0:0:0:0:
160,128,29893,1,0,0:0:0:0:
352,128,29972,1,8,0:0:0:0:
352,128,30130,1,8,0:0:0:0:
160,256,30288,1,4,0:0:0:0:
352,256,30761,1,12,0:0:0:0:
160,256,31235,1,4,0:0:0:0:
352,256,31709,1,12,0:0:0:0:
160,256,32182,1,4,0:0:0:0:
352,256,32656,1,12,0:0:0:0:
160,128,32972,1,0,0:0:0:0:
160,128,33051,1,0,0:0:0:0:
352,128,33130,1,8,0:0:0:0:
160,128,33288,1,0,0:0:0:0:
160,128,33366,1,0,0:0:0:0:
352,128,33445,1,8,0:0:0:0:
352,128,33524,1,8,0:0:0:0:
352,128,33603,1,8,0:0:0:0:
352,128,33682,1,8,0:0:0:0:
160,256,33762,1,4,0:0:0:0:
160,128,34077,1,0,0:0:0:0:
352,128,34235,1,8,0:0:0:0:
160,128,34551,1,0,0:0:0:0:
160,128,34709,1,0,0:0:0:0:
160,128,34867,1,0,0:0:0:0:
160,128,34946,1,0,0:0:0:0:
352,128,35025,1,8,0:0:0:0:
160,128,35183,1,0,0:0:0:0:
160,128,35262,1,0,0:0:0:0:
352,128,35340,1,8,0:0:0:0:
352,128,35498,1,8,0:0:0:0:
160,128,35656,1,0,0:0:0:0:
160,128,35814,1,0,0:0:0:0:
352,128,36130,1,8,0:0:0:0:
160,128,36446,1,0,0:0:0:0:
160,128,36604,1,0,0:0:0:0:
352,128,36919,1,8,0:0:0:0:
160,128,37236,1,0,0:0:0:0:
352,128,37393,1,8,0:0:0:0:
352,128,37709,1,8,0:0:0:0:
160,128,38025,1,0,0:0:0:0:
160,128,38183,1,0,0:0:0:0:
160,128,38262,1,0,0:0:0:0:
352,128,38341,1,8,0:0:0:0:
160,128,38499,1,0,0:0:0:0:
160,128,38657,1,0,0:0:0:0:
160,128,38736,1,0,0:0:0:0:
352,128,38814,1,8,0:0:0:0:
352,128,38972,1,8,0:0:0:0:
160,128,39130,1,0,0:0:0:0:
160,128,39288,1,0,0:0:0:0:
352,128,39604,1,8,0:0:0:0:
160,128,39920,1,0,0:0:0:0:
160,128,40078,1,0,0:0:0:0:
352,128,40236,1,8,0:0:0:0:
352,128,40314,1,8,0:0:0:0:
352,128,40393,1,8,0:0:0:0:
160,128,40551,1,0,0:0:0:0:
352,256,40709,1,12,0:0:0:0:
160,128,41024,1,0,0:0:0:0:
352,128,41182,1,8,0:0:0:0:
160,128,41498,1,0,0:0:0:0:
160,128,41656,1,0,0:0:0:0:
352,128,41814,1,8,0:0:0:0:
352,128,41893,1,8,0:0:0:0:
160,128,41972,1,0,0:0:0:0:
160,128,42130,1,0,0:0:0:0:
160,128,42209,1,0,0:0:0:0:
352,128,42287,1,8,0:0:0:0:
352,128,42445,1,8,0:0:0:0:
160,128,42603,1,0,0:0:0:0:
160,128,42761,1,0,0:0:0:0:
352,128,43077,1,8,0:0:0:0:
160,128,43393,1,0,0:0:0:0:
160,128,43551,1,0,0:0:0:0:
160,128,43630,1,0,0:0:0:0:
160,128,43709,1,0,0:0:0:0:
352,128,43866,1,8,0:0:0:0:
352,128,44024,1,8,0:0:0:0:
160,128,44183,1,0,0:0:0:0:
352,128,44340,1,8,0:0:0:0:
352,128,44656,1,8,0:0:0:0:
160,128,44972,1,0,0:0:0:0:
160,128,45130,1,0,0:0:0:0:
160,128,45209,1,0,0:0:0:0:
160,128,45288,1,0,0:0:0:0:
160,128,45446,1,0,0:0:0:0:
352,128,45604,1,8,0:0:0:0:
160,128,45683,1,0,0:0:0:0:
352,128,45761,1,8,0:0:0:0:
352,128,45919,1,8,0:0:0:0:
160,128,46077,1,0,0:0:0:0:
352,128,46235,1,8,0:0:0:0:
160,128,46551,1,0,0:0:0:0:
352,128,46709,1,8,0:0:0:0:
160,128,46867,1,0,0:0:0:0:
160,128,47025,1,0,0:0:0:0:
352,128,47183,1,8,0:0:0:0:
160,128,47340,1,0,0:0:0:0:
352,128,47498,1,8,0:0:0:0:
160,256,47657,1,4,0:0:0:0:
352,128,47972,1,8,0:0:0:0:
160,128,48130,1,0,0:0:0:0:
352,128,48288,1,8,0:0:0:0:
352,128,48446,1,8,0:0:0:0:
160,128,48604,1,0,0:0:0:0:
352,128,48762,1,8,0:0:0:0:
160,128,48920,1,0,0:0:0:0:
160,128,49078,1,0,0:0:0:0:
352,128,49235,1,8,0:0:0:0:
352,128,49393,1,8,0:0:0:0:
160,128,49551,1,0,0:0:0:0:
352,128,49709,1,8,0:0:0:0:
160,128,49867,1,0,0:0:0:0:
352,128,50025,1,8,0:0:0:0:
352,128,50183,1,8,0:0:0:0:
160,128,50341,1,0,0:0:0:0:
160,128,50499,1,0,0:0:0:0:
352,128,50657,1,8,0:0:0:0:
352,128,50814,1,8,0:0:0:0:
160,256,51130,1,4,0:0:0:0:
352,128,51445,1,8,0:0:0:0:
160,128,51603,1,0,0:0:0:0:
352,128,51761,1,8,0:0:0:0:
352,128,51919,1,8,0:0:0:0:
160,128,52077,1,0,0:0:0:0:
160,128,52235,1,0,0:0:0:0:
160,128,52393,1,0,0:0:0:0:
352,128,52551,1,8,0:0:0:0:
352,128,52708,1,8,0:0:0:0:
160,128,52866,1,0,0:0:0:0:
352,128,53024,1,8,0:0:0:0:
352,128,53182,1,8,0:0:0:0:
160,128,53340,1,0,0:0:0:0:
352,128,53498,1,8,0:0:0:0:
352,128,53656,1,8,0:0:0:0:
352,128,53814,1,8,0:0:0:0:
160,128,53972,1,0,0:0:0:0:
352,128,54130,1,8,0:0:0:0:
160,128,54287,1,0,0:0:0:0:
160,128,54366,1,0,0:0:0:0:
160,128,54445,1,0,0:0:0:0:
160,128,54524,1,0,0:0:0:0:
352,256,54604,1,12,0:0:0:0:
352,128,54919,1,8,0:0:0:0:
160,128,55077,1,0,0:0:0:0:
352,128,55235,1,8,0:0:0:0:
352,128,55393,1,8,0:0:0:0:
160,128,55551,1,0,0:0:0:0:
352,128,55709,1,8,0:0:0:0:
160,128,55867,1,0,0:0:0:0:
160,128,56025,1,0,0:0:0:0:
352,128,56182,1,8,0:0:0:0:
352,128,56340,1,8,0:0:0:0:
160,128,56498,1,0,0:0:0:0:
352,128,56656,1,8,0:0:0:0:
160,128,56814,1,0,0:0:0:0:
352,128,56972,1,8,0:0:0:0:
160,128,57130,1,0,0:0:0:0:
352,128,57288,1,8,0:0:0:0:
160,128,57446,1,0,0:0:0:0:
352,128,57604,1,8,0:0:0:0:
352,128,57761,5,8,0:0:0:0:
160,256,58078,1,4,0:0:0:0:
160,128,58393,1,0,0:0:0:0:
352,128,58551,1,8,0:0:0:0:
352,128,58709,1,8,0:0:0:0:
352,128,58867,1,8,0:0:0:0:
160,128,59025,1,0,0:0:0:0:
160,128,59183,1,0,0:0:0:0:
352,128,59341,1,8,0:0:0:0:
160,128,59499,1,0,0:0:0:0:
352,128,59656,1,8,0:0:0:0:
352,128,59814,1,8,0:0:0:0:
160,128,59972,1,0,0:0:0:0:
352,128,60130,1,8,0:0:0:0:
160,128,60288,1,0,0:0:0:0:
160,128,60446,1,0,0:0:0:0:
352,128,60604,1,8,0:0:0:0:
160,128,60762,1,0,0:0:0:0:
352,128,60920,1,8,0:0:0:0:
352,128,60999,1,8,0:0:0:0:
160,128,61078,1,0,0:0:0:0:
160,128,61156,1,0,0:0:0:0:
352,128,61235,1,8,0:0:0:0:
160,128,61393,1,0,0:0:0:0:
160,128,61472,1,0,0:0:0:0:
352,128,61551,1,8,0:0:0:0:
160,256,61867,1,4,0:0:0:0:
160,128,63761,1,0,0:0:0:0:
160,128,64235,1,0,0:0:0:0:
352,128,64709,1,8,0:0:0:0:
352,128,65024,1,8,0:0:0:0:
352,128,65340,1,8,0:0:0:0:
160,128,65656,1,0,0:0:0:0:
352,128,66130,1,8,0:0:0:0:
160,128,67235,1,0,0:0:0:0:
160,128,67551,1,0,0:0:0:0:
160,128,68024,1,0,0:0:0:0:
160,128,68498,1,0,0:0:0:0:
352,128,69130,1,8,0:0:0:0:
160,256,69445,1,4,0:0:0:0:
352,128,69761,1,8,0:0:0:0:
160,128,70077,1,0,0:0:0:0:
352,128,70182,1,8,0:0:0:0:
160,128,70288,1,0,0:0:0:0:
352,128,70603,1,8,0:0:0:0:
160,128,70919,1,0,0:0:0:0:
160,128,71235,1,0,0:0:0:0:
352,128,71340,1,8,0:0:0:0:
160,128,71445,1,0,0:0:0:0:
352,128,71551,1,8,0:0:0:0:
352,128,71656,1,8,0:0:0:0:
352,128,71867,1,8,0:0:0:0:
160,128,71972,1,0,0:0:0:0:
160,128,72288,1,0,0:0:0:0:
352,128,72603,1,8,0:0:0:0:
352,128,72814,1,8,0:0:0:0:
160,128,73130,1,0,0:0:0:0:
160,256,73235,1,4,0:0:0:0:
160,128,73551,1,0,0:0:0:0:
160,128,73867,1,0,0:0:0:0:
160,128,74182,1,0,0:0:0:0:
160,128,74498,1,0,0:0:0:0:
352,128,74656,1,8,0:0:0:0:
160,128,74814,1,0,0:0:0:0:
160,256,75130,1,4,0:0:0:0:
160,128,75445,1,0,0:0:0:0:
352,128,75761,1,8,0:0:0:0:
160,128,75919,1,0,0:0:0:0:
160,128,75998,1,0,0:0:0:0:
160,128,76077,1,0,0:0:0:0:
160,256,77025,1,4,0:0:0:0:
160,128,77182,1,0,0:0:0:0:
352,128,77498,1,8,0:0:0:0:
352,128,77577,1,8,0:0:0:0:
352,128,77656,1,8,0:0:0:0:
160,128,77814,1,0,0:0:0:0:
352,128,77972,1,8,0:0:0:0:
160,128,78130,1,0,0:0:0:0:
160,128,78209,1,0,0:0:0:0:
352,128,78288,1,8,0:0:0:0:
352,128,78446,1,8,0:0:0:0:
160,256,78603,1,4,0:0:0:0:
160,128,78761,1,0,0:0:0:0:
160,128,79077,1,0,0:0:0:0:
352,128,79393,1,8,0:0:0:0:
160,128,79551,1,0,0:0:0:0:
160,128,79630,1,0,0:0:0:0:
160,128,79709,1,0,0:0:0:0:
160,128,79788,1,0,0:0:0:0:
352,128,79867,1,8,0:0:0:0:
352,128,80025,1,8,0:0:0:0:
160,256,80182,1,4,0:0:0:0:
160,128,80340,1,0,0:0:0:0:
352,128,80656,1,8,0:0:0:0:
352,128,80735,1,8,0:0:0:0:
160,128,80814,1,0,0:0:0:0:
160,128,80972,1,0,0:0:0:0:
352,128,81130,1,8,0:0:0:0:
352,128,81209,1,8,0:0:0:0:
160,128,81288,1,0,0:0:0:0:
160,128,81367,1,0,0:0:0:0:
352,128,81446,1,8,0:0:0:0:
160,128,81603,1,0,0:0:0:0:
352,256,81761,1,12,0:0:0:0:
352,128,81919,1,8,0:0:0:0:
160,128,82077,1,0,0:0:0:0:
352,128,82235,1,8,0:0:0:0:
160,128,82393,1,0,0:0:0:0:
160,128,82551,1,0,0:0:0:0:
160,128,82630,1,0,0:0:0:0:
352,128,82709,1,8,0:0:0:0:
352,128,82788,1,8,0:0:0:0:
160,128,82867,1,0,0:0:0:0:
160,128,82946,1,0,0:0:0:0:
352,128,83025,1,8,0:0:0:0:
352,128,83182,1,8,0:0:0:0:
352,128,83261,1,8,0:0:0:0:
160,256,83340,1,4,0:0:0:0:
160,128,83498,1,0,0:0:0:0:
352,128,83814,1,8,0:0:0:0:
352,128,83893,1,8,0:0:0:0:
352,128,83972,1,8,0:0:0:0:
160,128,84130,1,0,0:0:0:0:
352,128,84288,1,8,0:0:0:0:
160,128,84446,1,0,0:0:0:0:
160,128,84525,1,0,0:0:0:0:
352,128,84603,1,8,0:0:0:0:
352,128,84761,1,8,0:0:0:0:
160,256,84919,1,4,0:0:0:0:
160,128,85077,1,0,0:0:0:0:
160,128,85393,1,0,0:0:0:0:
352,128,85709,1,8,0:0:0:0:
160,128,85867,1,0,0:0:0:0:
160,128,85946,1,0,0:0:0:0:
160,128,86025,1,0,0:0:0:0:
160,128,86103,1,0,0:0:0:0:
352,128,86182,1,8,0:0:0:0:
352,128,86340,1,8,0:0:0:0:
160,256,86498,1,4,0:0:0:0:
160,128,86656,1,0,0:0:0:0:
352,128,86972,1,8,0:0:0:0:
352,128,87051,1,8,0:0:0:0:
160,128,87130,1,0,0:0:0:0:
160,128,87288,1,0,0:0:0:0:
352,128,87446,1,8,0:0:0:0:
352,128,87525,1,8,0:0:0:0:
160,128,87603,1,0,0:0:0:0:
160,128,87682,1,0,0:0:0:0:
352,128,87761,1,8,0:0:0:0:
160,128,87919,1,0,0:0:0:0:
352,256,88077,1,12,0:0:0:0:
160,128,88235,1,0,0:0:0:0:
352,128,88393,1,8,0:0:0:0:
160,128,88551,1,0,0:0:0:0:
160,128,88630,1,0,0:0:0:0:
352,128,88709,1,8,0:0:0:0:
160,128,88867,1,0,0:0:0:0:
160,128,88946,1,0,0:0:0:0:
352,128,89025,1,8,0:0:0:0:
352,128,89103,1,8,0:0:0:0:
160,128,89182,1,0,0:0:0:0:
160,128,89261,1,0,0:0:0:0:
352,128,89340,1,8,0:0:0:0:
352,128,89419,1,8,0:0:0:0:
352,128,89498,1,8,0:0:0:0:
352,128,89577,1,8,0:0:0:0:
160,256,89656,1,4,0:0:0:0:
160,128,89814,1,0,0:0:0:0:
352,128,89972,1,8,0:0:0:0:
352,128,90130,1,8,0:0:0:0:
160,128,90288,1,0,0:0:0:0:
160,128,90446,1,0,0:0:0:0:
160,128,90525,1,0,0:0:0:0:
352,128,90603,1,8,0:0:0:0:
352,128,90761,1,8,0:0:0:0:
160,128,90919,1,0,0:0:0:0:
352,128,91077,1,8,0:0:0:0:
352,128,91156,1,8,0:0:0:0:
160,128,91235,1,0,0:0:0:0:
160,128,91393,1,0,0:0:0:0:
352,128,91551,1,8,0:0:0:0:
160,128,91709,1,0,0:0:0:0:
160,128,91788,1,0,0:0:0:0:
352,128,91867,1,8,0:0:0:0:
160,128,92025,1,0,0:0:0:0:
160,128,92182,1,0,0:0:0:0:
160,128,92261,1,0,0:0:0:0:
160,128,92340,1,0,0:0:0:0:
160,128,92419,1,0,0:0:0:0:
352,128,92498,1,8,0:0:0:0:
352,128,92656,1,8,0:0:0:0:
160,256,92814,1,4,0:0:0:0:
160,128,92972,1,0,0:0:0:0:
352,128,93130,1,8,0:0:0:0:
352,128,93288,1,8,0:0:0:0:
160,128,93446,1,0,0:0:0:0:
160,128,93603,1,0,0:0:0:0:
160,128,93682,1,0,0:0:0:0:
352,128,93761,1,8,0:0:0:0:
160,128,93919,1,0,0:0:0:0:
160,128,94077,1,0,0:0:0:0:
160,128,94235,1,0,0:0:0:0:
160,128,94314,1,0,0:0:0:0:
352,128,94393,1,8,0:0:0:0:
160,128,94472,1,0,0:0:0:0:
352,128,94551,1,8,0:0:0:0:
160,128,94709,1,0,0:0:0:0:
352,128,94867,1,8,0:0:0:0:
160,128,94946,1,0,0:0:0:0:
352,128,95025,1,8,0:0:0:0:
160,128,95182,1,0,0:0:0:0:
160,128,95261,1,0,0:0:0:0:
352,128,95340,1,8,0:0:0:0:
352,128,95419,1,8,0:0:0:0:
160,128,95498,1,0,0:0:0:0:
160,128,95577,1,0,0:0:0:0:
352,128,95656,1,8,0:0:0:0:
352,128,95814,1,8,0:0:0:0:
352,128,95893,1,8,0:0:0:0:
160,256,95972,1,4,0:0:0:0:
160,128,96130,1,0,0:0:0:0:
352,128,96288,1,8,0:0:0:0:
352,128,96446,1,8,0:0:0:0:
160,128,96603,1,0,0:0:0:0:
160,128,96761,1,0,0:0:0:0:
160,128,96840,1,0,0:0:0:0:
352,128,96919,1,8,0:0:0:0:
352,128,97077,1,8,0:0:0:0:
160,128,97235,1,0,0:0:0:0:
352,128,97393,1,8,0:0:0:0:
352,128,97472,1,8,0:0:0:0:
160,128,97551,1,0,0:0:0:0:
160,128,97709,1,0,0:0:0:0:
352,128,97867,1,8,0:0:0:0:
160,128,98025,1,0,0:0:0:0:
160,128,98103,1,0,0:0:0:0:
352,128,98182,1,8,0:0:0:0:
160,128,98340,1,0,0:0:0:0:
160,128,98498,1,0,0:0:0:0:
160,128,98577,1,0,0:0:0:0:
160,128,98656,1,0,0:0:0:0:
352,128,98814,1,8,0:0:0:0:
352,128,98972,1,8,0:0:0:0:
160,256,99130,1,4,0:0:0:0:
160,128,99288,1,0,0:0:0:0:
352,128,99446,1,8,0:0:0:0:
352,128,99603,1,8,0:0:0:0:
160,128,99761,1,0,0:0:0:0:
160,128,99919,1,0,0:0:0:0:
160,128,99998,1,0,0:0:0:0:
352,128,100077,1,8,0:0:0:0:
352,128,100235,1,8,0:0:0:0:
160,128,100393,1,0,0:0:0:0:
160,128,100551,1,0,0:0:0:0:
160,128,100630,1,0,0:0:0:0:
352,128,100709,1,8,0:0:0:0:
160,128,100788,1,0,0:0:0:0:
352,128,100867,1,8,0:0:0:0:
160,128,101025,1,0,0:0:0:0:
352,128,101182,1,8,0:0:0:0:
160,128,101261,1,0,0:0:0:0:
352,128,101340,1,8,0:0:0:0:
160,128,101498,1,0,0:0:0:0:
160,128,101577,1,0,0:0:0:0:
352,128,101656,1,8,0:0:0:0:
352,128,101735,1,8,0:0:0:0:
352,128,101814,1,8,0:0:0:0:
352,128,101893,1,8,0:0:0:0:
160,128,101972,1,0,0:0:0:0:
352,128,102051,1,8,0:0:0:0:
352,128,102130,1,8,0:0:0:0:
352,128,102209,1,8,0:0:0:0:
160,256,102288,1,4,0:0:0:0:
160,128,102445,1,0,0:0:0:0:
160,128,102524,1,0,0:0:0:0:
160,128,102603,1,0,0:0:0:0:
352,256,102761,1,12,0:0:0:0:
160,128,102919,1,0,0:0:0:0:
160,128,102998,1,0,0:0:0:0:
160,128,103077,1,0,0:0:0:0:
352,256,103235,1,12,0:0:0:0:
160,128,103393,1,0,0:0:0:0:
160,128,103472,1,0,0:0:0:0:
160,128,103551,1,0,0:0:0:0:
352,256,103709,1,12,0:0:0:0:
160,128,103866,1,0,0:0:0:0:
160,128,103945,1,0,0:0:0:0:
160,128,104024,1,0,0:0:0:0:
352,256,104182,1,12,0:0:0:0:
160,128,104340,1,0,0:0:0:0:
160,128,104419,1,0,0:0:0:0:
160,128,104498,1,0,0:0:0:0:
352,256,104656,1,12,0:0:0:0:
160,128,104814,1,0,0:0:0:0:
160,128,104893,1,0,0:0:0:0:
160,128,104972,1,0,0:0:0:0:
352,256,105130,1,12,0:0:0:0:
160,128,105288,1,0,0:0:0:0:
160,128,105366,1,0,0:0:0:0:
352,128,105445,1,8,0:0:0:0:
352,256,105603,1,12,0:0:0:0:
160,128,105761,1,0,0:0:0:0:
160,128,105840,1,0,0:0:0:0:
352,128,105919,1,8,0:0:0:0:
352,256,106077,1,12,0:0:0:0:
160,128,106235,1,0,0:0:0:0:
160,128,106314,1,0,0:0:0:0:
352,128,106393,1,8,0:0:0:0:
352,256,106551,1,12,0:0:0:0:
160,128,106709,1,0,0:0:0:0:
160,128,106788,1,0,0:0:0:0:
352,128,106866,1,8,0:0:0:0:
160,256,107025,1,4,0:0:0:0:
160,128,107182,1,0,0:0:0:0:
352,128,107340,1,8,0:0:0:0:
160,128,107498,1,0,0:0:0:0:
352,128,107656,1,8,0:0:0:0:
160,128,107814,1,0,0:0:0:0:
160,128,107972,1,0,0:0:0:0:
160,128,108130,1,0,0:0:0:0:
352,128,108288,1,8,0:0:0:0:
160,128,108446,1,0,0:0:0:0:
352,128,108603,1,8,0:0:0:0:
352,128,108761,1,8,0:0:0:0:
160,128,108919,1,0,0:0:0:0:
160,128,109077,1,0,0:0:0:0:
352,128,109235,1,8,0:0:0:0:
352,128,109393,1,8,0:0:0:0:
352,128,109551,1,8,0:0:0:0:
352,128,109709,1,8,0:0:0:0:
160,128,109867,1,0,0:0:0:0:
160,128,110025,1,0,0:0:0:0:
352,256,110182,1,12,0:0:0:0:
160,256,110499,1,4,0:0:0:0:
160,128,110656,1,0,0:0:0:0:
352,128,110814,1,8,0:0:0:0:
160,128,110972,1,0,0:0:0:0:
352,128,111130,1,8,0:0:0:0:
352,128,111288,1,8,0:0:0:0:
160,128,111446,1,0,0:0:0:0:
160,128,111604,1,0,0:0:0:0:
160,128,111762,1,0,0:0:0:0:
160,128,111920,1,0,0:0:0:0:
352,128,112077,1,8,0:0:0:0:
352,128,112235,1,8,0:0:0:0:
160,128,112393,1,0,0:0:0:0:
160,128,112551,1,0,0:0:0:0:
352,128,112709,1,8,0:0:0:0:
352,128,112867,1,8,0:0:0:0:
160,128,113025,1,0,0:0:0:0:
352,128,113183,1,8,0:0:0:0:
160,128,113341,1,0,0:0:0:0:
160,128,113499,1,0,0:0:0:0:
160,128,113577,1,0,0:0:0:0:
352,128,113656,1,8,0:0:0:0:
352,128,113814,1,8,0:0:0:0:
160,256,113972,1,4,0:0:0:0:
160,128,114129,1,0,0:0:0:0:
352,128,114287,1,8,0:0:0:0:
160,128,114445,1,0,0:0:0:0:
352,128,114603,1,8,0:0:0:0:
352,128,114761,1,8,0:0:0:0:
160,128,114919,1,0,0:0:0:0:
160,128,115077,1,0,0:0:0:0:
352,128,115235,1,8,0:0:0:0:
160,128,115393,1,0,0:0:0:0:
352,128,115550,1,8,0:0:0:0:
352,128,115708,1,8,0:0:0:0:
160,128,115866,1,0,0:0:0:0:
160,128,116024,1,0,0:0:0:0:
352,128,116182,1,8,0:0:0:0:
160,128,116340,1,0,0:0:0:0:
352,128,116498,1,8,0:0:0:0:
352,128,116656,1,8,0:0:0:0:
160,128,116814,1,0,0:0:0:0:
160,128,116972,1,0,0:0:0:0:
352,256,117129,1,12,0:0:0:0:
160,256,117446,1,4,0:0:0:0:
160,128,117603,1,0,0:0:0:0:
160,128,117761,1,0,0:0:0:0:
352,128,117919,1,8,0:0:0:0:
160,128,118077,1,0,0:0:0:0:
160,128,118235,1,0,0:0:0:0:
352,128,118393,1,8,0:0:0:0:
352,128,118551,1,8,0:0:0:0:
160,128,118709,1,0,0:0:0:0:
160,128,118867,1,0,0:0:0:0:
352,128,119024,1,8,0:0:0:0:
160,128,119182,1,0,0:0:0:0:
160,128,119340,1,0,0:0:0:0:
160,128,119498,1,0,0:0:0:0:
352,128,119656,1,8,0:0:0:0:
160,128,119814,1,0,0:0:0:0:
352,128,119972,1,8,0:0:0:0:
160,128,120130,1,0,0:0:0:0:
352,128,120288,1,8,0:0:0:0:
160,128,120446,1,0,0:0:0:0:
160,128,120524,1,0,0:0:0:0:
352,128,120603,1,8,0:0:0:0:
352,128,120761,1,8,0:0:0:0:
352,128,120919,1,8,0:0:0:0:
352,128,121077,1,8,0:0:0:0:
160,256,121236,1,4,0:0:0:0:
160,256,121393,1,4,0:0:0:0:
160,256,121709,1,4,0:0:0:0:
160,256,122025,1,4,0:0:0:0:
352,256,122183,1,12,0:0:0:0:
352,128,122499,1,8,0:0:0:0:
352,128,122578,1,8,0:0:0:0:
352,128,122657,1,8,0:0:0:0:
352,128,122814,1,8,0:0:0:0:
352,128,122972,1,8,0:0:0:0:
160,128,123130,1,4,0:0:0:0:
160,256,123288,1,4,0:0:0:0:
160,256,123604,1,4,0:0:0:0:
160,256,123920,1,4,0:0:0:0:
352,256,124078,1,12,0:0:0:0:
160,128,124393,1,0,0:0:0:0:
160,128,124472,1,0,0:0:0:0:
352,128,124551,1,8,0:0:0:0:
160,128,124709,1,0,0:0:0:0:
352,128,124867,1,8,0:0:0:0:
160,256,125025,1,4,0:0:0:0:
160,256,125183,1,4,0:0:0:0:
160,256,125499,1,4,0:0:0:0:
160,256,125814,1,4,0:0:0:0:
352,256,125972,1,12,0:0:0:0:
352,128,126288,1,8,0:0:0:0:
352,128,126367,1,8,0:0:0:0:
352,128,126446,1,8,0:0:0:0:
352,128,126604,1,8,0:0:0:0:
352,128,126762,1,8,0:0:0:0:
160,256,126920,1,4,0:0:0:0:
160,256,127078,1,4,0:0:0:0:
160,256,127393,1,4,0:0:0:0:
160,256,127709,1,4,0:0:0:0:
352,256,127867,1,12,0:0:0:0:
160,128,128025,1,0,0:0:0:0:
160,128,128183,1,0,0:0:0:0:
160,128,128262,1,0,0:0:0:0:
352,128,128341,1,8,0:0:0:0:
352,128,128420,1,8,0:0:0:0:
352,128,128499,1,8,0:0:0:0:
352,128,128657,1,8,0:0:0:0:
352,128,128736,1,8,0:0:0:0:
160,256,128814,1,4,0:0:0:0:
160,256,128972,1,4,0:0:0:0:
160,256,129288,1,4,0:0:0:0:
160,256,129604,1,4,0:0:0:0:
352,256,129762,1,12,0:0:0:0:
352,128,130078,1,8,0:0:0:0:
352,128,130157,1,8,0:0:0:0:
352,128,130236,1,8,0:0:0:0:
352,128,130393,1,8,0:0:0:0:
352,128,130551,1,8,0:0:0:0:
160,256,130709,1,4,0:0:0:0:
160,256,130867,1,4,0:0:0:0:
160,256,131183,1,4,0:0:0:0:
160,256,131499,1,4,0:0:0:0:
352,256,131657,1,12,0:0:0:0:
160,128,131972,1,0,0:0:0:0:
160,128,132051,1,0,0:0:0:0:
352,128,132130,1,8,0:0:0:0:
160,128,132288,1,0,0:0:0:0:
352,128,132446,1,8,0:0:0:0:
160,256,132604,1,4,0:0:0:0:
160,128,132920,1,0,0:0:0:0:
352,128,133078,1,8,0:0:0:0:
160,128,133236,1,0,0:0:0:0:
160,128,133393,1,0,0:0:0:0:
352,128,133551,1,8,0:0:0:0:
352,128,133709,1,8,0:0:0:0:
160,128,133867,1,0,0:0:0:0:
352,128,134025,1,8,0:0:0:0:
160,128,134183,1,0,0:0:0:0:
160,128,134341,1,0,0:0:0:0:
352,128,134499,1,8,0:0:0:0:
352,128,134657,1,8,0:0:0:0:
352,128,134736,1,8,0:0:0:0:
160,128,134814,1,0,0:0:0:0:
352,128,134972,1,8,0:0:0:0:
352,128,135130,1,8,0:0:0:0:
352,128,135209,1,8,0:0:0:0:
160,128,135288,1,0,0:0:0:0:
160,128,135367,1,0,0:0:0:0:
352,128,135446,1,8,0:0:0:0:
160,128,135604,1,0,0:0:0:0:
160,128,135683,1,0,0:0:0:0:
352,128,135762,1,8,0:0:0:0:
352,128,135841,1,8,0:0:0:0:
160,128,135920,1,0,0:0:0:0:
160,128,135999,1,0,0:0:0:0:
352,128,136078,1,8,0:0:0:0:
352,128,136157,1,8,0:0:0:0:
352,128,136236,1,8,0:0:0:0:
352,128,136314,1,8,0:0:0:0:
160,256,136393,1,4,0:0:0:0:
160,128,136551,1,0,0:0:0:0:
160,128,136709,1,0,0:0:0:0:
352,128,136867,1,8,0:0:0:0:
352,128,137025,1,8,0:0:0:0:
160,128,137183,1,0,0:0:0:0:
160,128,137341,1,0,0:0:0:0:
352,128,137499,1,8,0:0:0:0:
160,128,137578,1,0,0:0:0:0:
352,128,137657,1,8,0:0:0:0:
160,128,137814,1,0,0:0:0:0:
352,128,137972,1,8,0:0:0:0:
352,128,138130,1,8,0:0:0:0:
352,128,138209,1,8,0:0:0:0:
160,256,138288,1,4,0:0:0:0:
160,128,138446,1,0,0:0:0:0:
160,128,138604,1,0,0:0:0:0:
352,128,138762,1,8,0:0:0:0:
160,128,138920,1,0,0:0:0:0:
352,128,139078,1,8,0:0:0:0:
160,128,139236,1,0,0:0:0:0:
352,128,139393,1,8,0:0:0:0:
352,128,139551,1,8,0:0:0:0:
352,128,139630,1,8,0:0:0:0:
160,128,139709,1,0,0:0:0:0:
160,128,139788,1,0,0:0:0:0:
352,128,139867,1,8,0:0:0:0:
160,128,140025,1,0,0:0:0:0:
160,256,140183,1,4,0:0:0:0:
160,128,140341,1,0,0:0:0:0:
160,128,140499,1,0,0:0:0:0:
352,128,140657,1,8,0:0:0:0:
352,128,140814,1,8,0:0:0:0:
160,128,140972,1,0,0:0:0:0:
160,128,141051,1,0,0:0:0:0:
160,128,141130,1,0,0:0:0:0:
352,128,141288,1,8,0:0:0:0:
160,128,141446,1,0,0:0:0:0:
352,128,141604,1,8,0:0:0:0:
352,128,141683,1,8,0:0:0:0:
352,128,141762,1,8,0:0:0:0:
352,128,141920,1,8,0:0:0:0:
160,256,142078,1,4,0:0:0:0:
352,128,142236,1,8,0:0:0:0:
160,128,142393,1,0,0:0:0:0:
352,128,142551,1,8,0:0:0:0:
160,128,142709,1,0,0:0:0:0:
160,128,142867,1,0,0:0:0:0:
160,128,142946,1,0,0:0:0:0:
352,128,143025,1,8,0:0:0:0:
160,128,143183,1,0,0:0:0:0:
352,128,143341,1,8,0:0:0:0:
160,128,143420,1,0,0:0:0:0:
160,128,143499,1,0,0:0:0:0:
160,128,143578,1,0,0:0:0:0:
352,128,143657,1,8,0:0:0:0:
352,128,143814,1,8,0:0:0:0:
160,256,143972,1,4,0:0:0:0:
160,128,144130,1,0,0:0:0:0:
352,128,144288,1,8,0:0:0:0:
352,128,144446,1,8,0:0:0:0:
160,128,144604,1,0,0:0:0:0:
352,128,144762,1,8,0:0:0:0:
160,128,144920,1,0,0:0:0:0:
352,128,145078,1,8,0:0:0:0:
352,128,145157,1,8,0:0:0:0:
160,128,145236,1,0,0:0:0:0:
160,128,145393,1,0,0:0:0:0:
352,128,145551,1,8,0:0:0:0:
352,128,145709,1,8,0:0:0:0:
352,128,145788,1,8,0:0:0:0:
160,256,145867,1,4,0:0:0:0:
160,128,146025,1,0,0:0:0:0:
160,128,146183,1,0,0:0:0:0:
352,128,146341,1,8,0:0:0:0:
352,128,146499,1,8,0:0:0:0:
160,128,146657,1,0,0:0:0:0:
160,128,146814,1,0,0:0:0:0:
352,128,146972,1,8,0:0:0:0:
352,128,147130,1,8,0:0:0:0:
352,128,147209,1,8,0:0:0:0:
160,128,147288,1,0,0:0:0:0:
160,128,147367,1,0,0:0:0:0:
352,128,147446,1,8,0:0:0:0:
160,128,147604,1,0,0:0:0:0:
160,256,147762,1,4,0:0:0:0:
160,128,147920,1,0,0:0:0:0:
160,128,148078,1,0,0:0:0:0:
352,128,148236,1,8,0:0:0:0:
352,128,148314,1,8,0:0:0:0:
352,128,148393,1,8,0:0:0:0:
352,128,148551,1,8,0:0:0:0:
160,128,148709,1,0,0:0:0:0:
160,128,148867,1,0,0:0:0:0:
160,128,148946,1,0,0:0:0:0:
160,128,149025,1,0,0:0:0:0:
352,128,149183,1,8,0:0:0:0:
352,128,149262,1,8,0:0:0:0:
352,128,149341,1,8,0:0:0:0:
352,128,149499,1,8,0:0:0:0:
160,256,149657,1,4,0:0:0:0:
352,128,149814,1,8,0:0:0:0:
160,128,149972,1,0,0:0:0:0:
352,128,150130,1,8,0:0:0:0:
160,128,150288,1,0,0:0:0:0:
160,128,150446,1,0,0:0:0:0:
160,128,150525,1,0,0:0:0:0:
352,128,150604,1,8,0:0:0:0:
160,128,150762,1,0,0:0:0:0:
352,128,150920,1,8,0:0:0:0:
160,128,150999,1,0,0:0:0:0:
160,128,151078,1,0,0:0:0:0:
160,128,151157,1,0,0:0:0:0:
352,128,151236,1,8,0:0:0:0:
352,128,151393,1,8,0:0:0:0:
160,256,151551,1,4,0:0:0:0:
160,128,151709,1,0,0:0:0:0:
160,128,151788,1,0,0:0:0:0:
352,128,151867,1,8,0:0:0:0:
352,128,152025,1,8,0:0:0:0:
160,128,152183,1,0,0:0:0:0:
352,128,152341,1,8,0:0:0:0:
160,128,152499,1,0,0:0:0:0:
352,128,152657,1,8,0:0:0:0:
352,128,152736,1,8,0:0:0:0:
352,128,152814,1,8,0:0:0:0:
160,128,152972,1,0,0:0:0:0:
352,128,153130,1,8,0:0:0:0:
352,128,153288,1,8,0:0:0:0:
352,128,153367,1,8,0:0:0:0:
160,256,153446,1,4,0:0:0:0:
352,128,153604,1,8,0:0:0:0:
352,128,153683,1,8,0:0:0:0:
160,128,153762,1,0,0:0:0:0:
352,128,153920,1,8,0:0:0:0:
352,128,154078,1,8,0:0:0:0:
160,128,154236,1,0,0:0:0:0:
352,128,154393,1,8,0:0:0:0:
352,128,154472,1,8,0:0:0:0:
160,128,154551,1,0,0:0:0:0:
160,128,154630,1,0,0:0:0:0:
352,128,154709,1,8,0:0:0:0:
160,128,154867,1,0,0:0:0:0:
160,128,154946,1,0,0:0:0:0:
352,128,155025,1,8,0:0:0:0:
160,128,155183,1,0,0:0:0:0:
160,256,155341,1,4,0:0:0:0:
160,128,155499,1,0,0:0:0:0:
160,128,155578,1,0,0:0:0:0:
352,128,155657,1,8,0:0:0:0:
352,128,155814,1,8,0:0:0:0:
352,128,155893,1,8,0:0:0:0:
352,128,155972,1,8,0:0:0:0:
160,128,156130,1,0,0:0:0:0:
160,128,156288,1,0,0:0:0:0:
160,128,156446,1,0,0:0:0:0:
160,128,156525,1,0,0:0:0:0:
352,128,156604,1,8,0:0:0:0:
352,128,156762,1,8,0:0:0:0:
352,128,156841,1,8,0:0:0:0:
352,128,156920,1,8,0:0:0:0:
352,128,157078,1,8,0:0:0:0:
160,256,157236,1,4,0:0:0:0:
352,128,157393,1,8,0:0:0:0:
352,128,157472,1,8,0:0:0:0:
160,128,157551,1,0,0:0:0:0:
352,128,157709,1,8,0:0:0:0:
160,128,157867,1,0,0:0:0:0:
160,128,158025,1,0,0:0:0:0:
160,128,158104,1,0,0:0:0:0:
352,128,158183,1,8,0:0:0:0:
160,128,158341,1,0,0:0:0:0:
352,128,158499,1,8,0:0:0:0:
160,128,158578,1,0,0:0:0:0:
160,128,158657,1,0,0:0:0:0:
160,128,158736,1,0,0:0:0:0:
352,128,158814,1,8,0:0:0:0:
160,128,158972,1,0,0:0:0:0:
160,256,159130,1,4,0:0:0:0:
352,128,159288,1,8,0:0:0:0:
352,128,159367,1,8,0:0:0:0:
160,128,159446,1,0,0:0:0:0:
352,128,159604,1,8,0:0:0:0:
352,128,159762,1,8,0:0:0:0:
160,128,159920,1,0,0:0:0:0:
160,128,160078,1,0,0:0:0:0:
352,128,160236,1,8,0:0:0:0:
352,128,160314,1,8,0:0:0:0:
352,128,160393,1,8,0:0:0:0:
160,128,160551,1,0,0:0:0:0:
352,128,160709,1,8,0:0:0:0:
352,128,160867,1,8,0:0:0:0:
352,128,160946,1,8,0:0:0:0:
160,256,161025,1,4,0:0:0:0:
160,128,161183,1,0,0:0:0:0:
160,128,161262,1,0,0:0:0:0:
352,128,161341,1,8,0:0:0:0:
352,128,161499,1,8,0:0:0:0:
160,128,161657,1,0,0:0:0:0:
352,128,161814,1,8,0:0:0:0:
352,128,161972,1,8,0:0:0:0:
352,128,162051,1,8,0:0:0:0:
160,128,162130,1,0,0:0:0:0:
160,128,162209,1,0,0:0:0:0:
352,128,162288,1,8,0:0:0:0:
160,128,162446,1,0,0:0:0:0:
160,128,162525,1,0,0:0:0:0:
352,128,162604,1,8,0:0:0:0:
352,128,162762,1,8,0:0:0:0:
160,256,162920,1,4,0:0:0:0:
160,128,163078,1,0,0:0:0:0:
160,128,163157,1,0,0:0:0:0:
352,128,163236,1,8,0:0:0:0:
352,128,163393,1,8,0:0:0:0:
352,128,163472,1,8,0:0:0:0:
352,128,163551,1,8,0:0:0:0:
160,128,163709,1,0,0:0:0:0:
160,128,163867,1,0,0:0:0:0:
160,128,164025,1,0,0:0:0:0:
160,128,164104,1,0,0:0:0:0:
352,128,164183,1,8,0:0:0:0:
352,128,164341,1,8,0:0:0:0:
352,128,164420,1,8,0:0:0:0:
352,128,164499,1,8,0:0:0:0:
160,128,164657,1,0,0:0:0:0:
160,128,164736,1,0,0:0:0:0:
352,128,164814,1,8,0:0:0:0:
352,128,164893,1,8,0:0:0:0:
160,128,164972,1,0,0:0:0:0:
160,128,165051,1,0,0:0:0:0:
352,128,165130,1,8,0:0:0:0:
160,128,165209,1,0,0:0:0:0:
160,128,165288,1,0,0:0:0:0:
160,128,165367,1,0,0:0:0:0:
352,128,165446,1,8,0:0:0:0:
160,128,165525,1,0,0:0:0:0:
160,128,165604,1,0,0:0:0:0:
160,128,165683,1,0,0:0:0:0:
352,128,165762,1,8,0:0:0:0:
352,128,165841,1,8,0:0:0:0:
160,128,165920,1,0,0:0:0:0:
160,128,165999,1,0,0:0:0:0:
352,128,166078,1,8,0:0:0:0:
352,128,166157,1,8,0:0:0:0:
160,128,166236,1,0,0:0:0:0:
160,128,166314,1,0,0:0:0:0:
352,128,166393,1,8,0:0:0:0:
352,128,166472,1,8,0:0:0:0:
352,128,166551,1,8,0:0:0:0:
352,128,166630,1,8,0:0:0:0:
160,128,166709,1,0,0:0:0:0:
352,128,167656,1,8,0:0:0:0:
352,128,168287,1,8,0:0:0:0:
352,128,169235,1,8,0:0:0:0:
160,128,169866,1,0,0:0:0:0:
160,128,170814,1,0,0:0:0:0:
352,128,171445,1,8,0:0:0:0:
352,128,172393,1,8,0:0:0:0:
352,128,173024,1,8,0:0:0:0:
352,128,173972,1,8,0:0:0:0:
160,128,174603,1,0,0:0:0:0:
352,128,175551,1,8,0:0:0:0:
160,128,176182,1,0,0:0:0:0:
160,128,177130,1,0,0:0:0:0:
352,128,177761,1,8,0:0:0:0:
160,256,179340,1,4,0:0:0:0:
352,128,180287,1,8,0:0:0:0:
160,128,180919,1,0,0:0:0:0:
160,128,181866,1,0,0:0:0:0:
352,128,182182,1,8,0:0:0:0:
160,128,182498,1,0,0:0:0:0:
352,128,183445,1,8,0:0:0:0:
352,128,184077,1,8,0:0:0:0:
352,128,185024,1,8,0:0:0:0:
352,128,185340,1,8,0:0:0:0:
160,128,185656,1,0,0:0:0:0:
160,128,186603,1,0,0:0:0:0:
352,128,187235,1,8,0:0:0:0:
160,128,188182,1,0,0:0:0:0:
352,128,188498,1,8,0:0:0:0:
160,128,188814,1,0,0:0:0:0:
160,128,189761,1,0,0:0:0:0:
352,128,190393,1,8,0:0:0:0:
160,128,191024,1,0,0:0:0:0:
352,128,191340,1,8,0:0:0:0:
352,128,191656,1,8,0:0:0:0:
160,128,191972,1,0,0:0:0:0:
352,128,192919,1,8,0:0:0:0:
160,128,193551,1,0,0:0:0:0:
160,128,194498,1,0,0:0:0:0:
352,128,194814,1,8,0:0:0:0:
160,128,195130,1,0,0:0:0:0:
160,128,196077,1,0,0:0:0:0:
352,128,196709,1,8,0:0:0:0:
352,128,197656,1,8,0:0:0:0:
352,128,197972,1,8,0:0:0:0:
160,128,198287,1,0,0:0:0:0:
352,128,199235,1,8,0:0:0:0:
160,128,199866,1,0,0:0:0:0:
352,128,200814,1,8,0:0:0:0:
352,128,201130,1,8,0:0:0:0:
352,128,203972,1,8,0:0:0:0:
352,128,204051,1,8,0:0:0:0:
160,128,204130,1,0,0:0:0:0:
160,128,204209,1,0,0:0:0:0:
352,128,204287,1,8,0:0:0:0:
352,128,204445,1,8,0:0:0:0:
160,256,204603,1,4,0:0:0:0:
160,128,204761,1,0,0:0:0:0:
352,128,205077,1,8,0:0:0:0:
352,128,205156,1,8,0:0:0:0:
352,128,205235,1,8,0:0:0:0:
160,128,205393,1,0,0:0:0:0:
352,128,205551,1,8,0:0:0:0:
160,128,205709,1,0,0:0:0:0:
160,128,205787,1,0,0:0:0:0:
352,128,205866,1,8,0:0:0:0:
352,128,206024,1,8,0:0:0:0:
160,256,206182,1,4,0:0:0:0:
160,128,206340,1,0,0:0:0:0:
160,128,206419,1,0,0:0:0:0:
352,128,206498,1,8,0:0:0:0:
160,128,206656,1,0,0:0:0:0:
352,128,206972,1,8,0:0:0:0:
352,128,207130,1,8,0:0:0:0:
352,128,207209,1,8,0:0:0:0:
160,128,207287,1,0,0:0:0:0:
160,128,207366,1,0,0:0:0:0:
352,128,207445,1,8,0:0:0:0:
160,128,207603,1,0,0:0:0:0:
160,256,207761,1,4,0:0:0:0:
160,128,207919,1,0,0:0:0:0:
352,128,208235,1,8,0:0:0:0:
352,128,208314,1,8,0:0:0:0:
160,128,208393,1,0,0:0:0:0:
160,128,208551,1,0,0:0:0:0:
352,128,208709,1,8,0:0:0:0:
352,128,208787,1,8,0:0:0:0:
160,128,208866,1,0,0:0:0:0:
160,128,208945,1,0,0:0:0:0:
352,128,209024,1,8,0:0:0:0:
160,128,209182,1,0,0:0:0:0:
352,256,209340,1,12,0:0:0:0:
352,128,209498,1,8,0:0:0:0:
352,128,209577,1,8,0:0:0:0:
160,128,209656,1,0,0:0:0:0:
352,128,209814,1,8,0:0:0:0:
160,128,209972,1,0,0:0:0:0:
160,128,210130,1,0,0:0:0:0:
160,128,210209,1,0,0:0:0:0:
352,128,210287,1,8,0:0:0:0:
352,128,210366,1,8,0:0:0:0:
160,128,210445,1,0,0:0:0:0:
160,128,210524,1,0,0:0:0:0:
352,128,210603,1,8,0:0:0:0:
352,128,210761,1,8,0:0:0:0:
160,256,210919,1,4,0:0:0:0:
160,128,211077,1,0,0:0:0:0:
352,128,211393,1,8,0:0:0:0:
352,128,211472,1,8,0:0:0:0:
352,128,211551,1,8,0:0:0:0:
160,128,211709,1,0,0:0:0:0:
352,128,211866,1,8,0:0:0:0:
160,128,212024,1,0,0:0:0:0:
160,128,212103,1,0,0:0:0:0:
352,128,212182,1,8,0:0:0:0:
160,128,212340,1,0,0:0:0:0:
160,256,212498,1,4,0:0:0:0:
160,128,212656,1,0,0:0:0:0:
160,128,212735,1,0,0:0:0:0:
352,128,212814,1,8,0:0:0:0:
160,128,212972,1,0,0:0:0:0:
352,128,213287,1,8,0:0:0:0:
160,128,213445,1,0,0:0:0:0:
160,128,213524,1,0,0:0:0:0:
160,128,213603,1,0,0:0:0:0:
160,128,213682,1,0,0:0:0:0:
352,128,213761,1,8,0:0:0:0:
160,128,213919,1,0,0:0:0:0:
160,256,214077,1,4,0:0:0:0:
160,128,214235,1,0,0:0:0:0:
352,128,214551,1,8,0:0:0:0:
352,128,214630,1,8,0:0:0:0:
160,128,214709,1,0,0:0:0:0:
160,128,214866,1,0,0:0:0:0:
352,128,215024,1,8,0:0:0:0:
352,128,215103,1,8,0:0:0:0:
160,128,215182,1,0,0:0:0:0:
160,128,215261,1,0,0:0:0:0:
352,128,215340,1,8,0:0:0:0:
160,128,215498,1,0,0:0:0:0:
352,256,215656,1,12,0:0:0:0:
160,128,215814,1,0,0:0:0:0:
160,128,215893,1,0,0:0:0:0:
352,128,215972,1,8,0:0:0:0:
160,128,216130,1,0,0:0:0:0:
160,128,216209,1,0,0:0:0:0:
352,128,216287,1,8,0:0:0:0:
160,128,216445,1,0,0:0:0:0:
160,128,216524,1,0,0:0:0:0:
352,128,216603,1,8,0:0:0:0:
160,128,216682,1,0,0:0:0:0:
160,128,216761,1,0,0:0:0:0:
160,128,216840,1,0,0:0:0:0:
352,128,216919,1,8,0:0:0:0:
352,128,217077,1,8,0:0:0:0:
160,256,217235,1,4,0:0:0:0:
160,128,217393,1,0,0:0:0:0:
160,128,217472,1,0,0:0:0:0:
352,128,217551,1,8,0:0:0:0:
352,128,217709,1,8,0:0:0:0:
160,128,217866,1,0,0:0:0:0:
160,128,218024,1,0,0:0:0:0:
160,128,218103,1,0,0:0:0:0:
352,128,218182,1,8,0:0:0:0:
160,128,218340,1,0,0:0:0:0:
352,128,218498,1,8,0:0:0:0:
352,128,218656,1,8,0:0:0:0:
352,128,218735,1,8,0:0:0:0:
160,128,218814,1,0,0:0:0:0:
160,128,218893,1,0,0:0:0:0:
160,128,218972,1,0,0:0:0:0:
352,128,219130,1,8,0:0:0:0:
160,128,219287,1,0,0:0:0:0:
160,128,219366,1,0,0:0:0:0:
352,128,219445,1,8,0:0:0:0:
160,128,219603,1,0,0:0:0:0:
160,128,219761,1,0,0:0:0:0:
160,128,219840,1,0,0:0:0:0:
160,128,219919,1,0,0:0:0:0:
160,128,219998,1,0,0:0:0:0:
352,128,220077,1,8,0:0:0:0:
160,128,220235,1,0,0:0:0:0:
160,256,220393,1,4,0:0:0:0:
160,128,220551,1,0,0:0:0:0:
160,128,220630,1,0,0:0:0:0:
352,128,220709,1,8,0:0:0:0:
352,128,220866,1,8,0:0:0:0:
160,128,221024,1,0,0:0:0:0:
160,128,221182,1,0,0:0:0:0:
160,128,221261,1,0,0:0:0:0:
352,128,221340,1,8,0:0:0:0:
352,128,221419,1,8,0:0:0:0:
160,128,221498,1,0,0:0:0:0:
352,128,221656,1,8,0:0:0:0:
160,128,221814,1,0,0:0:0:0:
160,128,221893,1,0,0:0:0:0:
352,128,221972,1,8,0:0:0:0:
160,128,222051,1,0,0:0:0:0:
352,128,222130,1,8,0:0:0:0:
160,128,222287,1,0,0:0:0:0:
352,128,222445,1,8,0:0:0:0:
160,128,222524,1,0,0:0:0:0:
352,128,222603,1,8,0:0:0:0:
352,128,222682,1,8,0:0:0:0:
160,128,222761,1,0,0:0:0:0:
160,128,222840,1,0,0:0:0:0:
352,128,222919,1,8,0:0:0:0:
160,128,222998,1,0,0:0:0:0:
160,128,223077,1,0,0:0:0:0:
160,128,223156,1,0,0:0:0:0:
352,128,223235,1,8,0:0:0:0:
352,128,223393,1,8,0:0:0:0:
160,256,223551,1,4,0:0:0:0:
160,128,223709,1,0,0:0:0:0:
160,128,223787,1,0,0:0:0:0:
352,128,223866,1,8,0:0:0:0:
352,128,224024,1,8,0:0:0:0:
160,128,224182,1,0,0:0:0:0:
160,128,224340,1,0,0:0:0:0:
160,128,224419,1,0,0:0:0:0:
352,128,224498,1,8,0:0:0:0:
160,128,224656,1,0,0:0:0:0:
352,128,224814,1,8,0:0:0:0:
352,128,224972,1,8,0:0:0:0:
352,128,225051,1,8,0:0:0:0:
160,128,225130,1,0,0:0:0:0:
160,128,225209,1,0,0:0:0:0:
160,128,225287,1,0,0:0:0:0:
352,128,225445,1,8,0:0:0:0:
160,128,225603,1,0,0:0:0:0:
160,128,225682,1,0,0:0:0:0:
352,128,225761,1,8,0:0:0:0:
160,128,225919,1,0,0:0:0:0:
160,128,226077,1,0,0:0:0:0:
160,128,226156,1,0,0:0:0:0:
160,128,226235,1,0,0:0:0:0:
160,128,226314,1,0,0:0:0:0:
352,128,226393,1,8,0:0:0:0:
160,128,226551,1,0,0:0:0:0:
160,256,226709,1,4,0:0:0:0:
160,128,226866,1,0,0:0:0:0:
160,128,226945,1,0,0:0:0:0:
352,128,227024,1,8,0:0:0:0:
352,128,227182,1,8,0:0:0:0:
160,128,227340,1,0,0:0:0:0:
160,128,227498,1,0,0:0:0:0:
160,128,227577,1,0,0:0:0:0:
352,128,227656,1,8,0:0:0:0:
352,128,227735,1,8,0:0:0:0:
160,128,227814,1,0,0:0:0:0:
352,128,227972,1,8,0:0:0:0:
160,128,228130,1,0,0:0:0:0:
160,128,228209,1,0,0:0:0:0:
352,128,228287,1,8,0:0:0:0:
160,128,228366,1,0,0:0:0:0:
352,128,228445,1,8,0:0:0:0:
160,128,228603,1,0,0:0:0:0:
352,128,228761,1,8,0:0:0:0:
160,128,228840,1,0,0:0:0:0:
352,128,228919,1,8,0:0:0:0:
352,128,228998,1,8,0:0:0:0:
160,128,229077,1,0,0:0:0:0:
160,128,229156,1,0,0:0:0:0:
352,128,229235,1,8,0:0:0:0:
352,128,229314,1,8,0:0:0:0:
352,128,229393,1,8,0:0:0:0:
352,128,229472,1,8,0:0:0:0:
352,128,229551,1,8,0:0:0:0:
352,128,229630,1,8,0:0:0:0:
352,128,229709,1,8,0:0:0:0:
352,128,229787,1,8,0:0:0:0:
160,256,229866,1,4,0:0:0:0:
160,256,230182,1,4,0:0:0:0:
352,128,230340,1,8,0:0:0:0:
160,128,230498,1,0,0:0:0:0:
160,128,230656,1,0,0:0:0:0:
352,256,230814,1,12,0:0:0:0:
160,128,231130,1,0,0:0:0:0:
160,256,231445,1,4,0:0:0:0:
160,256,231761,1,4,0:0:0:0:
352,128,231919,1,8,0:0:0:0:
160,128,232077,1,0,0:0:0:0:
160,128,232235,1,0,0:0:0:0:
352,128,232393,1,8,0:0:0:0:
160,128,232551,1,0,0:0:0:0:
352,128,232709,1,8,0:0:0:0:
352,128,232866,1,8,0:0:0:0:
160,256,233024,1,4,0:0:0:0:
160,256,233340,1,4,0:0:0:0:
352,128,233498,1,8,0:0:0:0:
160,128,233656,1,0,0:0:0:0:
160,128,233814,1,0,0:0:0:0:
352,256,233972,1,12,0:0:0:0:
160,128,234287,1,0,0:0:0:0:
160,256,234603,1,4,0:0:0:0:
160,256,234919,1,4,0:0:0:0:
352,128,235077,1,8,0:0:0:0:
160,128,235235,1,0,0:0:0:0:
160,128,235393,1,0,0:0:0:0:
352,128,235551,1,8,0:0:0:0:
160,128,235709,1,0,0:0:0:0:
160,128,235787,1,0,0:0:0:0:
352,128,235866,1,8,0:0:0:0:
352,128,236024,1,8,0:0:0:0:
160,256,236182,1,4,0:0:0:0:
160,256,236498,1,4,0:0:0:0:
352,128,236656,1,8,0:0:0:0:
160,128,236814,1,0,0:0:0:0:
160,128,236972,1,0,0:0:0:0:
352,256,237130,1,12,0:0:0:0:
160,128,237445,1,0,0:0:0:0:
160,256,237761,1,4,0:0:0:0:
160,256,238077,1,4,0:0:0:0:
352,128,238235,1,8,0:0:0:0:
160,128,238393,1,0,0:0:0:0:
160,128,238551,1,0,0:0:0:0:
352,128,238709,1,8,0:0:0:0:
160,128,238866,1,0,0:0:0:0:
352,128,239024,1,8,0:0:0:0:
352,128,239182,1,8,0:0:0:0:
160,256,239340,1,4,0:0:0:0:
160,128,239656,1,0,0:0:0:0:
352,128,239814,1,8,0:0:0:0:
160,128,239972,1,0,0:0:0:0:
160,128,240130,1,0,0:0:0:0:
352,128,240287,1,8,0:0:0:0:
160,128,240603,1,0,0:0:0:0:
160,128,240919,1,0,0:0:0:0:
160,128,241235,1,0,0:0:0:0:
352,128,241393,1,8,0:0:0:0:
352,128,241551,1,8,0:0:0:0:
352,128,241630,1,8,0:0:0:0:
160,128,241709,1,0,0:0:0:0:
160,128,241787,1,0,0:0:0:0:
352,128,241866,1,8,0:0:0:0:
160,128,241945,1,0,0:0:0:0:
160,128,242024,1,0,0:0:0:0:
160,128,242103,1,0,0:0:0:0:
352,128,242182,1,8,0:0:0:0:
352,128,242340,1,8,0:0:0:0:
160,256,242498,1,4,0:0:0:0:
352,128,243129,1,8,0:0:0:0:
160,256,243445,1,4,0:0:0:0:
352,128,243761,1,8,0:0:0:0:
352,128,243919,1,8,0:0:0:0:
352,128,244076,1,8,0:0:0:0:
352,128,244234,1,8,0:0:0:0:
160,256,244392,1,4,0:0:0:0:
352,128,244708,1,8,0:0:0:0:
160,128,244866,1,0,0:0:0:0:
352,128,245024,1,8,0:0:0:0:
160,128,245182,1,0,0:0:0:0:
160,128,245261,1,0,0:0:0:0:
352,128,245340,1,8,0:0:0:0:
160,128,245498,1,0,0:0:0:0:
352,128,245655,1,8,0:0:0:0:
160,128,245813,1,0,0:0:0:0:
160,128,245892,1,0,0:0:0:0:
352,128,245971,1,8,0:0:0:0:
352,128,246129,1,8,0:0:0:0:
160,256,246287,1,4,0:0:0:0:
352,128,246603,1,8,0:0:0:0:
352,128,246919,1,8,0:0:0:0:
160,256,247234,1,4,0:0:0:0:
352,128,247550,1,8,0:0:0:0:
352,128,247866,1,8,0:0:0:0:
160,256,248182,1,4,0:0:0:0:
352,128,248498,1,8,0:0:0:0:
352,128,248813,1,8,0:0:0:0:
160,128,248971,1,0,0:0:0:0:
160,128,249050,1,0,0:0:0:0:
352,128,249129,1,8,0:0:0:0:
352,128,249208,1,8,0:0:0:0:
160,128,249287,1,0,0:0:0:0:
160,128,249366,1,0,0:0:0:0:
352,128,249445,1,8,0:0:0:0:
352,128,249524,1,8,0:0:0:0:
160,128,249603,1,0,0:0:0:0:
160,128,249682,1,0,0:0:0:0:
352,128,249761,1,8,0:0:0:0:
352,128,249919,1,8,0:0:0:0:
